  0
SECTION
  2
HEADER
  9
$ACADVER
  1
AC1015
  9
$ACADMAINTVER
 70
    20
  9
$DWGCODEPAGE
  3
ANSI_949
  9
$INSBASE
 10
0.0
 20
0.0
 30
0.0
  9
$EXTMIN
 10
7.130967561973105
 20
1.123780227351931
 30
0.0
  9
$EXTMAX
 10
422.90471079358
 20
226.9664490832623
 30
0.0
  9
$LIMMIN
 10
0.0
 20
0.0
  9
$LIMMAX
 10
420.0
 20
297.0
  9
$ORTHOMODE
 70
     0
  9
$REGENMODE
 70
     1
  9
$FILLMODE
 70
     1
  9
$QTEXTMODE
 70
     0
  9
$MIRRTEXT
 70
     1
  9
$LTSCALE
 40
10.0
  9
$ATTMODE
 70
     1
  9
$TEXTSIZE
 40
3.149999999999999
  9
$TRACEWID
 40
0.05
  9
$TEXTSTYLE
  7
H
  9
$CLAYER
  8
0
  9
$CELTYPE
  6
BYLAYER
  9
$CECOLOR
 62
   256
  9
$CELTSCALE
 40
1.0
  9
$DISPSILH
 70
     0
  9
$DIMSCALE
 40
1.5
  9
$DIMASZ
 40
2.5
  9
$DIMEXO
 40
0.8
  9
$DIMDLI
 40
0.8
  9
$DIMRND
 40
0.0
  9
$DIMDLE
 40
0.0
  9
$DIMEXE
 40
0.8
  9
$DIMTP
 40
0.0
  9
$DIMTM
 40
0.0
  9
$DIMTXT
 40
3.0
  9
$DIMCEN
 40
-1.0
  9
$DIMTSZ
 40
0.0
  9
$DIMTOL
 70
     0
  9
$DIMLIM
 70
     0
  9
$DIMTIH
 70
     0
  9
$DIMTOH
 70
     0
  9
$DIMSE1
 70
     0
  9
$DIMSE2
 70
     0
  9
$DIMTAD
 70
     3
  9
$DIMZIN
 70
     8
  9
$DIMBLK
  1

  9
$DIMASO
 70
     1
  9
$DIMSHO
 70
     1
  9
$DIMPOST
  1

  9
$DIMAPOST
  1

  9
$DIMALT
 70
     0
  9
$DIMALTD
 70
     2
  9
$DIMALTF
 40
25.4
  9
$DIMLFAC
 40
1.0
  9
$DIMTOFL
 70
     1
  9
$DIMTVP
 40
0.0
  9
$DIMTIX
 70
     0
  9
$DIMSOXD
 70
     0
  9
$DIMSAH
 70
     0
  9
$DIMBLK1
  1

  9
$DIMBLK2
  1

  9
$DIMSTYLE
  2
STANDARD
  9
$DIMCLRD
 70
   115
  9
$DIMCLRE
 70
   115
  9
$DIMCLRT
 70
     7
  9
$DIMTFAC
 40
1.0
  9
$DIMGAP
 40
1.0
  9
$DIMJUST
 70
     0
  9
$DIMSD1
 70
     0
  9
$DIMSD2
 70
     0
  9
$DIMTOLJ
 70
     1
  9
$DIMTZIN
 70
     0
  9
$DIMALTZ
 70
     0
  9
$DIMALTTZ
 70
     0
  9
$DIMUPT
 70
     0
  9
$DIMDEC
 70
     3
  9
$DIMTDEC
 70
     4
  9
$DIMALTU
 70
     2
  9
$DIMALTTD
 70
     2
  9
$DIMTXSTY
  7
STANDARD
  9
$DIMAUNIT
 70
     0
  9
$DIMADEC
 70
     0
  9
$DIMALTRND
 40
0.0
  9
$DIMAZIN
 70
     0
  9
$DIMDSEP
 70
    46
  9
$DIMATFIT
 70
     3
  9
$DIMFRAC
 70
     0
  9
$DIMLDRBLK
  1

  9
$DIMLUNIT
 70
     2
  9
$DIMLWD
 70
    -2
  9
$DIMLWE
 70
    -2
  9
$DIMTMOVE
 70
     0
  9
$LUNITS
 70
     2
  9
$LUPREC
 70
     4
  9
$SKETCHINC
 40
0.1
  9
$FILLETRAD
 40
0.5
  9
$AUNITS
 70
     0
  9
$AUPREC
 70
     0
  9
$MENU
  1
.
  9
$ELEVATION
 40
0.0
  9
$PELEVATION
 40
0.0
  9
$THICKNESS
 40
0.0
  9
$LIMCHECK
 70
     0
  9
$CHAMFERA
 40
0.5
  9
$CHAMFERB
 40
0.5
  9
$CHAMFERC
 40
1.0
  9
$CHAMFERD
 40
0.0
  9
$SKPOLY
 70
     1
  9
$TDCREATE
 40
2452464.575009942
  9
$TDUCREATE
 40
2452464.200009942
  9
$TDUPDATE
 40
2455643.496959757
  9
$TDUUPDATE
 40
2455643.121959757
  9
$TDINDWG
 40
0.7888862384
  9
$TDUSRTIMER
 40
0.7888860648
  9
$USRTIMER
 70
     1
  9
$ANGBASE
 50
0.0
  9
$ANGDIR
 70
     0
  9
$PDMODE
 70
     0
  9
$PDSIZE
 40
0.0
  9
$PLINEWID
 40
0.5
  9
$SPLFRAME
 70
     0
  9
$SPLINETYPE
 70
     6
  9
$SPLINESEGS
 70
     8
  9
$HANDSEED
  5
4819
  9
$SURFTAB1
 70
     6
  9
$SURFTAB2
 70
     6
  9
$SURFTYPE
 70
     6
  9
$SURFU
 70
     6
  9
$SURFV
 70
     6
  9
$UCSBASE
  2

  9
$UCSNAME
  2

  9
$UCSORG
 10
0.0
 20
0.0
 30
0.0
  9
$UCSXDIR
 10
1.0
 20
0.0
 30
0.0
  9
$UCSYDIR
 10
0.0
 20
1.0
 30
0.0
  9
$UCSORTHOREF
  2

  9
$UCSORTHOVIEW
 70
     0
  9
$UCSORGTOP
 10
0.0
 20
0.0
 30
0.0
  9
$UCSORGBOTTOM
 10
0.0
 20
0.0
 30
0.0
  9
$UCSORGLEFT
 10
0.0
 20
0.0
 30
0.0
  9
$UCSORGRIGHT
 10
0.0
 20
0.0
 30
0.0
  9
$UCSORGFRONT
 10
0.0
 20
0.0
 30
0.0
  9
$UCSORGBACK
 10
0.0
 20
0.0
 30
0.0
  9
$PUCSBASE
  2

  9
$PUCSNAME
  2

  9
$PUCSORG
 10
0.0
 20
0.0
 30
0.0
  9
$PUCSXDIR
 10
1.0
 20
0.0
 30
0.0
  9
$PUCSYDIR
 10
0.0
 20
1.0
 30
0.0
  9
$PUCSORTHOREF
  2

  9
$PUCSORTHOVIEW
 70
     0
  9
$PUCSORGTOP
 10
0.0
 20
0.0
 30
0.0
  9
$PUCSORGBOTTOM
 10
0.0
 20
0.0
 30
0.0
  9
$PUCSORGLEFT
 10
0.0
 20
0.0
 30
0.0
  9
$PUCSORGRIGHT
 10
0.0
 20
0.0
 30
0.0
  9
$PUCSORGFRONT
 10
0.0
 20
0.0
 30
0.0
  9
$PUCSORGBACK
 10
0.0
 20
0.0
 30
0.0
  9
$USERI1
 70
     0
  9
$USERI2
 70
   452
  9
$USERI3
 70
     1
  9
$USERI4
 70
     0
  9
$USERI5
 70
     0
  9
$USERR1
 40
0.0
  9
$USERR2
 40
0.0
  9
$USERR3
 40
0.0
  9
$USERR4
 40
0.0
  9
$USERR5
 40
0.0
  9
$WORLDVIEW
 70
     1
  9
$SHADEDGE
 70
     3
  9
$SHADEDIF
 70
    70
  9
$TILEMODE
 70
     1
  9
$MAXACTVP
 70
    48
  9
$PINSBASE
 10
0.0
 20
0.0
 30
0.0
  9
$PLIMCHECK
 70
     0
  9
$PEXTMIN
 10
1.000000000000000E+20
 20
1.000000000000000E+20
 30
1.000000000000000E+20
  9
$PEXTMAX
 10
-1.000000000000000E+20
 20
-1.000000000000000E+20
 30
-1.000000000000000E+20
  9
$PLIMMIN
 10
0.0
 20
0.0
  9
$PLIMMAX
 10
12.0
 20
9.0
  9
$UNITMODE
 70
     0
  9
$VISRETAIN
 70
     1
  9
$PLINEGEN
 70
     0
  9
$PSLTSCALE
 70
     1
  9
$TREEDEPTH
 70
  3020
  9
$CMLSTYLE
  2
STANDARD
  9
$CMLJUST
 70
     0
  9
$CMLSCALE
 40
1.0
  9
$PROXYGRAPHICS
 70
     1
  9
$MEASUREMENT
 70
     0
  9
$CELWEIGHT
370
    -1
  9
$ENDCAPS
280
     0
  9
$JOINSTYLE
280
     0
  9
$LWDISPLAY
290
     0
  9
$INSUNITS
 70
     0
  9
$HYPERLINKBASE
  1

  9
$STYLESHEET
  1
1.CTB
  9
$XEDIT
290
     1
  9
$CEPSNTYPE
380
     0
  9
$PSTYLEMODE
290
     1
  9
$FINGERPRINTGUID
  2
{3172CC46-24FC-4775-9257-50F4EA4939B8}
  9
$VERSIONGUID
  2
{FDBE3FE7-3F20-4A46-B641-62659293980B}
  9
$EXTNAMES
290
     1
  9
$PSVPSCALE
 40
0.0
  9
$OLESTARTUP
290
     0
  0
ENDSEC
  0
SECTION
  2
CLASSES
  0
CLASS
  1
DICTIONARYVAR
  2
AcDbDictionaryVar
  3
ObjectDBX Classes
 90
        0
280
     0
281
     0
  0
CLASS
  1
ACDBDICTIONARYWDFLT
  2
AcDbDictionaryWithDefault
  3
ObjectDBX Classes
 90
        0
280
     0
281
     0
  0
CLASS
  1
ACDBPLACEHOLDER
  2
AcDbPlaceHolder
  3
ObjectDBX Classes
 90
        0
280
     0
281
     0
  0
CLASS
  1
LAYOUT
  2
AcDbLayout
  3
ObjectDBX Classes
 90
        0
280
     0
281
     0
  0
CLASS
  1
TABLESTYLE
  2
AcDbTableStyle
  3
ObjectDBX Classes
 90
     4095
280
     0
281
     0
  0
CLASS
  1
MATERIAL
  2
AcDbMaterial
  3
ObjectDBX Classes
 90
     1153
280
     0
281
     0
  0
CLASS
  1
VISUALSTYLE
  2
AcDbVisualStyle
  3
ObjectDBX Classes
 90
     4095
280
     0
281
     0
  0
CLASS
  1
SCALE
  2
AcDbScale
  3
ObjectDBX Classes
 90
     1153
280
     0
281
     0
  0
CLASS
  1
MLEADERSTYLE
  2
AcDbMLeaderStyle
  3
ACDB_MLEADERSTYLE_CLASS
 90
     4095
280
     0
281
     0
  0
CLASS
  1
CELLSTYLEMAP
  2
AcDbCellStyleMap
  3
ObjectDBX Classes
 90
     1152
280
     0
281
     0
  0
ENDSEC
  0
SECTION
  2
TABLES
  0
TABLE
  2
VPORT
  5
8
330
0
100
AcDbSymbolTable
 70
     1
  0
VPORT
  5
4796
330
8
100
AcDbSymbolTableRecord
100
AcDbViewportTableRecord
  2
*Active
 70
     0
 10
0.0
 20
0.0
 11
1.0
 21
1.0
 12
230.8374532827996
 22
122.7221821510992
 13
0.0
 23
0.0
 14
0.5
 24
0.5
 15
0.5
 25
0.5
 16
0.0
 26
0.0
 36
1.0
 17
0.0
 27
0.0
 37
0.0
 40
235.3883589407558
 41
2.336349924585218
 42
50.0
 43
0.0
 44
0.0
 50
0.0
 51
0.0
 71
     0
 72
   100
 73
     1
 74
     1
 75
     0
 76
     0
 77
     0
 78
     0
281
     0
 65
     1
110
0.0
120
0.0
130
0.0
111
1.0
121
0.0
131
0.0
112
0.0
122
1.0
132
0.0
 79
     0
146
0.0
  0
ENDTAB
  0
TABLE
  2
LTYPE
  5
5
330
0
100
AcDbSymbolTable
 70
     9
  0
LTYPE
  5
13
330
5
100
AcDbSymbolTableRecord
100
AcDbLinetypeTableRecord
  2
BYBLOCK
 70
     0
  3

 72
    65
 73
     0
 40
0.0
  0
LTYPE
  5
14
330
5
100
AcDbSymbolTableRecord
100
AcDbLinetypeTableRecord
  2
BYLAYER
 70
     0
  3

 72
    65
 73
     0
 40
0.0
  0
LTYPE
  5
15
330
5
100
AcDbSymbolTableRecord
100
AcDbLinetypeTableRecord
  2
CONTINUOUS
 70
     0
  3
Solid line
 72
    65
 73
     0
 40
0.0
  0
LTYPE
  5
5D
330
5
100
AcDbSymbolTableRecord
100
AcDbLinetypeTableRecord
  2
CENTER
 70
     0
  3
Center ____ _ ____ _ ____ _ ____ _ ____ _ ____
 72
    65
 73
     4
 40
2.0
 49
1.25
 74
     0
 49
-0.25
 74
     0
 49
0.25
 74
     0
 49
-0.25
 74
     0
  0
LTYPE
  5
5E
330
5
100
AcDbSymbolTableRecord
100
AcDbLinetypeTableRecord
  2
HIDDEN
 70
     0
  3
Hidden __ __ __ __ __ __ __ __ __ __ __ __ __ _
 72
    65
 73
     2
 40
0.375
 49
0.25
 74
     0
 49
-0.125
 74
     0
  0
LTYPE
  5
2ACA
330
5
100
AcDbSymbolTableRecord
100
AcDbLinetypeTableRecord
  2
2
 70
     0
  3
MEDUSA PEN 2
 72
    65
 73
     4
 40
15.1
 49
9.5
 74
     0
 49
-1.6
 74
     0
 49
2.399999999999999
 74
     0
 49
-1.6
 74
     0
  0
ENDTAB
  0
TABLE
  2
LAYER
  5
2
330
0
100
AcDbSymbolTable
 70
    37
  0
LAYER
  5
F
102
{ACAD_XDICTIONARY
360
47FC
102
}
330
2
100
AcDbSymbolTableRecord
100
AcDbLayerTableRecord
  2
0
 70
     0
 62
     7
  6
CONTINUOUS
370
    -3
390
4154
  0
LAYER
  5
55
102
{ACAD_XDICTIONARY
360
47FE
102
}
330
2
100
AcDbSymbolTableRecord
100
AcDbLayerTableRecord
  2
9
 70
     0
 62
     3
  6
CONTINUOUS
370
    -3
390
4154
  0
LAYER
  5
61
102
{ACAD_XDICTIONARY
360
4800
102
}
330
2
100
AcDbSymbolTableRecord
100
AcDbLayerTableRecord
  2
1
 70
     0
 62
     1
  6
CENTER
370
    -3
390
4154
  0
LAYER
  5
62
102
{ACAD_XDICTIONARY
360
4802
102
}
330
2
100
AcDbSymbolTableRecord
100
AcDbLayerTableRecord
  2
2
 70
     0
 62
     2
  6
HIDDEN
370
    -3
390
4154
  0
LAYER
  5
24EF
330
2
100
AcDbSymbolTableRecord
100
AcDbLayerTableRecord
  2
DEFPOINTS
 70
     0
 62
     7
  6
CONTINUOUS
290
     0
370
    -3
390
4154
  0
LAYER
  5
2AD3
102
{ACAD_XDICTIONARY
360
4804
102
}
330
2
100
AcDbSymbolTableRecord
100
AcDbLayerTableRecord
  2
SL2-11
 70
     0
 62
     1
  6
2
370
    -3
390
4154
  0
ENDTAB
  0
TABLE
  2
STYLE
  5
3
330
0
100
AcDbSymbolTable
 70
     7
  0
STYLE
  5
10
330
3
100
AcDbSymbolTableRecord
100
AcDbTextStyleTableRecord
  2
STANDARD
 70
     0
 40
0.0
 41
1.0
 50
0.0
 71
     0
 42
3.0
  3
romans.shx
  4

  0
STYLE
  5
167
330
3
100
AcDbSymbolTableRecord
100
AcDbTextStyleTableRecord
  2
STYLE1
 70
     0
 40
0.0
 41
1.0
 50
0.0
 71
     0
 42
3.149999999999999
  3
Gulim.ttf
  4

1001
ACAD
1000
Gulim
1071
    33074
  0
STYLE
  5
2AD7
330
3
100
AcDbSymbolTableRecord
100
AcDbTextStyleTableRecord
  2
T2
 70
     0
 40
0.0
 41
1.0
 50
0.1
 71
     0
 42
3.5
  3
monotxt
  4

  0
STYLE
  5
4793
330
3
100
AcDbSymbolTableRecord
100
AcDbTextStyleTableRecord
  2
H
 70
     0
 40
0.0
 41
1.0
 50
0.0
 71
     0
 42
3.149999999999999
  3
txt.shx
  4

  0
ENDTAB
  0
TABLE
  2
VIEW
  5
6
330
0
100
AcDbSymbolTable
 70
     0
  0
ENDTAB
  0
TABLE
  2
UCS
  5
7
330
0
100
AcDbSymbolTable
 70
     0
  0
ENDTAB
  0
TABLE
  2
APPID
  5
9
330
0
100
AcDbSymbolTable
 70
     4
  0
APPID
  5
11
330
9
100
AcDbSymbolTableRecord
100
AcDbRegAppTableRecord
  2
ACAD
 70
     0
  0
APPID
  5
2325
330
9
100
AcDbSymbolTableRecord
100
AcDbRegAppTableRecord
  2
MCLBOMATTRIB
 70
     0
  0
APPID
  5
2326
330
9
100
AcDbSymbolTableRecord
100
AcDbRegAppTableRecord
  2
MCLBOM
 70
     0
  0
APPID
  5
47EF
330
9
100
AcDbSymbolTableRecord
100
AcDbRegAppTableRecord
  2
ACAD_MLEADERVER
 70
     0
  0
ENDTAB
  0
TABLE
  2
DIMSTYLE
  5
A
330
0
100
AcDbSymbolTable
 70
     2
100
AcDbDimStyleTable
 71
     1
340
1D
  0
DIMSTYLE
105
1D
102
{ACAD_REACTORS
330
469A
330
46FE
330
470B
330
4718
330
4725
330
4732
330
4752
330
475E
330
476D
102
}
330
A
100
AcDbSymbolTableRecord
100
AcDbDimStyleTableRecord
  2
STANDARD
 70
     0
 41
2.0
140
3.0
176
     2
177
     2
178
     4
340
10
  0
ENDTAB
  0
TABLE
  2
BLOCK_RECORD
  5
1
330
0
100
AcDbSymbolTable
 70
    38
  0
BLOCK_RECORD
  5
19
330
1
100
AcDbSymbolTableRecord
100
AcDbBlockTableRecord
  2
*MODEL_SPACE
340
4157
  0
BLOCK_RECORD
  5
16
330
1
100
AcDbSymbolTableRecord
100
AcDbBlockTableRecord
  2
*PAPER_SPACE
340
4158
  0
BLOCK_RECORD
  5
1B8B
330
1
100
AcDbSymbolTableRecord
100
AcDbBlockTableRecord
  2
MCLBOMATTRIB
340
0
102
{BLKREFS
331
247E
331
238D
102
}
  0
BLOCK_RECORD
  5
469B
330
1
100
AcDbSymbolTableRecord
100
AcDbBlockTableRecord
  2
*D29
340
0
  0
BLOCK_RECORD
  5
46FF
330
1
100
AcDbSymbolTableRecord
100
AcDbBlockTableRecord
  2
*D30
340
0
  0
BLOCK_RECORD
  5
470C
330
1
100
AcDbSymbolTableRecord
100
AcDbBlockTableRecord
  2
*D31
340
0
  0
BLOCK_RECORD
  5
4719
330
1
100
AcDbSymbolTableRecord
100
AcDbBlockTableRecord
  2
*D32
340
0
  0
BLOCK_RECORD
  5
4726
330
1
100
AcDbSymbolTableRecord
100
AcDbBlockTableRecord
  2
*D33
340
0
  0
BLOCK_RECORD
  5
4733
330
1
100
AcDbSymbolTableRecord
100
AcDbBlockTableRecord
  2
*D34
340
0
  0
BLOCK_RECORD
  5
4753
330
1
100
AcDbSymbolTableRecord
100
AcDbBlockTableRecord
  2
*D35
340
0
  0
BLOCK_RECORD
  5
475F
330
1
100
AcDbSymbolTableRecord
100
AcDbBlockTableRecord
  2
*D36
340
0
  0
BLOCK_RECORD
  5
476E
330
1
100
AcDbSymbolTableRecord
100
AcDbBlockTableRecord
  2
*D37
340
0
  0
ENDTAB
  0
ENDSEC
  0
SECTION
  2
BLOCKS
  0
BLOCK
  5
1A
330
19
100
AcDbEntity
  8
0
100
AcDbBlockBegin
  2
*MODEL_SPACE
 70
     0
 10
0.0
 20
0.0
 30
0.0
  3
*MODEL_SPACE
  1

  0
ENDBLK
  5
1B
330
19
100
AcDbEntity
  8
0
100
AcDbBlockEnd
  0
BLOCK
  5
17
330
16
100
AcDbEntity
 67
     1
  8
0
100
AcDbBlockBegin
  2
*PAPER_SPACE
 70
     0
 10
0.0
 20
0.0
 30
0.0
  3
*PAPER_SPACE
  1

  0
ENDBLK
  5
18
330
16
100
AcDbEntity
 67
     1
  8
0
100
AcDbBlockEnd
  0
BLOCK
  5
1B8C
330
1B8B
100
AcDbEntity
  8
0
100
AcDbBlockBegin
  2
MCLBOMATTRIB
 70
     2
 10
0.0
 20
0.0
 30
0.0
  3
MCLBOMATTRIB
  1
MCLBOMATTRIB
  0
ENDBLK
  5
1B8D
330
1B8B
100
AcDbEntity
  8
0
100
AcDbBlockEnd
  0
BLOCK
  5
46A5
330
469B
100
AcDbEntity
  8
0
100
AcDbBlockBegin
  2
*D29
 70
     1
 10
0.0
 20
0.0
 30
0.0
  3
*D29
  1

  0
LINE
  5
469C
330
469B
100
AcDbEntity
  8
0
 62
   115
370
    -2
100
AcDbLine
 10
406.2602951230653
 20
125.1434262345638
 30
0.0
 11
422.9047107935798
 21
125.1434262345637
 31
0.0
  0
LINE
  5
469D
330
469B
100
AcDbEntity
  8
0
 62
   115
370
    -2
100
AcDbLine
 10
406.2602951230655
 20
164.7434262345639
 30
0.0
 11
422.90471079358
 21
164.7434262345639
 31
0.0
  0
LINE
  5
469E
330
469B
100
AcDbEntity
  8
0
 62
   115
370
    -2
100
AcDbLine
 10
421.70471079358
 20
128.8934262345637
 30
0.0
 11
421.70471079358
 21
160.9934262345639
 31
0.0
  0
SOLID
  5
469F
330
469B
100
AcDbEntity
  8
0
 62
   115
100
AcDbTrace
 10
421.07971079358
 20
128.8934262345637
 30
0.0
 11
422.32971079358
 21
128.8934262345637
 31
0.0
 12
421.7047107935798
 22
125.1434262345637
 32
0.0
 13
421.7047107935798
 23
125.1434262345637
 33
0.0
  0
SOLID
  5
46A0
330
469B
100
AcDbEntity
  8
0
 62
   115
100
AcDbTrace
 10
421.07971079358
 20
160.9934262345639
 30
0.0
 11
422.32971079358
 21
160.9934262345639
 31
0.0
 12
421.70471079358
 22
164.7434262345639
 32
0.0
 13
421.70471079358
 23
164.7434262345639
 33
0.0
  0
MTEXT
  5
46A1
330
469B
100
AcDbEntity
  8
0
 62
     7
100
AcDbMText
 10
417.95471079358
 20
144.9434262345638
 30
0.0
 40
4.5
 41
0.0
 71
     5
 72
     1
  1
\A1;%%c39.6
 11
0.0000000000000001
 21
1.0
 31
0.0
 73
     1
 44
1.0
1001
ACAD
1000
MTEXTBEGIN
1070
    73
1070
     1
1070
    44
1040
1.0
1070
    74
1070
     0
1000
MTEXTEND
  0
POINT
  5
46A2
330
469B
100
AcDbEntity
  8
DEFPOINTS
 62
     0
100
AcDbPoint
 10
405.0602951230652
 20
125.1434262345638
 30
0.0
  0
POINT
  5
46A3
330
469B
100
AcDbEntity
  8
DEFPOINTS
 62
     0
100
AcDbPoint
 10
405.0602951230652
 20
164.7434262345639
 30
0.0
  0
POINT
  5
46A4
330
469B
100
AcDbEntity
  8
DEFPOINTS
 62
     0
100
AcDbPoint
 10
421.70471079358
 20
164.7434262345639
 30
0.0
  0
ENDBLK
  5
46A6
330
469B
100
AcDbEntity
  8
0
100
AcDbBlockEnd
  0
BLOCK
  5
4709
330
46FF
100
AcDbEntity
  8
0
100
AcDbBlockBegin
  2
*D30
 70
     1
 10
0.0
 20
0.0
 30
0.0
  3
*D30
  1

  0
LINE
  5
4700
330
46FF
100
AcDbEntity
  8
0
 62
   115
370
    -2
100
AcDbLine
 10
269.9995507253033
 20
86.24342623456382
 30
0.0
 11
269.9995507253033
 21
73.05497130852136
 31
0.0
  0
LINE
  5
4701
330
46FF
100
AcDbEntity
  8
0
 62
   115
370
    -2
100
AcDbLine
 10
286.9995507253033
 20
86.24342623456376
 30
0.0
 11
286.9995507253033
 21
73.05497130852136
 31
0.0
  0
LINE
  5
4702
330
46FF
100
AcDbEntity
  8
0
 62
   115
370
    -2
100
AcDbLine
 10
273.7495507253033
 20
74.25497130852136
 30
0.0
 11
283.2495507253033
 21
74.25497130852136
 31
0.0
  0
SOLID
  5
4703
330
46FF
100
AcDbEntity
  8
0
 62
   115
100
AcDbTrace
 10
273.7495507253033
 20
74.87997130852136
 30
0.0
 11
273.7495507253033
 21
73.62997130852136
 31
0.0
 12
269.9995507253033
 22
74.25497130852136
 32
0.0
 13
269.9995507253033
 23
74.25497130852136
 33
0.0
  0
SOLID
  5
4704
330
46FF
100
AcDbEntity
  8
0
 62
   115
100
AcDbTrace
 10
283.2495507253033
 20
74.87997130852136
 30
0.0
 11
283.2495507253033
 21
73.62997130852136
 31
0.0
 12
286.9995507253033
 22
74.25497130852136
 32
0.0
 13
286.9995507253033
 23
74.25497130852136
 33
0.0
  0
MTEXT
  5
4705
330
46FF
100
AcDbEntity
  8
0
 62
     7
100
AcDbMText
 10
278.4995507253033
 20
78.00497130852136
 30
0.0
 40
4.5
 41
0.0
 71
     5
 72
     1
  1
\A1;17
 73
     1
 44
1.0
1001
ACAD
1000
MTEXTBEGIN
1070
    73
1070
     1
1070
    44
1040
1.0
1070
    74
1070
     0
1000
MTEXTEND
  0
POINT
  5
4706
330
46FF
100
AcDbEntity
  8
DEFPOINTS
 62
     0
100
AcDbPoint
 10
269.9995507253033
 20
87.44342623456381
 30
0.0
  0
POINT
  5
4707
330
46FF
100
AcDbEntity
  8
DEFPOINTS
 62
     0
100
AcDbPoint
 10
286.9995507253033
 20
87.44342623456377
 30
0.0
  0
POINT
  5
4708
330
46FF
100
AcDbEntity
  8
DEFPOINTS
 62
     0
100
AcDbPoint
 10
286.9995507253033
 20
74.25497130852136
 30
0.0
  0
ENDBLK
  5
470A
330
46FF
100
AcDbEntity
  8
0
100
AcDbBlockEnd
  0
BLOCK
  5
4716
330
470C
100
AcDbEntity
  8
0
100
AcDbBlockBegin
  2
*D31
 70
     1
 10
0.0
 20
0.0
 30
0.0
  3
*D31
  1

  0
LINE
  5
470D
330
470C
100
AcDbEntity
  8
0
 62
   115
370
    -2
100
AcDbLine
 10
286.9995507253033
 20
86.24342623456376
 30
0.0
 11
286.9995507253033
 21
73.05497130852136
 31
0.0
  0
LINE
  5
470E
330
470C
100
AcDbEntity
  8
0
 62
   115
370
    -2
100
AcDbLine
 10
362.9995507253032
 20
106.2434262345637
 30
0.0
 11
362.9995507253032
 21
73.05497130852136
 31
0.0
  0
LINE
  5
470F
330
470C
100
AcDbEntity
  8
0
 62
   115
370
    -2
100
AcDbLine
 10
290.7495507253033
 20
74.25497130852136
 30
0.0
 11
359.2495507253032
 21
74.25497130852136
 31
0.0
  0
SOLID
  5
4710
330
470C
100
AcDbEntity
  8
0
 62
   115
100
AcDbTrace
 10
290.7495507253033
 20
74.87997130852136
 30
0.0
 11
290.7495507253033
 21
73.62997130852136
 31
0.0
 12
286.9995507253033
 22
74.25497130852136
 32
0.0
 13
286.9995507253033
 23
74.25497130852136
 33
0.0
  0
SOLID
  5
4711
330
470C
100
AcDbEntity
  8
0
 62
   115
100
AcDbTrace
 10
359.2495507253032
 20
74.87997130852136
 30
0.0
 11
359.2495507253032
 21
73.62997130852136
 31
0.0
 12
362.9995507253032
 22
74.25497130852136
 32
0.0
 13
362.9995507253032
 23
74.25497130852136
 33
0.0
  0
MTEXT
  5
4712
330
470C
100
AcDbEntity
  8
0
 62
     7
100
AcDbMText
 10
324.9995507253033
 20
78.00497130852136
 30
0.0
 40
4.5
 41
0.0
 71
     5
 72
     1
  1
\A1;76
 73
     1
 44
1.0
1001
ACAD
1000
MTEXTBEGIN
1070
    73
1070
     1
1070
    44
1040
1.0
1070
    74
1070
     0
1000
MTEXTEND
  0
POINT
  5
4713
330
470C
100
AcDbEntity
  8
DEFPOINTS
 62
     0
100
AcDbPoint
 10
286.9995507253033
 20
87.44342623456377
 30
0.0
  0
POINT
  5
4714
330
470C
100
AcDbEntity
  8
DEFPOINTS
 62
     0
100
AcDbPoint
 10
362.9995507253032
 20
107.4434262345637
 30
0.0
  0
POINT
  5
4715
330
470C
100
AcDbEntity
  8
DEFPOINTS
 62
     0
100
AcDbPoint
 10
362.9995507253032
 20
74.25497130852136
 30
0.0
  0
ENDBLK
  5
4717
330
470C
100
AcDbEntity
  8
0
100
AcDbBlockEnd
  0
BLOCK
  5
4723
330
4719
100
AcDbEntity
  8
0
100
AcDbBlockBegin
  2
*D32
 70
     1
 10
0.0
 20
0.0
 30
0.0
  3
*D32
  1

  0
LINE
  5
471A
330
4719
100
AcDbEntity
  8
0
 62
   115
370
    -2
100
AcDbLine
 10
269.9995507253033
 20
71.85497130852136
 30
0.0
 11
269.9995507253033
 21
63.33031652076788
 31
0.0
  0
LINE
  5
471B
330
4719
100
AcDbEntity
  8
0
 62
   115
370
    -2
100
AcDbLine
 10
362.9995507253032
 20
71.85497130852136
 30
0.0
 11
362.9995507253032
 21
63.33031652076788
 31
0.0
  0
LINE
  5
471C
330
4719
100
AcDbEntity
  8
0
 62
   115
370
    -2
100
AcDbLine
 10
273.7495507253033
 20
64.53031652076788
 30
0.0
 11
359.2495507253032
 21
64.53031652076788
 31
0.0
  0
SOLID
  5
471D
330
4719
100
AcDbEntity
  8
0
 62
   115
100
AcDbTrace
 10
273.7495507253033
 20
65.15531652076788
 30
0.0
 11
273.7495507253033
 21
63.90531652076788
 31
0.0
 12
269.9995507253033
 22
64.53031652076788
 32
0.0
 13
269.9995507253033
 23
64.53031652076788
 33
0.0
  0
SOLID
  5
471E
330
4719
100
AcDbEntity
  8
0
 62
   115
100
AcDbTrace
 10
359.2495507253032
 20
65.15531652076788
 30
0.0
 11
359.2495507253032
 21
63.90531652076788
 31
0.0
 12
362.9995507253032
 22
64.53031652076788
 32
0.0
 13
362.9995507253032
 23
64.53031652076788
 33
0.0
  0
MTEXT
  5
471F
330
4719
100
AcDbEntity
  8
0
 62
     7
100
AcDbMText
 10
316.4995507253033
 20
68.28031652076788
 30
0.0
 40
4.5
 41
0.0
 71
     5
 72
     1
  1
\A1;93
 73
     1
 44
1.0
1001
ACAD
1000
MTEXTBEGIN
1070
    73
1070
     1
1070
    44
1040
1.0
1070
    74
1070
     0
1000
MTEXTEND
  0
POINT
  5
4720
330
4719
100
AcDbEntity
  8
DEFPOINTS
 62
     0
100
AcDbPoint
 10
269.9995507253033
 20
73.05497130852136
 30
0.0
  0
POINT
  5
4721
330
4719
100
AcDbEntity
  8
DEFPOINTS
 62
     0
100
AcDbPoint
 10
362.9995507253032
 20
73.05497130852136
 30
0.0
  0
POINT
  5
4722
330
4719
100
AcDbEntity
  8
DEFPOINTS
 62
     0
100
AcDbPoint
 10
362.9995507253032
 20
64.53031652076788
 30
0.0
  0
ENDBLK
  5
4724
330
4719
100
AcDbEntity
  8
0
100
AcDbBlockEnd
  0
BLOCK
  5
4730
330
4726
100
AcDbEntity
  8
0
100
AcDbBlockBegin
  2
*D33
 70
     1
 10
0.0
 20
0.0
 30
0.0
  3
*D33
  1

  0
LINE
  5
4727
330
4726
100
AcDbEntity
  8
0
 62
   115
370
    -2
100
AcDbLine
 10
363.6995507253032
 20
106.9434262345637
 30
0.0
 11
378.4859961786634
 21
106.9434262345637
 31
0.0
  0
LINE
  5
4728
330
4726
100
AcDbEntity
  8
0
 62
   115
370
    -2
100
AcDbLine
 10
363.6995507253029
 20
182.9434262345639
 30
0.0
 11
378.4859961786635
 21
182.9434262345639
 31
0.0
  0
LINE
  5
4729
330
4726
100
AcDbEntity
  8
0
 62
   115
370
    -2
100
AcDbLine
 10
377.2859961786634
 20
110.6934262345637
 30
0.0
 11
377.2859961786635
 21
179.1934262345638
 31
0.0
  0
SOLID
  5
472A
330
4726
100
AcDbEntity
  8
0
 62
   115
100
AcDbTrace
 10
376.6609961786634
 20
110.6934262345637
 30
0.0
 11
377.9109961786634
 21
110.6934262345637
 31
0.0
 12
377.2859961786634
 22
106.9434262345637
 32
0.0
 13
377.2859961786634
 23
106.9434262345637
 33
0.0
  0
SOLID
  5
472B
330
4726
100
AcDbEntity
  8
0
 62
   115
100
AcDbTrace
 10
376.6609961786635
 20
179.1934262345638
 30
0.0
 11
377.9109961786635
 21
179.1934262345638
 31
0.0
 12
377.2859961786635
 22
182.9434262345639
 32
0.0
 13
377.2859961786635
 23
182.9434262345639
 33
0.0
  0
MTEXT
  5
472C
330
4726
100
AcDbEntity
  8
0
 62
     7
100
AcDbMText
 10
372.7859961786634
 20
144.9434262345638
 30
0.0
 40
4.5
 41
0.0
 71
     5
 72
     1
  1
\A1;%%c76g6
 11
0.0000000000000001
 21
1.0
 31
0.0
 73
     1
 44
1.0
1001
ACAD
1000
MTEXTBEGIN
1070
    73
1070
     1
1070
    44
1040
1.0
1070
    74
1070
     0
1000
MTEXTEND
  0
POINT
  5
472D
330
4726
100
AcDbEntity
  8
DEFPOINTS
 62
     0
100
AcDbPoint
 10
362.4995507253032
 20
106.9434262345637
 30
0.0
  0
POINT
  5
472E
330
4726
100
AcDbEntity
  8
DEFPOINTS
 62
     0
100
AcDbPoint
 10
362.4995507253029
 20
182.9434262345639
 30
0.0
  0
POINT
  5
472F
330
4726
100
AcDbEntity
  8
DEFPOINTS
 62
     0
100
AcDbPoint
 10
377.2859961786635
 20
182.9434262345639
 30
0.0
  0
ENDBLK
  5
4731
330
4726
100
AcDbEntity
  8
0
100
AcDbBlockEnd
  0
BLOCK
  5
473D
330
4733
100
AcDbEntity
  8
0
100
AcDbBlockBegin
  2
*D34
 70
     1
 10
0.0
 20
0.0
 30
0.0
  3
*D34
  1

  0
LINE
  5
4734
330
4733
100
AcDbEntity
  8
0
 62
   115
370
    -2
100
AcDbLine
 10
269.2995507253034
 20
86.9434262345638
 30
0.0
 11
259.7864446512401
 21
86.9434262345638
 31
0.0
  0
LINE
  5
4735
330
4733
100
AcDbEntity
  8
0
 62
   115
370
    -2
100
AcDbLine
 10
269.2995447253029
 20
202.943420234564
 30
0.0
 11
259.7864446512402
 21
202.943420234564
 31
0.0
  0
LINE
  5
4736
330
4733
100
AcDbEntity
  8
0
 62
   115
370
    -2
100
AcDbLine
 10
260.9864446512401
 20
90.6934262345638
 30
0.0
 11
260.9864446512402
 21
199.193420234564
 31
0.0
  0
SOLID
  5
4737
330
4733
100
AcDbEntity
  8
0
 62
   115
100
AcDbTrace
 10
260.3614446512401
 20
90.6934262345638
 30
0.0
 11
261.6114446512401
 21
90.6934262345638
 31
0.0
 12
260.9864446512401
 22
86.9434262345638
 32
0.0
 13
260.9864446512401
 23
86.9434262345638
 33
0.0
  0
SOLID
  5
4738
330
4733
100
AcDbEntity
  8
0
 62
   115
100
AcDbTrace
 10
260.3614446512402
 20
199.193420234564
 30
0.0
 11
261.6114446512402
 21
199.193420234564
 31
0.0
 12
260.9864446512402
 22
202.943420234564
 32
0.0
 13
260.9864446512402
 23
202.943420234564
 33
0.0
  0
MTEXT
  5
4739
330
4733
100
AcDbEntity
  8
0
 62
     7
100
AcDbMText
 10
257.2364446512401
 20
144.9434232345639
 30
0.0
 40
4.5
 41
0.0
 71
     5
 72
     1
  1
\A1;%%c116
 11
0.0000000000000001
 21
1.0
 31
0.0
 73
     1
 44
1.0
1001
ACAD
1000
MTEXTBEGIN
1070
    73
1070
     1
1070
    44
1040
1.0
1070
    74
1070
     0
1000
MTEXTEND
  0
POINT
  5
473A
330
4733
100
AcDbEntity
  8
DEFPOINTS
 62
     0
100
AcDbPoint
 10
270.4995507253033
 20
86.9434262345638
 30
0.0
  0
POINT
  5
473B
330
4733
100
AcDbEntity
  8
DEFPOINTS
 62
     0
100
AcDbPoint
 10
270.4995447253029
 20
202.943420234564
 30
0.0
  0
POINT
  5
473C
330
4733
100
AcDbEntity
  8
DEFPOINTS
 62
     0
100
AcDbPoint
 10
260.9864446512402
 20
202.943420234564
 30
0.0
  0
ENDBLK
  5
473E
330
4733
100
AcDbEntity
  8
0
100
AcDbBlockEnd
  0
BLOCK
  5
475C
330
4753
100
AcDbEntity
  8
0
100
AcDbBlockBegin
  2
*D35
 70
     1
 10
0.0
 20
0.0
 30
0.0
  3
*D35
  1

  0
LINE
  5
4754
330
4753
100
AcDbEntity
  8
0
 62
   115
370
    -2
100
AcDbLine
 10
186.1041921686185
 20
93.78185667763851
 30
0.0
 11
156.7507171765802
 21
114.8080135113993
 31
0.0
  0
LINE
  5
4755
330
4753
100
AcDbEntity
  8
0
 62
   115
370
    -2
100
AcDbLine
 10
72.60989568604902
 20
175.0788369577283
 30
0.0
 11
69.56131519726165
 21
177.2625624449141
 31
0.0
  0
MTEXT
  5
4756
330
4753
100
AcDbEntity
  8
0
 62
     7
100
AcDbMText
 10
175.3850390312858
 20
106.6000620384319
 30
0.0
 40
4.5
 41
0.0
 71
     5
 72
     1
  1
\A1;P,C,D 96
 11
0.8129547970099631
 21
-0.5823267965828891
 31
0.0
 73
     1
 44
1.0
1001
ACAD
1000
MTEXTBEGIN
1070
    73
1070
     1
1070
    44
1040
1.0
1070
    74
1070
     0
1000
MTEXTEND
  0
LINE
  5
4757
330
4753
100
AcDbEntity
  8
0
 62
   115
370
    -2
100
AcDbLine
 10
75.65847617483638
 20
172.8951114705424
 30
0.0
 11
153.7021366877928
 21
116.9917389985851
 31
0.0
  0
SOLID
  5
4758
330
4753
100
AcDbEntity
  8
0
 62
   115
100
AcDbTrace
 10
72.9738499339133
 20
175.5869337058595
 30
0.0
 11
72.2459414381847
 21
174.570740209597
 31
0.0
 12
75.65847617483638
 22
172.8951114705424
 32
0.0
 13
75.65847617483638
 23
172.8951114705424
 33
0.0
  0
SOLID
  5
4759
330
4753
100
AcDbEntity
  8
0
 62
   115
100
AcDbTrace
 10
157.1146714244445
 20
115.3161102595305
 30
0.0
 11
156.3867629287159
 21
114.299916763268
 31
0.0
 12
153.7021366877928
 22
116.9917389985851
 32
0.0
 13
153.7021366877928
 23
116.9917389985851
 33
0.0
  0
POINT
  5
475A
330
4753
100
AcDbEntity
  8
DEFPOINTS
 62
     0
100
AcDbPoint
 10
153.7021366877928
 20
116.9917389985851
 30
0.0
  0
POINT
  5
475B
330
4753
100
AcDbEntity
  8
DEFPOINTS
 62
     0
100
AcDbPoint
 10
75.65847617483638
 20
172.8951114705424
 30
0.0
  0
ENDBLK
  5
475D
330
4753
100
AcDbEntity
  8
0
100
AcDbBlockEnd
  0
BLOCK
  5
476B
330
475F
100
AcDbEntity
  8
0
100
AcDbBlockBegin
  2
*D36
 70
     1
 10
0.0
 20
0.0
 30
0.0
  3
*D36
  1

  0
LINE
  5
4760
330
475F
100
AcDbEntity
  8
0
 62
   115
370
    -2
100
AcDbLine
 10
86.08031088515435
 20
95.40676956666876
 30
0.0
 11
78.03646085223346
 21
81.47441476754783
 31
0.0
  0
LINE
  5
4761
330
475F
100
AcDbEntity
  8
0
 62
   115
370
    -2
100
AcDbLine
 10
143.2803156910069
 20
95.40677748418101
 30
0.0
 11
151.324170312316
 21
81.47441452310316
 31
0.0
  0
ARC
  5
4762
330
475F
100
AcDbEntity
  8
0
 62
   115
370
    -2
100
AcDbCircle
 10
114.68031579397
 20
144.9434235340392
 30
0.0
 40
72.0877014156672
100
AcDbArc
 50
242.9808570237208
 51
297.0191425940692
  0
SOLID
  5
4763
330
475F
100
AcDbEntity
  8
0
 62
   115
100
AcDbTrace
 10
81.63341007558516
 20
80.17453838077589
 30
0.0
 11
82.23004206659615
 21
81.27296009728658
 31
0.0
 12
78.63646092155865
 22
82.51364521206424
 32
0.0
 13
78.63646092155865
 23
82.51364521206424
 33
0.0
  0
SOLID
  5
4764
330
475F
100
AcDbEntity
  8
0
 62
   115
100
AcDbTrace
 10
147.1305890966094
 20
81.27295988081653
 30
0.0
 11
147.7272210802931
 21
80.17453816032583
 31
0.0
 12
150.7241702499233
 22
82.51364497162207
 32
0.0
 13
150.7241702499233
 23
82.51364497162207
 33
0.0
  0
MTEXT
  5
4765
102
{ACAD_XDICTIONARY
360
4813
102
}
330
475F
100
AcDbEntity
  8
0
 62
     7
100
AcDbMText
 10
114.6803155660356
 20
76.60572211837202
 30
0.0
 40
4.5
 41
0.0
 71
     5
 72
     1
  1
\A1;60\U+00B0
 11
1.0
 21
-0.0000000033354119
 31
0.0
 73
     1
 44
1.0
1001
ACAD
1000
MTEXTBEGIN
1070
    73
1070
     1
1070
    44
1040
1.0
1070
    74
1070
     0
1000
MTEXTEND
  0
POINT
  5
4766
330
475F
100
AcDbEntity
  8
DEFPOINTS
 62
     0
100
AcDbPoint
 10
102.1624160744877
 20
73.95089658924472
 30
0.0
  0
POINT
  5
4767
330
475F
100
AcDbEntity
  8
DEFPOINTS
 62
     0
100
AcDbPoint
 10
86.68031095447952
 20
96.4460000111852
 30
0.0
  0
POINT
  5
4768
330
475F
100
AcDbEntity
  8
DEFPOINTS
 62
     0
100
AcDbPoint
 10
142.6803156286142
 20
96.44600793269992
 30
0.0
  0
POINT
  5
4769
330
475F
100
AcDbEntity
  8
DEFPOINTS
 62
     0
100
AcDbPoint
 10
134.680314796712
 20
110.3024139129519
 30
0.0
  0
POINT
  5
476A
330
475F
100
AcDbEntity
  8
DEFPOINTS
 62
     0
100
AcDbPoint
 10
94.68031187881534
 20
110.3024059380706
 30
0.0
  0
ENDBLK
  5
476C
330
475F
100
AcDbEntity
  8
0
100
AcDbBlockEnd
  0
BLOCK
  5
4778
330
476E
100
AcDbEntity
  8
0
100
AcDbBlockBegin
  2
*D37
 70
     1
 10
0.0
 20
0.0
 30
0.0
  3
*D37
  1

  0
LINE
  5
476F
330
476E
100
AcDbEntity
  8
0
 62
   115
370
    -2
100
AcDbLine
 10
70.68031537385905
 20
105.9545319791812
 30
0.0
 11
70.68031537385905
 21
61.36485657611324
 31
0.0
  0
LINE
  5
4770
330
476E
100
AcDbEntity
  8
0
 62
   115
370
    -2
100
AcDbLine
 10
158.680315073859
 20
105.9545316298724
 30
0.0
 11
158.680315073859
 21
61.36485657611324
 31
0.0
  0
LINE
  5
4771
330
476E
100
AcDbEntity
  8
0
 62
   115
370
    -2
100
AcDbLine
 10
74.43031537385905
 20
62.56485657611325
 30
0.0
 11
154.930315073859
 21
62.56485657611325
 31
0.0
  0
SOLID
  5
4772
330
476E
100
AcDbEntity
  8
0
 62
   115
100
AcDbTrace
 10
74.43031537385905
 20
63.18985657611325
 30
0.0
 11
74.43031537385905
 21
61.93985657611325
 31
0.0
 12
70.68031537385905
 22
62.56485657611325
 32
0.0
 13
70.68031537385905
 23
62.56485657611325
 33
0.0
  0
SOLID
  5
4773
330
476E
100
AcDbEntity
  8
0
 62
   115
100
AcDbTrace
 10
154.930315073859
 20
63.18985657611325
 30
0.0
 11
154.930315073859
 21
61.93985657611325
 31
0.0
 12
158.680315073859
 22
62.56485657611325
 32
0.0
 13
158.680315073859
 23
62.56485657611325
 33
0.0
  0
MTEXT
  5
4774
330
476E
100
AcDbEntity
  8
0
 62
     7
100
AcDbMText
 10
114.680315223859
 20
66.31485657611325
 30
0.0
 40
4.5
 41
0.0
 71
     5
 72
     1
  1
\A1;88
 73
     1
 44
1.0
1001
ACAD
1000
MTEXTBEGIN
1070
    73
1070
     1
1070
    44
1040
1.0
1070
    74
1070
     0
1000
MTEXTEND
  0
POINT
  5
4775
330
476E
100
AcDbEntity
  8
DEFPOINTS
 62
     0
100
AcDbPoint
 10
70.68031537385905
 20
107.1545319791813
 30
0.0
  0
POINT
  5
4776
330
476E
100
AcDbEntity
  8
DEFPOINTS
 62
     0
100
AcDbPoint
 10
158.680315073859
 20
107.1545316298724
 30
0.0
  0
POINT
  5
4777
330
476E
100
AcDbEntity
  8
DEFPOINTS
 62
     0
100
AcDbPoint
 10
158.680315073859
 20
62.56485657611325
 30
0.0
  0
ENDBLK
  5
4779
330
476E
100
AcDbEntity
  8
0
100
AcDbBlockEnd
  0
ENDSEC
  0
SECTION
  2
ENTITIES
  0
INSERT
  5
247E
330
19
100
AcDbEntity
  8
0
100
AcDbBlockReference
  2
MCLBOMATTRIB
 10
0.0
 20
0.0
 30
0.0
1001
MCLBOMATTRIB
1002
{
1000
1
1005
0
1005
0
1000
강관 용접식 플렌지
1005
0
1000
Steel Welding Pipe Flange
1005
0
1000
SOP 5K 10A FF
1005
0
1000

1005
2480
1000
1
1005
0
1000

1005
2481
1000

1005
0
1000

1005
2482
1000

1005
0
1000

1005
0
1000

1005
0
1000

1005
0
1000

1005
0
1000

1005
0
1002
}
  0
TEXT
  5
2480
330
19
100
AcDbEntity
  8
0
 62
   111
100
AcDbText
 10
344.9746279359911
 20
60.9644544167441
 30
0.0
 40
2.5
  1

  7
STYLE1
100
AcDbText
  0
TEXT
  5
2481
330
19
100
AcDbEntity
  8
0
 62
   111
100
AcDbText
 10
379.9746279359911
 20
60.9644544167441
 30
0.0
 40
2.5
  1

  7
STYLE1
100
AcDbText
  0
TEXT
  5
2482
330
19
100
AcDbEntity
  8
0
 62
   111
100
AcDbText
 10
394.9746279359911
 20
60.9644544167441
 30
0.0
 40
2.5
  1

  7
STYLE1
100
AcDbText
  0
MTEXT
  5
24CA
330
19
100
AcDbEntity
  8
0
100
AcDbMText
 10
295.0
 20
25.00000000000007
 30
0.0
 40
2.5
 41
20.0
 71
     5
 72
     5
  1

  7
STYLE1
 73
     1
 44
1.0
1001
ACAD
1000
MTEXTBEGIN
1070
    73
1070
     1
1070
    44
1040
1.0
1070
    74
1070
     0
1000
MTEXTEND
  0
MTEXT
  5
24DF
330
19
100
AcDbEntity
  8
0
100
AcDbMText
 10
265.0
 20
292.0
 30
0.0
 40
1.8
 41
15.0
 71
     1
 72
     5
  1

  7
STYLE1
 73
     1
 44
1.0
1001
ACAD
1000
MTEXTBEGIN
1070
    73
1070
     1
1070
    44
1040
1.0
1070
    74
1070
     0
1000
MTEXTEND
  0
LINE
  5
2EC4
330
19
100
AcDbEntity
  8
1
100
AcDbLine
 10
208.5420390941106
 20
144.9434262345638
 30
0.0
 11
408.9673582225096
 21
144.9434262345638
 31
0.0
  0
LINE
  5
324C
330
19
100
AcDbEntity
  8
0
100
AcDbLine
 10
270.4995447253029
 20
86.94343223456419
 30
0.0
 11
270.4995447253029
 21
202.943420234564
 31
0.0
  0
TEXT
  5
32A5
330
19
100
AcDbEntity
  8
0
100
AcDbText
 10
164.7515592626525
 20
19.28177589950309
 30
0.0
 40
10.5
  1
STK4010-4-R
  7
T2
 72
     4
 11
220.7515592626525
 21
24.53177589950309
 31
0.0
100
AcDbText
  0
LINE
  5
34B0
330
19
100
AcDbEntity
  8
SL2-11
100
AcDbLine
 10
86.68031360200926
 20
193.440851986494
 30
0.0
 11
94.68031360200923
 21
179.584445525943
 31
0.0
  0
LINE
  5
34EB
330
19
100
AcDbEntity
  8
SL2-11
100
AcDbLine
 10
142.6803129810856
 20
193.4408440649796
 30
0.0
 11
134.6803130735192
 21
179.584437551062
 31
0.0
  0
LINE
  5
355D
330
19
100
AcDbEntity
  8
1
100
AcDbLine
 10
114.680315373859
 20
205.2849501515329
 30
0.0
 11
114.680315373859
 21
84.6019003175947
 31
0.0
  0
LINE
  5
375C
330
19
100
AcDbEntity
  8
SL2-11
100
AcDbLine
 10
142.6803156286142
 20
96.44600793269987
 30
0.0
 11
134.680314796712
 21
110.3024139129519
 31
0.0
  0
LINE
  5
3784
330
19
100
AcDbEntity
  8
SL2-11
100
AcDbLine
 10
86.68031095447952
 20
96.4460000111852
 30
0.0
 11
94.68031187881534
 21
110.3024059380706
 31
0.0
  0
LINE
  5
3945
330
19
100
AcDbEntity
  8
0
100
AcDbLine
 10
269.9995507253033
 20
87.44342623456381
 30
0.0
 11
269.9995507253027
 21
202.4434262345638
 31
0.0
  0
LINE
  5
394B
330
19
100
AcDbEntity
  8
0
100
AcDbLine
 10
213.5602951230653
 20
125.6434262345637
 30
0.0
 11
213.5602951230653
 21
164.2434262345638
 31
0.0
  0
LINE
  5
394E
330
19
100
AcDbEntity
  8
0
100
AcDbLine
 10
214.0602951230653
 20
164.7434262345638
 30
0.0
 11
213.5602951230653
 21
164.2434262345638
 31
0.0
  0
LINE
  5
394F
330
19
100
AcDbEntity
  8
0
100
AcDbLine
 10
213.5602951230652
 20
125.6434262345637
 30
0.0
 11
214.0602951230653
 21
125.1434262345638
 31
0.0
  0
MTEXT
  5
3954
330
19
100
AcDbEntity
  8
0
 62
   111
100
AcDbMText
 10
0.0
 20
0.0
 30
0.0
 40
3.0
 41
0.0
 71
     5
 72
     5
  1

 11
0.6658655619423123
 21
0.7460717481712123
 31
0.0
 73
     1
 44
1.0
1001
ACAD
1000
MTEXTBEGIN
1070
    73
1070
     1
1070
    44
1040
1.0
1070
    74
1070
     0
1000
MTEXTEND
  0
MTEXT
  5
3959
330
19
100
AcDbEntity
  8
0
 62
   111
100
AcDbMText
 10
0.0
 20
0.0
 30
0.0
 40
3.0
 41
0.0
 71
     5
 72
     5
  1

 11
0.9994246805919202
 21
0.0339161882253633
 31
0.0
 73
     1
 44
1.0
1001
ACAD
1000
MTEXTBEGIN
1070
    73
1070
     1
1070
    44
1040
1.0
1070
    74
1070
     0
1000
MTEXTEND
  0
LINE
  5
3B0B
330
19
100
AcDbEntity
  8
1
100
AcDbLine
 10
54.3387904568899
 20
144.9434252345638
 30
0.0
 11
175.0218402908281
 21
144.9434252345637
 31
0.0
  0
MTEXT
  5
3CA0
330
19
100
AcDbEntity
  8
0
 62
   111
100
AcDbMText
 10
0.0
 20
0.0
 30
0.0
 40
3.0
 41
0.0
 71
     5
 72
     5
  1

 11
0.8978290820304724
 21
-0.4403441148242126
 31
0.0
 73
     1
 44
1.0
1001
ACAD
1000
MTEXTBEGIN
1070
    73
1070
     1
1070
    44
1040
1.0
1070
    74
1070
     0
1000
MTEXTEND
  0
MTEXT
  5
3CA1
330
19
100
AcDbEntity
  8
0
 62
   111
100
AcDbMText
 10
0.0
 20
0.0
 30
0.0
 40
3.0
 41
0.0
 71
     5
 72
     5
  1

 11
0.8978290820304724
 21
-0.4403441148242126
 31
0.0
 73
     1
 44
1.0
1001
ACAD
1000
MTEXTBEGIN
1070
    73
1070
     1
1070
    44
1040
1.0
1070
    74
1070
     0
1000
MTEXTEND
  0
MTEXT
  5
3CA2
330
19
100
AcDbEntity
  8
0
 62
   111
100
AcDbMText
 10
0.0
 20
0.0
 30
0.0
 40
3.0
 41
0.0
 71
     5
 72
     5
  1

 11
0.8978290820304724
 21
-0.4403441148242126
 31
0.0
 73
     1
 44
1.0
1001
ACAD
1000
MTEXTBEGIN
1070
    73
1070
     1
1070
    44
1040
1.0
1070
    74
1070
     0
1000
MTEXTEND
  0
MTEXT
  5
3CA3
330
19
100
AcDbEntity
  8
0
 62
   111
100
AcDbMText
 10
0.0
 20
0.0
 30
0.0
 40
3.0
 41
0.0
 71
     5
 72
     5
  1

 11
0.8978290820304724
 21
-0.4403441148242126
 31
0.0
 73
     1
 44
1.0
1001
ACAD
1000
MTEXTBEGIN
1070
    73
1070
     1
1070
    44
1040
1.0
1070
    74
1070
     0
1000
MTEXTEND
  0
MTEXT
  5
3CA8
330
19
100
AcDbEntity
  8
0
 62
   111
100
AcDbMText
 10
0.0
 20
0.0
 30
0.0
 40
3.0
 41
0.0
 71
     5
 72
     5
  1

 11
0.3826834323650867
 21
-0.923879532511288
 31
0.0
 73
     1
 44
1.0
1001
ACAD
1000
MTEXTBEGIN
1070
    73
1070
     1
1070
    44
1040
1.0
1070
    74
1070
     0
1000
MTEXTEND
  0
LINE
  5
418B
330
19
100
AcDbEntity
  8
2
100
AcDbLine
 10
112.180315373859
 20
202.8895148752539
 30
0.0
 11
112.180315373859
 21
167.6059503523136
 31
0.0
  0
LINE
  5
418C
330
19
100
AcDbEntity
  8
2
100
AcDbLine
 10
117.1803153738591
 20
202.8895148752539
 30
0.0
 11
117.180315373859
 21
167.6059483793329
 31
0.0
  0
LINE
  5
418D
330
19
100
AcDbEntity
  8
2
100
AcDbLine
 10
111.680315373859
 20
202.8495775025777
 30
0.0
 11
111.680315373859
 21
196.9434192345638
 31
0.0
  0
LINE
  5
418E
330
19
100
AcDbEntity
  8
2
100
AcDbLine
 10
117.680315373859
 20
202.8495775025777
 30
0.0
 11
117.680315373859
 21
196.9434192345638
 31
0.0
  0
LINE
  5
4194
330
19
100
AcDbEntity
  8
2
100
AcDbLine
 10
111.680315373859
 20
196.9434192345638
 30
0.0
 11
117.680315373859
 21
196.9434192345638
 31
0.0
  0
LINE
  5
4195
330
19
100
AcDbEntity
  8
2
100
AcDbLine
 10
112.180315373859
 20
196.4434192345638
 30
0.0
 11
117.180315373859
 21
196.4434192345638
 31
0.0
  0
LINE
  5
4196
330
19
100
AcDbEntity
  8
2
100
AcDbLine
 10
112.180315373859
 20
196.4434192345638
 30
0.0
 11
111.680315373859
 21
196.9434192345638
 31
0.0
  0
LINE
  5
4197
330
19
100
AcDbEntity
  8
2
100
AcDbLine
 10
117.180315373859
 20
196.4434192345638
 30
0.0
 11
117.680315373859
 21
196.9434192345638
 31
0.0
  0
LINE
  5
419B
330
19
100
AcDbEntity
  8
0
100
AcDbLine
 10
214.0602951230653
 20
164.7434262345637
 30
0.0
 11
214.0602951230653
 21
125.1434262345638
 31
0.0
  0
LINE
  5
419C
330
19
100
AcDbEntity
  8
0
100
AcDbLine
 10
405.5602951230652
 20
125.6434262345639
 30
0.0
 11
405.5602951230652
 21
164.2434262345638
 31
0.0
  0
LINE
  5
419D
330
19
100
AcDbEntity
  8
0
100
AcDbLine
 10
405.0602951230652
 20
164.7434262345639
 30
0.0
 11
405.5602951230652
 21
164.2434262345639
 31
0.0
  0
LINE
  5
419E
330
19
100
AcDbEntity
  8
0
100
AcDbLine
 10
405.0602951230656
 20
125.143426234564
 30
0.0
 11
405.5602951230656
 21
125.643426234564
 31
0.0
  0
LINE
  5
419F
330
19
100
AcDbEntity
  8
0
100
AcDbLine
 10
405.0602951230654
 20
164.7434262345638
 30
0.0
 11
405.0602951230652
 21
125.1434262345638
 31
0.0
  0
LINE
  5
41BC
330
19
100
AcDbEntity
  8
2
100
AcDbLine
 10
274.999550725303
 20
122.1434262345637
 30
0.0
 11
274.9995507253031
 21
167.7434262345637
 31
0.0
  0
LEADER
  5
422E
330
19
100
AcDbEntity
  8
0
100
AcDbLeader
  3
STANDARD
 73
     0
 75
     1
 40
4.5
 41
26.78571428571429
 76
     3
 10
114.6457088518341
 20
203.014773195329
 30
0.0
 10
103.5562416263163
 20
220.9664490832623
 30
0.0
 10
99.80624162631634
 20
220.9664490832623
 30
0.0
340
422F
1001
ACAD
1000
DSTYLE
1002
{
1070
    40
1040
1.5
1070
    41
1040
2.5
1070
    42
1040
0.8
1070
    43
1040
0.8
1070
    44
1040
0.8
1070
    73
1070
     0
1070
    74
1070
     0
1070
    77
1070
     1
1070
    78
1070
     8
1070
   141
1040
-1.0
1070
   147
1040
1.0
1070
   172
1070
     1
1070
   176
1070
   115
1070
   177
1070
   115
1070
   178
1070
     7
1070
   271
1070
     3
1002
}
  0
MTEXT
  5
422F
102
{ACAD_REACTORS
330
422E
102
}
330
19
100
AcDbEntity
  8
0
 62
     7
100
AcDbMText
 10
98.30624162631636
 20
222.4664490832623
 30
0.0
 40
4.5
 41
0.0
 71
     9
 72
     1
  1
M6xP1.0
 73
     1
 44
1.0
1001
ACAD
1000
MTEXTBEGIN
1070
    73
1070
     1
1070
    44
1040
1.0
1070
    74
1070
     0
1000
MTEXTEND
  0
LINE
  5
42C0
330
19
100
AcDbEntity
  8
2
100
AcDbLine
 10
357.9995507253033
 20
122.1434262345638
 30
0.0
 11
357.999550725303
 21
167.7434262345639
 31
0.0
  0
LINE
  5
4352
330
19
100
AcDbEntity
  8
9
  6
Continuous
100
AcDbLine
 10
213.5602951230653
 20
163.0934262345638
 30
0.0
 11
269.9995507253029
 21
163.0934262345637
 31
0.0
  0
LINE
  5
4353
330
19
100
AcDbEntity
  8
9
  6
Continuous
100
AcDbLine
 10
213.5602951230653
 20
126.7934262345637
 30
0.0
 11
269.9995507253031
 21
126.7934262345637
 31
0.0
  0
LINE
  5
4354
330
19
100
AcDbEntity
  8
9
  6
Continuous
100
AcDbLine
 10
362.9995507253028
 20
163.093426234564
 30
0.0
 11
405.5602951230652
 21
163.0934262345639
 31
0.0
  0
LINE
  5
4355
330
19
100
AcDbEntity
  8
9
  6
Continuous
100
AcDbLine
 10
362.9995507253032
 20
126.7934262345639
 30
0.0
 11
405.5602951230656
 21
126.7934262345639
 31
0.0
  0
LINE
  5
43F5
330
19
100
AcDbEntity
  8
0
100
AcDbLine
 10
362.9995507253032
 20
107.4434262345637
 30
0.0
 11
362.9995507253028
 21
182.4434262345638
 31
0.0
  0
LINE
  5
43FF
330
19
100
AcDbEntity
  8
0
100
AcDbLine
 10
362.4995507253029
 20
182.9434262345639
 30
0.0
 11
362.4995507253032
 21
106.9434262345637
 31
0.0
  0
LEADER
  5
447F
330
19
100
AcDbEntity
  8
0
100
AcDbLeader
  3
STANDARD
 73
     0
 74
     0
 75
     1
 40
4.5
 41
19.92857142857143
 76
     3
 10
143.3230984652241
 20
189.9884466531858
 30
0.0
 10
159.2759880064864
 20
208.600388595713
 30
0.0
 10
163.0259880064864
 20
208.600388595713
 30
0.0
340
4480
1001
ACAD
1000
DSTYLE
1002
{
1070
    40
1040
1.5
1070
    41
1040
2.5
1070
    42
1040
0.8
1070
    43
1040
0.8
1070
    44
1040
0.8
1070
    73
1070
     0
1070
    74
1070
     0
1070
    77
1070
     1
1070
    78
1070
     8
1070
   141
1040
-1.0
1070
   147
1040
1.0
1070
   172
1070
     1
1070
   176
1070
   115
1070
   177
1070
   115
1070
   178
1070
     7
1070
   271
1070
     3
1002
}
  0
MTEXT
  5
4480
102
{ACAD_REACTORS
330
447F
102
}
330
19
100
AcDbEntity
  8
0
 62
     7
100
AcDbMText
 10
164.5259880064864
 20
210.1003885957129
 30
0.0
 40
4.5
 41
0.0
 71
     7
 72
     1
  1
4-%%c11
 73
     1
 44
1.0
1001
ACAD
1000
MTEXTBEGIN
1070
    73
1070
     1
1070
    44
1040
1.0
1070
    74
1070
     0
1000
MTEXTEND
  0
LINE
  5
4644
330
19
100
AcDbEntity
  8
0
  6
Continuous
100
AcDbLine
 10
362.9995507253028
 20
164.7434262345638
 30
0.0
 11
405.0602951230652
 21
164.7434262345638
 31
0.0
  0
LINE
  5
4645
330
19
100
AcDbEntity
  8
0
  6
Continuous
100
AcDbLine
 10
362.9995507253031
 20
125.1434262345638
 30
0.0
 11
405.0602951230652
 21
125.1434262345638
 31
0.0
  0
LINE
  5
4646
330
19
100
AcDbEntity
  8
0
  6
Continuous
100
AcDbLine
 10
214.0602951230653
 20
164.7434262345638
 30
0.0
 11
269.999550725303
 21
164.7434262345639
 31
0.0
  0
LINE
  5
4647
330
19
100
AcDbEntity
  8
0
  6
Continuous
100
AcDbLine
 10
214.0602951230653
 20
125.1434262345638
 30
0.0
 11
269.9995507253031
 21
125.1434262345637
 31
0.0
  0
LINE
  5
464C
330
19
100
AcDbEntity
  8
2
  6
HIDDEN
100
AcDbLine
 10
269.999550725303
 20
167.7434262345637
 30
0.0
 11
274.9995507253031
 21
167.7434262345638
 31
0.0
  0
LINE
  5
464D
330
19
100
AcDbEntity
  8
2
  6
HIDDEN
100
AcDbLine
 10
269.9995507253032
 20
122.1434262345638
 30
0.0
 11
274.9995507253031
 21
122.1434262345638
 31
0.0
  0
LINE
  5
464E
330
19
100
AcDbEntity
  8
2
  6
HIDDEN
100
AcDbLine
 10
357.9995507253031
 20
122.1434262345638
 30
0.0
 11
362.9995507253032
 21
122.1434262345638
 31
0.0
  0
LINE
  5
464F
330
19
100
AcDbEntity
  8
2
  6
HIDDEN
100
AcDbLine
 10
357.9995507253031
 20
167.7434262345638
 30
0.0
 11
362.9995507253031
 21
167.7434262345638
 31
0.0
  0
DIMENSION
  5
469A
330
19
100
AcDbEntity
  8
0
100
AcDbDimension
  2
*D29
 10
421.70471079358
 20
164.7434262345639
 30
0.0
 11
417.95471079358
 21
144.9434262345638
 31
0.0
 70
    32
  1
%%c39.6
 71
     5
 42
39.60000000000011
  3
STANDARD
100
AcDbAlignedDimension
 13
405.0602951230652
 23
125.1434262345638
 33
0.0
 14
405.0602951230652
 24
164.7434262345639
 34
0.0
 50
90.0
100
AcDbRotatedDimension
1001
ACAD
1000
DSTYLE
1002
{
1070
    40
1040
1.5
1070
    41
1040
2.5
1070
    42
1040
0.8
1070
    43
1040
0.8
1070
    44
1040
0.8
1070
    73
1070
     0
1070
    74
1070
     0
1070
    77
1070
     3
1070
    78
1070
     8
1070
   141
1040
-1.0
1070
   147
1040
1.0
1070
   172
1070
     1
1070
   176
1070
   115
1070
   177
1070
   115
1070
   178
1070
     7
1070
   271
1070
     3
1002
}
  0
CIRCLE
  5
46C1
330
19
100
AcDbEntity
  8
0
100
AcDbCircle
 10
114.6803064313146
 20
144.9434252345638
 30
0.0
 40
22.8
  0
CIRCLE
  5
46C2
330
19
100
AcDbEntity
  8
0
100
AcDbCircle
 10
114.6803064313146
 20
144.9434252345638
 30
0.0
 40
19.8
  0
ARC
  5
46C3
330
19
100
AcDbEntity
  8
9
100
AcDbCircle
 10
114.680315373859
 20
144.9434192345638
 30
0.0
 40
18.35
100
AcDbArc
 50
179.9999588293801
 51
90.0
  0
LINE
  5
46F0
330
19
100
AcDbEntity
  8
0
100
AcDbLine
 10
270.4995507253027
 20
202.9434262345638
 30
0.0
 11
286.4995507253029
 21
202.9434262345638
 31
0.0
  0
LINE
  5
46F1
330
19
100
AcDbEntity
  8
0
100
AcDbLine
 10
270.4995507253033
 20
86.9434262345638
 30
0.0
 11
286.4995507253033
 21
86.94342623456376
 31
0.0
  0
LINE
  5
46F2
330
19
100
AcDbEntity
  8
0
100
AcDbLine
 10
286.9995507253033
 20
87.44342623456377
 30
0.0
 11
286.9995507253029
 21
202.4434262345638
 31
0.0
  0
LINE
  5
46F3
330
19
100
AcDbEntity
  8
0
100
AcDbLine
 10
286.4995507253028
 20
202.9434262345638
 30
0.0
 11
286.4995507253034
 21
86.94342623456385
 31
0.0
  0
LINE
  5
46F5
330
19
100
AcDbEntity
  8
0
100
AcDbLine
 10
286.9995507253029
 20
182.9434262345638
 30
0.0
 11
362.4995507253029
 21
182.9434262345639
 31
0.0
  0
LINE
  5
46F6
330
19
100
AcDbEntity
  8
0
100
AcDbLine
 10
286.9995507253032
 20
106.9434262345638
 30
0.0
 11
362.4995507253032
 21
106.9434262345637
 31
0.0
  0
LINE
  5
46F8
330
19
100
AcDbEntity
  8
0
100
AcDbLine
 10
269.9995507253033
 20
87.44342623456381
 30
0.0
 11
270.4995507253033
 21
86.9434262345638
 31
0.0
  0
LINE
  5
46F9
330
19
100
AcDbEntity
  8
0
100
AcDbLine
 10
286.4995507253033
 20
86.94342623456376
 30
0.0
 11
286.9995507253033
 21
87.44342623456377
 31
0.0
  0
LINE
  5
46FA
330
19
100
AcDbEntity
  8
0
100
AcDbLine
 10
269.9995507253027
 20
202.4434262345638
 30
0.0
 11
270.4995507253027
 21
202.9434262345638
 31
0.0
  0
LINE
  5
46FB
330
19
100
AcDbEntity
  8
0
100
AcDbLine
 10
286.4995507253029
 20
202.9434262345638
 30
0.0
 11
286.9995507253029
 21
202.4434262345638
 31
0.0
  0
LINE
  5
46FC
330
19
100
AcDbEntity
  8
0
100
AcDbLine
 10
362.4995507253029
 20
182.9434262345639
 30
0.0
 11
362.9995507253028
 21
182.4434262345638
 31
0.0
  0
LINE
  5
46FD
330
19
100
AcDbEntity
  8
0
100
AcDbLine
 10
362.4995507253032
 20
106.9434262345637
 30
0.0
 11
362.9995507253032
 21
107.4434262345637
 31
0.0
  0
DIMENSION
  5
46FE
330
19
100
AcDbEntity
  8
0
100
AcDbDimension
  2
*D30
 10
286.9995507253033
 20
74.25497130852136
 30
0.0
 11
278.4995507253033
 21
78.00497130852136
 31
0.0
 70
    32
 71
     5
 42
17.00000000000005
  3
STANDARD
100
AcDbAlignedDimension
 13
269.9995507253033
 23
87.44342623456381
 33
0.0
 14
286.9995507253033
 24
87.44342623456377
 34
0.0
100
AcDbRotatedDimension
1001
ACAD
1000
DSTYLE
1002
{
1070
    40
1040
1.5
1070
    41
1040
2.5
1070
    42
1040
0.8
1070
    43
1040
0.8
1070
    44
1040
0.8
1070
    73
1070
     0
1070
    74
1070
     0
1070
    77
1070
     3
1070
    78
1070
     8
1070
   141
1040
-1.0
1070
   147
1040
1.0
1070
   172
1070
     1
1070
   176
1070
   115
1070
   177
1070
   115
1070
   178
1070
     7
1070
   271
1070
     3
1002
}
  0
DIMENSION
  5
470B
330
19
100
AcDbEntity
  8
0
100
AcDbDimension
  2
*D31
 10
362.9995507253032
 20
74.25497130852136
 30
0.0
 11
324.9995507253033
 21
78.00497130852136
 31
0.0
 70
    32
 71
     5
 42
75.99999999999987
  3
STANDARD
100
AcDbAlignedDimension
 13
286.9995507253033
 23
87.44342623456377
 33
0.0
 14
362.9995507253032
 24
107.4434262345637
 34
0.0
100
AcDbRotatedDimension
1001
ACAD
1000
DSTYLE
1002
{
1070
    40
1040
1.5
1070
    41
1040
2.5
1070
    42
1040
0.8
1070
    43
1040
0.8
1070
    44
1040
0.8
1070
    73
1070
     0
1070
    74
1070
     0
1070
    77
1070
     3
1070
    78
1070
     8
1070
   141
1040
-1.0
1070
   147
1040
1.0
1070
   172
1070
     1
1070
   176
1070
   115
1070
   177
1070
   115
1070
   178
1070
     7
1070
   271
1070
     3
1002
}
  0
DIMENSION
  5
4718
330
19
100
AcDbEntity
  8
0
100
AcDbDimension
  2
*D32
 10
362.9995507253032
 20
64.53031652076788
 30
0.0
 11
316.4995507253033
 21
68.28031652076788
 31
0.0
 70
    32
 71
     5
 42
92.99999999999995
  3
STANDARD
100
AcDbAlignedDimension
 13
269.9995507253033
 23
73.05497130852136
 33
0.0
 14
362.9995507253032
 24
73.05497130852136
 34
0.0
100
AcDbRotatedDimension
1001
ACAD
1000
DSTYLE
1002
{
1070
    40
1040
1.5
1070
    41
1040
2.5
1070
    42
1040
0.8
1070
    43
1040
0.8
1070
    44
1040
0.8
1070
    73
1070
     0
1070
    74
1070
     0
1070
    77
1070
     3
1070
    78
1070
     8
1070
   141
1040
-1.0
1070
   147
1040
1.0
1070
   172
1070
     1
1070
   176
1070
   115
1070
   177
1070
   115
1070
   178
1070
     7
1070
   271
1070
     3
1002
}
  0
DIMENSION
  5
4725
330
19
100
AcDbEntity
  8
0
100
AcDbDimension
  2
*D33
 10
377.2859961786635
 20
182.9434262345639
 30
0.0
 11
372.7859961786634
 21
144.9434262345638
 31
0.0
 70
    32
  1
%%c76g6
 71
     5
 42
76.00000000000015
  3
STANDARD
100
AcDbAlignedDimension
 13
362.4995507253032
 23
106.9434262345637
 33
0.0
 14
362.4995507253029
 24
182.9434262345639
 34
0.0
 50
90.0
100
AcDbRotatedDimension
1001
ACAD
1000
DSTYLE
1002
{
1070
    40
1040
1.5
1070
    41
1040
2.5
1070
    42
1040
0.8
1070
    43
1040
0.8
1070
    44
1040
0.8
1070
    73
1070
     0
1070
    74
1070
     0
1070
    77
1070
     3
1070
    78
1070
     8
1070
   141
1040
-1.0
1070
   147
1040
1.0
1070
   172
1070
     1
1070
   176
1070
   115
1070
   177
1070
   115
1070
   178
1070
     7
1070
   271
1070
     3
1002
}
  0
DIMENSION
  5
4732
330
19
100
AcDbEntity
  8
0
100
AcDbDimension
  2
*D34
 10
260.9864446512402
 20
202.943420234564
 30
0.0
 11
257.2364446512401
 21
144.9434232345639
 31
0.0
 70
    32
  1
%%c116
 71
     5
 42
115.9999940000002
  3
STANDARD
100
AcDbAlignedDimension
 13
270.4995507253033
 23
86.9434262345638
 33
0.0
 14
270.4995447253029
 24
202.943420234564
 34
0.0
 50
90.0
100
AcDbRotatedDimension
1001
ACAD
1000
DSTYLE
1002
{
1070
    40
1040
1.5
1070
    41
1040
2.5
1070
    42
1040
0.8
1070
    43
1040
0.8
1070
    44
1040
0.8
1070
    73
1070
     0
1070
    74
1070
     0
1070
    77
1070
     3
1070
    78
1070
     8
1070
   141
1040
-1.0
1070
   147
1040
1.0
1070
   172
1070
     1
1070
   176
1070
   115
1070
   177
1070
   115
1070
   178
1070
     7
1070
   271
1070
     3
1002
}
  0
ARC
  5
473F
330
19
100
AcDbEntity
  8
0
100
AcDbCircle
 10
114.680315373859
 20
144.9434192345638
 30
0.0
 40
58.0
100
AcDbArc
 50
220.6572486379979
 51
319.3427509071401
  0
ARC
  5
4740
330
19
100
AcDbEntity
  8
0
100
AcDbCircle
 10
114.680315373859
 20
144.9434192345638
 30
0.0
 40
57.5
100
AcDbArc
 50
220.0736640149275
 51
319.9263355207242
  0
ARC
  5
4741
330
19
100
AcDbEntity
  8
0
100
AcDbCircle
 10
114.680315373859
 20
144.9434192345638
 30
0.0
 40
58.0
100
AcDbArc
 50
40.65724909285989
 51
139.3427513620022
  0
ARC
  5
4742
330
19
100
AcDbEntity
  8
0
100
AcDbCircle
 10
114.680315373859
 20
144.9434192345638
 30
0.0
 40
57.5
100
AcDbArc
 50
40.07366447927576
 51
139.9263359850726
  0
LINE
  5
4744
330
19
100
AcDbEntity
  8
0
100
AcDbLine
 10
70.68031537385896
 20
182.7323064899461
 30
0.0
 11
70.68031537385905
 21
107.1545319791814
 31
0.0
  0
LINE
  5
4745
330
19
100
AcDbEntity
  8
0
100
AcDbLine
 10
158.680315073859
 20
182.7323068392551
 30
0.0
 11
158.680315073859
 21
107.1545316298724
 31
0.0
  0
CIRCLE
  5
4746
330
19
100
AcDbEntity
  8
1
100
AcDbCircle
 10
114.6803064313146
 20
144.9434252345638
 30
0.0
 40
48.0
  0
CIRCLE
  5
4748
330
19
100
AcDbEntity
  8
0
100
AcDbCircle
 10
90.68031141664741
 20
103.3742029746279
 30
0.0
 40
5.5
  0
CIRCLE
  5
4749
330
19
100
AcDbEntity
  8
0
100
AcDbCircle
 10
138.6803152126631
 20
103.3742109228259
 30
0.0
 40
5.5
  0
CIRCLE
  5
474A
330
19
100
AcDbEntity
  8
0
100
AcDbCircle
 10
138.6803130273024
 20
186.5126408080208
 30
0.0
 40
5.5
  0
CIRCLE
  5
474B
330
19
100
AcDbEntity
  8
0
100
AcDbCircle
 10
90.68031360200926
 20
186.5126487562185
 30
0.0
 40
5.5
  0
CIRCLE
  5
4750
330
19
100
AcDbEntity
  8
2
100
AcDbCircle
 10
114.6803064313146
 20
144.9434252345638
 30
0.0
 40
38.0
  0
DIMENSION
  5
4752
330
19
100
AcDbEntity
  8
0
100
AcDbDimension
  2
*D35
 10
75.65847617483638
 20
172.8951114705424
 30
0.0
 11
172.951744916993
 21
103.203072350926
 31
0.0
 70
    35
  1
P,C,D 96
 71
     5
 42
96.0
  3
STANDARD
100
AcDbDiametricDimension
 15
153.7021366877928
 25
116.9917389985851
 35
0.0
 40
0.0
1001
ACAD
1000
DSTYLE
1002
{
1070
    40
1040
1.5
1070
    41
1040
2.5
1070
    42
1040
0.8
1070
    43
1040
0.8
1070
    44
1040
0.8
1070
    73
1070
     0
1070
    74
1070
     0
1070
    77
1070
     3
1070
    78
1070
     8
1070
   141
1040
-1.0
1070
   147
1040
1.0
1070
   172
1070
     1
1070
   176
1070
   115
1070
   177
1070
   115
1070
   178
1070
     7
1070
   271
1070
     3
1070
   288
1070
     1
1002
}
  0
DIMENSION
  5
475E
330
19
100
AcDbEntity
  8
0
100
AcDbDimension
  2
*D36
 10
94.68031187881534
 20
110.3024059380706
 30
0.0
 11
114.6803155660356
 21
76.60572211837203
 31
0.0
 70
    34
 71
     5
 42
1.047197677942159
  3
STANDARD
100
AcDb2LineAngularDimension
 13
142.6803156286142
 23
96.44600793269987
 33
0.0
 14
134.680314796712
 24
110.3024139129519
 34
0.0
 15
86.68031095447952
 25
96.4460000111852
 35
0.0
 16
102.1624160744877
 26
73.95089658924472
 36
0.0
1001
ACAD
1000
DSTYLE
1002
{
1070
    40
1040
1.5
1070
    41
1040
2.5
1070
    42
1040
0.8
1070
    43
1040
0.8
1070
    44
1040
0.8
1070
    73
1070
     0
1070
    74
1070
     0
1070
    77
1070
     3
1070
    78
1070
     8
1070
   141
1040
-1.0
1070
   147
1040
1.0
1070
   172
1070
     1
1070
   176
1070
   115
1070
   177
1070
   115
1070
   178
1070
     7
1070
   271
1070
     3
1002
}
  0
DIMENSION
  5
476D
330
19
100
AcDbEntity
  8
0
100
AcDbDimension
  2
*D37
 10
158.680315073859
 20
62.56485657611325
 30
0.0
 11
114.680315223859
 21
66.31485657611325
 31
0.0
 70
    32
 71
     5
 42
87.9999997
  3
STANDARD
100
AcDbAlignedDimension
 13
70.68031537385905
 23
107.1545319791813
 33
0.0
 14
158.680315073859
 24
107.1545316298724
 34
0.0
100
AcDbRotatedDimension
1001
ACAD
1000
DSTYLE
1002
{
1070
    40
1040
1.5
1070
    41
1040
2.5
1070
    42
1040
0.8
1070
    43
1040
0.8
1070
    44
1040
0.8
1070
    73
1070
     0
1070
    74
1070
     0
1070
    77
1070
     3
1070
    78
1070
     8
1070
   141
1040
-1.0
1070
   147
1040
1.0
1070
   172
1070
     1
1070
   176
1070
   115
1070
   177
1070
   115
1070
   178
1070
     7
1070
   271
1070
     3
1002
}
  0
ENDSEC
  0
SECTION
  2
OBJECTS
  0
DICTIONARY
  5
C
330
0
100
AcDbDictionary
281
     1
  3
ACAD_COLOR
350
477E
  3
ACAD_GROUP
350
D
  3
ACAD_LAYOUT
350
4155
  3
ACAD_MATERIAL
350
477D
  3
ACAD_MLEADERSTYLE
350
47ED
  3
ACAD_MLINESTYLE
350
E
  3
ACAD_PLOTSETTINGS
350
4156
  3
ACAD_PLOTSTYLENAME
350
4153
  3
ACAD_SCALELIST
350
47CB
  3
ACAD_TABLESTYLE
350
477F
  3
ACAD_VISUALSTYLE
350
47BA
  3
ACDB_RECOMPOSE_DATA
350
480B
  3
ACDBVARIABLEDICTIONARY
350
1BF
  3
DWGPROPS
350
480C
  0
DICTIONARY
  5
47FC
330
F
100
AcDbDictionary
280
     1
281
     1
  3
ADSK_XREC_LAYER_RECONCILED
360
47FD
  0
DICTIONARY
  5
47FE
330
55
100
AcDbDictionary
280
     1
281
     1
  3
ADSK_XREC_LAYER_RECONCILED
360
47FF
  0
DICTIONARY
  5
4800
330
61
100
AcDbDictionary
280
     1
281
     1
  3
ADSK_XREC_LAYER_RECONCILED
360
4801
  0
DICTIONARY
  5
4802
330
62
100
AcDbDictionary
280
     1
281
     1
  3
ADSK_XREC_LAYER_RECONCILED
360
4803
  0
DICTIONARY
  5
4804
330
2AD3
100
AcDbDictionary
280
     1
281
     1
  3
ADSK_XREC_LAYER_RECONCILED
360
4805
  0
DICTIONARY
  5
4813
330
4765
100
AcDbDictionary
280
     1
281
     1
  3
ACAD_MTEXT_RT
360
4814
  0
DICTIONARY
  5
477E
102
{ACAD_REACTORS
330
C
102
}
330
C
100
AcDbDictionary
281
     1
  0
DICTIONARY
  5
D
102
{ACAD_REACTORS
330
C
102
}
330
C
100
AcDbDictionary
281
     1
  3
*A1
350
3315
  3
*A2
350
3935
  0
DICTIONARY
  5
4155
102
{ACAD_REACTORS
330
C
102
}
330
C
100
AcDbDictionary
281
     1
  3
Model
350
4157
  3
배치1
350
4158
  0
DICTIONARY
  5
477D
102
{ACAD_REACTORS
330
C
102
}
330
C
100
AcDbDictionary
281
     1
  3
ByBlock
350
47AA
  3
ByLayer
350
47A2
  3
Global
350
47B2
  0
DICTIONARY
  5
47ED
102
{ACAD_REACTORS
330
C
102
}
330
C
100
AcDbDictionary
281
     1
  3
Standard
350
47EE
  0
DICTIONARY
  5
E
102
{ACAD_REACTORS
330
C
102
}
330
C
100
AcDbDictionary
281
     1
  3
STANDARD
350
1C
  0
DICTIONARY
  5
4156
102
{ACAD_REACTORS
330
C
102
}
330
C
100
AcDbDictionary
281
     1
  0
ACDBDICTIONARYWDFLT
  5
4153
102
{ACAD_REACTORS
330
C
102
}
330
C
100
AcDbDictionary
281
     1
  3
Normal
350
4154
100
AcDbDictionaryWithDefault
340
4154
  0
DICTIONARY
  5
47CB
102
{ACAD_REACTORS
330
C
102
}
330
C
100
AcDbDictionary
281
     1
  3
A0
350
47CC
  3
A1
350
47CD
  3
A2
350
47CE
  3
A3
350
47CF
  3
A4
350
47D0
  3
A5
350
47D1
  3
A6
350
47D2
  3
A7
350
47D3
  3
A8
350
47D4
  3
A9
350
47D5
  3
B0
350
47D6
  3
B1
350
47D7
  3
B2
350
47D8
  3
B3
350
47D9
  3
B4
350
47DA
  3
B5
350
47DB
  3
B6
350
47DC
  3
B7
350
47DD
  3
B8
350
47DE
  3
B9
350
47DF
  3
C0
350
47E0
  3
C1
350
47E1
  3
C2
350
47E2
  3
C3
350
47E3
  3
C4
350
47E4
  3
C5
350
47E5
  3
C6
350
47E6
  3
C7
350
47E7
  3
C8
350
47E8
  3
C9
350
47E9
  3
D0
350
47EA
  3
D1
350
47EB
  3
D2
350
47EC
  0
DICTIONARY
  5
477F
102
{ACAD_REACTORS
330
C
102
}
330
C
100
AcDbDictionary
281
     1
  3
Standard
350
4780
  0
DICTIONARY
  5
47BA
102
{ACAD_REACTORS
330
C
102
}
330
C
100
AcDbDictionary
281
     1
  3
2dWireframe
350
47C0
  3
3D Hidden
350
47C2
  3
3dWireframe
350
47C1
  3
Basic
350
47BF
  3
Brighten
350
47C6
  3
ColorChange
350
47CA
  3
Conceptual
350
47C3
  3
Dim
350
47C5
  3
Facepattern
350
47C9
  3
Flat
350
47BB
  3
FlatWithEdges
350
47BC
  3
Gouraud
350
47BD
  3
GouraudWithEdges
350
47BE
  3
Linepattern
350
47C8
  3
Realistic
350
47C4
  3
Thicken
350
47C7
  0
XRECORD
  5
480B
102
{ACAD_REACTORS
330
C
102
}
330
C
100
AcDbXrecord
280
     1
 90
        1
330
4780
  0
DICTIONARY
  5
1BF
102
{ACAD_REACTORS
330
C
102
}
330
C
100
AcDbDictionary
281
     1
  3
CANNOSCALE
350
4807
  3
CMLEADERSTYLE
350
4806
  3
CTABLESTYLE
350
4794
  3
DIMASSOC
350
4169
  3
INDEXCTL
350
4808
  3
PROJECTNAME
350
4795
  3
SORTENTS
350
1C0
  0
XRECORD
  5
480C
102
{ACAD_REACTORS
330
C
102
}
330
C
100
AcDbXrecord
280
     1
  1
DWGPROPS COOKIE
  2

  3

  4

  6

  7

  8
양순영
  9

300
=
301
=
302
=
303
=
304
=
305
=
306
=
307
=
308
=
309
=
 40
0.7888857060185185
 41
2452464.575009942
 42
2455643.496959757
  1

 90
        0
  0
XRECORD
  5
47FD
102
{ACAD_REACTORS
330
47FC
102
}
330
47FC
100
AcDbXrecord
280
     1
290
     1
  0
XRECORD
  5
47FF
102
{ACAD_REACTORS
330
47FE
102
}
330
47FE
100
AcDbXrecord
280
     1
290
     1
  0
XRECORD
  5
4801
102
{ACAD_REACTORS
330
4800
102
}
330
4800
100
AcDbXrecord
280
     1
290
     1
  0
XRECORD
  5
4803
102
{ACAD_REACTORS
330
4802
102
}
330
4802
100
AcDbXrecord
280
     1
290
     1
  0
XRECORD
  5
4805
102
{ACAD_REACTORS
330
4804
102
}
330
4804
100
AcDbXrecord
280
     1
290
     1
  0
XRECORD
  5
4814
102
{ACAD_REACTORS
330
4813
102
}
330
4813
100
AcDbXrecord
280
     1
 40
5298.0
  1
\A1;60°
  0
GROUP
  5
3315
102
{ACAD_REACTORS
330
D
102
}
330
D
100
AcDbGroup
300
Ball Screw  BNFN2010-1.5+300L
 70
     1
 71
     1
  0
GROUP
  5
3935
102
{ACAD_REACTORS
330
D
102
}
330
D
100
AcDbGroup
300
Ball Screw  BNFN2010-1.5+300L
 70
     1
 71
     1
  0
LAYOUT
  5
4157
102
{ACAD_XDICTIONARY
360
480F
102
}
102
{ACAD_REACTORS
330
4155
102
}
330
4155
100
AcDbPlotSettings
  1

  2
SBC-SERVER에서 자동 HP LaserJet 4V
  4
A4
  6

 40
6.805083274841307
 41
5.069413185119628
 42
6.805084228515625
 43
5.027069091796875
 44
209.9733276367186
 45
296.9683227539062
 46
0.0
 47
0.0
 48
0.0
 49
0.0
140
0.0
141
0.0
142
1.0
143
1.0
 70
 11952
 72
     0
 73
     1
 74
     0
  7
1.ctb
 75
     0
147
1.0
148
-1105.008668280591
149
-2180.822690011071
100
AcDbLayout
  1
Model
 70
     1
 71
     0
 10
0.0
 20
0.0
 11
12.0
 21
9.0
 12
0.0
 22
0.0
 32
0.0
 14
0.0
 24
0.0
 34
0.0
 15
0.0
 25
0.0
 35
0.0
146
0.0
 13
0.0
 23
0.0
 33
0.0
 16
1.0
 26
0.0
 36
0.0
 17
0.0
 27
1.0
 37
0.0
 76
     0
330
19
331
4796
  0
LAYOUT
  5
4158
102
{ACAD_XDICTIONARY
360
4811
102
}
102
{ACAD_REACTORS
330
4155
102
}
330
4155
100
AcDbPlotSettings
  1

  2
SBC-SERVER에서 자동 HP LaserJet 4V
  4

  6

 40
0.0
 41
0.0
 42
0.0
 43
0.0
 44
0.0
 45
0.0
 46
0.0
 47
0.0
 48
0.0
 49
0.0
140
0.0
141
0.0
142
1.0
143
1.0
 70
   688
 72
     0
 73
     0
 74
     5
  7
1.ctb
 75
    16
147
1.0
148
0.0
149
0.0
100
AcDbLayout
  1
배치1
 70
     1
 71
     1
 10
0.0
 20
0.0
 11
12.0
 21
9.0
 12
0.0
 22
0.0
 32
0.0
 14
1.000000000000000E+20
 24
1.000000000000000E+20
 34
1.000000000000000E+20
 15
-1.000000000000000E+20
 25
-1.000000000000000E+20
 35
-1.000000000000000E+20
146
0.0
 13
0.0
 23
0.0
 33
0.0
 16
1.0
 26
0.0
 36
0.0
 17
0.0
 27
1.0
 37
0.0
 76
     0
330
16
  0
MATERIAL
  5
47AA
102
{ACAD_XDICTIONARY
360
47AB
102
}
102
{ACAD_REACTORS
330
477D
102
}
330
477D
100
AcDbMaterial
  1
ByBlock
 72
     0
 43
0.0208333333333333
 43
0.0
 43
0.0
 43
0.0
 43
0.0
 43
0.0208333333333333
 43
0.0
 43
0.0
 43
0.0
 43
0.0
 43
1.0
 43
0.0
 43
0.0
 43
0.0
 43
0.0
 43
1.0
 77
     0
 47
0.0208333333333333
 47
0.0
 47
0.0
 47
0.0
 47
0.0
 47
0.0208333333333333
 47
0.0
 47
0.0
 47
0.0
 47
0.0
 47
1.0
 47
0.0
 47
0.0
 47
0.0
 47
0.0
 47
1.0
171
     0
 49
0.0208333333333333
 49
0.0
 49
0.0
 49
0.0
 49
0.0
 49
0.0208333333333333
 49
0.0
 49
0.0
 49
0.0
 49
0.0
 49
1.0
 49
0.0
 49
0.0
 49
0.0
 49
0.0
 49
1.0
175
     0
142
0.0208333333333333
142
0.0
142
0.0
142
0.0
142
0.0
142
0.0208333333333333
142
0.0
142
0.0
142
0.0
142
0.0
142
1.0
142
0.0
142
0.0
142
0.0
142
0.0
142
1.0
179
     0
144
0.0208333333333333
144
0.0
144
0.0
144
0.0
144
0.0
144
0.0208333333333333
144
0.0
144
0.0
144
0.0
144
0.0
144
1.0
144
0.0
144
0.0
144
0.0
144
0.0
144
1.0
147
0.0208333333333333
147
0.0
147
0.0
147
0.0
147
0.0
147
0.0208333333333333
147
0.0
147
0.0
147
0.0
147
0.0
147
1.0
147
0.0
147
0.0
147
0.0
147
0.0
147
1.0
  0
MATERIAL
  5
47A2
102
{ACAD_XDICTIONARY
360
47A3
102
}
102
{ACAD_REACTORS
330
477D
102
}
330
477D
100
AcDbMaterial
  1
ByLayer
 72
     0
 43
0.0208333333333333
 43
0.0
 43
0.0
 43
0.0
 43
0.0
 43
0.0208333333333333
 43
0.0
 43
0.0
 43
0.0
 43
0.0
 43
1.0
 43
0.0
 43
0.0
 43
0.0
 43
0.0
 43
1.0
 77
     0
 47
0.0208333333333333
 47
0.0
 47
0.0
 47
0.0
 47
0.0
 47
0.0208333333333333
 47
0.0
 47
0.0
 47
0.0
 47
0.0
 47
1.0
 47
0.0
 47
0.0
 47
0.0
 47
0.0
 47
1.0
171
     0
 49
0.0208333333333333
 49
0.0
 49
0.0
 49
0.0
 49
0.0
 49
0.0208333333333333
 49
0.0
 49
0.0
 49
0.0
 49
0.0
 49
1.0
 49
0.0
 49
0.0
 49
0.0
 49
0.0
 49
1.0
175
     0
142
0.0208333333333333
142
0.0
142
0.0
142
0.0
142
0.0
142
0.0208333333333333
142
0.0
142
0.0
142
0.0
142
0.0
142
1.0
142
0.0
142
0.0
142
0.0
142
0.0
142
1.0
179
     0
144
0.0208333333333333
144
0.0
144
0.0
144
0.0
144
0.0
144
0.0208333333333333
144
0.0
144
0.0
144
0.0
144
0.0
144
1.0
144
0.0
144
0.0
144
0.0
144
0.0
144
1.0
147
0.0208333333333333
147
0.0
147
0.0
147
0.0
147
0.0
147
0.0208333333333333
147
0.0
147
0.0
147
0.0
147
0.0
147
1.0
147
0.0
147
0.0
147
0.0
147
0.0
147
1.0
  0
MATERIAL
  5
47B2
102
{ACAD_XDICTIONARY
360
47B3
102
}
102
{ACAD_REACTORS
330
477D
102
}
330
477D
100
AcDbMaterial
  1
Global
 72
     0
 43
0.0208333333333333
 43
0.0
 43
0.0
 43
0.0
 43
0.0
 43
0.0208333333333333
 43
0.0
 43
0.0
 43
0.0
 43
0.0
 43
1.0
 43
0.0
 43
0.0
 43
0.0
 43
0.0
 43
1.0
 77
     0
 47
0.0208333333333333
 47
0.0
 47
0.0
 47
0.0
 47
0.0
 47
0.0208333333333333
 47
0.0
 47
0.0
 47
0.0
 47
0.0
 47
1.0
 47
0.0
 47
0.0
 47
0.0
 47
0.0
 47
1.0
171
     0
 49
0.0208333333333333
 49
0.0
 49
0.0
 49
0.0
 49
0.0
 49
0.0208333333333333
 49
0.0
 49
0.0
 49
0.0
 49
0.0
 49
1.0
 49
0.0
 49
0.0
 49
0.0
 49
0.0
 49
1.0
175
     0
142
0.0208333333333333
142
0.0
142
0.0
142
0.0
142
0.0
142
0.0208333333333333
142
0.0
142
0.0
142
0.0
142
0.0
142
1.0
142
0.0
142
0.0
142
0.0
142
0.0
142
1.0
179
     0
144
0.0208333333333333
144
0.0
144
0.0
144
0.0
144
0.0
144
0.0208333333333333
144
0.0
144
0.0
144
0.0
144
0.0
144
1.0
144
0.0
144
0.0
144
0.0
144
0.0
144
1.0
147
0.0208333333333333
147
0.0
147
0.0
147
0.0
147
0.0
147
0.0208333333333333
147
0.0
147
0.0
147
0.0
147
0.0
147
1.0
147
0.0
147
0.0
147
0.0
147
0.0
147
1.0
  0
MLEADERSTYLE
  5
47EE
102
{ACAD_REACTORS
330
47ED
102
}
330
47ED
100
AcDbMLeaderStyle
170
     2
171
     1
172
     0
 90
        2
 40
0.0
 41
0.0
173
     1
 91
-1056964608
340
13
 92
       -2
290
     1
 42
0.09
291
     1
 43
0.36
  3
Standard
 44
0.18
300

342
10
174
     1
178
     6
175
     1
176
     0
 93
-1056964608
 45
0.18
292
     0
297
     0
 46
0.18
 94
-1056964608
 47
1.0
 49
1.0
140
1.0
293
     1
141
0.0
294
     1
177
     0
142
1.0
295
     0
296
     0
143
0.125
1001
ACAD_MLEADERVER
1070
     2
  0
MLINESTYLE
  5
1C
102
{ACAD_REACTORS
330
E
102
}
330
E
100
AcDbMlineStyle
  2
STANDARD
 70
     0
  3

 62
     0
 51
90.0
 52
90.0
 71
     2
 49
0.5
 62
   256
  6
BYLAYER
 49
-0.5
 62
   256
  6
BYLAYER
  0
ACDBPLACEHOLDER
  5
4154
102
{ACAD_REACTORS
330
4153
102
}
330
4153
  0
SCALE
  5
47CC
102
{ACAD_REACTORS
330
47CB
102
}
330
47CB
100
AcDbScale
 70
     0
300
1:1
140
1.0
141
1.0
290
     1
  0
SCALE
  5
47CD
102
{ACAD_REACTORS
330
47CB
102
}
330
47CB
100
AcDbScale
 70
     0
300
1:2
140
1.0
141
2.0
290
     0
  0
SCALE
  5
47CE
102
{ACAD_REACTORS
330
47CB
102
}
330
47CB
100
AcDbScale
 70
     0
300
1:4
140
1.0
141
4.0
290
     0
  0
SCALE
  5
47CF
102
{ACAD_REACTORS
330
47CB
102
}
330
47CB
100
AcDbScale
 70
     0
300
1:5
140
1.0
141
5.0
290
     0
  0
SCALE
  5
47D0
102
{ACAD_REACTORS
330
47CB
102
}
330
47CB
100
AcDbScale
 70
     0
300
1:8
140
1.0
141
8.0
290
     0
  0
SCALE
  5
47D1
102
{ACAD_REACTORS
330
47CB
102
}
330
47CB
100
AcDbScale
 70
     0
300
1:10
140
1.0
141
10.0
290
     0
  0
SCALE
  5
47D2
102
{ACAD_REACTORS
330
47CB
102
}
330
47CB
100
AcDbScale
 70
     0
300
1:16
140
1.0
141
16.0
290
     0
  0
SCALE
  5
47D3
102
{ACAD_REACTORS
330
47CB
102
}
330
47CB
100
AcDbScale
 70
     0
300
1:20
140
1.0
141
20.0
290
     0
  0
SCALE
  5
47D4
102
{ACAD_REACTORS
330
47CB
102
}
330
47CB
100
AcDbScale
 70
     0
300
1:30
140
1.0
141
30.0
290
     0
  0
SCALE
  5
47D5
102
{ACAD_REACTORS
330
47CB
102
}
330
47CB
100
AcDbScale
 70
     0
300
1:40
140
1.0
141
40.0
290
     0
  0
SCALE
  5
47D6
102
{ACAD_REACTORS
330
47CB
102
}
330
47CB
100
AcDbScale
 70
     0
300
1:50
140
1.0
141
50.0
290
     0
  0
SCALE
  5
47D7
102
{ACAD_REACTORS
330
47CB
102
}
330
47CB
100
AcDbScale
 70
     0
300
1:100
140
1.0
141
100.0
290
     0
  0
SCALE
  5
47D8
102
{ACAD_REACTORS
330
47CB
102
}
330
47CB
100
AcDbScale
 70
     0
300
2:1
140
2.0
141
1.0
290
     0
  0
SCALE
  5
47D9
102
{ACAD_REACTORS
330
47CB
102
}
330
47CB
100
AcDbScale
 70
     0
300
4:1
140
4.0
141
1.0
290
     0
  0
SCALE
  5
47DA
102
{ACAD_REACTORS
330
47CB
102
}
330
47CB
100
AcDbScale
 70
     0
300
8:1
140
8.0
141
1.0
290
     0
  0
SCALE
  5
47DB
102
{ACAD_REACTORS
330
47CB
102
}
330
47CB
100
AcDbScale
 70
     0
300
10:1
140
10.0
141
1.0
290
     0
  0
SCALE
  5
47DC
102
{ACAD_REACTORS
330
47CB
102
}
330
47CB
100
AcDbScale
 70
     0
300
100:1
140
100.0
141
1.0
290
     0
  0
SCALE
  5
47DD
102
{ACAD_REACTORS
330
47CB
102
}
330
47CB
100
AcDbScale
 70
     0
300
1/128" = 1'-0"
140
0.0078125
141
12.0
290
     0
  0
SCALE
  5
47DE
102
{ACAD_REACTORS
330
47CB
102
}
330
47CB
100
AcDbScale
 70
     0
300
1/64" = 1'-0"
140
0.015625
141
12.0
290
     0
  0
SCALE
  5
47DF
102
{ACAD_REACTORS
330
47CB
102
}
330
47CB
100
AcDbScale
 70
     0
300
1/32" = 1'-0"
140
0.03125
141
12.0
290
     0
  0
SCALE
  5
47E0
102
{ACAD_REACTORS
330
47CB
102
}
330
47CB
100
AcDbScale
 70
     0
300
1/16" = 1'-0"
140
0.0625
141
12.0
290
     0
  0
SCALE
  5
47E1
102
{ACAD_REACTORS
330
47CB
102
}
330
47CB
100
AcDbScale
 70
     0
300
3/32" = 1'-0"
140
0.09375
141
12.0
290
     0
  0
SCALE
  5
47E2
102
{ACAD_REACTORS
330
47CB
102
}
330
47CB
100
AcDbScale
 70
     0
300
1/8" = 1'-0"
140
0.125
141
12.0
290
     0
  0
SCALE
  5
47E3
102
{ACAD_REACTORS
330
47CB
102
}
330
47CB
100
AcDbScale
 70
     0
300
3/16" = 1'-0"
140
0.1875
141
12.0
290
     0
  0
SCALE
  5
47E4
102
{ACAD_REACTORS
330
47CB
102
}
330
47CB
100
AcDbScale
 70
     0
300
1/4" = 1'-0"
140
0.25
141
12.0
290
     0
  0
SCALE
  5
47E5
102
{ACAD_REACTORS
330
47CB
102
}
330
47CB
100
AcDbScale
 70
     0
300
3/8" = 1'-0"
140
0.375
141
12.0
290
     0
  0
SCALE
  5
47E6
102
{ACAD_REACTORS
330
47CB
102
}
330
47CB
100
AcDbScale
 70
     0
300
1/2" = 1'-0"
140
0.5
141
12.0
290
     0
  0
SCALE
  5
47E7
102
{ACAD_REACTORS
330
47CB
102
}
330
47CB
100
AcDbScale
 70
     0
300
3/4" = 1'-0"
140
0.75
141
12.0
290
     0
  0
SCALE
  5
47E8
102
{ACAD_REACTORS
330
47CB
102
}
330
47CB
100
AcDbScale
 70
     0
300
1" = 1'-0"
140
1.0
141
12.0
290
     0
  0
SCALE
  5
47E9
102
{ACAD_REACTORS
330
47CB
102
}
330
47CB
100
AcDbScale
 70
     0
300
1-1/2" = 1'-0"
140
1.5
141
12.0
290
     0
  0
SCALE
  5
47EA
102
{ACAD_REACTORS
330
47CB
102
}
330
47CB
100
AcDbScale
 70
     0
300
3" = 1'-0"
140
3.0
141
12.0
290
     0
  0
SCALE
  5
47EB
102
{ACAD_REACTORS
330
47CB
102
}
330
47CB
100
AcDbScale
 70
     0
300
6" = 1'-0"
140
6.0
141
12.0
290
     0
  0
SCALE
  5
47EC
102
{ACAD_REACTORS
330
47CB
102
}
330
47CB
100
AcDbScale
 70
     0
300
1'-0" = 1'-0"
140
12.0
141
12.0
290
     0
  0
TABLESTYLE
  5
4780
102
{ACAD_XDICTIONARY
360
4809
102
}
102
{ACAD_REACTORS
330
477F
102
}
330
477F
100
AcDbTableStyle
  3
Standard
 70
     0
 71
     0
 40
0.06
 41
0.06
280
     0
281
     0
  7
STANDARD
140
0.18
170
     2
 62
     0
 63
     7
283
     0
274
    -2
284
     1
 64
     0
275
    -2
285
     1
 65
     0
276
    -2
286
     1
 66
     0
277
    -2
287
     1
 67
     0
278
    -2
288
     1
 68
     0
279
    -2
289
     1
 69
     0
  7
STANDARD
140
0.25
170
     5
 62
     0
 63
     7
283
     0
274
    -2
284
     1
 64
     0
275
    -2
285
     1
 65
     0
276
    -2
286
     1
 66
     0
277
    -2
287
     1
 67
     0
278
    -2
288
     1
 68
     0
279
    -2
289
     1
 69
     0
  7
STANDARD
140
0.18
170
     5
 62
     0
 63
     7
283
     0
274
    -2
284
     1
 64
     0
275
    -2
285
     1
 65
     0
276
    -2
286
     1
 66
     0
277
    -2
287
     1
 67
     0
278
    -2
288
     1
 68
     0
279
    -2
289
     1
 69
     0
  0
VISUALSTYLE
  5
47C0
102
{ACAD_REACTORS
330
47BA
102
}
330
47BA
100
AcDbVisualStyle
  2
2dWireframe
 70
     4
 71
     0
 72
     2
 73
     0
 90
        0
 40
-0.6
 41
-30.0
 62
     5
 63
     7
 74
     1
 91
        4
 64
     7
 65
   257
 75
     1
175
     1
 42
1.0
 92
        0
 66
   257
 43
1.0
 76
     1
 77
     6
 78
     2
 67
     7
 79
     5
170
     0
171
     0
290
     0
174
     0
 93
        1
 44
0.0
173
     0
291
     0
 45
0.0
1001
ACAD
1000
AcDbSavedByObjectVersion
1070
     0
  0
VISUALSTYLE
  5
47C2
102
{ACAD_REACTORS
330
47BA
102
}
330
47BA
100
AcDbVisualStyle
  2
3D Hidden
 70
     6
 71
     1
 72
     2
 73
     2
 90
        0
 40
-0.6
 41
-30.0
 62
     5
 63
     7
 74
     2
 91
        2
 64
     7
 65
   257
 75
     2
175
     1
 42
40.0
 92
        0
 66
   257
 43
1.0
 76
     1
 77
     6
 78
     2
 67
     7
 79
     3
170
     0
171
     0
290
     0
174
     0
 93
        1
 44
0.0
173
     0
291
     0
 45
0.0
1001
ACAD
1000
AcDbSavedByObjectVersion
1070
     0
  0
VISUALSTYLE
  5
47C1
102
{ACAD_REACTORS
330
47BA
102
}
330
47BA
100
AcDbVisualStyle
  2
3dWireframe
 70
     5
 71
     0
 72
     2
 73
     0
 90
        0
 40
-0.6
 41
-30.0
 62
     5
 63
     7
 74
     1
 91
        4
 64
     7
 65
   257
 75
     1
175
     1
 42
1.0
 92
        0
 66
   257
 43
1.0
 76
     1
 77
     6
 78
     2
 67
     7
 79
     5
170
     0
171
     0
290
     0
174
     0
 93
        1
 44
0.0
173
     0
291
     0
 45
0.0
1001
ACAD
1000
AcDbSavedByObjectVersion
1070
     0
  0
VISUALSTYLE
  5
47BF
102
{ACAD_REACTORS
330
47BA
102
}
330
47BA
100
AcDbVisualStyle
  2
Basic
 70
     7
 71
     1
 72
     0
 73
     1
 90
        0
 40
-0.6
 41
-30.0
 62
     5
 63
     7
 74
     0
 91
        4
 64
     7
 65
   257
 75
     1
175
     1
 42
1.0
 92
        8
 66
     7
 43
1.0
 76
     1
 77
     6
 78
     2
 67
     7
 79
     5
170
     0
171
     0
290
     0
174
     0
 93
        1
 44
0.0
173
     0
291
     1
 45
0.0
1001
ACAD
1000
AcDbSavedByObjectVersion
1070
     0
  0
VISUALSTYLE
  5
47C6
102
{ACAD_REACTORS
330
47BA
102
}
330
47BA
100
AcDbVisualStyle
  2
Brighten
 70
    12
 71
     2
 72
     2
 73
     0
 90
        0
 40
-0.6
 41
-30.0
 62
     5
 63
     7
 74
     1
 91
        4
 64
     7
 65
   257
 75
     1
175
     1
 42
1.0
 92
        8
 66
     7
 43
1.0
 76
     1
 77
     6
 78
     2
 67
     7
 79
     5
170
     0
171
     0
290
     0
174
     0
 93
        1
 44
50.0
173
     0
291
     1
 45
0.0
1001
ACAD
1000
AcDbSavedByObjectVersion
1070
     0
  0
VISUALSTYLE
  5
47CA
102
{ACAD_REACTORS
330
47BA
102
}
330
47BA
100
AcDbVisualStyle
  2
ColorChange
 70
    16
 71
     2
 72
     2
 73
     3
 90
        0
 40
-0.6
 41
-30.0
 62
     5
 63
     8
 74
     1
 91
        4
 64
     7
 65
   257
 75
     1
175
     1
 42
1.0
 92
        8
 66
     8
 43
1.0
 76
     1
 77
     6
 78
     2
 67
     7
 79
     5
170
     0
171
     0
290
     0
174
     0
 93
        1
 44
0.0
173
     0
291
     1
 45
0.0
1001
ACAD
1000
AcDbSavedByObjectVersion
1070
     0
  0
VISUALSTYLE
  5
47C3
102
{ACAD_REACTORS
330
47BA
102
}
330
47BA
100
AcDbVisualStyle
  2
Conceptual
 70
     9
 71
     3
 72
     2
 73
     0
 90
        0
 40
-0.6
 41
-30.0
 62
     5
 63
     7
 74
     2
 91
        2
 64
     7
 65
   257
 75
     1
175
     1
 42
40.0
 92
        8
 66
     7
 43
1.0
 76
     1
 77
     6
 78
     2
 67
     7
 79
     3
170
     0
171
     0
290
     0
174
     0
 93
        1
 44
0.0
173
     0
291
     0
 45
0.0
1001
ACAD
1000
AcDbSavedByObjectVersion
1070
     0
  0
VISUALSTYLE
  5
47C5
102
{ACAD_REACTORS
330
47BA
102
}
330
47BA
100
AcDbVisualStyle
  2
Dim
 70
    11
 71
     2
 72
     2
 73
     0
 90
        0
 40
-0.6
 41
-30.0
 62
     5
 63
     7
 74
     1
 91
        4
 64
     7
 65
   257
 75
     1
175
     1
 42
1.0
 92
        8
 66
     7
 43
1.0
 76
     1
 77
     6
 78
     2
 67
     7
 79
     5
170
     0
171
     0
290
     0
174
     0
 93
        1
 44
-50.0
173
     0
291
     1
 45
0.0
1001
ACAD
1000
AcDbSavedByObjectVersion
1070
     0
  0
VISUALSTYLE
  5
47C9
102
{ACAD_REACTORS
330
47BA
102
}
330
47BA
100
AcDbVisualStyle
  2
Facepattern
 70
    15
 71
     2
 72
     2
 73
     0
 90
        0
 40
-0.6
 41
-30.0
 62
     5
 63
     7
 74
     1
 91
        4
 64
     7
 65
   257
 75
     1
175
     1
 42
1.0
 92
        8
 66
     7
 43
1.0
 76
     1
 77
     6
 78
     2
 67
     7
 79
     5
170
     0
171
     0
290
     0
174
     0
 93
        1
 44
0.0
173
     0
291
     1
 45
0.0
1001
ACAD
1000
AcDbSavedByObjectVersion
1070
     0
  0
VISUALSTYLE
  5
47BB
102
{ACAD_REACTORS
330
47BA
102
}
330
47BA
100
AcDbVisualStyle
  2
Flat
 70
     0
 71
     2
 72
     1
 73
     1
 90
        2
 40
-0.6
 41
30.0
 62
     5
 63
     7
 74
     0
 91
        4
 64
     7
 65
   257
 75
     1
175
     1
 42
1.0
 92
        8
 66
     7
 43
1.0
 76
     1
 77
     6
 78
     2
 67
     7
 79
     5
170
     0
171
     0
290
     0
174
     0
 93
       13
 44
0.0
173
     0
291
     1
 45
0.0
1001
ACAD
1000
AcDbSavedByObjectVersion
1070
     0
  0
VISUALSTYLE
  5
47BC
102
{ACAD_REACTORS
330
47BA
102
}
330
47BA
100
AcDbVisualStyle
  2
FlatWithEdges
 70
     1
 71
     2
 72
     1
 73
     1
 90
        2
 40
-0.6
 41
30.0
 62
     5
 63
     7
 74
     1
 91
        4
 64
     7
 65
   257
 75
     1
175
     1
 42
1.0
 92
        0
 66
   257
 43
1.0
 76
     1
 77
     6
 78
     2
 67
     7
 79
     5
170
     0
171
     0
290
     0
174
     0
 93
       13
 44
0.0
173
     0
291
     1
 45
0.0
1001
ACAD
1000
AcDbSavedByObjectVersion
1070
     0
  0
VISUALSTYLE
  5
47BD
102
{ACAD_REACTORS
330
47BA
102
}
330
47BA
100
AcDbVisualStyle
  2
Gouraud
 70
     2
 71
     2
 72
     2
 73
     1
 90
        2
 40
-0.6
 41
30.0
 62
     5
 63
     7
 74
     0
 91
        4
 64
     7
 65
   257
 75
     1
175
     1
 42
1.0
 92
        0
 66
     7
 43
1.0
 76
     1
 77
     6
 78
     2
 67
     7
 79
     5
170
     0
171
     0
290
     0
174
     0
 93
       13
 44
0.0
173
     0
291
     1
 45
0.0
1001
ACAD
1000
AcDbSavedByObjectVersion
1070
     0
  0
VISUALSTYLE
  5
47BE
102
{ACAD_REACTORS
330
47BA
102
}
330
47BA
100
AcDbVisualStyle
  2
GouraudWithEdges
 70
     3
 71
     2
 72
     2
 73
     1
 90
        2
 40
-0.6
 41
30.0
 62
     5
 63
     7
 74
     1
 91
        4
 64
     7
 65
   257
 75
     1
175
     1
 42
1.0
 92
        0
 66
   257
 43
1.0
 76
     1
 77
     6
 78
     2
 67
     7
 79
     5
170
     0
171
     0
290
     0
174
     0
 93
       13
 44
0.0
173
     0
291
     1
 45
0.0
1001
ACAD
1000
AcDbSavedByObjectVersion
1070
     0
  0
VISUALSTYLE
  5
47C8
102
{ACAD_REACTORS
330
47BA
102
}
330
47BA
100
AcDbVisualStyle
  2
Linepattern
 70
    14
 71
     2
 72
     2
 73
     0
 90
        0
 40
-0.6
 41
-30.0
 62
     5
 63
     7
 74
     1
 91
        4
 64
     7
 65
   257
 75
     7
175
     7
 42
1.0
 92
        8
 66
     7
 43
1.0
 76
     1
 77
     6
 78
     2
 67
     7
 79
     5
170
     0
171
     0
290
     0
174
     0
 93
        1
 44
0.0
173
     0
291
     1
 45
0.0
1001
ACAD
1000
AcDbSavedByObjectVersion
1070
     0
  0
VISUALSTYLE
  5
47C4
102
{ACAD_REACTORS
330
47BA
102
}
330
47BA
100
AcDbVisualStyle
  2
Realistic
 70
     8
 71
     2
 72
     2
 73
     0
 90
        0
 40
-0.6
 41
-30.0
 62
     5
 63
     7
 74
     1
 91
        0
 64
     7
 65
   257
 75
     1
175
     1
 42
1.0
 92
        8
 66
     8
 43
1.0
 76
     1
 77
     6
 78
     2
 67
     7
 79
     5
170
     0
171
     0
290
     0
174
     0
 93
       13
 44
0.0
173
     0
291
     0
 45
0.0
1001
ACAD
1000
AcDbSavedByObjectVersion
1070
     0
  0
VISUALSTYLE
  5
47C7
102
{ACAD_REACTORS
330
47BA
102
}
330
47BA
100
AcDbVisualStyle
  2
Thicken
 70
    13
 71
     2
 72
     2
 73
     0
 90
        0
 40
-0.6
 41
-30.0
 62
     5
 63
     7
 74
     1
 91
        4
 64
     7
 65
   257
 75
     1
175
     1
 42
1.0
 92
       12
 66
     7
 43
1.0
 76
     1
 77
     6
 78
     2
 67
     7
 79
     5
170
     0
171
     0
290
     0
174
     0
 93
        1
 44
0.0
173
     0
291
     1
 45
0.0
1001
ACAD
1000
AcDbSavedByObjectVersion
1070
     0
  0
DICTIONARYVAR
  5
4807
102
{ACAD_REACTORS
330
1BF
102
}
330
1BF
100
DictionaryVariables
280
     0
  1
1:1
  0
DICTIONARYVAR
  5
4806
102
{ACAD_REACTORS
330
1BF
102
}
330
1BF
100
DictionaryVariables
280
     0
  1
STANDARD
  0
DICTIONARYVAR
  5
4794
102
{ACAD_REACTORS
330
1BF
102
}
330
1BF
100
DictionaryVariables
280
     0
  1
STANDARD
  0
DICTIONARYVAR
  5
4169
102
{ACAD_REACTORS
330
1BF
102
}
330
1BF
100
DictionaryVariables
280
     0
  1
1
  0
DICTIONARYVAR
  5
4808
102
{ACAD_REACTORS
330
1BF
102
}
330
1BF
100
DictionaryVariables
280
     0
  1
0
  0
DICTIONARYVAR
  5
4795
102
{ACAD_REACTORS
330
1BF
102
}
330
1BF
100
DictionaryVariables
280
     0
  1

  0
DICTIONARYVAR
  5
1C0
102
{ACAD_REACTORS
330
1BF
102
}
330
1BF
100
DictionaryVariables
280
     0
  1
96
  0
DICTIONARY
  5
480F
330
4157
100
AcDbDictionary
280
     1
281
     1
  3
ACAD_XREC_ROUNDTRIP
360
4810
  0
DICTIONARY
  5
4811
330
4158
100
AcDbDictionary
280
     1
281
     1
  3
ACAD_XREC_ROUNDTRIP
360
4812
  0
DICTIONARY
  5
47AB
330
47AA
100
AcDbDictionary
280
     1
281
     1
  3
ACAD_XREC_ROUNDTRIP
360
4817
  3
BUMPTILE
360
47AD
  3
DIFFUSETILE
360
47AC
  3
OPACITYTILE
360
47B0
  3
REFLECTIONTILE
360
47AF
  3
REFRACTIONTILE
360
47B1
  3
SPECULARTILE
360
47AE
  0
DICTIONARY
  5
47A3
330
47A2
100
AcDbDictionary
280
     1
281
     1
  3
ACAD_XREC_ROUNDTRIP
360
4816
  3
BUMPTILE
360
47A5
  3
DIFFUSETILE
360
47A4
  3
OPACITYTILE
360
47A8
  3
REFLECTIONTILE
360
47A7
  3
REFRACTIONTILE
360
47A9
  3
SPECULARTILE
360
47A6
  0
DICTIONARY
  5
47B3
330
47B2
100
AcDbDictionary
280
     1
281
     1
  3
ACAD_XREC_ROUNDTRIP
360
4818
  3
BUMPTILE
360
47B5
  3
DIFFUSETILE
360
47B4
  3
OPACITYTILE
360
47B8
  3
REFLECTIONTILE
360
47B7
  3
REFRACTIONTILE
360
47B9
  3
SPECULARTILE
360
47B6
  0
DICTIONARY
  5
4809
330
4780
100
AcDbDictionary
280
     1
281
     1
  3
ACAD_ROUNDTRIP_2008_TABLESTYLE_CELLSTYLEMAP
360
480A
  3
ACAD_XREC_ROUNDTRIP
360
4815
  0
XRECORD
  5
4810
102
{ACAD_REACTORS
330
480F
102
}
330
480F
100
AcDbXrecord
280
     1
102
SHADEPLOT
 70
     0
102
SHADEPLOTRESLEVEL
 70
     2
102
SHADEPLOTCUSTOMDPI
 70
   300
  0
XRECORD
  5
4812
102
{ACAD_REACTORS
330
4811
102
}
330
4811
100
AcDbXrecord
280
     1
102
SHADEPLOT
 70
     0
102
SHADEPLOTRESLEVEL
 70
     2
102
SHADEPLOTCUSTOMDPI
 70
   300
  0
XRECORD
  5
4817
102
{ACAD_REACTORS
330
47AB
102
}
330
47AB
100
AcDbXrecord
280
     1
102
MATERIAL
148
0.0
149
0.0
149
0.0
 93
        0
 94
      127
282
     0
 72
     0
 77
     0
171
     0
175
     0
179
     0
273
     0
  0
XRECORD
  5
47AD
102
{ACAD_REACTORS
330
47AB
102
}
330
47AB
100
AcDbXrecord
280
     1
270
     1
271
     1
  0
XRECORD
  5
47AC
102
{ACAD_REACTORS
330
47AB
102
}
330
47AB
100
AcDbXrecord
280
     1
270
     1
271
     1
  0
XRECORD
  5
47B0
102
{ACAD_REACTORS
330
47AB
102
}
330
47AB
100
AcDbXrecord
280
     1
270
     1
271
     1
  0
XRECORD
  5
47AF
102
{ACAD_REACTORS
330
47AB
102
}
330
47AB
100
AcDbXrecord
280
     1
270
     1
271
     1
  0
XRECORD
  5
47B1
102
{ACAD_REACTORS
330
47AB
102
}
330
47AB
100
AcDbXrecord
280
     1
270
     1
271
     1
  0
XRECORD
  5
47AE
102
{ACAD_REACTORS
330
47AB
102
}
330
47AB
100
AcDbXrecord
280
     1
270
     1
271
     1
  0
XRECORD
  5
4816
102
{ACAD_REACTORS
330
47A3
102
}
330
47A3
100
AcDbXrecord
280
     1
102
MATERIAL
148
0.0
149
0.0
149
0.0
 93
        0
 94
      127
282
     0
 72
     0
 77
     0
171
     0
175
     0
179
     0
273
     0
  0
XRECORD
  5
47A5
102
{ACAD_REACTORS
330
47A3
102
}
330
47A3
100
AcDbXrecord
280
     1
270
     1
271
     1
  0
XRECORD
  5
47A4
102
{ACAD_REACTORS
330
47A3
102
}
330
47A3
100
AcDbXrecord
280
     1
270
     1
271
     1
  0
XRECORD
  5
47A8
102
{ACAD_REACTORS
330
47A3
102
}
330
47A3
100
AcDbXrecord
280
     1
270
     1
271
     1
  0
XRECORD
  5
47A7
102
{ACAD_REACTORS
330
47A3
102
}
330
47A3
100
AcDbXrecord
280
     1
270
     1
271
     1
  0
XRECORD
  5
47A9
102
{ACAD_REACTORS
330
47A3
102
}
330
47A3
100
AcDbXrecord
280
     1
270
     1
271
     1
  0
XRECORD
  5
47A6
102
{ACAD_REACTORS
330
47A3
102
}
330
47A3
100
AcDbXrecord
280
     1
270
     1
271
     1
  0
XRECORD
  5
4818
102
{ACAD_REACTORS
330
47B3
102
}
330
47B3
100
AcDbXrecord
280
     1
102
MATERIAL
148
0.0
149
0.0
149
0.0
 93
        0
 94
      127
282
     0
 72
     0
 77
     0
171
     0
175
     0
179
     0
273
     0
  0
XRECORD
  5
47B5
102
{ACAD_REACTORS
330
47B3
102
}
330
47B3
100
AcDbXrecord
280
     1
270
     1
271
     1
  0
XRECORD
  5
47B4
102
{ACAD_REACTORS
330
47B3
102
}
330
47B3
100
AcDbXrecord
280
     1
270
     1
271
     1
  0
XRECORD
  5
47B8
102
{ACAD_REACTORS
330
47B3
102
}
330
47B3
100
AcDbXrecord
280
     1
270
     1
271
     1
  0
XRECORD
  5
47B7
102
{ACAD_REACTORS
330
47B3
102
}
330
47B3
100
AcDbXrecord
280
     1
270
     1
271
     1
  0
XRECORD
  5
47B9
102
{ACAD_REACTORS
330
47B3
102
}
330
47B3
100
AcDbXrecord
280
     1
270
     1
271
     1
  0
XRECORD
  5
47B6
102
{ACAD_REACTORS
330
47B3
102
}
330
47B3
100
AcDbXrecord
280
     1
270
     1
271
     1
  0
CELLSTYLEMAP
  5
480A
102
{ACAD_REACTORS
330
4809
102
}
330
4809
100
AcDbCellStyleMap
 90
        3
300
CELLSTYLE
  1
TABLEFORMAT_BEGIN
 90
        5
170
     1
 91
        0
 92
    32768
 62
   257
 93
        1
300
CONTENTFORMAT
  1
CONTENTFORMAT_BEGIN
 90
        0
 91
        0
 92
        4
 93
        0
300

 40
0.0
140
1.0
 94
        5
 62
     0
340
10
144
0.25
309
CONTENTFORMAT_END
171
     0
 94
        6
 95
        1
302
GRIDFORMAT
  1
GRIDFORMAT_BEGIN
 90
        0
 91
        1
 62
     0
 92
       -2
340
0
 93
        0
 40
0.045
309
GRIDFORMAT_END
 95
        2
302
GRIDFORMAT
  1
GRIDFORMAT_BEGIN
 90
        0
 91
        1
 62
     0
 92
       -2
340
0
 93
        0
 40
0.045
309
GRIDFORMAT_END
 95
        4
302
GRIDFORMAT
  1
GRIDFORMAT_BEGIN
 90
        0
 91
        1
 62
     0
 92
       -2
340
0
 93
        0
 40
0.045
309
GRIDFORMAT_END
 95
        8
302
GRIDFORMAT
  1
GRIDFORMAT_BEGIN
 90
        0
 91
        1
 62
     0
 92
       -2
340
0
 93
        0
 40
0.045
309
GRIDFORMAT_END
 95
       16
302
GRIDFORMAT
  1
GRIDFORMAT_BEGIN
 90
        0
 91
        1
 62
     0
 92
       -2
340
0
 93
        0
 40
0.045
309
GRIDFORMAT_END
 95
       32
302
GRIDFORMAT
  1
GRIDFORMAT_BEGIN
 90
        0
 91
        1
 62
     0
 92
       -2
340
0
 93
        0
 40
0.045
309
GRIDFORMAT_END
309
TABLEFORMAT_END
  1
CELLSTYLE_BEGIN
 90
        1
 91
        1
300
_TITLE
309
CELLSTYLE_END
300
CELLSTYLE
  1
TABLEFORMAT_BEGIN
 90
        5
170
     1
 91
        0
 92
        0
 62
   257
 93
        1
300
CONTENTFORMAT
  1
CONTENTFORMAT_BEGIN
 90
        0
 91
        0
 92
        4
 93
        0
300

 40
0.0
140
1.0
 94
        5
 62
     0
340
10
144
0.18
309
CONTENTFORMAT_END
171
     0
 94
        6
 95
        1
302
GRIDFORMAT
  1
GRIDFORMAT_BEGIN
 90
        0
 91
        1
 62
     0
 92
       -2
340
0
 93
        0
 40
0.045
309
GRIDFORMAT_END
 95
        2
302
GRIDFORMAT
  1
GRIDFORMAT_BEGIN
 90
        0
 91
        1
 62
     0
 92
       -2
340
0
 93
        0
 40
0.045
309
GRIDFORMAT_END
 95
        4
302
GRIDFORMAT
  1
GRIDFORMAT_BEGIN
 90
        0
 91
        1
 62
     0
 92
       -2
340
0
 93
        0
 40
0.045
309
GRIDFORMAT_END
 95
        8
302
GRIDFORMAT
  1
GRIDFORMAT_BEGIN
 90
        0
 91
        1
 62
     0
 92
       -2
340
0
 93
        0
 40
0.045
309
GRIDFORMAT_END
 95
       16
302
GRIDFORMAT
  1
GRIDFORMAT_BEGIN
 90
        0
 91
        1
 62
     0
 92
       -2
340
0
 93
        0
 40
0.045
309
GRIDFORMAT_END
 95
       32
302
GRIDFORMAT
  1
GRIDFORMAT_BEGIN
 90
        0
 91
        1
 62
     0
 92
       -2
340
0
 93
        0
 40
0.045
309
GRIDFORMAT_END
309
TABLEFORMAT_END
  1
CELLSTYLE_BEGIN
 90
        2
 91
        1
300
_HEADER
309
CELLSTYLE_END
300
CELLSTYLE
  1
TABLEFORMAT_BEGIN
 90
        5
170
     1
 91
        0
 92
        0
 62
   257
 93
        1
300
CONTENTFORMAT
  1
CONTENTFORMAT_BEGIN
 90
        0
 91
        0
 92
        4
 93
        0
300

 40
0.0
140
1.0
 94
        2
 62
     0
340
10
144
0.18
309
CONTENTFORMAT_END
171
     0
 94
        6
 95
        1
302
GRIDFORMAT
  1
GRIDFORMAT_BEGIN
 90
        0
 91
        1
 62
     0
 92
       -2
340
0
 93
        0
 40
0.045
309
GRIDFORMAT_END
 95
        2
302
GRIDFORMAT
  1
GRIDFORMAT_BEGIN
 90
        0
 91
        1
 62
     0
 92
       -2
340
0
 93
        0
 40
0.045
309
GRIDFORMAT_END
 95
        4
302
GRIDFORMAT
  1
GRIDFORMAT_BEGIN
 90
        0
 91
        1
 62
     0
 92
       -2
340
0
 93
        0
 40
0.045
309
GRIDFORMAT_END
 95
        8
302
GRIDFORMAT
  1
GRIDFORMAT_BEGIN
 90
        0
 91
        1
 62
     0
 92
       -2
340
0
 93
        0
 40
0.045
309
GRIDFORMAT_END
 95
       16
302
GRIDFORMAT
  1
GRIDFORMAT_BEGIN
 90
        0
 91
        1
 62
     0
 92
       -2
340
0
 93
        0
 40
0.045
309
GRIDFORMAT_END
 95
       32
302
GRIDFORMAT
  1
GRIDFORMAT_BEGIN
 90
        0
 91
        1
 62
     0
 92
       -2
340
0
 93
        0
 40
0.045
309
GRIDFORMAT_END
309
TABLEFORMAT_END
  1
CELLSTYLE_BEGIN
 90
        3
 91
        2
300
_DATA
309
CELLSTYLE_END
  0
XRECORD
  5
4815
102
{ACAD_REACTORS
330
4809
102
}
330
4809
100
AcDbXrecord
280
     1
102
ACAD_ROUNDTRIP_PRE2007_TABLESTYLE
 90
        4
 91
        0
  1

 92
        4
 93
        0
  2

 94
        4
 95
        0
  3

  0
ENDSEC
  0
EOF
