  0
SECTION
  2
HEADER
  9
$ACADVER
  1
AC1015
  9
$ACADMAINTVER
 70
    20
  9
$DWGCODEPAGE
  3
ANSI_949
  9
$INSBASE
 10
0.0
 20
0.0
 30
0.0
  9
$EXTMIN
 10
7.130967561973105
 20
1.123780227351931
 30
0.0
  9
$EXTMAX
 10
422.90471079358
 20
218.9554291913325
 30
0.0
  9
$LIMMIN
 10
0.0
 20
0.0
  9
$LIMMAX
 10
420.0
 20
297.0
  9
$ORTHOMODE
 70
     0
  9
$REGENMODE
 70
     1
  9
$FILLMODE
 70
     1
  9
$QTEXTMODE
 70
     0
  9
$MIRRTEXT
 70
     1
  9
$LTSCALE
 40
10.0
  9
$ATTMODE
 70
     1
  9
$TEXTSIZE
 40
3.149999999999999
  9
$TRACEWID
 40
0.05
  9
$TEXTSTYLE
  7
H
  9
$CLAYER
  8
0
  9
$CELTYPE
  6
BYLAYER
  9
$CECOLOR
 62
   256
  9
$CELTSCALE
 40
1.0
  9
$DISPSILH
 70
     0
  9
$DIMSCALE
 40
1.5
  9
$DIMASZ
 40
2.5
  9
$DIMEXO
 40
0.8
  9
$DIMDLI
 40
0.8
  9
$DIMRND
 40
0.0
  9
$DIMDLE
 40
0.0
  9
$DIMEXE
 40
0.8
  9
$DIMTP
 40
0.0
  9
$DIMTM
 40
0.0
  9
$DIMTXT
 40
3.0
  9
$DIMCEN
 40
-1.0
  9
$DIMTSZ
 40
0.0
  9
$DIMTOL
 70
     0
  9
$DIMLIM
 70
     0
  9
$DIMTIH
 70
     0
  9
$DIMTOH
 70
     0
  9
$DIMSE1
 70
     0
  9
$DIMSE2
 70
     0
  9
$DIMTAD
 70
     3
  9
$DIMZIN
 70
     8
  9
$DIMBLK
  1

  9
$DIMASO
 70
     1
  9
$DIMSHO
 70
     1
  9
$DIMPOST
  1

  9
$DIMAPOST
  1

  9
$DIMALT
 70
     0
  9
$DIMALTD
 70
     2
  9
$DIMALTF
 40
25.4
  9
$DIMLFAC
 40
1.0
  9
$DIMTOFL
 70
     1
  9
$DIMTVP
 40
0.0
  9
$DIMTIX
 70
     0
  9
$DIMSOXD
 70
     0
  9
$DIMSAH
 70
     0
  9
$DIMBLK1
  1

  9
$DIMBLK2
  1

  9
$DIMSTYLE
  2
STANDARD
  9
$DIMCLRD
 70
   115
  9
$DIMCLRE
 70
   115
  9
$DIMCLRT
 70
     7
  9
$DIMTFAC
 40
1.0
  9
$DIMGAP
 40
1.0
  9
$DIMJUST
 70
     0
  9
$DIMSD1
 70
     0
  9
$DIMSD2
 70
     0
  9
$DIMTOLJ
 70
     1
  9
$DIMTZIN
 70
     0
  9
$DIMALTZ
 70
     0
  9
$DIMALTTZ
 70
     0
  9
$DIMUPT
 70
     0
  9
$DIMDEC
 70
     3
  9
$DIMTDEC
 70
     4
  9
$DIMALTU
 70
     2
  9
$DIMALTTD
 70
     2
  9
$DIMTXSTY
  7
STANDARD
  9
$DIMAUNIT
 70
     0
  9
$DIMADEC
 70
     0
  9
$DIMALTRND
 40
0.0
  9
$DIMAZIN
 70
     0
  9
$DIMDSEP
 70
    46
  9
$DIMATFIT
 70
     3
  9
$DIMFRAC
 70
     0
  9
$DIMLDRBLK
  1

  9
$DIMLUNIT
 70
     2
  9
$DIMLWD
 70
    -2
  9
$DIMLWE
 70
    -2
  9
$DIMTMOVE
 70
     0
  9
$LUNITS
 70
     2
  9
$LUPREC
 70
     4
  9
$SKETCHINC
 40
0.1
  9
$FILLETRAD
 40
0.5
  9
$AUNITS
 70
     0
  9
$AUPREC
 70
     0
  9
$MENU
  1
.
  9
$ELEVATION
 40
0.0
  9
$PELEVATION
 40
0.0
  9
$THICKNESS
 40
0.0
  9
$LIMCHECK
 70
     0
  9
$CHAMFERA
 40
0.5
  9
$CHAMFERB
 40
0.5
  9
$CHAMFERC
 40
1.0
  9
$CHAMFERD
 40
0.0
  9
$SKPOLY
 70
     1
  9
$TDCREATE
 40
2452464.575009942
  9
$TDUCREATE
 40
2452464.200009942
  9
$TDUPDATE
 40
2455643.496700741
  9
$TDUUPDATE
 40
2455643.121700741
  9
$TDINDWG
 40
0.7784017361
  9
$TDUSRTIMER
 40
0.7784017361
  9
$USRTIMER
 70
     1
  9
$ANGBASE
 50
0.0
  9
$ANGDIR
 70
     0
  9
$PDMODE
 70
     0
  9
$PDSIZE
 40
0.0
  9
$PLINEWID
 40
0.5
  9
$SPLFRAME
 70
     0
  9
$SPLINETYPE
 70
     6
  9
$SPLINESEGS
 70
     8
  9
$HANDSEED
  5
478C
  9
$SURFTAB1
 70
     6
  9
$SURFTAB2
 70
     6
  9
$SURFTYPE
 70
     6
  9
$SURFU
 70
     6
  9
$SURFV
 70
     6
  9
$UCSBASE
  2

  9
$UCSNAME
  2

  9
$UCSORG
 10
0.0
 20
0.0
 30
0.0
  9
$UCSXDIR
 10
1.0
 20
0.0
 30
0.0
  9
$UCSYDIR
 10
0.0
 20
1.0
 30
0.0
  9
$UCSORTHOREF
  2

  9
$UCSORTHOVIEW
 70
     0
  9
$UCSORGTOP
 10
0.0
 20
0.0
 30
0.0
  9
$UCSORGBOTTOM
 10
0.0
 20
0.0
 30
0.0
  9
$UCSORGLEFT
 10
0.0
 20
0.0
 30
0.0
  9
$UCSORGRIGHT
 10
0.0
 20
0.0
 30
0.0
  9
$UCSORGFRONT
 10
0.0
 20
0.0
 30
0.0
  9
$UCSORGBACK
 10
0.0
 20
0.0
 30
0.0
  9
$PUCSBASE
  2

  9
$PUCSNAME
  2

  9
$PUCSORG
 10
0.0
 20
0.0
 30
0.0
  9
$PUCSXDIR
 10
1.0
 20
0.0
 30
0.0
  9
$PUCSYDIR
 10
0.0
 20
1.0
 30
0.0
  9
$PUCSORTHOREF
  2

  9
$PUCSORTHOVIEW
 70
     0
  9
$PUCSORGTOP
 10
0.0
 20
0.0
 30
0.0
  9
$PUCSORGBOTTOM
 10
0.0
 20
0.0
 30
0.0
  9
$PUCSORGLEFT
 10
0.0
 20
0.0
 30
0.0
  9
$PUCSORGRIGHT
 10
0.0
 20
0.0
 30
0.0
  9
$PUCSORGFRONT
 10
0.0
 20
0.0
 30
0.0
  9
$PUCSORGBACK
 10
0.0
 20
0.0
 30
0.0
  9
$USERI1
 70
     0
  9
$USERI2
 70
   452
  9
$USERI3
 70
     1
  9
$USERI4
 70
     0
  9
$USERI5
 70
     0
  9
$USERR1
 40
0.0
  9
$USERR2
 40
0.0
  9
$USERR3
 40
0.0
  9
$USERR4
 40
0.0
  9
$USERR5
 40
0.0
  9
$WORLDVIEW
 70
     1
  9
$SHADEDGE
 70
     3
  9
$SHADEDIF
 70
    70
  9
$TILEMODE
 70
     1
  9
$MAXACTVP
 70
    48
  9
$PINSBASE
 10
0.0
 20
0.0
 30
0.0
  9
$PLIMCHECK
 70
     0
  9
$PEXTMIN
 10
1.000000000000000E+20
 20
1.000000000000000E+20
 30
1.000000000000000E+20
  9
$PEXTMAX
 10
-1.000000000000000E+20
 20
-1.000000000000000E+20
 30
-1.000000000000000E+20
  9
$PLIMMIN
 10
0.0
 20
0.0
  9
$PLIMMAX
 10
12.0
 20
9.0
  9
$UNITMODE
 70
     0
  9
$VISRETAIN
 70
     1
  9
$PLINEGEN
 70
     0
  9
$PSLTSCALE
 70
     1
  9
$TREEDEPTH
 70
  3020
  9
$CMLSTYLE
  2
STANDARD
  9
$CMLJUST
 70
     0
  9
$CMLSCALE
 40
1.0
  9
$PROXYGRAPHICS
 70
     1
  9
$MEASUREMENT
 70
     0
  9
$CELWEIGHT
370
    -1
  9
$ENDCAPS
280
     0
  9
$JOINSTYLE
280
     0
  9
$LWDISPLAY
290
     0
  9
$INSUNITS
 70
     0
  9
$HYPERLINKBASE
  1

  9
$STYLESHEET
  1
1.CTB
  9
$XEDIT
290
     1
  9
$CEPSNTYPE
380
     0
  9
$PSTYLEMODE
290
     1
  9
$FINGERPRINTGUID
  2
{3172CC46-24FC-4775-9257-50F4EA4939B8}
  9
$VERSIONGUID
  2
{B48E61B4-46F3-47C8-9989-315C462DEB04}
  9
$EXTNAMES
290
     1
  9
$PSVPSCALE
 40
0.0
  9
$OLESTARTUP
290
     0
  0
ENDSEC
  0
SECTION
  2
CLASSES
  0
CLASS
  1
DICTIONARYVAR
  2
AcDbDictionaryVar
  3
ObjectDBX Classes
 90
        0
280
     0
281
     0
  0
CLASS
  1
ACDBDICTIONARYWDFLT
  2
AcDbDictionaryWithDefault
  3
ObjectDBX Classes
 90
        0
280
     0
281
     0
  0
CLASS
  1
ACDBPLACEHOLDER
  2
AcDbPlaceHolder
  3
ObjectDBX Classes
 90
        0
280
     0
281
     0
  0
CLASS
  1
LAYOUT
  2
AcDbLayout
  3
ObjectDBX Classes
 90
        0
280
     0
281
     0
  0
CLASS
  1
TABLESTYLE
  2
AcDbTableStyle
  3
ObjectDBX Classes
 90
     4095
280
     0
281
     0
  0
CLASS
  1
MATERIAL
  2
AcDbMaterial
  3
ObjectDBX Classes
 90
     1153
280
     0
281
     0
  0
CLASS
  1
VISUALSTYLE
  2
AcDbVisualStyle
  3
ObjectDBX Classes
 90
     4095
280
     0
281
     0
  0
CLASS
  1
SCALE
  2
AcDbScale
  3
ObjectDBX Classes
 90
     1153
280
     0
281
     0
  0
CLASS
  1
MLEADERSTYLE
  2
AcDbMLeaderStyle
  3
ACDB_MLEADERSTYLE_CLASS
 90
     4095
280
     0
281
     0
  0
CLASS
  1
CELLSTYLEMAP
  2
AcDbCellStyleMap
  3
ObjectDBX Classes
 90
     1152
280
     0
281
     0
  0
ENDSEC
  0
SECTION
  2
TABLES
  0
TABLE
  2
VPORT
  5
8
330
0
100
AcDbSymbolTable
 70
     1
  0
VPORT
  5
4709
330
8
100
AcDbSymbolTableRecord
100
AcDbViewportTableRecord
  2
*Active
 70
     0
 10
0.0
 20
0.0
 11
1.0
 21
1.0
 12
258.600495139307
 22
116.7722010156571
 13
0.0
 23
0.0
 14
0.5
 24
0.5
 15
0.5
 25
0.5
 16
0.0
 26
0.0
 36
1.0
 17
0.0
 27
0.0
 37
0.0
 40
239.5083919064832
 41
2.336349924585218
 42
50.0
 43
0.0
 44
0.0
 50
0.0
 51
0.0
 71
     0
 72
   100
 73
     1
 74
     1
 75
     0
 76
     0
 77
     0
 78
     0
281
     0
 65
     1
110
0.0
120
0.0
130
0.0
111
1.0
121
0.0
131
0.0
112
0.0
122
1.0
132
0.0
 79
     0
146
0.0
  0
ENDTAB
  0
TABLE
  2
LTYPE
  5
5
330
0
100
AcDbSymbolTable
 70
     9
  0
LTYPE
  5
13
330
5
100
AcDbSymbolTableRecord
100
AcDbLinetypeTableRecord
  2
BYBLOCK
 70
     0
  3

 72
    65
 73
     0
 40
0.0
  0
LTYPE
  5
14
330
5
100
AcDbSymbolTableRecord
100
AcDbLinetypeTableRecord
  2
BYLAYER
 70
     0
  3

 72
    65
 73
     0
 40
0.0
  0
LTYPE
  5
15
330
5
100
AcDbSymbolTableRecord
100
AcDbLinetypeTableRecord
  2
CONTINUOUS
 70
     0
  3
Solid line
 72
    65
 73
     0
 40
0.0
  0
LTYPE
  5
5D
330
5
100
AcDbSymbolTableRecord
100
AcDbLinetypeTableRecord
  2
CENTER
 70
     0
  3
Center ____ _ ____ _ ____ _ ____ _ ____ _ ____
 72
    65
 73
     4
 40
2.0
 49
1.25
 74
     0
 49
-0.25
 74
     0
 49
0.25
 74
     0
 49
-0.25
 74
     0
  0
LTYPE
  5
5E
330
5
100
AcDbSymbolTableRecord
100
AcDbLinetypeTableRecord
  2
HIDDEN
 70
     0
  3
Hidden __ __ __ __ __ __ __ __ __ __ __ __ __ _
 72
    65
 73
     2
 40
0.375
 49
0.25
 74
     0
 49
-0.125
 74
     0
  0
LTYPE
  5
2ACA
330
5
100
AcDbSymbolTableRecord
100
AcDbLinetypeTableRecord
  2
2
 70
     0
  3
MEDUSA PEN 2
 72
    65
 73
     4
 40
15.1
 49
9.5
 74
     0
 49
-1.6
 74
     0
 49
2.399999999999999
 74
     0
 49
-1.6
 74
     0
  0
ENDTAB
  0
TABLE
  2
LAYER
  5
2
330
0
100
AcDbSymbolTable
 70
    37
  0
LAYER
  5
F
102
{ACAD_XDICTIONARY
360
476F
102
}
330
2
100
AcDbSymbolTableRecord
100
AcDbLayerTableRecord
  2
0
 70
     0
 62
     7
  6
CONTINUOUS
370
    -3
390
4154
  0
LAYER
  5
55
102
{ACAD_XDICTIONARY
360
4771
102
}
330
2
100
AcDbSymbolTableRecord
100
AcDbLayerTableRecord
  2
9
 70
     0
 62
     3
  6
CONTINUOUS
370
    -3
390
4154
  0
LAYER
  5
61
102
{ACAD_XDICTIONARY
360
4773
102
}
330
2
100
AcDbSymbolTableRecord
100
AcDbLayerTableRecord
  2
1
 70
     0
 62
     1
  6
CENTER
370
    -3
390
4154
  0
LAYER
  5
62
102
{ACAD_XDICTIONARY
360
4775
102
}
330
2
100
AcDbSymbolTableRecord
100
AcDbLayerTableRecord
  2
2
 70
     0
 62
     2
  6
HIDDEN
370
    -3
390
4154
  0
LAYER
  5
24EF
330
2
100
AcDbSymbolTableRecord
100
AcDbLayerTableRecord
  2
DEFPOINTS
 70
     0
 62
     7
  6
CONTINUOUS
290
     0
370
    -3
390
4154
  0
LAYER
  5
2AD3
102
{ACAD_XDICTIONARY
360
4777
102
}
330
2
100
AcDbSymbolTableRecord
100
AcDbLayerTableRecord
  2
SL2-11
 70
     0
 62
     1
  6
2
370
    -3
390
4154
  0
ENDTAB
  0
TABLE
  2
STYLE
  5
3
330
0
100
AcDbSymbolTable
 70
     7
  0
STYLE
  5
10
330
3
100
AcDbSymbolTableRecord
100
AcDbTextStyleTableRecord
  2
STANDARD
 70
     0
 40
0.0
 41
1.0
 50
0.0
 71
     0
 42
3.0
  3
romans.shx
  4

  0
STYLE
  5
167
330
3
100
AcDbSymbolTableRecord
100
AcDbTextStyleTableRecord
  2
STYLE1
 70
     0
 40
0.0
 41
1.0
 50
0.0
 71
     0
 42
3.149999999999999
  3
Gulim.ttf
  4

1001
ACAD
1000
Gulim
1071
    33074
  0
STYLE
  5
2AD7
330
3
100
AcDbSymbolTableRecord
100
AcDbTextStyleTableRecord
  2
T2
 70
     0
 40
0.0
 41
1.0
 50
0.1
 71
     0
 42
3.5
  3
monotxt
  4

  0
STYLE
  5
4706
330
3
100
AcDbSymbolTableRecord
100
AcDbTextStyleTableRecord
  2
H
 70
     0
 40
0.0
 41
1.0
 50
0.0
 71
     0
 42
3.149999999999999
  3
txt.shx
  4

  0
ENDTAB
  0
TABLE
  2
VIEW
  5
6
330
0
100
AcDbSymbolTable
 70
     0
  0
ENDTAB
  0
TABLE
  2
UCS
  5
7
330
0
100
AcDbSymbolTable
 70
     0
  0
ENDTAB
  0
TABLE
  2
APPID
  5
9
330
0
100
AcDbSymbolTable
 70
     4
  0
APPID
  5
11
330
9
100
AcDbSymbolTableRecord
100
AcDbRegAppTableRecord
  2
ACAD
 70
     0
  0
APPID
  5
2325
330
9
100
AcDbSymbolTableRecord
100
AcDbRegAppTableRecord
  2
MCLBOMATTRIB
 70
     0
  0
APPID
  5
2326
330
9
100
AcDbSymbolTableRecord
100
AcDbRegAppTableRecord
  2
MCLBOM
 70
     0
  0
APPID
  5
4762
330
9
100
AcDbSymbolTableRecord
100
AcDbRegAppTableRecord
  2
ACAD_MLEADERVER
 70
     0
  0
ENDTAB
  0
TABLE
  2
DIMSTYLE
  5
A
330
0
100
AcDbSymbolTable
 70
     2
100
AcDbDimStyleTable
 71
     1
340
1D
  0
DIMSTYLE
105
1D
102
{ACAD_REACTORS
330
4625
330
4672
330
467F
330
468C
330
469A
330
46A7
330
46B4
330
46D5
330
46E2
102
}
330
A
100
AcDbSymbolTableRecord
100
AcDbDimStyleTableRecord
  2
STANDARD
 70
     0
 41
2.0
140
3.0
176
     2
177
     2
178
     4
340
10
  0
ENDTAB
  0
TABLE
  2
BLOCK_RECORD
  5
1
330
0
100
AcDbSymbolTable
 70
    38
  0
BLOCK_RECORD
  5
19
330
1
100
AcDbSymbolTableRecord
100
AcDbBlockTableRecord
  2
*MODEL_SPACE
340
4157
  0
BLOCK_RECORD
  5
16
330
1
100
AcDbSymbolTableRecord
100
AcDbBlockTableRecord
  2
*PAPER_SPACE
340
4158
  0
BLOCK_RECORD
  5
1B8B
330
1
100
AcDbSymbolTableRecord
100
AcDbBlockTableRecord
  2
MCLBOMATTRIB
340
0
102
{BLKREFS
331
247E
331
238D
102
}
  0
BLOCK_RECORD
  5
4626
330
1
100
AcDbSymbolTableRecord
100
AcDbBlockTableRecord
  2
*D29
340
0
  0
BLOCK_RECORD
  5
4673
330
1
100
AcDbSymbolTableRecord
100
AcDbBlockTableRecord
  2
*D30
340
0
  0
BLOCK_RECORD
  5
4680
330
1
100
AcDbSymbolTableRecord
100
AcDbBlockTableRecord
  2
*D31
340
0
  0
BLOCK_RECORD
  5
468D
330
1
100
AcDbSymbolTableRecord
100
AcDbBlockTableRecord
  2
*D32
340
0
  0
BLOCK_RECORD
  5
469B
330
1
100
AcDbSymbolTableRecord
100
AcDbBlockTableRecord
  2
*D33
340
0
  0
BLOCK_RECORD
  5
46A8
330
1
100
AcDbSymbolTableRecord
100
AcDbBlockTableRecord
  2
*D34
340
0
  0
BLOCK_RECORD
  5
46B5
330
1
100
AcDbSymbolTableRecord
100
AcDbBlockTableRecord
  2
*D35
340
0
  0
BLOCK_RECORD
  5
46D6
330
1
100
AcDbSymbolTableRecord
100
AcDbBlockTableRecord
  2
*D36
340
0
  0
BLOCK_RECORD
  5
46E3
330
1
100
AcDbSymbolTableRecord
100
AcDbBlockTableRecord
  2
*D37
340
0
  0
ENDTAB
  0
ENDSEC
  0
SECTION
  2
BLOCKS
  0
BLOCK
  5
1A
330
19
100
AcDbEntity
  8
0
100
AcDbBlockBegin
  2
*MODEL_SPACE
 70
     0
 10
0.0
 20
0.0
 30
0.0
  3
*MODEL_SPACE
  1

  0
ENDBLK
  5
1B
330
19
100
AcDbEntity
  8
0
100
AcDbBlockEnd
  0
BLOCK
  5
17
330
16
100
AcDbEntity
 67
     1
  8
0
100
AcDbBlockBegin
  2
*PAPER_SPACE
 70
     0
 10
0.0
 20
0.0
 30
0.0
  3
*PAPER_SPACE
  1

  0
ENDBLK
  5
18
330
16
100
AcDbEntity
 67
     1
  8
0
100
AcDbBlockEnd
  0
BLOCK
  5
1B8C
330
1B8B
100
AcDbEntity
  8
0
100
AcDbBlockBegin
  2
MCLBOMATTRIB
 70
     2
 10
0.0
 20
0.0
 30
0.0
  3
MCLBOMATTRIB
  1
MCLBOMATTRIB
  0
ENDBLK
  5
1B8D
330
1B8B
100
AcDbEntity
  8
0
100
AcDbBlockEnd
  0
BLOCK
  5
4632
330
4626
100
AcDbEntity
  8
0
100
AcDbBlockBegin
  2
*D29
 70
     1
 10
0.0
 20
0.0
 30
0.0
  3
*D29
  1

  0
LINE
  5
4627
330
4626
100
AcDbEntity
  8
0
 62
   115
370
    -2
100
AcDbLine
 10
89.33031126066579
 20
101.0359344744661
 30
0.0
 11
81.9406911955888
 21
88.23673904491483
 31
0.0
  0
LINE
  5
4628
330
4626
100
AcDbEntity
  8
0
 62
   115
370
    -2
100
AcDbLine
 10
140.0303153530465
 20
101.0359424136584
 30
0.0
 11
147.4199400140709
 21
88.23673882651453
 31
0.0
  0
ARC
  5
4629
330
4626
100
AcDbEntity
  8
0
 62
   115
370
    -2
100
AcDbCircle
 10
114.68031579397
 20
144.9434235340393
 30
0.0
 40
64.27924163116156
100
AcDbArc
 50
243.343060731551
 51
296.656938886239
  0
SOLID
  5
462A
330
4626
100
AcDbEntity
  8
0
 62
   115
100
AcDbTrace
 10
85.54501893982369
 20
86.94634715485177
 30
0.0
 11
86.13817603888138
 21
88.04664922966464
 31
0.0
 12
82.54069126491399
 22
89.27596948943124
 32
0.0
 13
82.54069126491399
 23
89.27596948943124
 33
0.0
  0
SOLID
  5
462B
330
4626
100
AcDbEntity
  8
0
 62
   115
100
AcDbTrace
 10
143.2224551695103
 20
88.04664903926502
 30
0.0
 11
143.815612261228
 21
86.94634696049531
 31
0.0
 12
146.8199399516782
 22
89.27596927503342
 32
0.0
 13
146.8199399516782
 23
89.27596927503342
 33
0.0
  0
MTEXT
  5
462C
102
{ACAD_XDICTIONARY
360
4786
102
}
330
4626
100
AcDbEntity
  8
0
 62
     7
100
AcDbMText
 10
114.68031559208
 20
84.41418190287775
 30
0.0
 40
4.5
 41
0.0
 71
     5
 72
     1
  1
\A1;60\U+00B0
 11
1.0
 21
-0.0000000033354128
 31
0.0
 73
     1
 44
1.0
1001
ACAD
1000
MTEXTBEGIN
1070
    73
1070
     1
1070
    44
1040
1.0
1070
    74
1070
     0
1000
MTEXTEND
  0
POINT
  5
462D
330
4626
100
AcDbEntity
  8
DEFPOINTS
 62
     0
100
AcDbPoint
 10
103.5183410745433
 20
81.64072829094456
 30
0.0
  0
POINT
  5
462E
330
4626
100
AcDbEntity
  8
DEFPOINTS
 62
     0
100
AcDbPoint
 10
89.93031132999098
 20
102.0751649189825
 30
0.0
  0
POINT
  5
462F
330
4626
100
AcDbEntity
  8
DEFPOINTS
 62
     0
100
AcDbPoint
 10
139.4303152906539
 20
102.0751728621773
 30
0.0
  0
POINT
  5
4630
330
4626
100
AcDbEntity
  8
DEFPOINTS
 62
     0
100
AcDbPoint
 10
132.4303145627395
 20
114.1995280948979
 30
0.0
  0
POINT
  5
4631
330
4626
100
AcDbEntity
  8
DEFPOINTS
 62
     0
100
AcDbPoint
 10
96.93031213878482
 20
114.1995201050072
 30
0.0
  0
ENDBLK
  5
4633
330
4626
100
AcDbEntity
  8
0
100
AcDbBlockEnd
  0
BLOCK
  5
467D
330
4673
100
AcDbEntity
  8
0
100
AcDbBlockBegin
  2
*D30
 70
     1
 10
0.0
 20
0.0
 30
0.0
  3
*D30
  1

  0
LINE
  5
4674
330
4673
100
AcDbEntity
  8
0
 62
   115
370
    -2
100
AcDbLine
 10
285.5383835965828
 20
94.24342623456379
 30
0.0
 11
285.5383835965828
 21
81.8870391555694
 31
0.0
  0
LINE
  5
4675
330
4673
100
AcDbEntity
  8
0
 62
   115
370
    -2
100
AcDbLine
 10
300.5383835965828
 20
94.24342623456377
 30
0.0
 11
300.5383835965828
 21
81.8870391555694
 31
0.0
  0
LINE
  5
4676
330
4673
100
AcDbEntity
  8
0
 62
   115
370
    -2
100
AcDbLine
 10
289.2883835965828
 20
83.08703915556941
 30
0.0
 11
296.7883835965828
 21
83.08703915556941
 31
0.0
  0
SOLID
  5
4677
330
4673
100
AcDbEntity
  8
0
 62
   115
100
AcDbTrace
 10
289.2883835965828
 20
83.71203915556941
 30
0.0
 11
289.2883835965828
 21
82.46203915556941
 31
0.0
 12
285.5383835965828
 22
83.08703915556941
 32
0.0
 13
285.5383835965828
 23
83.08703915556941
 33
0.0
  0
SOLID
  5
4678
330
4673
100
AcDbEntity
  8
0
 62
   115
100
AcDbTrace
 10
296.7883835965828
 20
83.71203915556941
 30
0.0
 11
296.7883835965828
 21
82.46203915556941
 31
0.0
 12
300.5383835965828
 22
83.08703915556941
 32
0.0
 13
300.5383835965828
 23
83.08703915556941
 33
0.0
  0
MTEXT
  5
4679
330
4673
100
AcDbEntity
  8
0
 62
     7
100
AcDbMText
 10
293.0383835965828
 20
86.83703915556939
 30
0.0
 40
4.5
 41
0.0
 71
     5
 72
     1
  1
\A1;15
 73
     1
 44
1.0
1001
ACAD
1000
MTEXTBEGIN
1070
    73
1070
     1
1070
    44
1040
1.0
1070
    74
1070
     0
1000
MTEXTEND
  0
POINT
  5
467A
330
4673
100
AcDbEntity
  8
DEFPOINTS
 62
     0
100
AcDbPoint
 10
285.5383835965828
 20
95.44342623456378
 30
0.0
  0
POINT
  5
467B
330
4673
100
AcDbEntity
  8
DEFPOINTS
 62
     0
100
AcDbPoint
 10
300.5383835965828
 20
95.44342623456378
 30
0.0
  0
POINT
  5
467C
330
4673
100
AcDbEntity
  8
DEFPOINTS
 62
     0
100
AcDbPoint
 10
300.5383835965828
 20
83.08703915556941
 30
0.0
  0
ENDBLK
  5
467E
330
4673
100
AcDbEntity
  8
0
100
AcDbBlockEnd
  0
BLOCK
  5
468A
330
4680
100
AcDbEntity
  8
0
100
AcDbBlockBegin
  2
*D31
 70
     1
 10
0.0
 20
0.0
 30
0.0
  3
*D31
  1

  0
LINE
  5
4681
330
4680
100
AcDbEntity
  8
0
 62
   115
370
    -2
100
AcDbLine
 10
300.5383835965828
 20
94.24342623456377
 30
0.0
 11
300.5383835965828
 21
81.8870391555694
 31
0.0
  0
LINE
  5
4682
330
4680
100
AcDbEntity
  8
0
 62
   115
370
    -2
100
AcDbLine
 10
341.5383835965828
 20
112.2434262345638
 30
0.0
 11
341.5383835965828
 21
81.8870391555694
 31
0.0
  0
LINE
  5
4683
330
4680
100
AcDbEntity
  8
0
 62
   115
370
    -2
100
AcDbLine
 10
304.2883835965828
 20
83.08703915556941
 30
0.0
 11
337.7883835965828
 21
83.08703915556941
 31
0.0
  0
SOLID
  5
4684
330
4680
100
AcDbEntity
  8
0
 62
   115
100
AcDbTrace
 10
304.2883835965828
 20
83.71203915556941
 30
0.0
 11
304.2883835965828
 21
82.46203915556941
 31
0.0
 12
300.5383835965828
 22
83.08703915556941
 32
0.0
 13
300.5383835965828
 23
83.08703915556941
 33
0.0
  0
SOLID
  5
4685
330
4680
100
AcDbEntity
  8
0
 62
   115
100
AcDbTrace
 10
337.7883835965828
 20
83.71203915556941
 30
0.0
 11
337.7883835965828
 21
82.46203915556941
 31
0.0
 12
341.5383835965828
 22
83.08703915556941
 32
0.0
 13
341.5383835965828
 23
83.08703915556941
 33
0.0
  0
MTEXT
  5
4686
330
4680
100
AcDbEntity
  8
0
 62
     7
100
AcDbMText
 10
321.0383835965828
 20
86.83703915556939
 30
0.0
 40
4.5
 41
0.0
 71
     5
 72
     1
  1
\A1;41
 73
     1
 44
1.0
1001
ACAD
1000
MTEXTBEGIN
1070
    73
1070
     1
1070
    44
1040
1.0
1070
    74
1070
     0
1000
MTEXTEND
  0
POINT
  5
4687
330
4680
100
AcDbEntity
  8
DEFPOINTS
 62
     0
100
AcDbPoint
 10
300.5383835965828
 20
95.44342623456378
 30
0.0
  0
POINT
  5
4688
330
4680
100
AcDbEntity
  8
DEFPOINTS
 62
     0
100
AcDbPoint
 10
341.5383835965828
 20
113.4434262345638
 30
0.0
  0
POINT
  5
4689
330
4680
100
AcDbEntity
  8
DEFPOINTS
 62
     0
100
AcDbPoint
 10
341.5383835965828
 20
83.08703915556941
 30
0.0
  0
ENDBLK
  5
468B
330
4680
100
AcDbEntity
  8
0
100
AcDbBlockEnd
  0
BLOCK
  5
4697
330
468D
100
AcDbEntity
  8
0
100
AcDbBlockBegin
  2
*D32
 70
     1
 10
0.0
 20
0.0
 30
0.0
  3
*D32
  1

  0
LINE
  5
468E
330
468D
100
AcDbEntity
  8
0
 62
   115
370
    -2
100
AcDbLine
 10
285.5383835965828
 20
80.68703915556941
 30
0.0
 11
285.5383835965828
 21
72.63340595620734
 31
0.0
  0
LINE
  5
468F
330
468D
100
AcDbEntity
  8
0
 62
   115
370
    -2
100
AcDbLine
 10
341.5383835965828
 20
80.68703915556941
 30
0.0
 11
341.5383835965828
 21
72.63340595620734
 31
0.0
  0
LINE
  5
4690
330
468D
100
AcDbEntity
  8
0
 62
   115
370
    -2
100
AcDbLine
 10
289.2883835965828
 20
73.83340595620734
 30
0.0
 11
337.7883835965828
 21
73.83340595620734
 31
0.0
  0
SOLID
  5
4691
330
468D
100
AcDbEntity
  8
0
 62
   115
100
AcDbTrace
 10
289.2883835965828
 20
74.45840595620734
 30
0.0
 11
289.2883835965828
 21
73.20840595620734
 31
0.0
 12
285.5383835965828
 22
73.83340595620734
 32
0.0
 13
285.5383835965828
 23
73.83340595620734
 33
0.0
  0
SOLID
  5
4692
330
468D
100
AcDbEntity
  8
0
 62
   115
100
AcDbTrace
 10
337.7883835965828
 20
74.45840595620734
 30
0.0
 11
337.7883835965828
 21
73.20840595620734
 31
0.0
 12
341.5383835965828
 22
73.83340595620734
 32
0.0
 13
341.5383835965828
 23
73.83340595620734
 33
0.0
  0
MTEXT
  5
4693
330
468D
100
AcDbEntity
  8
0
 62
     7
100
AcDbMText
 10
313.5383835965828
 20
77.58340595620734
 30
0.0
 40
4.5
 41
0.0
 71
     5
 72
     1
  1
\A1;56
 73
     1
 44
1.0
1001
ACAD
1000
MTEXTBEGIN
1070
    73
1070
     1
1070
    44
1040
1.0
1070
    74
1070
     0
1000
MTEXTEND
  0
POINT
  5
4694
330
468D
100
AcDbEntity
  8
DEFPOINTS
 62
     0
100
AcDbPoint
 10
285.5383835965828
 20
81.8870391555694
 30
0.0
  0
POINT
  5
4695
330
468D
100
AcDbEntity
  8
DEFPOINTS
 62
     0
100
AcDbPoint
 10
341.5383835965828
 20
81.8870391555694
 30
0.0
  0
POINT
  5
4696
330
468D
100
AcDbEntity
  8
DEFPOINTS
 62
     0
100
AcDbPoint
 10
341.5383835965828
 20
73.83340595620734
 30
0.0
  0
ENDBLK
  5
4698
330
468D
100
AcDbEntity
  8
0
100
AcDbBlockEnd
  0
BLOCK
  5
46A5
330
469B
100
AcDbEntity
  8
0
100
AcDbBlockBegin
  2
*D33
 70
     1
 10
0.0
 20
0.0
 30
0.0
  3
*D33
  1

  0
LINE
  5
469C
330
469B
100
AcDbEntity
  8
0
 62
   115
370
    -2
100
AcDbLine
 10
406.2602951230653
 20
125.1434262345638
 30
0.0
 11
422.9047107935798
 21
125.1434262345637
 31
0.0
  0
LINE
  5
469D
330
469B
100
AcDbEntity
  8
0
 62
   115
370
    -2
100
AcDbLine
 10
406.2602951230655
 20
164.7434262345639
 30
0.0
 11
422.90471079358
 21
164.7434262345639
 31
0.0
  0
LINE
  5
469E
330
469B
100
AcDbEntity
  8
0
 62
   115
370
    -2
100
AcDbLine
 10
421.70471079358
 20
128.8934262345637
 30
0.0
 11
421.70471079358
 21
160.9934262345639
 31
0.0
  0
SOLID
  5
469F
330
469B
100
AcDbEntity
  8
0
 62
   115
100
AcDbTrace
 10
421.07971079358
 20
128.8934262345637
 30
0.0
 11
422.32971079358
 21
128.8934262345637
 31
0.0
 12
421.7047107935798
 22
125.1434262345637
 32
0.0
 13
421.7047107935798
 23
125.1434262345637
 33
0.0
  0
SOLID
  5
46A0
330
469B
100
AcDbEntity
  8
0
 62
   115
100
AcDbTrace
 10
421.07971079358
 20
160.9934262345639
 30
0.0
 11
422.32971079358
 21
160.9934262345639
 31
0.0
 12
421.70471079358
 22
164.7434262345639
 32
0.0
 13
421.70471079358
 23
164.7434262345639
 33
0.0
  0
MTEXT
  5
46A1
330
469B
100
AcDbEntity
  8
0
 62
     7
100
AcDbMText
 10
417.95471079358
 20
144.9434262345638
 30
0.0
 40
4.5
 41
0.0
 71
     5
 72
     1
  1
\A1;%%c39.6
 11
0.0000000000000001
 21
1.0
 31
0.0
 73
     1
 44
1.0
1001
ACAD
1000
MTEXTBEGIN
1070
    73
1070
     1
1070
    44
1040
1.0
1070
    74
1070
     0
1000
MTEXTEND
  0
POINT
  5
46A2
330
469B
100
AcDbEntity
  8
DEFPOINTS
 62
     0
100
AcDbPoint
 10
405.0602951230652
 20
125.1434262345638
 30
0.0
  0
POINT
  5
46A3
330
469B
100
AcDbEntity
  8
DEFPOINTS
 62
     0
100
AcDbPoint
 10
405.0602951230652
 20
164.7434262345639
 30
0.0
  0
POINT
  5
46A4
330
469B
100
AcDbEntity
  8
DEFPOINTS
 62
     0
100
AcDbPoint
 10
421.70471079358
 20
164.7434262345639
 30
0.0
  0
ENDBLK
  5
46A6
330
469B
100
AcDbEntity
  8
0
100
AcDbBlockEnd
  0
BLOCK
  5
46B2
330
46A8
100
AcDbEntity
  8
0
100
AcDbBlockBegin
  2
*D34
 70
     1
 10
0.0
 20
0.0
 30
0.0
  3
*D34
  1

  0
LINE
  5
46A9
330
46A8
100
AcDbEntity
  8
0
 62
   115
370
    -2
100
AcDbLine
 10
342.2383835965828
 20
112.9434262345638
 30
0.0
 11
357.9564815412338
 21
112.9434262345638
 31
0.0
  0
LINE
  5
46AA
330
46A8
100
AcDbEntity
  8
0
 62
   115
370
    -2
100
AcDbLine
 10
342.2383835965825
 20
176.9434262345638
 30
0.0
 11
357.9564815412338
 21
176.9434262345638
 31
0.0
  0
LINE
  5
46AB
330
46A8
100
AcDbEntity
  8
0
 62
   115
370
    -2
100
AcDbLine
 10
356.7564815412338
 20
116.6934262345638
 30
0.0
 11
356.7564815412338
 21
173.1934262345639
 31
0.0
  0
SOLID
  5
46AC
330
46A8
100
AcDbEntity
  8
0
 62
   115
100
AcDbTrace
 10
356.1314815412338
 20
116.6934262345638
 30
0.0
 11
357.3814815412338
 21
116.6934262345638
 31
0.0
 12
356.7564815412338
 22
112.9434262345638
 32
0.0
 13
356.7564815412338
 23
112.9434262345638
 33
0.0
  0
SOLID
  5
46AD
330
46A8
100
AcDbEntity
  8
0
 62
   115
100
AcDbTrace
 10
356.1314815412338
 20
173.1934262345639
 30
0.0
 11
357.3814815412338
 21
173.1934262345639
 31
0.0
 12
356.7564815412338
 22
176.9434262345638
 32
0.0
 13
356.7564815412338
 23
176.9434262345638
 33
0.0
  0
MTEXT
  5
46AE
330
46A8
100
AcDbEntity
  8
0
 62
     7
100
AcDbMText
 10
352.2564815412338
 20
144.9434262345638
 30
0.0
 40
4.5
 41
0.0
 71
     5
 72
     1
  1
\A1;%%c64g6
 11
0.0000000000000001
 21
1.0
 31
0.0
 73
     1
 44
1.0
1001
ACAD
1000
MTEXTBEGIN
1070
    73
1070
     1
1070
    44
1040
1.0
1070
    74
1070
     0
1000
MTEXTEND
  0
POINT
  5
46AF
330
46A8
100
AcDbEntity
  8
DEFPOINTS
 62
     0
100
AcDbPoint
 10
341.0383835965828
 20
112.9434262345638
 30
0.0
  0
POINT
  5
46B0
330
46A8
100
AcDbEntity
  8
DEFPOINTS
 62
     0
100
AcDbPoint
 10
341.0383835965825
 20
176.9434262345638
 30
0.0
  0
POINT
  5
46B1
330
46A8
100
AcDbEntity
  8
DEFPOINTS
 62
     0
100
AcDbPoint
 10
356.7564815412338
 20
176.9434262345638
 30
0.0
  0
ENDBLK
  5
46B3
330
46A8
100
AcDbEntity
  8
0
100
AcDbBlockEnd
  0
BLOCK
  5
46BF
330
46B5
100
AcDbEntity
  8
0
100
AcDbBlockBegin
  2
*D35
 70
     1
 10
0.0
 20
0.0
 30
0.0
  3
*D35
  1

  0
LINE
  5
46B6
330
46B5
100
AcDbEntity
  8
0
 62
   115
370
    -2
100
AcDbLine
 10
284.8383835965828
 20
94.94342623456379
 30
0.0
 11
274.5630906961542
 21
94.94342623456379
 31
0.0
  0
LINE
  5
46B7
330
46B5
100
AcDbEntity
  8
0
 62
   115
370
    -2
100
AcDbLine
 10
284.8383835965823
 20
194.9434262345638
 30
0.0
 11
274.5630906961542
 21
194.9434262345638
 31
0.0
  0
LINE
  5
46B8
330
46B5
100
AcDbEntity
  8
0
 62
   115
370
    -2
100
AcDbLine
 10
275.7630906961542
 20
98.69342623456379
 30
0.0
 11
275.7630906961542
 21
191.1934262345638
 31
0.0
  0
SOLID
  5
46B9
330
46B5
100
AcDbEntity
  8
0
 62
   115
100
AcDbTrace
 10
275.1380906961542
 20
98.69342623456379
 30
0.0
 11
276.3880906961542
 21
98.69342623456379
 31
0.0
 12
275.7630906961542
 22
94.94342623456379
 32
0.0
 13
275.7630906961542
 23
94.94342623456379
 33
0.0
  0
SOLID
  5
46BA
330
46B5
100
AcDbEntity
  8
0
 62
   115
100
AcDbTrace
 10
275.1380906961542
 20
191.1934262345638
 30
0.0
 11
276.3880906961542
 21
191.1934262345638
 31
0.0
 12
275.7630906961542
 22
194.9434262345638
 32
0.0
 13
275.7630906961542
 23
194.9434262345638
 33
0.0
  0
MTEXT
  5
46BB
330
46B5
100
AcDbEntity
  8
0
 62
     7
100
AcDbMText
 10
272.0130906961542
 20
144.9434262345638
 30
0.0
 40
4.5
 41
0.0
 71
     5
 72
     1
  1
\A1;%%c100
 11
0.0000000000000001
 21
1.0
 31
0.0
 73
     1
 44
1.0
1001
ACAD
1000
MTEXTBEGIN
1070
    73
1070
     1
1070
    44
1040
1.0
1070
    74
1070
     0
1000
MTEXTEND
  0
POINT
  5
46BC
330
46B5
100
AcDbEntity
  8
DEFPOINTS
 62
     0
100
AcDbPoint
 10
286.0383835965828
 20
94.94342623456379
 30
0.0
  0
POINT
  5
46BD
330
46B5
100
AcDbEntity
  8
DEFPOINTS
 62
     0
100
AcDbPoint
 10
286.0383835965823
 20
194.9434262345638
 30
0.0
  0
POINT
  5
46BE
330
46B5
100
AcDbEntity
  8
DEFPOINTS
 62
     0
100
AcDbPoint
 10
275.7630906961542
 20
194.9434262345638
 30
0.0
  0
ENDBLK
  5
46C0
330
46B5
100
AcDbEntity
  8
0
100
AcDbBlockEnd
  0
BLOCK
  5
46E0
330
46D6
100
AcDbEntity
  8
0
100
AcDbBlockBegin
  2
*D36
 70
     1
 10
0.0
 20
0.0
 30
0.0
  3
*D36
  1

  0
LINE
  5
46D7
330
46D6
100
AcDbEntity
  8
0
 62
   115
370
    -2
100
AcDbLine
 10
77.18031537385903
 20
110.6715278462564
 30
0.0
 11
77.18031537385903
 21
68.81452011833544
 31
0.0
  0
LINE
  5
46D8
330
46D6
100
AcDbEntity
  8
0
 62
   115
370
    -2
100
AcDbLine
 10
152.180315073859
 20
110.6715275060884
 30
0.0
 11
152.180315073859
 21
68.81452011833544
 31
0.0
  0
LINE
  5
46D9
330
46D6
100
AcDbEntity
  8
0
 62
   115
370
    -2
100
AcDbLine
 10
80.93031537385902
 20
70.01452011833544
 30
0.0
 11
148.430315073859
 21
70.01452011833544
 31
0.0
  0
SOLID
  5
46DA
330
46D6
100
AcDbEntity
  8
0
 62
   115
100
AcDbTrace
 10
80.93031537385902
 20
70.63952011833544
 30
0.0
 11
80.93031537385902
 21
69.38952011833544
 31
0.0
 12
77.18031537385903
 22
70.01452011833544
 32
0.0
 13
77.18031537385903
 23
70.01452011833544
 33
0.0
  0
SOLID
  5
46DB
330
46D6
100
AcDbEntity
  8
0
 62
   115
100
AcDbTrace
 10
148.430315073859
 20
70.63952011833544
 30
0.0
 11
148.430315073859
 21
69.38952011833544
 31
0.0
 12
152.180315073859
 22
70.01452011833544
 32
0.0
 13
152.180315073859
 23
70.01452011833544
 33
0.0
  0
MTEXT
  5
46DC
330
46D6
100
AcDbEntity
  8
0
 62
     7
100
AcDbMText
 10
114.680315223859
 20
73.76452011833544
 30
0.0
 40
4.5
 41
0.0
 71
     5
 72
     1
  1
\A1;75
 73
     1
 44
1.0
1001
ACAD
1000
MTEXTBEGIN
1070
    73
1070
     1
1070
    44
1040
1.0
1070
    74
1070
     0
1000
MTEXTEND
  0
POINT
  5
46DD
330
46D6
100
AcDbEntity
  8
DEFPOINTS
 62
     0
100
AcDbPoint
 10
77.18031537385903
 20
111.8715278462564
 30
0.0
  0
POINT
  5
46DE
330
46D6
100
AcDbEntity
  8
DEFPOINTS
 62
     0
100
AcDbPoint
 10
152.180315073859
 20
111.8715275060884
 30
0.0
  0
POINT
  5
46DF
330
46D6
100
AcDbEntity
  8
DEFPOINTS
 62
     0
100
AcDbPoint
 10
152.180315073859
 20
70.01452011833544
 30
0.0
  0
ENDBLK
  5
46E1
330
46D6
100
AcDbEntity
  8
0
100
AcDbBlockEnd
  0
BLOCK
  5
46EC
330
46E3
100
AcDbEntity
  8
0
100
AcDbBlockBegin
  2
*D37
 70
     1
 10
0.0
 20
0.0
 30
0.0
  3
*D37
  1

  0
LINE
  5
46E4
330
46E3
100
AcDbEntity
  8
0
 62
   115
370
    -2
100
AcDbLine
 10
179.0826970974121
 20
96.05365506214669
 30
0.0
 11
150.3235023255814
 21
117.8856151523912
 31
0.0
  0
LINE
  5
46E5
330
46E3
100
AcDbEntity
  8
0
 62
   115
370
    -2
100
AcDbLine
 10
79.03711053704775
 20
172.0012353167363
 30
0.0
 11
76.05025054590806
 21
174.2686495694323
 31
0.0
  0
MTEXT
  5
46E6
330
46E3
100
AcDbEntity
  8
0
 62
     7
100
AcDbMText
 10
168.7230770172136
 20
109.1641433996194
 30
0.0
 40
4.5
 41
0.0
 71
     5
 72
     1
  1
\A1;P,C,D 82
 11
0.7964959976372482
 21
-0.6046438007189396
 31
0.0
 73
     1
 44
1.0
1001
ACAD
1000
MTEXTBEGIN
1070
    73
1070
     1
1070
    44
1040
1.0
1070
    74
1070
     0
1000
MTEXTEND
  0
LINE
  5
46E7
330
46E3
100
AcDbEntity
  8
0
 62
   115
370
    -2
100
AcDbLine
 10
82.02397052818744
 20
169.7338210640403
 30
0.0
 11
147.3366423344416
 21
120.1530294050872
 31
0.0
  0
SOLID
  5
46E8
330
46E3
100
AcDbEntity
  8
0
 62
   115
100
AcDbTrace
 10
79.41501291249709
 20
172.4990453152596
 30
0.0
 11
78.6592081615984
 21
171.503425318213
 31
0.0
 12
82.02397052818744
 22
169.7338210640403
 32
0.0
 13
82.02397052818744
 23
169.7338210640403
 33
0.0
  0
SOLID
  5
46E9
330
46E3
100
AcDbEntity
  8
0
 62
   115
100
AcDbTrace
 10
150.7014047010308
 20
118.3834251509145
 30
0.0
 11
149.9455999501321
 21
117.3878051538679
 31
0.0
 12
147.3366423344416
 22
120.1530294050872
 32
0.0
 13
147.3366423344416
 23
120.1530294050872
 33
0.0
  0
POINT
  5
46EA
330
46E3
100
AcDbEntity
  8
DEFPOINTS
 62
     0
100
AcDbPoint
 10
147.3366423344416
 20
120.1530294050872
 30
0.0
  0
POINT
  5
46EB
330
46E3
100
AcDbEntity
  8
DEFPOINTS
 62
     0
100
AcDbPoint
 10
82.02397052818744
 20
169.7338210640403
 30
0.0
  0
ENDBLK
  5
46ED
330
46E3
100
AcDbEntity
  8
0
100
AcDbBlockEnd
  0
ENDSEC
  0
SECTION
  2
ENTITIES
  0
INSERT
  5
247E
330
19
100
AcDbEntity
  8
0
100
AcDbBlockReference
  2
MCLBOMATTRIB
 10
0.0
 20
0.0
 30
0.0
1001
MCLBOMATTRIB
1002
{
1000
1
1005
0
1005
0
1000
강관 용접식 플렌지
1005
0
1000
Steel Welding Pipe Flange
1005
0
1000
SOP 5K 10A FF
1005
0
1000

1005
2480
1000
1
1005
0
1000

1005
2481
1000

1005
0
1000

1005
2482
1000

1005
0
1000

1005
0
1000

1005
0
1000

1005
0
1000

1005
0
1000

1005
0
1002
}
  0
TEXT
  5
2480
330
19
100
AcDbEntity
  8
0
 62
   111
100
AcDbText
 10
344.9746279359911
 20
60.9644544167441
 30
0.0
 40
2.5
  1

  7
STYLE1
100
AcDbText
  0
TEXT
  5
2481
330
19
100
AcDbEntity
  8
0
 62
   111
100
AcDbText
 10
379.9746279359911
 20
60.9644544167441
 30
0.0
 40
2.5
  1

  7
STYLE1
100
AcDbText
  0
TEXT
  5
2482
330
19
100
AcDbEntity
  8
0
 62
   111
100
AcDbText
 10
394.9746279359911
 20
60.9644544167441
 30
0.0
 40
2.5
  1

  7
STYLE1
100
AcDbText
  0
MTEXT
  5
24CA
330
19
100
AcDbEntity
  8
0
100
AcDbMText
 10
295.0
 20
25.00000000000007
 30
0.0
 40
2.5
 41
20.0
 71
     5
 72
     5
  1

  7
STYLE1
 73
     1
 44
1.0
1001
ACAD
1000
MTEXTBEGIN
1070
    73
1070
     1
1070
    44
1040
1.0
1070
    74
1070
     0
1000
MTEXTEND
  0
MTEXT
  5
24DF
330
19
100
AcDbEntity
  8
0
100
AcDbMText
 10
265.0
 20
292.0
 30
0.0
 40
1.8
 41
15.0
 71
     1
 72
     5
  1

  7
STYLE1
 73
     1
 44
1.0
1001
ACAD
1000
MTEXTBEGIN
1070
    73
1070
     1
1070
    44
1040
1.0
1070
    74
1070
     0
1000
MTEXTEND
  0
LINE
  5
2EC4
330
19
100
AcDbEntity
  8
1
100
AcDbLine
 10
208.5420390941106
 20
144.9434262345638
 30
0.0
 11
408.9673582225096
 21
144.9434262345638
 31
0.0
  0
LINE
  5
324C
330
19
100
AcDbEntity
  8
0
100
AcDbLine
 10
286.0383775965825
 20
94.94343223456407
 30
0.0
 11
286.0383775965825
 21
194.9434202345639
 31
0.0
  0
TEXT
  5
32A5
330
19
100
AcDbEntity
  8
0
100
AcDbText
 10
164.7515592626525
 20
37.42461678082264
 30
0.0
 40
10.5
  1
STK4005-4-R
  7
T2
 72
     4
 11
220.7515592626525
 21
42.67461678082264
 31
0.0
100
AcDbText
  0
LINE
  5
34B0
330
19
100
AcDbEntity
  8
SL2-11
100
AcDbLine
 10
90.68031360200928
 20
186.5126487562184
 30
0.0
 11
97.68031360200929
 21
174.3882931032362
 31
0.0
  0
LINE
  5
34EB
330
19
100
AcDbEntity
  8
SL2-11
100
AcDbLine
 10
138.6803130273023
 20
186.5126408080207
 30
0.0
 11
131.6803131081817
 21
174.3882851083428
 31
0.0
  0
LINE
  5
355D
330
19
100
AcDbEntity
  8
1
100
AcDbLine
 10
114.680315373859
 20
197.6223951116861
 30
0.0
 11
114.680315373859
 21
92.2644433574414
 31
0.0
  0
LINE
  5
375C
330
19
100
AcDbEntity
  8
SL2-11
100
AcDbLine
 10
138.6803152126631
 20
103.374210922826
 30
0.0
 11
131.6803144847487
 21
115.4985661555465
 31
0.0
  0
LINE
  5
3784
330
19
100
AcDbEntity
  8
SL2-11
100
AcDbLine
 10
90.6803114166475
 20
103.374202974628
 30
0.0
 11
97.68031222544131
 21
115.4985581606528
 31
0.0
  0
LINE
  5
3945
330
19
100
AcDbEntity
  8
0
100
AcDbLine
 10
285.5383835965828
 20
95.44342623456378
 30
0.0
 11
285.5383835965823
 21
194.4434262345638
 31
0.0
  0
LINE
  5
394B
330
19
100
AcDbEntity
  8
0
100
AcDbLine
 10
213.5602951230653
 20
125.6434262345637
 30
0.0
 11
213.5602951230653
 21
164.2434262345638
 31
0.0
  0
LINE
  5
394E
330
19
100
AcDbEntity
  8
0
100
AcDbLine
 10
214.0602951230653
 20
164.7434262345638
 30
0.0
 11
213.5602951230653
 21
164.2434262345638
 31
0.0
  0
LINE
  5
394F
330
19
100
AcDbEntity
  8
0
100
AcDbLine
 10
213.5602951230652
 20
125.6434262345637
 30
0.0
 11
214.0602951230653
 21
125.1434262345638
 31
0.0
  0
MTEXT
  5
3954
330
19
100
AcDbEntity
  8
0
 62
   111
100
AcDbMText
 10
0.0
 20
0.0
 30
0.0
 40
3.0
 41
0.0
 71
     5
 72
     5
  1

 11
0.6658655619423123
 21
0.7460717481712123
 31
0.0
 73
     1
 44
1.0
1001
ACAD
1000
MTEXTBEGIN
1070
    73
1070
     1
1070
    44
1040
1.0
1070
    74
1070
     0
1000
MTEXTEND
  0
MTEXT
  5
3959
330
19
100
AcDbEntity
  8
0
 62
   111
100
AcDbMText
 10
0.0
 20
0.0
 30
0.0
 40
3.0
 41
0.0
 71
     5
 72
     5
  1

 11
0.9994246805919202
 21
0.0339161882253633
 31
0.0
 73
     1
 44
1.0
1001
ACAD
1000
MTEXTBEGIN
1070
    73
1070
     1
1070
    44
1040
1.0
1070
    74
1070
     0
1000
MTEXTEND
  0
LINE
  5
3B0B
330
19
100
AcDbEntity
  8
1
100
AcDbLine
 10
62.00133949673694
 20
144.9434252345638
 30
0.0
 11
167.3592912509811
 21
144.9434252345637
 31
0.0
  0
MTEXT
  5
3CA0
330
19
100
AcDbEntity
  8
0
 62
   111
100
AcDbMText
 10
0.0
 20
0.0
 30
0.0
 40
3.0
 41
0.0
 71
     5
 72
     5
  1

 11
0.8978290820304724
 21
-0.4403441148242126
 31
0.0
 73
     1
 44
1.0
1001
ACAD
1000
MTEXTBEGIN
1070
    73
1070
     1
1070
    44
1040
1.0
1070
    74
1070
     0
1000
MTEXTEND
  0
MTEXT
  5
3CA1
330
19
100
AcDbEntity
  8
0
 62
   111
100
AcDbMText
 10
0.0
 20
0.0
 30
0.0
 40
3.0
 41
0.0
 71
     5
 72
     5
  1

 11
0.8978290820304724
 21
-0.4403441148242126
 31
0.0
 73
     1
 44
1.0
1001
ACAD
1000
MTEXTBEGIN
1070
    73
1070
     1
1070
    44
1040
1.0
1070
    74
1070
     0
1000
MTEXTEND
  0
MTEXT
  5
3CA2
330
19
100
AcDbEntity
  8
0
 62
   111
100
AcDbMText
 10
0.0
 20
0.0
 30
0.0
 40
3.0
 41
0.0
 71
     5
 72
     5
  1

 11
0.8978290820304724
 21
-0.4403441148242126
 31
0.0
 73
     1
 44
1.0
1001
ACAD
1000
MTEXTBEGIN
1070
    73
1070
     1
1070
    44
1040
1.0
1070
    74
1070
     0
1000
MTEXTEND
  0
MTEXT
  5
3CA3
330
19
100
AcDbEntity
  8
0
 62
   111
100
AcDbMText
 10
0.0
 20
0.0
 30
0.0
 40
3.0
 41
0.0
 71
     5
 72
     5
  1

 11
0.8978290820304724
 21
-0.4403441148242126
 31
0.0
 73
     1
 44
1.0
1001
ACAD
1000
MTEXTBEGIN
1070
    73
1070
     1
1070
    44
1040
1.0
1070
    74
1070
     0
1000
MTEXTEND
  0
MTEXT
  5
3CA8
330
19
100
AcDbEntity
  8
0
 62
   111
100
AcDbMText
 10
0.0
 20
0.0
 30
0.0
 40
3.0
 41
0.0
 71
     5
 72
     5
  1

 11
0.3826834323650867
 21
-0.923879532511288
 31
0.0
 73
     1
 44
1.0
1001
ACAD
1000
MTEXTBEGIN
1070
    73
1070
     1
1070
    44
1040
1.0
1070
    74
1070
     0
1000
MTEXTEND
  0
LINE
  5
418B
330
19
100
AcDbEntity
  8
2
100
AcDbLine
 10
112.180315373859
 20
194.8808801231592
 30
0.0
 11
112.180315373859
 21
167.6059503523136
 31
0.0
  0
LINE
  5
418C
330
19
100
AcDbEntity
  8
2
100
AcDbLine
 10
117.180315373859
 20
194.8808801231592
 30
0.0
 11
117.180315373859
 21
167.6059483793329
 31
0.0
  0
LINE
  5
418D
330
19
100
AcDbEntity
  8
2
100
AcDbLine
 10
111.680315373859
 20
194.8495775025777
 30
0.0
 11
111.680315373859
 21
188.9434192345638
 31
0.0
  0
LINE
  5
418E
330
19
100
AcDbEntity
  8
2
100
AcDbLine
 10
117.680315373859
 20
194.8495775025777
 30
0.0
 11
117.680315373859
 21
188.9434192345638
 31
0.0
  0
LINE
  5
4194
330
19
100
AcDbEntity
  8
2
100
AcDbLine
 10
111.680315373859
 20
188.9434192345638
 30
0.0
 11
117.680315373859
 21
188.9434192345638
 31
0.0
  0
LINE
  5
4195
330
19
100
AcDbEntity
  8
2
100
AcDbLine
 10
112.180315373859
 20
188.4434192345638
 30
0.0
 11
117.180315373859
 21
188.4434192345638
 31
0.0
  0
LINE
  5
4196
330
19
100
AcDbEntity
  8
2
100
AcDbLine
 10
112.180315373859
 20
188.4434192345638
 30
0.0
 11
111.680315373859
 21
188.9434192345638
 31
0.0
  0
LINE
  5
4197
330
19
100
AcDbEntity
  8
2
100
AcDbLine
 10
117.180315373859
 20
188.4434192345638
 30
0.0
 11
117.680315373859
 21
188.9434192345638
 31
0.0
  0
LINE
  5
419B
330
19
100
AcDbEntity
  8
0
100
AcDbLine
 10
214.0602951230653
 20
164.7434262345637
 30
0.0
 11
214.0602951230653
 21
125.1434262345638
 31
0.0
  0
LINE
  5
419C
330
19
100
AcDbEntity
  8
0
100
AcDbLine
 10
405.5602951230652
 20
125.6434262345639
 30
0.0
 11
405.5602951230652
 21
164.2434262345638
 31
0.0
  0
LINE
  5
419D
330
19
100
AcDbEntity
  8
0
100
AcDbLine
 10
405.0602951230652
 20
164.7434262345639
 30
0.0
 11
405.5602951230652
 21
164.2434262345639
 31
0.0
  0
LINE
  5
419E
330
19
100
AcDbEntity
  8
0
100
AcDbLine
 10
405.0602951230656
 20
125.143426234564
 30
0.0
 11
405.5602951230656
 21
125.643426234564
 31
0.0
  0
LINE
  5
419F
330
19
100
AcDbEntity
  8
0
100
AcDbLine
 10
405.0602951230654
 20
164.7434262345638
 30
0.0
 11
405.0602951230652
 21
125.1434262345638
 31
0.0
  0
LINE
  5
41BC
330
19
100
AcDbEntity
  8
2
100
AcDbLine
 10
290.5383835965825
 20
122.1434262345637
 30
0.0
 11
290.5383835965827
 21
167.7434262345637
 31
0.0
  0
LEADER
  5
422E
330
19
100
AcDbEntity
  8
0
100
AcDbLeader
  3
STANDARD
 73
     0
 75
     1
 40
4.5
 41
26.78571428571429
 76
     3
 10
114.6457088518341
 20
195.0037533033992
 30
0.0
 10
103.5562416263163
 20
212.9554291913325
 30
0.0
 10
99.80624162631634
 20
212.9554291913325
 30
0.0
340
422F
1001
ACAD
1000
DSTYLE
1002
{
1070
    40
1040
1.5
1070
    41
1040
2.5
1070
    42
1040
0.8
1070
    43
1040
0.8
1070
    44
1040
0.8
1070
    73
1070
     0
1070
    74
1070
     0
1070
    77
1070
     1
1070
    78
1070
     8
1070
   141
1040
-1.0
1070
   147
1040
1.0
1070
   172
1070
     1
1070
   176
1070
   115
1070
   177
1070
   115
1070
   178
1070
     7
1070
   271
1070
     3
1002
}
  0
MTEXT
  5
422F
102
{ACAD_REACTORS
330
422E
102
}
330
19
100
AcDbEntity
  8
0
 62
     7
100
AcDbMText
 10
98.30624162631636
 20
214.4554291913325
 30
0.0
 40
4.5
 41
0.0
 71
     9
 72
     1
  1
M6xP1.0
 73
     1
 44
1.0
1001
ACAD
1000
MTEXTBEGIN
1070
    73
1070
     1
1070
    44
1040
1.0
1070
    74
1070
     0
1000
MTEXTEND
  0
LINE
  5
42C0
330
19
100
AcDbEntity
  8
2
100
AcDbLine
 10
336.5383835965829
 20
122.1434262345638
 30
0.0
 11
336.5383835965827
 21
167.7434262345639
 31
0.0
  0
LINE
  5
4352
330
19
100
AcDbEntity
  8
9
  6
Continuous
100
AcDbLine
 10
213.5602951230653
 20
163.0934262345638
 30
0.0
 11
285.5383835965824
 21
163.0934262345637
 31
0.0
  0
LINE
  5
4353
330
19
100
AcDbEntity
  8
9
  6
Continuous
100
AcDbLine
 10
213.5602951230653
 20
126.7934262345637
 30
0.0
 11
285.5383835965827
 21
126.7934262345637
 31
0.0
  0
LINE
  5
4354
330
19
100
AcDbEntity
  8
9
  6
Continuous
100
AcDbLine
 10
341.5383835965827
 20
163.093426234564
 30
0.0
 11
405.5602951230652
 21
163.0934262345639
 31
0.0
  0
LINE
  5
4355
330
19
100
AcDbEntity
  8
9
  6
Continuous
100
AcDbLine
 10
341.5383835965827
 20
126.7934262345639
 30
0.0
 11
405.5602951230656
 21
126.7934262345639
 31
0.0
  0
LINE
  5
43F5
330
19
100
AcDbEntity
  8
0
100
AcDbLine
 10
341.5383835965828
 20
113.4434262345638
 30
0.0
 11
341.5383835965827
 21
176.4434262345639
 31
0.0
  0
LINE
  5
43FB
330
19
100
AcDbEntity
  8
0
100
AcDbLine
 10
300.0383835965824
 20
194.9434262345638
 30
0.0
 11
300.0383835965829
 21
94.94342623456379
 31
0.0
  0
LINE
  5
43FF
330
19
100
AcDbEntity
  8
0
100
AcDbLine
 10
341.0383835965825
 20
176.9434262345639
 30
0.0
 11
341.0383835965828
 21
112.9434262345637
 31
0.0
  0
LEADER
  5
447F
330
19
100
AcDbEntity
  8
0
100
AcDbLeader
  3
STANDARD
 73
     0
 74
     0
 75
     1
 40
4.5
 41
16.7142857142857
 76
     3
 10
138.7609856877726
 20
183.2146979530851
 30
0.0
 10
154.7138752290349
 20
201.8266398956123
 30
0.0
 10
158.4638752290349
 20
201.8266398956123
 30
0.0
340
4480
1001
ACAD
1000
DSTYLE
1002
{
1070
    40
1040
1.5
1070
    41
1040
2.5
1070
    42
1040
0.8
1070
    43
1040
0.8
1070
    44
1040
0.8
1070
    73
1070
     0
1070
    74
1070
     0
1070
    77
1070
     1
1070
    78
1070
     8
1070
   141
1040
-1.0
1070
   147
1040
1.0
1070
   172
1070
     1
1070
   176
1070
   115
1070
   177
1070
   115
1070
   178
1070
     7
1070
   271
1070
     3
1002
}
  0
MTEXT
  5
4480
102
{ACAD_REACTORS
330
447F
102
}
330
19
100
AcDbEntity
  8
0
 62
     7
100
AcDbMText
 10
159.9638752290349
 20
203.3266398956123
 30
0.0
 40
4.5
 41
0.0
 71
     7
 72
     1
  1
4-%%c9
 73
     1
 44
1.0
1001
ACAD
1000
MTEXTBEGIN
1070
    73
1070
     1
1070
    44
1040
1.0
1070
    74
1070
     0
1000
MTEXTEND
  0
LINE
  5
4597
330
19
100
AcDbEntity
  8
0
100
AcDbLine
 10
300.5383835965828
 20
95.44342623456378
 30
0.0
 11
300.5383835965824
 21
194.4434262345638
 31
0.0
  0
DIMENSION
  5
4625
330
19
100
AcDbEntity
  8
0
100
AcDbDimension
  2
*D29
 10
96.93031213878482
 20
114.1995201050072
 30
0.0
 11
114.68031559208
 21
84.41418190287775
 31
0.0
 70
    34
 71
     5
 42
1.047197677942157
  3
STANDARD
100
AcDb2LineAngularDimension
 13
139.4303152906539
 23
102.0751728621773
 33
0.0
 14
132.4303145627395
 24
114.1995280948979
 34
0.0
 15
89.93031132999098
 25
102.0751649189825
 35
0.0
 16
103.5183410745433
 26
81.64072829094456
 36
0.0
1001
ACAD
1000
DSTYLE
1002
{
1070
    40
1040
1.5
1070
    41
1040
2.5
1070
    42
1040
0.8
1070
    43
1040
0.8
1070
    44
1040
0.8
1070
    73
1070
     0
1070
    74
1070
     0
1070
    77
1070
     3
1070
    78
1070
     8
1070
   141
1040
-1.0
1070
   147
1040
1.0
1070
   172
1070
     1
1070
   176
1070
   115
1070
   177
1070
   115
1070
   178
1070
     7
1070
   271
1070
     3
1002
}
  0
LINE
  5
4644
330
19
100
AcDbEntity
  8
0
  6
Continuous
100
AcDbLine
 10
341.5383835965827
 20
164.7434262345638
 30
0.0
 11
405.0602951230652
 21
164.7434262345638
 31
0.0
  0
LINE
  5
4645
330
19
100
AcDbEntity
  8
0
  6
Continuous
100
AcDbLine
 10
341.5383835965827
 20
125.1434262345638
 30
0.0
 11
405.0602951230652
 21
125.1434262345638
 31
0.0
  0
LINE
  5
4646
330
19
100
AcDbEntity
  8
0
  6
Continuous
100
AcDbLine
 10
214.0602951230653
 20
164.7434262345638
 30
0.0
 11
285.5383835965824
 21
164.7434262345638
 31
0.0
  0
LINE
  5
4647
330
19
100
AcDbEntity
  8
0
  6
Continuous
100
AcDbLine
 10
214.0602951230653
 20
125.1434262345638
 30
0.0
 11
285.5383835965827
 21
125.1434262345636
 31
0.0
  0
LINE
  5
4648
330
19
100
AcDbEntity
  8
0
100
AcDbLine
 10
300.5383835965824
 20
176.9434262345638
 30
0.0
 11
341.0383835965825
 21
176.9434262345638
 31
0.0
  0
LINE
  5
4649
330
19
100
AcDbEntity
  8
0
100
AcDbLine
 10
286.0383835965823
 20
194.9434262345638
 30
0.0
 11
300.0383835965824
 21
194.9434262345638
 31
0.0
  0
LINE
  5
464A
330
19
100
AcDbEntity
  8
0
100
AcDbLine
 10
300.5383835965828
 20
112.9434262345638
 30
0.0
 11
341.0383835965828
 21
112.9434262345638
 31
0.0
  0
LINE
  5
464B
330
19
100
AcDbEntity
  8
0
100
AcDbLine
 10
286.0383835965828
 20
94.94342623456379
 30
0.0
 11
300.0383835965828
 21
94.94342623456377
 31
0.0
  0
LINE
  5
464C
330
19
100
AcDbEntity
  8
2
  6
HIDDEN
100
AcDbLine
 10
285.5383835965825
 20
167.7434262345637
 30
0.0
 11
290.5383835965827
 21
167.7434262345638
 31
0.0
  0
LINE
  5
464D
330
19
100
AcDbEntity
  8
2
  6
HIDDEN
100
AcDbLine
 10
285.5383835965827
 20
122.1434262345638
 30
0.0
 11
290.5383835965827
 21
122.1434262345638
 31
0.0
  0
LINE
  5
464E
330
19
100
AcDbEntity
  8
2
  6
HIDDEN
100
AcDbLine
 10
336.5383835965827
 20
122.1434262345638
 30
0.0
 11
341.5383835965828
 21
122.1434262345638
 31
0.0
  0
LINE
  5
464F
330
19
100
AcDbEntity
  8
2
  6
HIDDEN
100
AcDbLine
 10
336.5383835965827
 20
167.7434262345638
 30
0.0
 11
341.5383835965827
 21
167.7434262345638
 31
0.0
  0
LINE
  5
4651
330
19
100
AcDbEntity
  8
0
100
AcDbLine
 10
341.0383835965825
 20
176.9434262345639
 30
0.0
 11
341.5383835965827
 21
176.4434262345639
 31
0.0
  0
LINE
  5
4652
330
19
100
AcDbEntity
  8
0
100
AcDbLine
 10
341.0383835965828
 20
112.9434262345637
 30
0.0
 11
341.5383835965828
 21
113.4434262345638
 31
0.0
  0
LINE
  5
466E
330
19
100
AcDbEntity
  8
0
100
AcDbLine
 10
285.5383835965823
 20
194.4434262345638
 30
0.0
 11
286.0383835965823
 21
194.9434262345638
 31
0.0
  0
LINE
  5
466F
330
19
100
AcDbEntity
  8
0
100
AcDbLine
 10
300.0383835965824
 20
194.9434262345638
 30
0.0
 11
300.5383835965824
 21
194.4434262345638
 31
0.0
  0
LINE
  5
4670
330
19
100
AcDbEntity
  8
0
100
AcDbLine
 10
285.5383835965828
 20
95.44342623456378
 30
0.0
 11
286.0383835965828
 21
94.94342623456379
 31
0.0
  0
LINE
  5
4671
330
19
100
AcDbEntity
  8
0
100
AcDbLine
 10
300.0383835965828
 20
94.94342623456377
 30
0.0
 11
300.5383835965828
 21
95.44342623456378
 31
0.0
  0
DIMENSION
  5
4672
330
19
100
AcDbEntity
  8
0
100
AcDbDimension
  2
*D30
 10
300.5383835965828
 20
83.08703915556941
 30
0.0
 11
293.0383835965828
 21
86.83703915556939
 31
0.0
 70
    32
 71
     5
 42
15.00000000000006
  3
STANDARD
100
AcDbAlignedDimension
 13
285.5383835965828
 23
95.44342623456378
 33
0.0
 14
300.5383835965828
 24
95.44342623456378
 34
0.0
100
AcDbRotatedDimension
1001
ACAD
1000
DSTYLE
1002
{
1070
    40
1040
1.5
1070
    41
1040
2.5
1070
    42
1040
0.8
1070
    43
1040
0.8
1070
    44
1040
0.8
1070
    73
1070
     0
1070
    74
1070
     0
1070
    77
1070
     3
1070
    78
1070
     8
1070
   141
1040
-1.0
1070
   147
1040
1.0
1070
   172
1070
     1
1070
   176
1070
   115
1070
   177
1070
   115
1070
   178
1070
     7
1070
   271
1070
     3
1002
}
  0
DIMENSION
  5
467F
330
19
100
AcDbEntity
  8
0
100
AcDbDimension
  2
*D31
 10
341.5383835965828
 20
83.08703915556941
 30
0.0
 11
321.0383835965828
 21
86.83703915556939
 31
0.0
 70
    32
 71
     5
 42
40.99999999999993
  3
STANDARD
100
AcDbAlignedDimension
 13
300.5383835965828
 23
95.44342623456378
 33
0.0
 14
341.5383835965828
 24
113.4434262345638
 34
0.0
100
AcDbRotatedDimension
1001
ACAD
1000
DSTYLE
1002
{
1070
    40
1040
1.5
1070
    41
1040
2.5
1070
    42
1040
0.8
1070
    43
1040
0.8
1070
    44
1040
0.8
1070
    73
1070
     0
1070
    74
1070
     0
1070
    77
1070
     3
1070
    78
1070
     8
1070
   141
1040
-1.0
1070
   147
1040
1.0
1070
   172
1070
     1
1070
   176
1070
   115
1070
   177
1070
   115
1070
   178
1070
     7
1070
   271
1070
     3
1002
}
  0
DIMENSION
  5
468C
330
19
100
AcDbEntity
  8
0
100
AcDbDimension
  2
*D32
 10
341.5383835965828
 20
73.83340595620734
 30
0.0
 11
313.5383835965828
 21
77.58340595620734
 31
0.0
 70
    32
 71
     5
 42
56.0
  3
STANDARD
100
AcDbAlignedDimension
 13
285.5383835965828
 23
81.8870391555694
 33
0.0
 14
341.5383835965828
 24
81.8870391555694
 34
0.0
100
AcDbRotatedDimension
1001
ACAD
1000
DSTYLE
1002
{
1070
    40
1040
1.5
1070
    41
1040
2.5
1070
    42
1040
0.8
1070
    43
1040
0.8
1070
    44
1040
0.8
1070
    73
1070
     0
1070
    74
1070
     0
1070
    77
1070
     3
1070
    78
1070
     8
1070
   141
1040
-1.0
1070
   147
1040
1.0
1070
   172
1070
     1
1070
   176
1070
   115
1070
   177
1070
   115
1070
   178
1070
     7
1070
   271
1070
     3
1002
}
  0
DIMENSION
  5
469A
330
19
100
AcDbEntity
  8
0
100
AcDbDimension
  2
*D33
 10
421.70471079358
 20
164.7434262345639
 30
0.0
 11
417.95471079358
 21
144.9434262345638
 31
0.0
 70
    32
  1
%%c39.6
 71
     5
 42
39.60000000000011
  3
STANDARD
100
AcDbAlignedDimension
 13
405.0602951230652
 23
125.1434262345638
 33
0.0
 14
405.0602951230652
 24
164.7434262345639
 34
0.0
 50
90.0
100
AcDbRotatedDimension
1001
ACAD
1000
DSTYLE
1002
{
1070
    40
1040
1.5
1070
    41
1040
2.5
1070
    42
1040
0.8
1070
    43
1040
0.8
1070
    44
1040
0.8
1070
    73
1070
     0
1070
    74
1070
     0
1070
    77
1070
     3
1070
    78
1070
     8
1070
   141
1040
-1.0
1070
   147
1040
1.0
1070
   172
1070
     1
1070
   176
1070
   115
1070
   177
1070
   115
1070
   178
1070
     7
1070
   271
1070
     3
1002
}
  0
DIMENSION
  5
46A7
330
19
100
AcDbEntity
  8
0
100
AcDbDimension
  2
*D34
 10
356.7564815412338
 20
176.9434262345638
 30
0.0
 11
352.2564815412338
 21
144.9434262345638
 31
0.0
 70
    32
  1
%%c64g6
 71
     5
 42
64.0000000000001
  3
STANDARD
100
AcDbAlignedDimension
 13
341.0383835965828
 23
112.9434262345638
 33
0.0
 14
341.0383835965825
 24
176.9434262345638
 34
0.0
 50
90.0
100
AcDbRotatedDimension
1001
ACAD
1000
DSTYLE
1002
{
1070
    40
1040
1.5
1070
    41
1040
2.5
1070
    42
1040
0.8
1070
    43
1040
0.8
1070
    44
1040
0.8
1070
    73
1070
     0
1070
    74
1070
     0
1070
    77
1070
     3
1070
    78
1070
     8
1070
   141
1040
-1.0
1070
   147
1040
1.0
1070
   172
1070
     1
1070
   176
1070
   115
1070
   177
1070
   115
1070
   178
1070
     7
1070
   271
1070
     3
1002
}
  0
DIMENSION
  5
46B4
330
19
100
AcDbEntity
  8
0
100
AcDbDimension
  2
*D35
 10
275.7630906961542
 20
194.9434262345638
 30
0.0
 11
272.0130906961542
 21
144.9434262345638
 31
0.0
 70
    32
  1
%%c100
 71
     5
 42
100.0
  3
STANDARD
100
AcDbAlignedDimension
 13
286.0383835965828
 23
94.94342623456379
 33
0.0
 14
286.0383835965823
 24
194.9434262345638
 34
0.0
 50
90.0
100
AcDbRotatedDimension
1001
ACAD
1000
DSTYLE
1002
{
1070
    40
1040
1.5
1070
    41
1040
2.5
1070
    42
1040
0.8
1070
    43
1040
0.8
1070
    44
1040
0.8
1070
    73
1070
     0
1070
    74
1070
     0
1070
    77
1070
     3
1070
    78
1070
     8
1070
   141
1040
-1.0
1070
   147
1040
1.0
1070
   172
1070
     1
1070
   176
1070
   115
1070
   177
1070
   115
1070
   178
1070
     7
1070
   271
1070
     3
1002
}
  0
CIRCLE
  5
46C1
330
19
100
AcDbEntity
  8
0
100
AcDbCircle
 10
114.6803064313146
 20
144.9434252345638
 30
0.0
 40
22.8
  0
CIRCLE
  5
46C2
330
19
100
AcDbEntity
  8
0
100
AcDbCircle
 10
114.6803064313146
 20
144.9434252345638
 30
0.0
 40
19.8
  0
ARC
  5
46C3
330
19
100
AcDbEntity
  8
9
100
AcDbCircle
 10
114.680315373859
 20
144.9434192345638
 30
0.0
 40
18.35
100
AcDbArc
 50
179.9999588293801
 51
90.0
  0
CIRCLE
  5
46C4
330
19
100
AcDbEntity
  8
2
100
AcDbCircle
 10
114.6803064313146
 20
144.9434252345638
 30
0.0
 40
32.0
  0
CIRCLE
  5
46C5
330
19
100
AcDbEntity
  8
1
100
AcDbCircle
 10
114.6803064313146
 20
144.9434252345638
 30
0.0
 40
41.0
  0
ARC
  5
46C6
330
19
100
AcDbEntity
  8
0
100
AcDbCircle
 10
114.680315373859
 20
144.9434192345638
 30
0.0
 40
49.5
100
AcDbArc
 50
220.7490543774705
 51
319.2509450905518
  0
ARC
  5
46C7
330
19
100
AcDbEntity
  8
0
100
AcDbCircle
 10
114.680315373859
 20
144.9434192345638
 30
0.0
 40
50.0
100
AcDbArc
 50
221.4096221092709
 51
318.5903773709908
  0
ARC
  5
46C8
330
19
100
AcDbEntity
  8
0
100
AcDbCircle
 10
114.680315373859
 20
144.9434192345638
 30
0.0
 40
49.5
100
AcDbArc
 50
40.74905490944824
 51
139.2509456225297
  0
ARC
  5
46C9
330
19
100
AcDbEntity
  8
0
100
AcDbCircle
 10
114.680315373859
 20
144.9434192345638
 30
0.0
 40
50.0
100
AcDbArc
 50
41.40962262900923
 51
138.5903778907292
  0
LINE
  5
46CA
330
19
100
AcDbEntity
  8
0
100
AcDbLine
 10
77.18031537385896
 20
178.0153106228711
 30
0.0
 11
77.18031537385904
 21
111.8715278462564
 31
0.0
  0
LINE
  5
46CB
330
19
100
AcDbEntity
  8
0
100
AcDbLine
 10
152.180315073859
 20
178.0153109630391
 30
0.0
 11
152.180315073859
 21
111.8715275060884
 31
0.0
  0
CIRCLE
  5
46CC
330
19
100
AcDbEntity
  8
0
100
AcDbCircle
 10
94.18031360200927
 20
180.4504709297273
 30
0.0
 40
4.5
  0
CIRCLE
  5
46CD
330
19
100
AcDbEntity
  8
0
100
AcDbCircle
 10
135.180313067742
 20
180.4504629581818
 30
0.0
 40
4.5
  0
CIRCLE
  5
46CE
330
19
100
AcDbEntity
  8
0
100
AcDbCircle
 10
135.1803148487058
 20
109.4363885391862
 30
0.0
 40
4.5
  0
CIRCLE
  5
46CF
330
19
100
AcDbEntity
  8
0
100
AcDbCircle
 10
94.1803118210444
 20
109.4363805676404
 30
0.0
 40
4.5
  0
DIMENSION
  5
46D5
330
19
100
AcDbEntity
  8
0
100
AcDbDimension
  2
*D36
 10
152.180315073859
 20
70.01452011833544
 30
0.0
 11
114.680315223859
 21
73.76452011833544
 31
0.0
 70
    32
 71
     5
 42
74.99999970000001
  3
STANDARD
100
AcDbAlignedDimension
 13
77.18031537385903
 23
111.8715278462564
 33
0.0
 14
152.180315073859
 24
111.8715275060884
 34
0.0
100
AcDbRotatedDimension
1001
ACAD
1000
DSTYLE
1002
{
1070
    40
1040
1.5
1070
    41
1040
2.5
1070
    42
1040
0.8
1070
    43
1040
0.8
1070
    44
1040
0.8
1070
    73
1070
     0
1070
    74
1070
     0
1070
    77
1070
     3
1070
    78
1070
     8
1070
   141
1040
-1.0
1070
   147
1040
1.0
1070
   172
1070
     1
1070
   176
1070
   115
1070
   177
1070
   115
1070
   178
1070
     7
1070
   271
1070
     3
1002
}
  0
DIMENSION
  5
46E2
330
19
100
AcDbEntity
  8
0
100
AcDbDimension
  2
*D37
 10
82.02397052818744
 20
169.7338210640403
 30
0.0
 11
166.1965297070666
 21
105.8359279809209
 31
0.0
 70
    35
  1
P,C,D 82
 71
     5
 42
82.0
  3
STANDARD
100
AcDbDiametricDimension
 15
147.3366423344416
 25
120.1530294050872
 35
0.0
 40
0.0
1001
ACAD
1000
DSTYLE
1002
{
1070
    40
1040
1.5
1070
    41
1040
2.5
1070
    42
1040
0.8
1070
    43
1040
0.8
1070
    44
1040
0.8
1070
    73
1070
     0
1070
    74
1070
     0
1070
    77
1070
     3
1070
    78
1070
     8
1070
   141
1040
-1.0
1070
   147
1040
1.0
1070
   172
1070
     1
1070
   176
1070
   115
1070
   177
1070
   115
1070
   178
1070
     7
1070
   271
1070
     3
1070
   288
1070
     1
1002
}
  0
ENDSEC
  0
SECTION
  2
OBJECTS
  0
DICTIONARY
  5
C
330
0
100
AcDbDictionary
281
     1
  3
ACAD_COLOR
350
46F1
  3
ACAD_GROUP
350
D
  3
ACAD_LAYOUT
350
4155
  3
ACAD_MATERIAL
350
46F0
  3
ACAD_MLEADERSTYLE
350
4760
  3
ACAD_MLINESTYLE
350
E
  3
ACAD_PLOTSETTINGS
350
4156
  3
ACAD_PLOTSTYLENAME
350
4153
  3
ACAD_SCALELIST
350
473E
  3
ACAD_TABLESTYLE
350
46F2
  3
ACAD_VISUALSTYLE
350
472D
  3
ACDB_RECOMPOSE_DATA
350
477E
  3
ACDBVARIABLEDICTIONARY
350
1BF
  3
DWGPROPS
350
477F
  0
DICTIONARY
  5
476F
330
F
100
AcDbDictionary
280
     1
281
     1
  3
ADSK_XREC_LAYER_RECONCILED
360
4770
  0
DICTIONARY
  5
4771
330
55
100
AcDbDictionary
280
     1
281
     1
  3
ADSK_XREC_LAYER_RECONCILED
360
4772
  0
DICTIONARY
  5
4773
330
61
100
AcDbDictionary
280
     1
281
     1
  3
ADSK_XREC_LAYER_RECONCILED
360
4774
  0
DICTIONARY
  5
4775
330
62
100
AcDbDictionary
280
     1
281
     1
  3
ADSK_XREC_LAYER_RECONCILED
360
4776
  0
DICTIONARY
  5
4777
330
2AD3
100
AcDbDictionary
280
     1
281
     1
  3
ADSK_XREC_LAYER_RECONCILED
360
4778
  0
DICTIONARY
  5
4786
330
462C
100
AcDbDictionary
280
     1
281
     1
  3
ACAD_MTEXT_RT
360
4787
  0
DICTIONARY
  5
46F1
102
{ACAD_REACTORS
330
C
102
}
330
C
100
AcDbDictionary
281
     1
  0
DICTIONARY
  5
D
102
{ACAD_REACTORS
330
C
102
}
330
C
100
AcDbDictionary
281
     1
  3
*A1
350
3315
  3
*A2
350
3935
  0
DICTIONARY
  5
4155
102
{ACAD_REACTORS
330
C
102
}
330
C
100
AcDbDictionary
281
     1
  3
Model
350
4157
  3
배치1
350
4158
  0
DICTIONARY
  5
46F0
102
{ACAD_REACTORS
330
C
102
}
330
C
100
AcDbDictionary
281
     1
  3
ByBlock
350
471D
  3
ByLayer
350
4715
  3
Global
350
4725
  0
DICTIONARY
  5
4760
102
{ACAD_REACTORS
330
C
102
}
330
C
100
AcDbDictionary
281
     1
  3
Standard
350
4761
  0
DICTIONARY
  5
E
102
{ACAD_REACTORS
330
C
102
}
330
C
100
AcDbDictionary
281
     1
  3
STANDARD
350
1C
  0
DICTIONARY
  5
4156
102
{ACAD_REACTORS
330
C
102
}
330
C
100
AcDbDictionary
281
     1
  0
ACDBDICTIONARYWDFLT
  5
4153
102
{ACAD_REACTORS
330
C
102
}
330
C
100
AcDbDictionary
281
     1
  3
Normal
350
4154
100
AcDbDictionaryWithDefault
340
4154
  0
DICTIONARY
  5
473E
102
{ACAD_REACTORS
330
C
102
}
330
C
100
AcDbDictionary
281
     1
  3
A0
350
473F
  3
A1
350
4740
  3
A2
350
4741
  3
A3
350
4742
  3
A4
350
4743
  3
A5
350
4744
  3
A6
350
4745
  3
A7
350
4746
  3
A8
350
4747
  3
A9
350
4748
  3
B0
350
4749
  3
B1
350
474A
  3
B2
350
474B
  3
B3
350
474C
  3
B4
350
474D
  3
B5
350
474E
  3
B6
350
474F
  3
B7
350
4750
  3
B8
350
4751
  3
B9
350
4752
  3
C0
350
4753
  3
C1
350
4754
  3
C2
350
4755
  3
C3
350
4756
  3
C4
350
4757
  3
C5
350
4758
  3
C6
350
4759
  3
C7
350
475A
  3
C8
350
475B
  3
C9
350
475C
  3
D0
350
475D
  3
D1
350
475E
  3
D2
350
475F
  0
DICTIONARY
  5
46F2
102
{ACAD_REACTORS
330
C
102
}
330
C
100
AcDbDictionary
281
     1
  3
Standard
350
46F3
  0
DICTIONARY
  5
472D
102
{ACAD_REACTORS
330
C
102
}
330
C
100
AcDbDictionary
281
     1
  3
2dWireframe
350
4733
  3
3D Hidden
350
4735
  3
3dWireframe
350
4734
  3
Basic
350
4732
  3
Brighten
350
4739
  3
ColorChange
350
473D
  3
Conceptual
350
4736
  3
Dim
350
4738
  3
Facepattern
350
473C
  3
Flat
350
472E
  3
FlatWithEdges
350
472F
  3
Gouraud
350
4730
  3
GouraudWithEdges
350
4731
  3
Linepattern
350
473B
  3
Realistic
350
4737
  3
Thicken
350
473A
  0
XRECORD
  5
477E
102
{ACAD_REACTORS
330
C
102
}
330
C
100
AcDbXrecord
280
     1
 90
        1
330
46F3
  0
DICTIONARY
  5
1BF
102
{ACAD_REACTORS
330
C
102
}
330
C
100
AcDbDictionary
281
     1
  3
CANNOSCALE
350
477A
  3
CMLEADERSTYLE
350
4779
  3
CTABLESTYLE
350
4707
  3
DIMASSOC
350
4169
  3
INDEXCTL
350
477B
  3
PROJECTNAME
350
4708
  3
SORTENTS
350
1C0
  0
XRECORD
  5
477F
102
{ACAD_REACTORS
330
C
102
}
330
C
100
AcDbXrecord
280
     1
  1
DWGPROPS COOKIE
  2

  3

  4

  6

  7

  8
양순영
  9

300
=
301
=
302
=
303
=
304
=
305
=
306
=
307
=
308
=
309
=
 40
0.7784010185185185
 41
2452464.575009942
 42
2455643.496700741
  1

 90
        0
  0
XRECORD
  5
4770
102
{ACAD_REACTORS
330
476F
102
}
330
476F
100
AcDbXrecord
280
     1
290
     1
  0
XRECORD
  5
4772
102
{ACAD_REACTORS
330
4771
102
}
330
4771
100
AcDbXrecord
280
     1
290
     1
  0
XRECORD
  5
4774
102
{ACAD_REACTORS
330
4773
102
}
330
4773
100
AcDbXrecord
280
     1
290
     1
  0
XRECORD
  5
4776
102
{ACAD_REACTORS
330
4775
102
}
330
4775
100
AcDbXrecord
280
     1
290
     1
  0
XRECORD
  5
4778
102
{ACAD_REACTORS
330
4777
102
}
330
4777
100
AcDbXrecord
280
     1
290
     1
  0
XRECORD
  5
4787
102
{ACAD_REACTORS
330
4786
102
}
330
4786
100
AcDbXrecord
280
     1
 40
5298.0
  1
\A1;60°
  0
GROUP
  5
3315
102
{ACAD_REACTORS
330
D
102
}
330
D
100
AcDbGroup
300
Ball Screw  BNFN2010-1.5+300L
 70
     1
 71
     1
  0
GROUP
  5
3935
102
{ACAD_REACTORS
330
D
102
}
330
D
100
AcDbGroup
300
Ball Screw  BNFN2010-1.5+300L
 70
     1
 71
     1
  0
LAYOUT
  5
4157
102
{ACAD_XDICTIONARY
360
4782
102
}
102
{ACAD_REACTORS
330
4155
102
}
330
4155
100
AcDbPlotSettings
  1

  2
SBC-SERVER에서 자동 HP LaserJet 4V
  4
A4
  6

 40
6.805083274841307
 41
5.069413185119628
 42
6.805084228515625
 43
5.027069091796875
 44
209.9733276367186
 45
296.9683227539062
 46
0.0
 47
0.0
 48
0.0
 49
0.0
140
0.0
141
0.0
142
1.0
143
1.0
 70
 11952
 72
     0
 73
     1
 74
     0
  7
1.ctb
 75
     0
147
1.0
148
-1105.008668280591
149
-2180.822690011071
100
AcDbLayout
  1
Model
 70
     1
 71
     0
 10
0.0
 20
0.0
 11
12.0
 21
9.0
 12
0.0
 22
0.0
 32
0.0
 14
0.0
 24
0.0
 34
0.0
 15
0.0
 25
0.0
 35
0.0
146
0.0
 13
0.0
 23
0.0
 33
0.0
 16
1.0
 26
0.0
 36
0.0
 17
0.0
 27
1.0
 37
0.0
 76
     0
330
19
331
4709
  0
LAYOUT
  5
4158
102
{ACAD_XDICTIONARY
360
4784
102
}
102
{ACAD_REACTORS
330
4155
102
}
330
4155
100
AcDbPlotSettings
  1

  2
SBC-SERVER에서 자동 HP LaserJet 4V
  4

  6

 40
0.0
 41
0.0
 42
0.0
 43
0.0
 44
0.0
 45
0.0
 46
0.0
 47
0.0
 48
0.0
 49
0.0
140
0.0
141
0.0
142
1.0
143
1.0
 70
   688
 72
     0
 73
     0
 74
     5
  7
1.ctb
 75
    16
147
1.0
148
0.0
149
0.0
100
AcDbLayout
  1
배치1
 70
     1
 71
     1
 10
0.0
 20
0.0
 11
12.0
 21
9.0
 12
0.0
 22
0.0
 32
0.0
 14
1.000000000000000E+20
 24
1.000000000000000E+20
 34
1.000000000000000E+20
 15
-1.000000000000000E+20
 25
-1.000000000000000E+20
 35
-1.000000000000000E+20
146
0.0
 13
0.0
 23
0.0
 33
0.0
 16
1.0
 26
0.0
 36
0.0
 17
0.0
 27
1.0
 37
0.0
 76
     0
330
16
  0
MATERIAL
  5
471D
102
{ACAD_XDICTIONARY
360
471E
102
}
102
{ACAD_REACTORS
330
46F0
102
}
330
46F0
100
AcDbMaterial
  1
ByBlock
 72
     0
 43
0.0208333333333333
 43
0.0
 43
0.0
 43
0.0
 43
0.0
 43
0.0208333333333333
 43
0.0
 43
0.0
 43
0.0
 43
0.0
 43
1.0
 43
0.0
 43
0.0
 43
0.0
 43
0.0
 43
1.0
 77
     0
 47
0.0208333333333333
 47
0.0
 47
0.0
 47
0.0
 47
0.0
 47
0.0208333333333333
 47
0.0
 47
0.0
 47
0.0
 47
0.0
 47
1.0
 47
0.0
 47
0.0
 47
0.0
 47
0.0
 47
1.0
171
     0
 49
0.0208333333333333
 49
0.0
 49
0.0
 49
0.0
 49
0.0
 49
0.0208333333333333
 49
0.0
 49
0.0
 49
0.0
 49
0.0
 49
1.0
 49
0.0
 49
0.0
 49
0.0
 49
0.0
 49
1.0
175
     0
142
0.0208333333333333
142
0.0
142
0.0
142
0.0
142
0.0
142
0.0208333333333333
142
0.0
142
0.0
142
0.0
142
0.0
142
1.0
142
0.0
142
0.0
142
0.0
142
0.0
142
1.0
179
     0
144
0.0208333333333333
144
0.0
144
0.0
144
0.0
144
0.0
144
0.0208333333333333
144
0.0
144
0.0
144
0.0
144
0.0
144
1.0
144
0.0
144
0.0
144
0.0
144
0.0
144
1.0
147
0.0208333333333333
147
0.0
147
0.0
147
0.0
147
0.0
147
0.0208333333333333
147
0.0
147
0.0
147
0.0
147
0.0
147
1.0
147
0.0
147
0.0
147
0.0
147
0.0
147
1.0
  0
MATERIAL
  5
4715
102
{ACAD_XDICTIONARY
360
4716
102
}
102
{ACAD_REACTORS
330
46F0
102
}
330
46F0
100
AcDbMaterial
  1
ByLayer
 72
     0
 43
0.0208333333333333
 43
0.0
 43
0.0
 43
0.0
 43
0.0
 43
0.0208333333333333
 43
0.0
 43
0.0
 43
0.0
 43
0.0
 43
1.0
 43
0.0
 43
0.0
 43
0.0
 43
0.0
 43
1.0
 77
     0
 47
0.0208333333333333
 47
0.0
 47
0.0
 47
0.0
 47
0.0
 47
0.0208333333333333
 47
0.0
 47
0.0
 47
0.0
 47
0.0
 47
1.0
 47
0.0
 47
0.0
 47
0.0
 47
0.0
 47
1.0
171
     0
 49
0.0208333333333333
 49
0.0
 49
0.0
 49
0.0
 49
0.0
 49
0.0208333333333333
 49
0.0
 49
0.0
 49
0.0
 49
0.0
 49
1.0
 49
0.0
 49
0.0
 49
0.0
 49
0.0
 49
1.0
175
     0
142
0.0208333333333333
142
0.0
142
0.0
142
0.0
142
0.0
142
0.0208333333333333
142
0.0
142
0.0
142
0.0
142
0.0
142
1.0
142
0.0
142
0.0
142
0.0
142
0.0
142
1.0
179
     0
144
0.0208333333333333
144
0.0
144
0.0
144
0.0
144
0.0
144
0.0208333333333333
144
0.0
144
0.0
144
0.0
144
0.0
144
1.0
144
0.0
144
0.0
144
0.0
144
0.0
144
1.0
147
0.0208333333333333
147
0.0
147
0.0
147
0.0
147
0.0
147
0.0208333333333333
147
0.0
147
0.0
147
0.0
147
0.0
147
1.0
147
0.0
147
0.0
147
0.0
147
0.0
147
1.0
  0
MATERIAL
  5
4725
102
{ACAD_XDICTIONARY
360
4726
102
}
102
{ACAD_REACTORS
330
46F0
102
}
330
46F0
100
AcDbMaterial
  1
Global
 72
     0
 43
0.0208333333333333
 43
0.0
 43
0.0
 43
0.0
 43
0.0
 43
0.0208333333333333
 43
0.0
 43
0.0
 43
0.0
 43
0.0
 43
1.0
 43
0.0
 43
0.0
 43
0.0
 43
0.0
 43
1.0
 77
     0
 47
0.0208333333333333
 47
0.0
 47
0.0
 47
0.0
 47
0.0
 47
0.0208333333333333
 47
0.0
 47
0.0
 47
0.0
 47
0.0
 47
1.0
 47
0.0
 47
0.0
 47
0.0
 47
0.0
 47
1.0
171
     0
 49
0.0208333333333333
 49
0.0
 49
0.0
 49
0.0
 49
0.0
 49
0.0208333333333333
 49
0.0
 49
0.0
 49
0.0
 49
0.0
 49
1.0
 49
0.0
 49
0.0
 49
0.0
 49
0.0
 49
1.0
175
     0
142
0.0208333333333333
142
0.0
142
0.0
142
0.0
142
0.0
142
0.0208333333333333
142
0.0
142
0.0
142
0.0
142
0.0
142
1.0
142
0.0
142
0.0
142
0.0
142
0.0
142
1.0
179
     0
144
0.0208333333333333
144
0.0
144
0.0
144
0.0
144
0.0
144
0.0208333333333333
144
0.0
144
0.0
144
0.0
144
0.0
144
1.0
144
0.0
144
0.0
144
0.0
144
0.0
144
1.0
147
0.0208333333333333
147
0.0
147
0.0
147
0.0
147
0.0
147
0.0208333333333333
147
0.0
147
0.0
147
0.0
147
0.0
147
1.0
147
0.0
147
0.0
147
0.0
147
0.0
147
1.0
  0
MLEADERSTYLE
  5
4761
102
{ACAD_REACTORS
330
4760
102
}
330
4760
100
AcDbMLeaderStyle
170
     2
171
     1
172
     0
 90
        2
 40
0.0
 41
0.0
173
     1
 91
-1056964608
340
13
 92
       -2
290
     1
 42
0.09
291
     1
 43
0.36
  3
Standard
 44
0.18
300

342
10
174
     1
178
     6
175
     1
176
     0
 93
-1056964608
 45
0.18
292
     0
297
     0
 46
0.18
 94
-1056964608
 47
1.0
 49
1.0
140
1.0
293
     1
141
0.0
294
     1
177
     0
142
1.0
295
     0
296
     0
143
0.125
1001
ACAD_MLEADERVER
1070
     2
  0
MLINESTYLE
  5
1C
102
{ACAD_REACTORS
330
E
102
}
330
E
100
AcDbMlineStyle
  2
STANDARD
 70
     0
  3

 62
     0
 51
90.0
 52
90.0
 71
     2
 49
0.5
 62
   256
  6
BYLAYER
 49
-0.5
 62
   256
  6
BYLAYER
  0
ACDBPLACEHOLDER
  5
4154
102
{ACAD_REACTORS
330
4153
102
}
330
4153
  0
SCALE
  5
473F
102
{ACAD_REACTORS
330
473E
102
}
330
473E
100
AcDbScale
 70
     0
300
1:1
140
1.0
141
1.0
290
     1
  0
SCALE
  5
4740
102
{ACAD_REACTORS
330
473E
102
}
330
473E
100
AcDbScale
 70
     0
300
1:2
140
1.0
141
2.0
290
     0
  0
SCALE
  5
4741
102
{ACAD_REACTORS
330
473E
102
}
330
473E
100
AcDbScale
 70
     0
300
1:4
140
1.0
141
4.0
290
     0
  0
SCALE
  5
4742
102
{ACAD_REACTORS
330
473E
102
}
330
473E
100
AcDbScale
 70
     0
300
1:5
140
1.0
141
5.0
290
     0
  0
SCALE
  5
4743
102
{ACAD_REACTORS
330
473E
102
}
330
473E
100
AcDbScale
 70
     0
300
1:8
140
1.0
141
8.0
290
     0
  0
SCALE
  5
4744
102
{ACAD_REACTORS
330
473E
102
}
330
473E
100
AcDbScale
 70
     0
300
1:10
140
1.0
141
10.0
290
     0
  0
SCALE
  5
4745
102
{ACAD_REACTORS
330
473E
102
}
330
473E
100
AcDbScale
 70
     0
300
1:16
140
1.0
141
16.0
290
     0
  0
SCALE
  5
4746
102
{ACAD_REACTORS
330
473E
102
}
330
473E
100
AcDbScale
 70
     0
300
1:20
140
1.0
141
20.0
290
     0
  0
SCALE
  5
4747
102
{ACAD_REACTORS
330
473E
102
}
330
473E
100
AcDbScale
 70
     0
300
1:30
140
1.0
141
30.0
290
     0
  0
SCALE
  5
4748
102
{ACAD_REACTORS
330
473E
102
}
330
473E
100
AcDbScale
 70
     0
300
1:40
140
1.0
141
40.0
290
     0
  0
SCALE
  5
4749
102
{ACAD_REACTORS
330
473E
102
}
330
473E
100
AcDbScale
 70
     0
300
1:50
140
1.0
141
50.0
290
     0
  0
SCALE
  5
474A
102
{ACAD_REACTORS
330
473E
102
}
330
473E
100
AcDbScale
 70
     0
300
1:100
140
1.0
141
100.0
290
     0
  0
SCALE
  5
474B
102
{ACAD_REACTORS
330
473E
102
}
330
473E
100
AcDbScale
 70
     0
300
2:1
140
2.0
141
1.0
290
     0
  0
SCALE
  5
474C
102
{ACAD_REACTORS
330
473E
102
}
330
473E
100
AcDbScale
 70
     0
300
4:1
140
4.0
141
1.0
290
     0
  0
SCALE
  5
474D
102
{ACAD_REACTORS
330
473E
102
}
330
473E
100
AcDbScale
 70
     0
300
8:1
140
8.0
141
1.0
290
     0
  0
SCALE
  5
474E
102
{ACAD_REACTORS
330
473E
102
}
330
473E
100
AcDbScale
 70
     0
300
10:1
140
10.0
141
1.0
290
     0
  0
SCALE
  5
474F
102
{ACAD_REACTORS
330
473E
102
}
330
473E
100
AcDbScale
 70
     0
300
100:1
140
100.0
141
1.0
290
     0
  0
SCALE
  5
4750
102
{ACAD_REACTORS
330
473E
102
}
330
473E
100
AcDbScale
 70
     0
300
1/128" = 1'-0"
140
0.0078125
141
12.0
290
     0
  0
SCALE
  5
4751
102
{ACAD_REACTORS
330
473E
102
}
330
473E
100
AcDbScale
 70
     0
300
1/64" = 1'-0"
140
0.015625
141
12.0
290
     0
  0
SCALE
  5
4752
102
{ACAD_REACTORS
330
473E
102
}
330
473E
100
AcDbScale
 70
     0
300
1/32" = 1'-0"
140
0.03125
141
12.0
290
     0
  0
SCALE
  5
4753
102
{ACAD_REACTORS
330
473E
102
}
330
473E
100
AcDbScale
 70
     0
300
1/16" = 1'-0"
140
0.0625
141
12.0
290
     0
  0
SCALE
  5
4754
102
{ACAD_REACTORS
330
473E
102
}
330
473E
100
AcDbScale
 70
     0
300
3/32" = 1'-0"
140
0.09375
141
12.0
290
     0
  0
SCALE
  5
4755
102
{ACAD_REACTORS
330
473E
102
}
330
473E
100
AcDbScale
 70
     0
300
1/8" = 1'-0"
140
0.125
141
12.0
290
     0
  0
SCALE
  5
4756
102
{ACAD_REACTORS
330
473E
102
}
330
473E
100
AcDbScale
 70
     0
300
3/16" = 1'-0"
140
0.1875
141
12.0
290
     0
  0
SCALE
  5
4757
102
{ACAD_REACTORS
330
473E
102
}
330
473E
100
AcDbScale
 70
     0
300
1/4" = 1'-0"
140
0.25
141
12.0
290
     0
  0
SCALE
  5
4758
102
{ACAD_REACTORS
330
473E
102
}
330
473E
100
AcDbScale
 70
     0
300
3/8" = 1'-0"
140
0.375
141
12.0
290
     0
  0
SCALE
  5
4759
102
{ACAD_REACTORS
330
473E
102
}
330
473E
100
AcDbScale
 70
     0
300
1/2" = 1'-0"
140
0.5
141
12.0
290
     0
  0
SCALE
  5
475A
102
{ACAD_REACTORS
330
473E
102
}
330
473E
100
AcDbScale
 70
     0
300
3/4" = 1'-0"
140
0.75
141
12.0
290
     0
  0
SCALE
  5
475B
102
{ACAD_REACTORS
330
473E
102
}
330
473E
100
AcDbScale
 70
     0
300
1" = 1'-0"
140
1.0
141
12.0
290
     0
  0
SCALE
  5
475C
102
{ACAD_REACTORS
330
473E
102
}
330
473E
100
AcDbScale
 70
     0
300
1-1/2" = 1'-0"
140
1.5
141
12.0
290
     0
  0
SCALE
  5
475D
102
{ACAD_REACTORS
330
473E
102
}
330
473E
100
AcDbScale
 70
     0
300
3" = 1'-0"
140
3.0
141
12.0
290
     0
  0
SCALE
  5
475E
102
{ACAD_REACTORS
330
473E
102
}
330
473E
100
AcDbScale
 70
     0
300
6" = 1'-0"
140
6.0
141
12.0
290
     0
  0
SCALE
  5
475F
102
{ACAD_REACTORS
330
473E
102
}
330
473E
100
AcDbScale
 70
     0
300
1'-0" = 1'-0"
140
12.0
141
12.0
290
     0
  0
TABLESTYLE
  5
46F3
102
{ACAD_XDICTIONARY
360
477C
102
}
102
{ACAD_REACTORS
330
46F2
102
}
330
46F2
100
AcDbTableStyle
  3
Standard
 70
     0
 71
     0
 40
0.06
 41
0.06
280
     0
281
     0
  7
STANDARD
140
0.18
170
     2
 62
     0
 63
     7
283
     0
274
    -2
284
     1
 64
     0
275
    -2
285
     1
 65
     0
276
    -2
286
     1
 66
     0
277
    -2
287
     1
 67
     0
278
    -2
288
     1
 68
     0
279
    -2
289
     1
 69
     0
  7
STANDARD
140
0.25
170
     5
 62
     0
 63
     7
283
     0
274
    -2
284
     1
 64
     0
275
    -2
285
     1
 65
     0
276
    -2
286
     1
 66
     0
277
    -2
287
     1
 67
     0
278
    -2
288
     1
 68
     0
279
    -2
289
     1
 69
     0
  7
STANDARD
140
0.18
170
     5
 62
     0
 63
     7
283
     0
274
    -2
284
     1
 64
     0
275
    -2
285
     1
 65
     0
276
    -2
286
     1
 66
     0
277
    -2
287
     1
 67
     0
278
    -2
288
     1
 68
     0
279
    -2
289
     1
 69
     0
  0
VISUALSTYLE
  5
4733
102
{ACAD_REACTORS
330
472D
102
}
330
472D
100
AcDbVisualStyle
  2
2dWireframe
 70
     4
 71
     0
 72
     2
 73
     0
 90
        0
 40
-0.6
 41
-30.0
 62
     5
 63
     7
 74
     1
 91
        4
 64
     7
 65
   257
 75
     1
175
     1
 42
1.0
 92
        0
 66
   257
 43
1.0
 76
     1
 77
     6
 78
     2
 67
     7
 79
     5
170
     0
171
     0
290
     0
174
     0
 93
        1
 44
0.0
173
     0
291
     0
 45
0.0
1001
ACAD
1000
AcDbSavedByObjectVersion
1070
     0
  0
VISUALSTYLE
  5
4735
102
{ACAD_REACTORS
330
472D
102
}
330
472D
100
AcDbVisualStyle
  2
3D Hidden
 70
     6
 71
     1
 72
     2
 73
     2
 90
        0
 40
-0.6
 41
-30.0
 62
     5
 63
     7
 74
     2
 91
        2
 64
     7
 65
   257
 75
     2
175
     1
 42
40.0
 92
        0
 66
   257
 43
1.0
 76
     1
 77
     6
 78
     2
 67
     7
 79
     3
170
     0
171
     0
290
     0
174
     0
 93
        1
 44
0.0
173
     0
291
     0
 45
0.0
1001
ACAD
1000
AcDbSavedByObjectVersion
1070
     0
  0
VISUALSTYLE
  5
4734
102
{ACAD_REACTORS
330
472D
102
}
330
472D
100
AcDbVisualStyle
  2
3dWireframe
 70
     5
 71
     0
 72
     2
 73
     0
 90
        0
 40
-0.6
 41
-30.0
 62
     5
 63
     7
 74
     1
 91
        4
 64
     7
 65
   257
 75
     1
175
     1
 42
1.0
 92
        0
 66
   257
 43
1.0
 76
     1
 77
     6
 78
     2
 67
     7
 79
     5
170
     0
171
     0
290
     0
174
     0
 93
        1
 44
0.0
173
     0
291
     0
 45
0.0
1001
ACAD
1000
AcDbSavedByObjectVersion
1070
     0
  0
VISUALSTYLE
  5
4732
102
{ACAD_REACTORS
330
472D
102
}
330
472D
100
AcDbVisualStyle
  2
Basic
 70
     7
 71
     1
 72
     0
 73
     1
 90
        0
 40
-0.6
 41
-30.0
 62
     5
 63
     7
 74
     0
 91
        4
 64
     7
 65
   257
 75
     1
175
     1
 42
1.0
 92
        8
 66
     7
 43
1.0
 76
     1
 77
     6
 78
     2
 67
     7
 79
     5
170
     0
171
     0
290
     0
174
     0
 93
        1
 44
0.0
173
     0
291
     1
 45
0.0
1001
ACAD
1000
AcDbSavedByObjectVersion
1070
     0
  0
VISUALSTYLE
  5
4739
102
{ACAD_REACTORS
330
472D
102
}
330
472D
100
AcDbVisualStyle
  2
Brighten
 70
    12
 71
     2
 72
     2
 73
     0
 90
        0
 40
-0.6
 41
-30.0
 62
     5
 63
     7
 74
     1
 91
        4
 64
     7
 65
   257
 75
     1
175
     1
 42
1.0
 92
        8
 66
     7
 43
1.0
 76
     1
 77
     6
 78
     2
 67
     7
 79
     5
170
     0
171
     0
290
     0
174
     0
 93
        1
 44
50.0
173
     0
291
     1
 45
0.0
1001
ACAD
1000
AcDbSavedByObjectVersion
1070
     0
  0
VISUALSTYLE
  5
473D
102
{ACAD_REACTORS
330
472D
102
}
330
472D
100
AcDbVisualStyle
  2
ColorChange
 70
    16
 71
     2
 72
     2
 73
     3
 90
        0
 40
-0.6
 41
-30.0
 62
     5
 63
     8
 74
     1
 91
        4
 64
     7
 65
   257
 75
     1
175
     1
 42
1.0
 92
        8
 66
     8
 43
1.0
 76
     1
 77
     6
 78
     2
 67
     7
 79
     5
170
     0
171
     0
290
     0
174
     0
 93
        1
 44
0.0
173
     0
291
     1
 45
0.0
1001
ACAD
1000
AcDbSavedByObjectVersion
1070
     0
  0
VISUALSTYLE
  5
4736
102
{ACAD_REACTORS
330
472D
102
}
330
472D
100
AcDbVisualStyle
  2
Conceptual
 70
     9
 71
     3
 72
     2
 73
     0
 90
        0
 40
-0.6
 41
-30.0
 62
     5
 63
     7
 74
     2
 91
        2
 64
     7
 65
   257
 75
     1
175
     1
 42
40.0
 92
        8
 66
     7
 43
1.0
 76
     1
 77
     6
 78
     2
 67
     7
 79
     3
170
     0
171
     0
290
     0
174
     0
 93
        1
 44
0.0
173
     0
291
     0
 45
0.0
1001
ACAD
1000
AcDbSavedByObjectVersion
1070
     0
  0
VISUALSTYLE
  5
4738
102
{ACAD_REACTORS
330
472D
102
}
330
472D
100
AcDbVisualStyle
  2
Dim
 70
    11
 71
     2
 72
     2
 73
     0
 90
        0
 40
-0.6
 41
-30.0
 62
     5
 63
     7
 74
     1
 91
        4
 64
     7
 65
   257
 75
     1
175
     1
 42
1.0
 92
        8
 66
     7
 43
1.0
 76
     1
 77
     6
 78
     2
 67
     7
 79
     5
170
     0
171
     0
290
     0
174
     0
 93
        1
 44
-50.0
173
     0
291
     1
 45
0.0
1001
ACAD
1000
AcDbSavedByObjectVersion
1070
     0
  0
VISUALSTYLE
  5
473C
102
{ACAD_REACTORS
330
472D
102
}
330
472D
100
AcDbVisualStyle
  2
Facepattern
 70
    15
 71
     2
 72
     2
 73
     0
 90
        0
 40
-0.6
 41
-30.0
 62
     5
 63
     7
 74
     1
 91
        4
 64
     7
 65
   257
 75
     1
175
     1
 42
1.0
 92
        8
 66
     7
 43
1.0
 76
     1
 77
     6
 78
     2
 67
     7
 79
     5
170
     0
171
     0
290
     0
174
     0
 93
        1
 44
0.0
173
     0
291
     1
 45
0.0
1001
ACAD
1000
AcDbSavedByObjectVersion
1070
     0
  0
VISUALSTYLE
  5
472E
102
{ACAD_REACTORS
330
472D
102
}
330
472D
100
AcDbVisualStyle
  2
Flat
 70
     0
 71
     2
 72
     1
 73
     1
 90
        2
 40
-0.6
 41
30.0
 62
     5
 63
     7
 74
     0
 91
        4
 64
     7
 65
   257
 75
     1
175
     1
 42
1.0
 92
        8
 66
     7
 43
1.0
 76
     1
 77
     6
 78
     2
 67
     7
 79
     5
170
     0
171
     0
290
     0
174
     0
 93
       13
 44
0.0
173
     0
291
     1
 45
0.0
1001
ACAD
1000
AcDbSavedByObjectVersion
1070
     0
  0
VISUALSTYLE
  5
472F
102
{ACAD_REACTORS
330
472D
102
}
330
472D
100
AcDbVisualStyle
  2
FlatWithEdges
 70
     1
 71
     2
 72
     1
 73
     1
 90
        2
 40
-0.6
 41
30.0
 62
     5
 63
     7
 74
     1
 91
        4
 64
     7
 65
   257
 75
     1
175
     1
 42
1.0
 92
        0
 66
   257
 43
1.0
 76
     1
 77
     6
 78
     2
 67
     7
 79
     5
170
     0
171
     0
290
     0
174
     0
 93
       13
 44
0.0
173
     0
291
     1
 45
0.0
1001
ACAD
1000
AcDbSavedByObjectVersion
1070
     0
  0
VISUALSTYLE
  5
4730
102
{ACAD_REACTORS
330
472D
102
}
330
472D
100
AcDbVisualStyle
  2
Gouraud
 70
     2
 71
     2
 72
     2
 73
     1
 90
        2
 40
-0.6
 41
30.0
 62
     5
 63
     7
 74
     0
 91
        4
 64
     7
 65
   257
 75
     1
175
     1
 42
1.0
 92
        0
 66
     7
 43
1.0
 76
     1
 77
     6
 78
     2
 67
     7
 79
     5
170
     0
171
     0
290
     0
174
     0
 93
       13
 44
0.0
173
     0
291
     1
 45
0.0
1001
ACAD
1000
AcDbSavedByObjectVersion
1070
     0
  0
VISUALSTYLE
  5
4731
102
{ACAD_REACTORS
330
472D
102
}
330
472D
100
AcDbVisualStyle
  2
GouraudWithEdges
 70
     3
 71
     2
 72
     2
 73
     1
 90
        2
 40
-0.6
 41
30.0
 62
     5
 63
     7
 74
     1
 91
        4
 64
     7
 65
   257
 75
     1
175
     1
 42
1.0
 92
        0
 66
   257
 43
1.0
 76
     1
 77
     6
 78
     2
 67
     7
 79
     5
170
     0
171
     0
290
     0
174
     0
 93
       13
 44
0.0
173
     0
291
     1
 45
0.0
1001
ACAD
1000
AcDbSavedByObjectVersion
1070
     0
  0
VISUALSTYLE
  5
473B
102
{ACAD_REACTORS
330
472D
102
}
330
472D
100
AcDbVisualStyle
  2
Linepattern
 70
    14
 71
     2
 72
     2
 73
     0
 90
        0
 40
-0.6
 41
-30.0
 62
     5
 63
     7
 74
     1
 91
        4
 64
     7
 65
   257
 75
     7
175
     7
 42
1.0
 92
        8
 66
     7
 43
1.0
 76
     1
 77
     6
 78
     2
 67
     7
 79
     5
170
     0
171
     0
290
     0
174
     0
 93
        1
 44
0.0
173
     0
291
     1
 45
0.0
1001
ACAD
1000
AcDbSavedByObjectVersion
1070
     0
  0
VISUALSTYLE
  5
4737
102
{ACAD_REACTORS
330
472D
102
}
330
472D
100
AcDbVisualStyle
  2
Realistic
 70
     8
 71
     2
 72
     2
 73
     0
 90
        0
 40
-0.6
 41
-30.0
 62
     5
 63
     7
 74
     1
 91
        0
 64
     7
 65
   257
 75
     1
175
     1
 42
1.0
 92
        8
 66
     8
 43
1.0
 76
     1
 77
     6
 78
     2
 67
     7
 79
     5
170
     0
171
     0
290
     0
174
     0
 93
       13
 44
0.0
173
     0
291
     0
 45
0.0
1001
ACAD
1000
AcDbSavedByObjectVersion
1070
     0
  0
VISUALSTYLE
  5
473A
102
{ACAD_REACTORS
330
472D
102
}
330
472D
100
AcDbVisualStyle
  2
Thicken
 70
    13
 71
     2
 72
     2
 73
     0
 90
        0
 40
-0.6
 41
-30.0
 62
     5
 63
     7
 74
     1
 91
        4
 64
     7
 65
   257
 75
     1
175
     1
 42
1.0
 92
       12
 66
     7
 43
1.0
 76
     1
 77
     6
 78
     2
 67
     7
 79
     5
170
     0
171
     0
290
     0
174
     0
 93
        1
 44
0.0
173
     0
291
     1
 45
0.0
1001
ACAD
1000
AcDbSavedByObjectVersion
1070
     0
  0
DICTIONARYVAR
  5
477A
102
{ACAD_REACTORS
330
1BF
102
}
330
1BF
100
DictionaryVariables
280
     0
  1
1:1
  0
DICTIONARYVAR
  5
4779
102
{ACAD_REACTORS
330
1BF
102
}
330
1BF
100
DictionaryVariables
280
     0
  1
STANDARD
  0
DICTIONARYVAR
  5
4707
102
{ACAD_REACTORS
330
1BF
102
}
330
1BF
100
DictionaryVariables
280
     0
  1
STANDARD
  0
DICTIONARYVAR
  5
4169
102
{ACAD_REACTORS
330
1BF
102
}
330
1BF
100
DictionaryVariables
280
     0
  1
1
  0
DICTIONARYVAR
  5
477B
102
{ACAD_REACTORS
330
1BF
102
}
330
1BF
100
DictionaryVariables
280
     0
  1
0
  0
DICTIONARYVAR
  5
4708
102
{ACAD_REACTORS
330
1BF
102
}
330
1BF
100
DictionaryVariables
280
     0
  1

  0
DICTIONARYVAR
  5
1C0
102
{ACAD_REACTORS
330
1BF
102
}
330
1BF
100
DictionaryVariables
280
     0
  1
96
  0
DICTIONARY
  5
4782
330
4157
100
AcDbDictionary
280
     1
281
     1
  3
ACAD_XREC_ROUNDTRIP
360
4783
  0
DICTIONARY
  5
4784
330
4158
100
AcDbDictionary
280
     1
281
     1
  3
ACAD_XREC_ROUNDTRIP
360
4785
  0
DICTIONARY
  5
471E
330
471D
100
AcDbDictionary
280
     1
281
     1
  3
ACAD_XREC_ROUNDTRIP
360
478A
  3
BUMPTILE
360
4720
  3
DIFFUSETILE
360
471F
  3
OPACITYTILE
360
4723
  3
REFLECTIONTILE
360
4722
  3
REFRACTIONTILE
360
4724
  3
SPECULARTILE
360
4721
  0
DICTIONARY
  5
4716
330
4715
100
AcDbDictionary
280
     1
281
     1
  3
ACAD_XREC_ROUNDTRIP
360
4789
  3
BUMPTILE
360
4718
  3
DIFFUSETILE
360
4717
  3
OPACITYTILE
360
471B
  3
REFLECTIONTILE
360
471A
  3
REFRACTIONTILE
360
471C
  3
SPECULARTILE
360
4719
  0
DICTIONARY
  5
4726
330
4725
100
AcDbDictionary
280
     1
281
     1
  3
ACAD_XREC_ROUNDTRIP
360
478B
  3
BUMPTILE
360
4728
  3
DIFFUSETILE
360
4727
  3
OPACITYTILE
360
472B
  3
REFLECTIONTILE
360
472A
  3
REFRACTIONTILE
360
472C
  3
SPECULARTILE
360
4729
  0
DICTIONARY
  5
477C
330
46F3
100
AcDbDictionary
280
     1
281
     1
  3
ACAD_ROUNDTRIP_2008_TABLESTYLE_CELLSTYLEMAP
360
477D
  3
ACAD_XREC_ROUNDTRIP
360
4788
  0
XRECORD
  5
4783
102
{ACAD_REACTORS
330
4782
102
}
330
4782
100
AcDbXrecord
280
     1
102
SHADEPLOT
 70
     0
102
SHADEPLOTRESLEVEL
 70
     2
102
SHADEPLOTCUSTOMDPI
 70
   300
  0
XRECORD
  5
4785
102
{ACAD_REACTORS
330
4784
102
}
330
4784
100
AcDbXrecord
280
     1
102
SHADEPLOT
 70
     0
102
SHADEPLOTRESLEVEL
 70
     2
102
SHADEPLOTCUSTOMDPI
 70
   300
  0
XRECORD
  5
478A
102
{ACAD_REACTORS
330
471E
102
}
330
471E
100
AcDbXrecord
280
     1
102
MATERIAL
148
0.0
149
0.0
149
0.0
 93
        0
 94
      127
282
     0
 72
     0
 77
     0
171
     0
175
     0
179
     0
273
     0
  0
XRECORD
  5
4720
102
{ACAD_REACTORS
330
471E
102
}
330
471E
100
AcDbXrecord
280
     1
270
     1
271
     1
  0
XRECORD
  5
471F
102
{ACAD_REACTORS
330
471E
102
}
330
471E
100
AcDbXrecord
280
     1
270
     1
271
     1
  0
XRECORD
  5
4723
102
{ACAD_REACTORS
330
471E
102
}
330
471E
100
AcDbXrecord
280
     1
270
     1
271
     1
  0
XRECORD
  5
4722
102
{ACAD_REACTORS
330
471E
102
}
330
471E
100
AcDbXrecord
280
     1
270
     1
271
     1
  0
XRECORD
  5
4724
102
{ACAD_REACTORS
330
471E
102
}
330
471E
100
AcDbXrecord
280
     1
270
     1
271
     1
  0
XRECORD
  5
4721
102
{ACAD_REACTORS
330
471E
102
}
330
471E
100
AcDbXrecord
280
     1
270
     1
271
     1
  0
XRECORD
  5
4789
102
{ACAD_REACTORS
330
4716
102
}
330
4716
100
AcDbXrecord
280
     1
102
MATERIAL
148
0.0
149
0.0
149
0.0
 93
        0
 94
      127
282
     0
 72
     0
 77
     0
171
     0
175
     0
179
     0
273
     0
  0
XRECORD
  5
4718
102
{ACAD_REACTORS
330
4716
102
}
330
4716
100
AcDbXrecord
280
     1
270
     1
271
     1
  0
XRECORD
  5
4717
102
{ACAD_REACTORS
330
4716
102
}
330
4716
100
AcDbXrecord
280
     1
270
     1
271
     1
  0
XRECORD
  5
471B
102
{ACAD_REACTORS
330
4716
102
}
330
4716
100
AcDbXrecord
280
     1
270
     1
271
     1
  0
XRECORD
  5
471A
102
{ACAD_REACTORS
330
4716
102
}
330
4716
100
AcDbXrecord
280
     1
270
     1
271
     1
  0
XRECORD
  5
471C
102
{ACAD_REACTORS
330
4716
102
}
330
4716
100
AcDbXrecord
280
     1
270
     1
271
     1
  0
XRECORD
  5
4719
102
{ACAD_REACTORS
330
4716
102
}
330
4716
100
AcDbXrecord
280
     1
270
     1
271
     1
  0
XRECORD
  5
478B
102
{ACAD_REACTORS
330
4726
102
}
330
4726
100
AcDbXrecord
280
     1
102
MATERIAL
148
0.0
149
0.0
149
0.0
 93
        0
 94
      127
282
     0
 72
     0
 77
     0
171
     0
175
     0
179
     0
273
     0
  0
XRECORD
  5
4728
102
{ACAD_REACTORS
330
4726
102
}
330
4726
100
AcDbXrecord
280
     1
270
     1
271
     1
  0
XRECORD
  5
4727
102
{ACAD_REACTORS
330
4726
102
}
330
4726
100
AcDbXrecord
280
     1
270
     1
271
     1
  0
XRECORD
  5
472B
102
{ACAD_REACTORS
330
4726
102
}
330
4726
100
AcDbXrecord
280
     1
270
     1
271
     1
  0
XRECORD
  5
472A
102
{ACAD_REACTORS
330
4726
102
}
330
4726
100
AcDbXrecord
280
     1
270
     1
271
     1
  0
XRECORD
  5
472C
102
{ACAD_REACTORS
330
4726
102
}
330
4726
100
AcDbXrecord
280
     1
270
     1
271
     1
  0
XRECORD
  5
4729
102
{ACAD_REACTORS
330
4726
102
}
330
4726
100
AcDbXrecord
280
     1
270
     1
271
     1
  0
CELLSTYLEMAP
  5
477D
102
{ACAD_REACTORS
330
477C
102
}
330
477C
100
AcDbCellStyleMap
 90
        3
300
CELLSTYLE
  1
TABLEFORMAT_BEGIN
 90
        5
170
     1
 91
        0
 92
    32768
 62
   257
 93
        1
300
CONTENTFORMAT
  1
CONTENTFORMAT_BEGIN
 90
        0
 91
        0
 92
        4
 93
        0
300

 40
0.0
140
1.0
 94
        5
 62
     0
340
10
144
0.25
309
CONTENTFORMAT_END
171
     0
 94
        6
 95
        1
302
GRIDFORMAT
  1
GRIDFORMAT_BEGIN
 90
        0
 91
        1
 62
     0
 92
       -2
340
0
 93
        0
 40
0.045
309
GRIDFORMAT_END
 95
        2
302
GRIDFORMAT
  1
GRIDFORMAT_BEGIN
 90
        0
 91
        1
 62
     0
 92
       -2
340
0
 93
        0
 40
0.045
309
GRIDFORMAT_END
 95
        4
302
GRIDFORMAT
  1
GRIDFORMAT_BEGIN
 90
        0
 91
        1
 62
     0
 92
       -2
340
0
 93
        0
 40
0.045
309
GRIDFORMAT_END
 95
        8
302
GRIDFORMAT
  1
GRIDFORMAT_BEGIN
 90
        0
 91
        1
 62
     0
 92
       -2
340
0
 93
        0
 40
0.045
309
GRIDFORMAT_END
 95
       16
302
GRIDFORMAT
  1
GRIDFORMAT_BEGIN
 90
        0
 91
        1
 62
     0
 92
       -2
340
0
 93
        0
 40
0.045
309
GRIDFORMAT_END
 95
       32
302
GRIDFORMAT
  1
GRIDFORMAT_BEGIN
 90
        0
 91
        1
 62
     0
 92
       -2
340
0
 93
        0
 40
0.045
309
GRIDFORMAT_END
309
TABLEFORMAT_END
  1
CELLSTYLE_BEGIN
 90
        1
 91
        1
300
_TITLE
309
CELLSTYLE_END
300
CELLSTYLE
  1
TABLEFORMAT_BEGIN
 90
        5
170
     1
 91
        0
 92
        0
 62
   257
 93
        1
300
CONTENTFORMAT
  1
CONTENTFORMAT_BEGIN
 90
        0
 91
        0
 92
        4
 93
        0
300

 40
0.0
140
1.0
 94
        5
 62
     0
340
10
144
0.18
309
CONTENTFORMAT_END
171
     0
 94
        6
 95
        1
302
GRIDFORMAT
  1
GRIDFORMAT_BEGIN
 90
        0
 91
        1
 62
     0
 92
       -2
340
0
 93
        0
 40
0.045
309
GRIDFORMAT_END
 95
        2
302
GRIDFORMAT
  1
GRIDFORMAT_BEGIN
 90
        0
 91
        1
 62
     0
 92
       -2
340
0
 93
        0
 40
0.045
309
GRIDFORMAT_END
 95
        4
302
GRIDFORMAT
  1
GRIDFORMAT_BEGIN
 90
        0
 91
        1
 62
     0
 92
       -2
340
0
 93
        0
 40
0.045
309
GRIDFORMAT_END
 95
        8
302
GRIDFORMAT
  1
GRIDFORMAT_BEGIN
 90
        0
 91
        1
 62
     0
 92
       -2
340
0
 93
        0
 40
0.045
309
GRIDFORMAT_END
 95
       16
302
GRIDFORMAT
  1
GRIDFORMAT_BEGIN
 90
        0
 91
        1
 62
     0
 92
       -2
340
0
 93
        0
 40
0.045
309
GRIDFORMAT_END
 95
       32
302
GRIDFORMAT
  1
GRIDFORMAT_BEGIN
 90
        0
 91
        1
 62
     0
 92
       -2
340
0
 93
        0
 40
0.045
309
GRIDFORMAT_END
309
TABLEFORMAT_END
  1
CELLSTYLE_BEGIN
 90
        2
 91
        1
300
_HEADER
309
CELLSTYLE_END
300
CELLSTYLE
  1
TABLEFORMAT_BEGIN
 90
        5
170
     1
 91
        0
 92
        0
 62
   257
 93
        1
300
CONTENTFORMAT
  1
CONTENTFORMAT_BEGIN
 90
        0
 91
        0
 92
        4
 93
        0
300

 40
0.0
140
1.0
 94
        2
 62
     0
340
10
144
0.18
309
CONTENTFORMAT_END
171
     0
 94
        6
 95
        1
302
GRIDFORMAT
  1
GRIDFORMAT_BEGIN
 90
        0
 91
        1
 62
     0
 92
       -2
340
0
 93
        0
 40
0.045
309
GRIDFORMAT_END
 95
        2
302
GRIDFORMAT
  1
GRIDFORMAT_BEGIN
 90
        0
 91
        1
 62
     0
 92
       -2
340
0
 93
        0
 40
0.045
309
GRIDFORMAT_END
 95
        4
302
GRIDFORMAT
  1
GRIDFORMAT_BEGIN
 90
        0
 91
        1
 62
     0
 92
       -2
340
0
 93
        0
 40
0.045
309
GRIDFORMAT_END
 95
        8
302
GRIDFORMAT
  1
GRIDFORMAT_BEGIN
 90
        0
 91
        1
 62
     0
 92
       -2
340
0
 93
        0
 40
0.045
309
GRIDFORMAT_END
 95
       16
302
GRIDFORMAT
  1
GRIDFORMAT_BEGIN
 90
        0
 91
        1
 62
     0
 92
       -2
340
0
 93
        0
 40
0.045
309
GRIDFORMAT_END
 95
       32
302
GRIDFORMAT
  1
GRIDFORMAT_BEGIN
 90
        0
 91
        1
 62
     0
 92
       -2
340
0
 93
        0
 40
0.045
309
GRIDFORMAT_END
309
TABLEFORMAT_END
  1
CELLSTYLE_BEGIN
 90
        3
 91
        2
300
_DATA
309
CELLSTYLE_END
  0
XRECORD
  5
4788
102
{ACAD_REACTORS
330
477C
102
}
330
477C
100
AcDbXrecord
280
     1
102
ACAD_ROUNDTRIP_PRE2007_TABLESTYLE
 90
        4
 91
        0
  1

 92
        4
 93
        0
  2

 94
        4
 95
        0
  3

  0
ENDSEC
  0
EOF
