  0
SECTION
  2
HEADER
  9
$ACADVER
  1
AC1015
  9
$ACADMAINTVER
 70
    20
  9
$DWGCODEPAGE
  3
ANSI_949
  9
$INSBASE
 10
0.0
 20
0.0
 30
0.0
  9
$EXTMIN
 10
7.130967561973105
 20
1.123780227351931
 30
0.0
  9
$EXTMAX
 10
424.8780373684794
 20
212.0455530347639
 30
0.0
  9
$LIMMIN
 10
0.0
 20
0.0
  9
$LIMMAX
 10
420.0
 20
297.0
  9
$ORTHOMODE
 70
     0
  9
$REGENMODE
 70
     1
  9
$FILLMODE
 70
     1
  9
$QTEXTMODE
 70
     0
  9
$MIRRTEXT
 70
     1
  9
$LTSCALE
 40
10.0
  9
$ATTMODE
 70
     1
  9
$TEXTSIZE
 40
3.149999999999999
  9
$TRACEWID
 40
0.05
  9
$TEXTSTYLE
  7
H
  9
$CLAYER
  8
0
  9
$CELTYPE
  6
BYLAYER
  9
$CECOLOR
 62
   256
  9
$CELTSCALE
 40
1.0
  9
$DISPSILH
 70
     0
  9
$DIMSCALE
 40
1.5
  9
$DIMASZ
 40
2.5
  9
$DIMEXO
 40
0.8
  9
$DIMDLI
 40
0.8
  9
$DIMRND
 40
0.0
  9
$DIMDLE
 40
0.0
  9
$DIMEXE
 40
0.8
  9
$DIMTP
 40
0.0
  9
$DIMTM
 40
0.0
  9
$DIMTXT
 40
3.0
  9
$DIMCEN
 40
-1.0
  9
$DIMTSZ
 40
0.0
  9
$DIMTOL
 70
     0
  9
$DIMLIM
 70
     0
  9
$DIMTIH
 70
     0
  9
$DIMTOH
 70
     0
  9
$DIMSE1
 70
     0
  9
$DIMSE2
 70
     0
  9
$DIMTAD
 70
     3
  9
$DIMZIN
 70
     8
  9
$DIMBLK
  1

  9
$DIMASO
 70
     1
  9
$DIMSHO
 70
     1
  9
$DIMPOST
  1

  9
$DIMAPOST
  1

  9
$DIMALT
 70
     0
  9
$DIMALTD
 70
     2
  9
$DIMALTF
 40
25.4
  9
$DIMLFAC
 40
1.0
  9
$DIMTOFL
 70
     1
  9
$DIMTVP
 40
0.0
  9
$DIMTIX
 70
     0
  9
$DIMSOXD
 70
     0
  9
$DIMSAH
 70
     0
  9
$DIMBLK1
  1

  9
$DIMBLK2
  1

  9
$DIMSTYLE
  2
STANDARD
  9
$DIMCLRD
 70
   115
  9
$DIMCLRE
 70
   115
  9
$DIMCLRT
 70
     7
  9
$DIMTFAC
 40
1.0
  9
$DIMGAP
 40
1.0
  9
$DIMJUST
 70
     0
  9
$DIMSD1
 70
     0
  9
$DIMSD2
 70
     0
  9
$DIMTOLJ
 70
     1
  9
$DIMTZIN
 70
     0
  9
$DIMALTZ
 70
     0
  9
$DIMALTTZ
 70
     0
  9
$DIMUPT
 70
     0
  9
$DIMDEC
 70
     3
  9
$DIMTDEC
 70
     4
  9
$DIMALTU
 70
     2
  9
$DIMALTTD
 70
     2
  9
$DIMTXSTY
  7
STANDARD
  9
$DIMAUNIT
 70
     0
  9
$DIMADEC
 70
     0
  9
$DIMALTRND
 40
0.0
  9
$DIMAZIN
 70
     0
  9
$DIMDSEP
 70
    46
  9
$DIMATFIT
 70
     3
  9
$DIMFRAC
 70
     0
  9
$DIMLDRBLK
  1

  9
$DIMLUNIT
 70
     2
  9
$DIMLWD
 70
    -2
  9
$DIMLWE
 70
    -2
  9
$DIMTMOVE
 70
     0
  9
$LUNITS
 70
     2
  9
$LUPREC
 70
     4
  9
$SKETCHINC
 40
0.1
  9
$FILLETRAD
 40
0.5
  9
$AUNITS
 70
     0
  9
$AUPREC
 70
     0
  9
$MENU
  1
.
  9
$ELEVATION
 40
0.0
  9
$PELEVATION
 40
0.0
  9
$THICKNESS
 40
0.0
  9
$LIMCHECK
 70
     0
  9
$CHAMFERA
 40
0.5
  9
$CHAMFERB
 40
0.5
  9
$CHAMFERC
 40
1.0
  9
$CHAMFERD
 40
0.0
  9
$SKPOLY
 70
     1
  9
$TDCREATE
 40
2452464.575009942
  9
$TDUCREATE
 40
2452464.200009942
  9
$TDUPDATE
 40
2455643.496045521
  9
$TDUUPDATE
 40
2455643.121045521
  9
$TDINDWG
 40
0.6257662153
  9
$TDUSRTIMER
 40
0.6257662153
  9
$USRTIMER
 70
     1
  9
$ANGBASE
 50
0.0
  9
$ANGDIR
 70
     0
  9
$PDMODE
 70
     0
  9
$PDSIZE
 40
0.0
  9
$PLINEWID
 40
0.5
  9
$SPLFRAME
 70
     0
  9
$SPLINETYPE
 70
     6
  9
$SPLINESEGS
 70
     8
  9
$HANDSEED
  5
4603
  9
$SURFTAB1
 70
     6
  9
$SURFTAB2
 70
     6
  9
$SURFTYPE
 70
     6
  9
$SURFU
 70
     6
  9
$SURFV
 70
     6
  9
$UCSBASE
  2

  9
$UCSNAME
  2

  9
$UCSORG
 10
0.0
 20
0.0
 30
0.0
  9
$UCSXDIR
 10
1.0
 20
0.0
 30
0.0
  9
$UCSYDIR
 10
0.0
 20
1.0
 30
0.0
  9
$UCSORTHOREF
  2

  9
$UCSORTHOVIEW
 70
     0
  9
$UCSORGTOP
 10
0.0
 20
0.0
 30
0.0
  9
$UCSORGBOTTOM
 10
0.0
 20
0.0
 30
0.0
  9
$UCSORGLEFT
 10
0.0
 20
0.0
 30
0.0
  9
$UCSORGRIGHT
 10
0.0
 20
0.0
 30
0.0
  9
$UCSORGFRONT
 10
0.0
 20
0.0
 30
0.0
  9
$UCSORGBACK
 10
0.0
 20
0.0
 30
0.0
  9
$PUCSBASE
  2

  9
$PUCSNAME
  2

  9
$PUCSORG
 10
0.0
 20
0.0
 30
0.0
  9
$PUCSXDIR
 10
1.0
 20
0.0
 30
0.0
  9
$PUCSYDIR
 10
0.0
 20
1.0
 30
0.0
  9
$PUCSORTHOREF
  2

  9
$PUCSORTHOVIEW
 70
     0
  9
$PUCSORGTOP
 10
0.0
 20
0.0
 30
0.0
  9
$PUCSORGBOTTOM
 10
0.0
 20
0.0
 30
0.0
  9
$PUCSORGLEFT
 10
0.0
 20
0.0
 30
0.0
  9
$PUCSORGRIGHT
 10
0.0
 20
0.0
 30
0.0
  9
$PUCSORGFRONT
 10
0.0
 20
0.0
 30
0.0
  9
$PUCSORGBACK
 10
0.0
 20
0.0
 30
0.0
  9
$USERI1
 70
     0
  9
$USERI2
 70
   452
  9
$USERI3
 70
     1
  9
$USERI4
 70
     0
  9
$USERI5
 70
     0
  9
$USERR1
 40
0.0
  9
$USERR2
 40
0.0
  9
$USERR3
 40
0.0
  9
$USERR4
 40
0.0
  9
$USERR5
 40
0.0
  9
$WORLDVIEW
 70
     1
  9
$SHADEDGE
 70
     3
  9
$SHADEDIF
 70
    70
  9
$TILEMODE
 70
     1
  9
$MAXACTVP
 70
    48
  9
$PINSBASE
 10
0.0
 20
0.0
 30
0.0
  9
$PLIMCHECK
 70
     0
  9
$PEXTMIN
 10
1.000000000000000E+20
 20
1.000000000000000E+20
 30
1.000000000000000E+20
  9
$PEXTMAX
 10
-1.000000000000000E+20
 20
-1.000000000000000E+20
 30
-1.000000000000000E+20
  9
$PLIMMIN
 10
0.0
 20
0.0
  9
$PLIMMAX
 10
12.0
 20
9.0
  9
$UNITMODE
 70
     0
  9
$VISRETAIN
 70
     1
  9
$PLINEGEN
 70
     0
  9
$PSLTSCALE
 70
     1
  9
$TREEDEPTH
 70
  3020
  9
$CMLSTYLE
  2
STANDARD
  9
$CMLJUST
 70
     0
  9
$CMLSCALE
 40
1.0
  9
$PROXYGRAPHICS
 70
     1
  9
$MEASUREMENT
 70
     0
  9
$CELWEIGHT
370
    -1
  9
$ENDCAPS
280
     0
  9
$JOINSTYLE
280
     0
  9
$LWDISPLAY
290
     0
  9
$INSUNITS
 70
     0
  9
$HYPERLINKBASE
  1

  9
$STYLESHEET
  1
1.CTB
  9
$XEDIT
290
     1
  9
$CEPSNTYPE
380
     0
  9
$PSTYLEMODE
290
     1
  9
$FINGERPRINTGUID
  2
{3172CC46-24FC-4775-9257-50F4EA4939B8}
  9
$VERSIONGUID
  2
{C91DD943-5C73-45A9-AF53-0DAD8F86D74E}
  9
$EXTNAMES
290
     1
  9
$PSVPSCALE
 40
0.0
  9
$OLESTARTUP
290
     0
  0
ENDSEC
  0
SECTION
  2
CLASSES
  0
CLASS
  1
DICTIONARYVAR
  2
AcDbDictionaryVar
  3
ObjectDBX Classes
 90
        0
280
     0
281
     0
  0
CLASS
  1
ACDBDICTIONARYWDFLT
  2
AcDbDictionaryWithDefault
  3
ObjectDBX Classes
 90
        0
280
     0
281
     0
  0
CLASS
  1
ACDBPLACEHOLDER
  2
AcDbPlaceHolder
  3
ObjectDBX Classes
 90
        0
280
     0
281
     0
  0
CLASS
  1
LAYOUT
  2
AcDbLayout
  3
ObjectDBX Classes
 90
        0
280
     0
281
     0
  0
CLASS
  1
TABLESTYLE
  2
AcDbTableStyle
  3
ObjectDBX Classes
 90
     4095
280
     0
281
     0
  0
CLASS
  1
MATERIAL
  2
AcDbMaterial
  3
ObjectDBX Classes
 90
     1153
280
     0
281
     0
  0
CLASS
  1
VISUALSTYLE
  2
AcDbVisualStyle
  3
ObjectDBX Classes
 90
     4095
280
     0
281
     0
  0
CLASS
  1
SCALE
  2
AcDbScale
  3
ObjectDBX Classes
 90
     1153
280
     0
281
     0
  0
CLASS
  1
MLEADERSTYLE
  2
AcDbMLeaderStyle
  3
ACDB_MLEADERSTYLE_CLASS
 90
     4095
280
     0
281
     0
  0
CLASS
  1
CELLSTYLEMAP
  2
AcDbCellStyleMap
  3
ObjectDBX Classes
 90
     1152
280
     0
281
     0
  0
ENDSEC
  0
SECTION
  2
TABLES
  0
TABLE
  2
VPORT
  5
8
330
0
100
AcDbSymbolTable
 70
     1
  0
VPORT
  5
4580
330
8
100
AcDbSymbolTableRecord
100
AcDbViewportTableRecord
  2
*Active
 70
     0
 10
0.0
 20
0.0
 11
1.0
 21
1.0
 12
243.8633753248379
 22
134.8630524302687
 13
0.0
 23
0.0
 14
0.5
 24
0.5
 15
0.5
 25
0.5
 16
0.0
 26
0.0
 36
1.0
 17
0.0
 27
0.0
 37
0.0
 40
207.9976609420608
 41
2.336349924585218
 42
50.0
 43
0.0
 44
0.0
 50
0.0
 51
0.0
 71
     0
 72
   100
 73
     1
 74
     1
 75
     0
 76
     0
 77
     0
 78
     0
281
     0
 65
     1
110
0.0
120
0.0
130
0.0
111
1.0
121
0.0
131
0.0
112
0.0
122
1.0
132
0.0
 79
     0
146
0.0
  0
ENDTAB
  0
TABLE
  2
LTYPE
  5
5
330
0
100
AcDbSymbolTable
 70
     9
  0
LTYPE
  5
13
330
5
100
AcDbSymbolTableRecord
100
AcDbLinetypeTableRecord
  2
BYBLOCK
 70
     0
  3

 72
    65
 73
     0
 40
0.0
  0
LTYPE
  5
14
330
5
100
AcDbSymbolTableRecord
100
AcDbLinetypeTableRecord
  2
BYLAYER
 70
     0
  3

 72
    65
 73
     0
 40
0.0
  0
LTYPE
  5
15
330
5
100
AcDbSymbolTableRecord
100
AcDbLinetypeTableRecord
  2
CONTINUOUS
 70
     0
  3
Solid line
 72
    65
 73
     0
 40
0.0
  0
LTYPE
  5
5D
330
5
100
AcDbSymbolTableRecord
100
AcDbLinetypeTableRecord
  2
CENTER
 70
     0
  3
Center ____ _ ____ _ ____ _ ____ _ ____ _ ____
 72
    65
 73
     4
 40
2.0
 49
1.25
 74
     0
 49
-0.25
 74
     0
 49
0.25
 74
     0
 49
-0.25
 74
     0
  0
LTYPE
  5
5E
330
5
100
AcDbSymbolTableRecord
100
AcDbLinetypeTableRecord
  2
HIDDEN
 70
     0
  3
Hidden __ __ __ __ __ __ __ __ __ __ __ __ __ _
 72
    65
 73
     2
 40
0.375
 49
0.25
 74
     0
 49
-0.125
 74
     0
  0
LTYPE
  5
2ACA
330
5
100
AcDbSymbolTableRecord
100
AcDbLinetypeTableRecord
  2
2
 70
     0
  3
MEDUSA PEN 2
 72
    65
 73
     4
 40
15.1
 49
9.5
 74
     0
 49
-1.6
 74
     0
 49
2.399999999999999
 74
     0
 49
-1.6
 74
     0
  0
ENDTAB
  0
TABLE
  2
LAYER
  5
2
330
0
100
AcDbSymbolTable
 70
    37
  0
LAYER
  5
F
102
{ACAD_XDICTIONARY
360
45E6
102
}
330
2
100
AcDbSymbolTableRecord
100
AcDbLayerTableRecord
  2
0
 70
     0
 62
     7
  6
CONTINUOUS
370
    -3
390
4154
  0
LAYER
  5
55
102
{ACAD_XDICTIONARY
360
45E8
102
}
330
2
100
AcDbSymbolTableRecord
100
AcDbLayerTableRecord
  2
9
 70
     0
 62
     3
  6
CONTINUOUS
370
    -3
390
4154
  0
LAYER
  5
61
102
{ACAD_XDICTIONARY
360
45EA
102
}
330
2
100
AcDbSymbolTableRecord
100
AcDbLayerTableRecord
  2
1
 70
     0
 62
     1
  6
CENTER
370
    -3
390
4154
  0
LAYER
  5
62
102
{ACAD_XDICTIONARY
360
45EC
102
}
330
2
100
AcDbSymbolTableRecord
100
AcDbLayerTableRecord
  2
2
 70
     0
 62
     2
  6
HIDDEN
370
    -3
390
4154
  0
LAYER
  5
24EF
330
2
100
AcDbSymbolTableRecord
100
AcDbLayerTableRecord
  2
DEFPOINTS
 70
     0
 62
     7
  6
CONTINUOUS
290
     0
370
    -3
390
4154
  0
LAYER
  5
2AD3
102
{ACAD_XDICTIONARY
360
45EE
102
}
330
2
100
AcDbSymbolTableRecord
100
AcDbLayerTableRecord
  2
SL2-11
 70
     0
 62
     1
  6
2
370
    -3
390
4154
  0
ENDTAB
  0
TABLE
  2
STYLE
  5
3
330
0
100
AcDbSymbolTable
 70
     7
  0
STYLE
  5
10
330
3
100
AcDbSymbolTableRecord
100
AcDbTextStyleTableRecord
  2
STANDARD
 70
     0
 40
0.0
 41
1.0
 50
0.0
 71
     0
 42
3.0
  3
romans.shx
  4

  0
STYLE
  5
167
330
3
100
AcDbSymbolTableRecord
100
AcDbTextStyleTableRecord
  2
STYLE1
 70
     0
 40
0.0
 41
1.0
 50
0.0
 71
     0
 42
3.149999999999999
  3
Gulim.ttf
  4

1001
ACAD
1000
Gulim
1071
    33074
  0
STYLE
  5
2AD7
330
3
100
AcDbSymbolTableRecord
100
AcDbTextStyleTableRecord
  2
T2
 70
     0
 40
0.0
 41
1.0
 50
0.1
 71
     0
 42
3.5
  3
monotxt
  4

  0
STYLE
  5
457D
330
3
100
AcDbSymbolTableRecord
100
AcDbTextStyleTableRecord
  2
H
 70
     0
 40
0.0
 41
1.0
 50
0.0
 71
     0
 42
3.149999999999999
  3
txt.shx
  4

  0
ENDTAB
  0
TABLE
  2
VIEW
  5
6
330
0
100
AcDbSymbolTable
 70
     0
  0
ENDTAB
  0
TABLE
  2
UCS
  5
7
330
0
100
AcDbSymbolTable
 70
     0
  0
ENDTAB
  0
TABLE
  2
APPID
  5
9
330
0
100
AcDbSymbolTable
 70
     4
  0
APPID
  5
11
330
9
100
AcDbSymbolTableRecord
100
AcDbRegAppTableRecord
  2
ACAD
 70
     0
  0
APPID
  5
2325
330
9
100
AcDbSymbolTableRecord
100
AcDbRegAppTableRecord
  2
MCLBOMATTRIB
 70
     0
  0
APPID
  5
2326
330
9
100
AcDbSymbolTableRecord
100
AcDbRegAppTableRecord
  2
MCLBOM
 70
     0
  0
APPID
  5
45D9
330
9
100
AcDbSymbolTableRecord
100
AcDbRegAppTableRecord
  2
ACAD_MLEADERVER
 70
     0
  0
ENDTAB
  0
TABLE
  2
DIMSTYLE
  5
A
330
0
100
AcDbSymbolTable
 70
     2
100
AcDbDimStyleTable
 71
     1
340
1D
  0
DIMSTYLE
105
1D
102
{ACAD_REACTORS
330
44BA
330
44DC
330
44F4
330
4501
330
450E
330
451B
330
453D
330
454C
330
4559
102
}
330
A
100
AcDbSymbolTableRecord
100
AcDbDimStyleTableRecord
  2
STANDARD
 70
     0
 41
2.0
140
3.0
176
     2
177
     2
178
     4
340
10
  0
ENDTAB
  0
TABLE
  2
BLOCK_RECORD
  5
1
330
0
100
AcDbSymbolTable
 70
    38
  0
BLOCK_RECORD
  5
19
330
1
100
AcDbSymbolTableRecord
100
AcDbBlockTableRecord
  2
*MODEL_SPACE
340
4157
  0
BLOCK_RECORD
  5
16
330
1
100
AcDbSymbolTableRecord
100
AcDbBlockTableRecord
  2
*PAPER_SPACE
340
4158
  0
BLOCK_RECORD
  5
1B8B
330
1
100
AcDbSymbolTableRecord
100
AcDbBlockTableRecord
  2
MCLBOMATTRIB
340
0
102
{BLKREFS
331
247E
331
238D
102
}
  0
BLOCK_RECORD
  5
44BB
330
1
100
AcDbSymbolTableRecord
100
AcDbBlockTableRecord
  2
*D29
340
0
  0
BLOCK_RECORD
  5
44DD
330
1
100
AcDbSymbolTableRecord
100
AcDbBlockTableRecord
  2
*D30
340
0
  0
BLOCK_RECORD
  5
44F5
330
1
100
AcDbSymbolTableRecord
100
AcDbBlockTableRecord
  2
*D31
340
0
  0
BLOCK_RECORD
  5
4502
330
1
100
AcDbSymbolTableRecord
100
AcDbBlockTableRecord
  2
*D32
340
0
  0
BLOCK_RECORD
  5
450F
330
1
100
AcDbSymbolTableRecord
100
AcDbBlockTableRecord
  2
*D33
340
0
  0
BLOCK_RECORD
  5
451C
330
1
100
AcDbSymbolTableRecord
100
AcDbBlockTableRecord
  2
*D34
340
0
  0
BLOCK_RECORD
  5
453E
330
1
100
AcDbSymbolTableRecord
100
AcDbBlockTableRecord
  2
*D35
340
0
  0
BLOCK_RECORD
  5
454D
330
1
100
AcDbSymbolTableRecord
100
AcDbBlockTableRecord
  2
*D36
340
0
  0
BLOCK_RECORD
  5
455A
330
1
100
AcDbSymbolTableRecord
100
AcDbBlockTableRecord
  2
*D37
340
0
  0
ENDTAB
  0
ENDSEC
  0
SECTION
  2
BLOCKS
  0
BLOCK
  5
1A
330
19
100
AcDbEntity
  8
0
100
AcDbBlockBegin
  2
*MODEL_SPACE
 70
     0
 10
0.0
 20
0.0
 30
0.0
  3
*MODEL_SPACE
  1

  0
ENDBLK
  5
1B
330
19
100
AcDbEntity
  8
0
100
AcDbBlockEnd
  0
BLOCK
  5
17
330
16
100
AcDbEntity
 67
     1
  8
0
100
AcDbBlockBegin
  2
*PAPER_SPACE
 70
     0
 10
0.0
 20
0.0
 30
0.0
  3
*PAPER_SPACE
  1

  0
ENDBLK
  5
18
330
16
100
AcDbEntity
 67
     1
  8
0
100
AcDbBlockEnd
  0
BLOCK
  5
1B8C
330
1B8B
100
AcDbEntity
  8
0
100
AcDbBlockBegin
  2
MCLBOMATTRIB
 70
     2
 10
0.0
 20
0.0
 30
0.0
  3
MCLBOMATTRIB
  1
MCLBOMATTRIB
  0
ENDBLK
  5
1B8D
330
1B8B
100
AcDbEntity
  8
0
100
AcDbBlockEnd
  0
BLOCK
  5
44C5
330
44BB
100
AcDbEntity
  8
0
100
AcDbBlockBegin
  2
*D29
 70
     1
 10
0.0
 20
0.0
 30
0.0
  3
*D29
  1

  0
LINE
  5
44BC
330
44BB
100
AcDbEntity
  8
0
 62
   115
370
    -2
100
AcDbLine
 10
406.2602951230653
 20
129.1434262345636
 30
0.0
 11
424.8780373684794
 21
129.1434262345636
 31
0.0
  0
LINE
  5
44BD
330
44BB
100
AcDbEntity
  8
0
 62
   115
370
    -2
100
AcDbLine
 10
406.2602951230655
 20
160.7434262345638
 30
0.0
 11
424.8780373684794
 21
160.7434262345638
 31
0.0
  0
LINE
  5
44BE
330
44BB
100
AcDbEntity
  8
0
 62
   115
370
    -2
100
AcDbLine
 10
423.6780373684792
 20
132.8934262345636
 30
0.0
 11
423.6780373684792
 21
156.9934262345638
 31
0.0
  0
SOLID
  5
44BF
330
44BB
100
AcDbEntity
  8
0
 62
   115
100
AcDbTrace
 10
423.0530373684794
 20
132.8934262345636
 30
0.0
 11
424.3030373684794
 21
132.8934262345636
 31
0.0
 12
423.6780373684792
 22
129.1434262345636
 32
0.0
 13
423.6780373684792
 23
129.1434262345636
 33
0.0
  0
SOLID
  5
44C0
330
44BB
100
AcDbEntity
  8
0
 62
   115
100
AcDbTrace
 10
423.0530373684794
 20
156.9934262345638
 30
0.0
 11
424.3030373684794
 21
156.9934262345638
 31
0.0
 12
423.6780373684792
 22
160.7434262345638
 32
0.0
 13
423.6780373684792
 23
160.7434262345638
 33
0.0
  0
MTEXT
  5
44C1
330
44BB
100
AcDbEntity
  8
0
 62
     7
100
AcDbMText
 10
419.9280373684793
 20
144.9434262345638
 30
0.0
 40
4.5
 41
0.0
 71
     5
 72
     1
  1
\A1;%%C31.6
 11
0.0000000000000001
 21
1.0
 31
0.0
 73
     1
 44
1.0
1001
ACAD
1000
MTEXTBEGIN
1070
    73
1070
     1
1070
    44
1040
1.0
1070
    74
1070
     0
1000
MTEXTEND
  0
POINT
  5
44C2
330
44BB
100
AcDbEntity
  8
DEFPOINTS
 62
     0
100
AcDbPoint
 10
405.0602951230652
 20
129.1434262345636
 30
0.0
  0
POINT
  5
44C3
330
44BB
100
AcDbEntity
  8
DEFPOINTS
 62
     0
100
AcDbPoint
 10
405.0602951230652
 20
160.7434262345638
 30
0.0
  0
POINT
  5
44C4
330
44BB
100
AcDbEntity
  8
DEFPOINTS
 62
     0
100
AcDbPoint
 10
423.6780373684792
 20
160.7434262345638
 30
0.0
  0
ENDBLK
  5
44C6
330
44BB
100
AcDbEntity
  8
0
100
AcDbBlockEnd
  0
BLOCK
  5
44E7
330
44DD
100
AcDbEntity
  8
0
100
AcDbBlockBegin
  2
*D30
 70
     1
 10
0.0
 20
0.0
 30
0.0
  3
*D30
  1

  0
LINE
  5
44EB
330
44DD
100
AcDbEntity
  8
0
 62
   115
370
    -2
100
AcDbLine
 10
287.7499764896456
 20
101.9434262345638
 30
0.0
 11
279.0284828277188
 21
101.9434262345638
 31
0.0
  0
LINE
  5
44EC
330
44DD
100
AcDbEntity
  8
0
 62
   115
370
    -2
100
AcDbLine
 10
287.7499764896451
 20
187.9434262345638
 30
0.0
 11
279.0284828277188
 21
187.9434262345638
 31
0.0
  0
LINE
  5
44ED
330
44DD
100
AcDbEntity
  8
0
 62
   115
370
    -2
100
AcDbLine
 10
280.2284828277188
 20
105.6934262345638
 30
0.0
 11
280.2284828277188
 21
184.1934262345638
 31
0.0
  0
SOLID
  5
44EE
330
44DD
100
AcDbEntity
  8
0
 62
   115
100
AcDbTrace
 10
279.6034828277188
 20
105.6934262345638
 30
0.0
 11
280.8534828277188
 21
105.6934262345638
 31
0.0
 12
280.2284828277188
 22
101.9434262345638
 32
0.0
 13
280.2284828277188
 23
101.9434262345638
 33
0.0
  0
SOLID
  5
44EF
330
44DD
100
AcDbEntity
  8
0
 62
   115
100
AcDbTrace
 10
279.6034828277188
 20
184.1934262345638
 30
0.0
 11
280.8534828277188
 21
184.1934262345638
 31
0.0
 12
280.2284828277188
 22
187.9434262345638
 32
0.0
 13
280.2284828277188
 23
187.9434262345638
 33
0.0
  0
MTEXT
  5
44F0
330
44DD
100
AcDbEntity
  8
0
 62
     7
100
AcDbMText
 10
276.4784828277188
 20
144.9434262345638
 30
0.0
 40
4.5
 41
0.0
 71
     5
 72
     1
  1
\A1;%%c86
 11
0.0000000000000001
 21
1.0
 31
0.0
 73
     1
 44
1.0
1001
ACAD
1000
MTEXTBEGIN
1070
    73
1070
     1
1070
    44
1040
1.0
1070
    74
1070
     0
1000
MTEXTEND
  0
POINT
  5
44F1
330
44DD
100
AcDbEntity
  8
DEFPOINTS
 62
     0
100
AcDbPoint
 10
288.9499764896456
 20
101.9434262345638
 30
0.0
  0
POINT
  5
44F2
330
44DD
100
AcDbEntity
  8
DEFPOINTS
 62
     0
100
AcDbPoint
 10
288.9499764896451
 20
187.9434262345638
 30
0.0
  0
POINT
  5
44F3
330
44DD
100
AcDbEntity
  8
DEFPOINTS
 62
     0
100
AcDbPoint
 10
280.2284828277188
 20
187.9434262345638
 30
0.0
  0
ENDBLK
  5
44E8
330
44DD
100
AcDbEntity
  8
0
100
AcDbBlockEnd
  0
BLOCK
  5
44FF
330
44F5
100
AcDbEntity
  8
0
100
AcDbBlockBegin
  2
*D31
 70
     1
 10
0.0
 20
0.0
 30
0.0
  3
*D31
  1

  0
LINE
  5
44F6
330
44F5
100
AcDbEntity
  8
0
 62
   115
370
    -2
100
AcDbLine
 10
342.1499764896456
 20
116.9434262345638
 30
0.0
 11
357.5342994866272
 21
116.9434262345637
 31
0.0
  0
LINE
  5
44F7
330
44F5
100
AcDbEntity
  8
0
 62
   115
370
    -2
100
AcDbLine
 10
342.1499764896453
 20
172.9434262345639
 30
0.0
 11
357.5342994866273
 21
172.9434262345639
 31
0.0
  0
LINE
  5
44F8
330
44F5
100
AcDbEntity
  8
0
 62
   115
370
    -2
100
AcDbLine
 10
356.3342994866272
 20
120.6934262345638
 30
0.0
 11
356.3342994866273
 21
169.1934262345639
 31
0.0
  0
SOLID
  5
44F9
330
44F5
100
AcDbEntity
  8
0
 62
   115
100
AcDbTrace
 10
355.7092994866272
 20
120.6934262345638
 30
0.0
 11
356.9592994866273
 21
120.6934262345638
 31
0.0
 12
356.3342994866272
 22
116.9434262345637
 32
0.0
 13
356.3342994866272
 23
116.9434262345637
 33
0.0
  0
SOLID
  5
44FA
330
44F5
100
AcDbEntity
  8
0
 62
   115
100
AcDbTrace
 10
355.7092994866274
 20
169.1934262345639
 30
0.0
 11
356.9592994866273
 21
169.1934262345639
 31
0.0
 12
356.3342994866273
 22
172.9434262345639
 32
0.0
 13
356.3342994866273
 23
172.9434262345639
 33
0.0
  0
MTEXT
  5
44FB
330
44F5
100
AcDbEntity
  8
0
 62
     7
100
AcDbMText
 10
351.8342994866272
 20
144.9434262345639
 30
0.0
 40
4.5
 41
0.0
 71
     5
 72
     1
  1
\A1;%%c56g6
 11
0.0000000000000001
 21
1.0
 31
0.0
 73
     1
 44
1.0
1001
ACAD
1000
MTEXTBEGIN
1070
    73
1070
     1
1070
    44
1040
1.0
1070
    74
1070
     0
1000
MTEXTEND
  0
POINT
  5
44FC
330
44F5
100
AcDbEntity
  8
DEFPOINTS
 62
     0
100
AcDbPoint
 10
340.9499764896456
 20
116.9434262345638
 30
0.0
  0
POINT
  5
44FD
330
44F5
100
AcDbEntity
  8
DEFPOINTS
 62
     0
100
AcDbPoint
 10
340.9499764896454
 20
172.9434262345639
 30
0.0
  0
POINT
  5
44FE
330
44F5
100
AcDbEntity
  8
DEFPOINTS
 62
     0
100
AcDbPoint
 10
356.3342994866273
 20
172.9434262345639
 30
0.0
  0
ENDBLK
  5
4500
330
44F5
100
AcDbEntity
  8
0
100
AcDbBlockEnd
  0
BLOCK
  5
450C
330
4502
100
AcDbEntity
  8
0
100
AcDbBlockBegin
  2
*D32
 70
     1
 10
0.0
 20
0.0
 30
0.0
  3
*D32
  1

  0
LINE
  5
4503
330
4502
100
AcDbEntity
  8
0
 62
   115
370
    -2
100
AcDbLine
 10
288.4499764896456
 20
101.2434262345638
 30
0.0
 11
288.4499764896456
 21
86.26831517973656
 31
0.0
  0
LINE
  5
4504
330
4502
100
AcDbEntity
  8
0
 62
   115
370
    -2
100
AcDbLine
 10
300.4499764896456
 20
101.2434262345637
 30
0.0
 11
300.4499764896456
 21
86.26831517973656
 31
0.0
  0
LINE
  5
4505
330
4502
100
AcDbEntity
  8
0
 62
   115
370
    -2
100
AcDbLine
 10
292.1999764896455
 20
87.46831517973658
 30
0.0
 11
296.6999764896456
 21
87.46831517973658
 31
0.0
  0
SOLID
  5
4506
330
4502
100
AcDbEntity
  8
0
 62
   115
100
AcDbTrace
 10
292.1999764896455
 20
88.09331517973658
 30
0.0
 11
292.1999764896455
 21
86.84331517973658
 31
0.0
 12
288.4499764896456
 22
87.46831517973658
 32
0.0
 13
288.4499764896456
 23
87.46831517973658
 33
0.0
  0
SOLID
  5
4507
330
4502
100
AcDbEntity
  8
0
 62
   115
100
AcDbTrace
 10
296.6999764896456
 20
88.09331517973658
 30
0.0
 11
296.6999764896456
 21
86.84331517973658
 31
0.0
 12
300.4499764896456
 22
87.46831517973658
 32
0.0
 13
300.4499764896456
 23
87.46831517973658
 33
0.0
  0
MTEXT
  5
4508
330
4502
100
AcDbEntity
  8
0
 62
     7
100
AcDbMText
 10
294.4499764896455
 20
91.21831517973658
 30
0.0
 40
4.5
 41
0.0
 71
     5
 72
     1
  1
\A1;12
 73
     1
 44
1.0
1001
ACAD
1000
MTEXTBEGIN
1070
    73
1070
     1
1070
    44
1040
1.0
1070
    74
1070
     0
1000
MTEXTEND
  0
POINT
  5
4509
330
4502
100
AcDbEntity
  8
DEFPOINTS
 62
     0
100
AcDbPoint
 10
288.4499764896456
 20
102.4434262345638
 30
0.0
  0
POINT
  5
450A
330
4502
100
AcDbEntity
  8
DEFPOINTS
 62
     0
100
AcDbPoint
 10
300.4499764896456
 20
102.4434262345637
 30
0.0
  0
POINT
  5
450B
330
4502
100
AcDbEntity
  8
DEFPOINTS
 62
     0
100
AcDbPoint
 10
300.4499764896456
 20
87.46831517973658
 30
0.0
  0
ENDBLK
  5
450D
330
4502
100
AcDbEntity
  8
0
100
AcDbBlockEnd
  0
BLOCK
  5
4519
330
450F
100
AcDbEntity
  8
0
100
AcDbBlockBegin
  2
*D33
 70
     1
 10
0.0
 20
0.0
 30
0.0
  3
*D33
  1

  0
LINE
  5
4510
330
450F
100
AcDbEntity
  8
0
 62
   115
370
    -2
100
AcDbLine
 10
300.4499764896456
 20
101.2434262345637
 30
0.0
 11
300.4499764896456
 21
86.26831517973656
 31
0.0
  0
LINE
  5
4511
330
450F
100
AcDbEntity
  8
0
 62
   115
370
    -2
100
AcDbLine
 10
341.4499764896456
 20
116.2434262345638
 30
0.0
 11
341.4499764896456
 21
86.26831517973656
 31
0.0
  0
LINE
  5
4512
330
450F
100
AcDbEntity
  8
0
 62
   115
370
    -2
100
AcDbLine
 10
304.1999764896456
 20
87.46831517973658
 30
0.0
 11
337.6999764896456
 21
87.46831517973658
 31
0.0
  0
SOLID
  5
4513
330
450F
100
AcDbEntity
  8
0
 62
   115
100
AcDbTrace
 10
304.1999764896456
 20
88.09331517973658
 30
0.0
 11
304.1999764896456
 21
86.84331517973658
 31
0.0
 12
300.4499764896456
 22
87.46831517973658
 32
0.0
 13
300.4499764896456
 23
87.46831517973658
 33
0.0
  0
SOLID
  5
4514
330
450F
100
AcDbEntity
  8
0
 62
   115
100
AcDbTrace
 10
337.6999764896456
 20
88.09331517973658
 30
0.0
 11
337.6999764896456
 21
86.84331517973658
 31
0.0
 12
341.4499764896456
 22
87.46831517973658
 32
0.0
 13
341.4499764896456
 23
87.46831517973658
 33
0.0
  0
MTEXT
  5
4515
330
450F
100
AcDbEntity
  8
0
 62
     7
100
AcDbMText
 10
320.9499764896456
 20
91.21831517973658
 30
0.0
 40
4.5
 41
0.0
 71
     5
 72
     1
  1
\A1;41
 73
     1
 44
1.0
1001
ACAD
1000
MTEXTBEGIN
1070
    73
1070
     1
1070
    44
1040
1.0
1070
    74
1070
     0
1000
MTEXTEND
  0
POINT
  5
4516
330
450F
100
AcDbEntity
  8
DEFPOINTS
 62
     0
100
AcDbPoint
 10
300.4499764896456
 20
102.4434262345637
 30
0.0
  0
POINT
  5
4517
330
450F
100
AcDbEntity
  8
DEFPOINTS
 62
     0
100
AcDbPoint
 10
341.4499764896456
 20
117.4434262345638
 30
0.0
  0
POINT
  5
4518
330
450F
100
AcDbEntity
  8
DEFPOINTS
 62
     0
100
AcDbPoint
 10
341.4499764896456
 20
87.46831517973658
 30
0.0
  0
ENDBLK
  5
451A
330
450F
100
AcDbEntity
  8
0
100
AcDbBlockEnd
  0
BLOCK
  5
4526
330
451C
100
AcDbEntity
  8
0
100
AcDbBlockBegin
  2
*D34
 70
     1
 10
0.0
 20
0.0
 30
0.0
  3
*D34
  1

  0
LINE
  5
451D
330
451C
100
AcDbEntity
  8
0
 62
   115
370
    -2
100
AcDbLine
 10
288.4499764896456
 20
85.06831517973656
 30
0.0
 11
288.4499764896456
 21
77.04109807160516
 31
0.0
  0
LINE
  5
451E
330
451C
100
AcDbEntity
  8
0
 62
   115
370
    -2
100
AcDbLine
 10
341.4499764896456
 20
85.06831517973656
 30
0.0
 11
341.4499764896456
 21
77.04109807160516
 31
0.0
  0
LINE
  5
451F
330
451C
100
AcDbEntity
  8
0
 62
   115
370
    -2
100
AcDbLine
 10
292.1999764896455
 20
78.24109807160517
 30
0.0
 11
337.6999764896456
 21
78.24109807160517
 31
0.0
  0
SOLID
  5
4520
330
451C
100
AcDbEntity
  8
0
 62
   115
100
AcDbTrace
 10
292.1999764896455
 20
78.86609807160517
 30
0.0
 11
292.1999764896455
 21
77.61609807160517
 31
0.0
 12
288.4499764896456
 22
78.24109807160517
 32
0.0
 13
288.4499764896456
 23
78.24109807160517
 33
0.0
  0
SOLID
  5
4521
330
451C
100
AcDbEntity
  8
0
 62
   115
100
AcDbTrace
 10
337.6999764896456
 20
78.86609807160517
 30
0.0
 11
337.6999764896456
 21
77.61609807160517
 31
0.0
 12
341.4499764896456
 22
78.24109807160517
 32
0.0
 13
341.4499764896456
 23
78.24109807160517
 33
0.0
  0
MTEXT
  5
4522
330
451C
100
AcDbEntity
  8
0
 62
     7
100
AcDbMText
 10
314.9499764896455
 20
81.99109807160516
 30
0.0
 40
4.5
 41
0.0
 71
     5
 72
     1
  1
\A1;53
 73
     1
 44
1.0
1001
ACAD
1000
MTEXTBEGIN
1070
    73
1070
     1
1070
    44
1040
1.0
1070
    74
1070
     0
1000
MTEXTEND
  0
POINT
  5
4523
330
451C
100
AcDbEntity
  8
DEFPOINTS
 62
     0
100
AcDbPoint
 10
288.4499764896456
 20
86.26831517973656
 30
0.0
  0
POINT
  5
4524
330
451C
100
AcDbEntity
  8
DEFPOINTS
 62
     0
100
AcDbPoint
 10
341.4499764896456
 20
86.26831517973656
 30
0.0
  0
POINT
  5
4525
330
451C
100
AcDbEntity
  8
DEFPOINTS
 62
     0
100
AcDbPoint
 10
341.4499764896456
 20
78.24109807160517
 30
0.0
  0
ENDBLK
  5
4527
330
451C
100
AcDbEntity
  8
0
100
AcDbBlockEnd
  0
BLOCK
  5
454A
330
453E
100
AcDbEntity
  8
0
100
AcDbBlockBegin
  2
*D35
 70
     1
 10
0.0
 20
0.0
 30
0.0
  3
*D35
  1

  0
LINE
  5
453F
330
453E
100
AcDbEntity
  8
0
 62
   115
370
    -2
100
AcDbLine
 10
93.3303117228338
 20
107.9641374379089
 30
0.0
 11
86.16431176258949
 21
95.55226333185258
 31
0.0
  0
LINE
  5
4540
330
453E
100
AcDbEntity
  8
0
 62
   115
370
    -2
100
AcDbLine
 10
136.0303149370954
 20
107.9641454037846
 30
0.0
 11
143.1963194958708
 21
95.55226314162741
 31
0.0
  0
ARC
  5
4541
330
453E
100
AcDbEntity
  8
0
 62
   115
370
    -2
100
AcDbCircle
 10
114.68031579397
 20
144.9434235340394
 30
0.0
 40
55.83200147317113
100
AcDbArc
 50
243.8490357028086
 51
296.1509639149814
  0
SOLID
  5
4542
330
453E
100
AcDbEntity
  8
0
 62
   115
100
AcDbTrace
 10
89.77889655169716
 20
94.275159610655
 30
0.0
 11
90.36718953950806
 21
95.37807001521764
 31
0.0
 12
86.76431183191469
 22
96.59149377636904
 32
0.0
 13
86.76431183191469
 23
96.59149377636904
 33
0.0
  0
SOLID
  5
4543
330
453E
100
AcDbEntity
  8
0
 62
   115
100
AcDbTrace
 10
138.9934417177902
 20
95.37806985302912
 30
0.0
 11
139.5817346982438
 21
94.27515944454206
 31
0.0
 12
142.5963194334781
 22
96.59149359014632
 32
0.0
 13
142.5963194334781
 23
96.59149359014632
 33
0.0
  0
MTEXT
  5
4544
102
{ACAD_XDICTIONARY
360
45FD
102
}
330
453E
100
AcDbEntity
  8
0
 62
     7
100
AcDbMText
 10
114.680315620255
 20
92.86142206086834
 30
0.0
 40
4.5
 41
0.0
 71
     5
 72
     1
  1
\A1;60\U+00B0
 11
1.0
 21
-0.0000000033354119
 31
0.0
 73
     1
 44
1.0
1001
ACAD
1000
MTEXTBEGIN
1070
    73
1070
     1
1070
    44
1040
1.0
1070
    74
1070
     0
1000
MTEXTEND
  0
POINT
  5
4545
330
453E
100
AcDbEntity
  8
DEFPOINTS
 62
     0
100
AcDbPoint
 10
104.9851891377711
 20
89.9596358542111
 30
0.0
  0
POINT
  5
4546
330
453E
100
AcDbEntity
  8
DEFPOINTS
 62
     0
100
AcDbPoint
 10
93.93031179215894
 20
109.0033678824253
 30
0.0
  0
POINT
  5
4547
330
453E
100
AcDbEntity
  8
DEFPOINTS
 62
     0
100
AcDbPoint
 10
135.4303148747028
 20
109.0033758523035
 30
0.0
  0
POINT
  5
4548
330
453E
100
AcDbEntity
  8
DEFPOINTS
 62
     0
100
AcDbPoint
 10
129.4303142507762
 20
119.3956803374925
 30
0.0
  0
POINT
  5
4549
330
453E
100
AcDbEntity
  8
DEFPOINTS
 62
     0
100
AcDbPoint
 10
99.93031248541081
 20
119.3956723275894
 30
0.0
  0
ENDBLK
  5
454B
330
453E
100
AcDbEntity
  8
0
100
AcDbBlockEnd
  0
BLOCK
  5
4557
330
454D
100
AcDbEntity
  8
0
100
AcDbBlockBegin
  2
*D36
 70
     1
 10
0.0
 20
0.0
 30
0.0
  3
*D36
  1

  0
LINE
  5
454E
330
454D
100
AcDbEntity
  8
0
 62
   115
370
    -2
100
AcDbLine
 10
80.68031537385904
 20
117.4185260723874
 30
0.0
 11
80.68031537385904
 21
77.25668056908266
 31
0.0
  0
LINE
  5
454F
330
454D
100
AcDbEntity
  8
0
 62
   115
370
    -2
100
AcDbLine
 10
148.680315073859
 20
117.4185256849215
 30
0.0
 11
148.680315073859
 21
77.25668056908266
 31
0.0
  0
LINE
  5
4550
330
454D
100
AcDbEntity
  8
0
 62
   115
370
    -2
100
AcDbLine
 10
84.43031537385904
 20
78.45668056908266
 30
0.0
 11
144.930315073859
 21
78.45668056908266
 31
0.0
  0
SOLID
  5
4551
330
454D
100
AcDbEntity
  8
0
 62
   115
100
AcDbTrace
 10
84.43031537385904
 20
79.08168056908266
 30
0.0
 11
84.43031537385904
 21
77.83168056908266
 31
0.0
 12
80.68031537385904
 22
78.45668056908266
 32
0.0
 13
80.68031537385904
 23
78.45668056908266
 33
0.0
  0
SOLID
  5
4552
330
454D
100
AcDbEntity
  8
0
 62
   115
100
AcDbTrace
 10
144.930315073859
 20
79.08168056908266
 30
0.0
 11
144.930315073859
 21
77.83168056908266
 31
0.0
 12
148.680315073859
 22
78.45668056908266
 32
0.0
 13
148.680315073859
 23
78.45668056908266
 33
0.0
  0
MTEXT
  5
4553
330
454D
100
AcDbEntity
  8
0
 62
     7
100
AcDbMText
 10
114.680315223859
 20
82.20668056908266
 30
0.0
 40
4.5
 41
0.0
 71
     5
 72
     1
  1
\A1;68
 73
     1
 44
1.0
1001
ACAD
1000
MTEXTBEGIN
1070
    73
1070
     1
1070
    44
1040
1.0
1070
    74
1070
     0
1000
MTEXTEND
  0
POINT
  5
4554
330
454D
100
AcDbEntity
  8
DEFPOINTS
 62
     0
100
AcDbPoint
 10
80.68031537385904
 20
118.6185260723874
 30
0.0
  0
POINT
  5
4555
330
454D
100
AcDbEntity
  8
DEFPOINTS
 62
     0
100
AcDbPoint
 10
148.680315073859
 20
118.6185256849215
 30
0.0
  0
POINT
  5
4556
330
454D
100
AcDbEntity
  8
DEFPOINTS
 62
     0
100
AcDbPoint
 10
148.680315073859
 20
78.45668056908266
 30
0.0
  0
ENDBLK
  5
4558
330
454D
100
AcDbEntity
  8
0
100
AcDbBlockEnd
  0
BLOCK
  5
4563
330
455A
100
AcDbEntity
  8
0
100
AcDbBlockBegin
  2
*D37
 70
     1
 10
0.0
 20
0.0
 30
0.0
  3
*D37
  1

  0
LINE
  5
455B
330
455A
100
AcDbEntity
  8
0
 62
   115
370
    -2
100
AcDbLine
 10
180.3151853489053
 20
100.5783051222062
 30
0.0
 11
147.1984631844676
 21
122.9631617835184
 31
0.0
  0
LINE
  5
455C
330
455A
100
AcDbEntity
  8
0
 62
   115
370
    -2
100
AcDbLine
 10
82.16214967816148
 20
166.923688685609
 30
0.0
 11
79.05531941512139
 21
169.0237138560912
 31
0.0
  0
MTEXT
  5
455D
330
455A
100
AcDbEntity
  8
0
 62
     7
100
AcDbMText
 10
169.7840594491335
 20
112.7403059787336
 30
0.0
 40
4.5
 41
0.0
 71
     5
 72
     1
  1
\A1;P,C,D 71
 11
0.8284880701440286
 21
-0.5600067121285452
 31
0.0
 73
     1
 44
1.0
1001
ACAD
1000
MTEXTBEGIN
1070
    73
1070
     1
1070
    44
1040
1.0
1070
    74
1070
     0
1000
MTEXTEND
  0
LINE
  5
455E
330
455A
100
AcDbEntity
  8
0
 62
   115
370
    -2
100
AcDbLine
 10
85.2689799412016
 20
164.8236635151271
 30
0.0
 11
144.0916329214276
 21
125.0631869540004
 31
0.0
  0
SOLID
  5
455F
330
455A
100
AcDbEntity
  8
0
 62
   115
100
AcDbTrace
 10
82.51215387324185
 20
167.4414937294492
 30
0.0
 11
81.81214548308116
 21
166.4058836417691
 31
0.0
 12
85.2689799412016
 22
164.8236635151271
 32
0.0
 13
85.2689799412016
 23
164.8236635151271
 33
0.0
  0
SOLID
  5
4560
330
455A
100
AcDbEntity
  8
0
 62
   115
100
AcDbTrace
 10
147.548467379548
 20
123.4809668273584
 30
0.0
 11
146.8484589893874
 21
122.4453567396784
 31
0.0
 12
144.0916329214276
 22
125.0631869540004
 32
0.0
 13
144.0916329214276
 23
125.0631869540004
 33
0.0
  0
POINT
  5
4561
330
455A
100
AcDbEntity
  8
DEFPOINTS
 62
     0
100
AcDbPoint
 10
144.0916329214276
 20
125.0631869540004
 30
0.0
  0
POINT
  5
4562
330
455A
100
AcDbEntity
  8
DEFPOINTS
 62
     0
100
AcDbPoint
 10
85.2689799412016
 20
164.8236635151271
 30
0.0
  0
ENDBLK
  5
4564
330
455A
100
AcDbEntity
  8
0
100
AcDbBlockEnd
  0
ENDSEC
  0
SECTION
  2
ENTITIES
  0
INSERT
  5
247E
330
19
100
AcDbEntity
  8
0
100
AcDbBlockReference
  2
MCLBOMATTRIB
 10
0.0
 20
0.0
 30
0.0
1001
MCLBOMATTRIB
1002
{
1000
1
1005
0
1005
0
1000
강관 용접식 플렌지
1005
0
1000
Steel Welding Pipe Flange
1005
0
1000
SOP 5K 10A FF
1005
0
1000

1005
2480
1000
1
1005
0
1000

1005
2481
1000

1005
0
1000

1005
2482
1000

1005
0
1000

1005
0
1000

1005
0
1000

1005
0
1000

1005
0
1000

1005
0
1002
}
  0
TEXT
  5
2480
330
19
100
AcDbEntity
  8
0
 62
   111
100
AcDbText
 10
344.9746279359911
 20
60.9644544167441
 30
0.0
 40
2.5
  1

  7
STYLE1
100
AcDbText
  0
TEXT
  5
2481
330
19
100
AcDbEntity
  8
0
 62
   111
100
AcDbText
 10
379.9746279359911
 20
60.9644544167441
 30
0.0
 40
2.5
  1

  7
STYLE1
100
AcDbText
  0
TEXT
  5
2482
330
19
100
AcDbEntity
  8
0
 62
   111
100
AcDbText
 10
394.9746279359911
 20
60.9644544167441
 30
0.0
 40
2.5
  1

  7
STYLE1
100
AcDbText
  0
MTEXT
  5
24CA
330
19
100
AcDbEntity
  8
0
100
AcDbMText
 10
295.0
 20
25.00000000000007
 30
0.0
 40
2.5
 41
20.0
 71
     5
 72
     5
  1

  7
STYLE1
 73
     1
 44
1.0
1001
ACAD
1000
MTEXTBEGIN
1070
    73
1070
     1
1070
    44
1040
1.0
1070
    74
1070
     0
1000
MTEXTEND
  0
MTEXT
  5
24DF
330
19
100
AcDbEntity
  8
0
100
AcDbMText
 10
265.0
 20
292.0
 30
0.0
 40
1.8
 41
15.0
 71
     1
 72
     5
  1

  7
STYLE1
 73
     1
 44
1.0
1001
ACAD
1000
MTEXTBEGIN
1070
    73
1070
     1
1070
    44
1040
1.0
1070
    74
1070
     0
1000
MTEXTEND
  0
LINE
  5
2EC4
330
19
100
AcDbEntity
  8
1
100
AcDbLine
 10
208.5420390941106
 20
144.9434262345638
 30
0.0
 11
408.9673582225096
 21
144.9434262345638
 31
0.0
  0
LINE
  5
324C
330
19
100
AcDbEntity
  8
0
100
AcDbLine
 10
288.9499704896453
 20
101.9434322345641
 30
0.0
 11
288.9499704896453
 21
187.9434202345639
 31
0.0
  0
TEXT
  5
32A5
330
19
100
AcDbEntity
  8
0
100
AcDbText
 10
164.7515592626525
 20
37.42461678082264
 30
0.0
 40
10.5
  1
STK3205-4-R
  7
T2
 72
     4
 11
220.7515592626525
 21
42.67461678082264
 31
0.0
100
AcDbText
  0
LINE
  5
34B0
330
19
100
AcDbEntity
  8
SL2-11
100
AcDbLine
 10
93.93031360200934
 20
180.8834836316194
 30
0.0
 11
99.9303136020093
 21
170.4911787862061
 31
0.0
  0
LINE
  5
34EB
330
19
100
AcDbEntity
  8
SL2-11
100
AcDbLine
 10
135.4303130648534
 20
180.8834756617416
 30
0.0
 11
129.4303131341785
 21
170.4911707763034
 31
0.0
  0
LINE
  5
355D
330
19
100
AcDbEntity
  8
1
100
AcDbLine
 10
114.680315373859
 20
191.4810865696984
 30
0.0
 11
114.680315373859
 21
98.40575189942921
 31
0.0
  0
LINE
  5
375C
330
19
100
AcDbEntity
  8
SL2-11
100
AcDbLine
 10
135.4303148747028
 20
109.0033758523035
 30
0.0
 11
129.4303142507762
 21
119.3956803374925
 31
0.0
  0
LINE
  5
3784
330
19
100
AcDbEntity
  8
SL2-11
100
AcDbLine
 10
93.93031179215894
 20
109.0033678824253
 30
0.0
 11
99.93031248541081
 21
119.3956723275894
 31
0.0
  0
LINE
  5
3945
330
19
100
AcDbEntity
  8
0
100
AcDbLine
 10
288.4499764896456
 20
102.4434262345638
 30
0.0
 11
288.4499764896452
 21
187.4434262345638
 31
0.0
  0
LINE
  5
394B
330
19
100
AcDbEntity
  8
0
100
AcDbLine
 10
213.5602951230653
 20
129.6434262345637
 30
0.0
 11
213.5602951230653
 21
160.2434262345638
 31
0.0
  0
LINE
  5
394E
330
19
100
AcDbEntity
  8
0
100
AcDbLine
 10
214.0602951230653
 20
160.7434262345638
 30
0.0
 11
213.5602951230653
 21
160.2434262345638
 31
0.0
  0
LINE
  5
394F
330
19
100
AcDbEntity
  8
0
100
AcDbLine
 10
213.5602951230652
 20
129.6434262345637
 30
0.0
 11
214.0602951230653
 21
129.1434262345638
 31
0.0
  0
MTEXT
  5
3954
330
19
100
AcDbEntity
  8
0
 62
   111
100
AcDbMText
 10
0.0
 20
0.0
 30
0.0
 40
3.0
 41
0.0
 71
     5
 72
     5
  1

 11
0.6658655619423123
 21
0.7460717481712123
 31
0.0
 73
     1
 44
1.0
1001
ACAD
1000
MTEXTBEGIN
1070
    73
1070
     1
1070
    44
1040
1.0
1070
    74
1070
     0
1000
MTEXTEND
  0
MTEXT
  5
3959
330
19
100
AcDbEntity
  8
0
 62
   111
100
AcDbMText
 10
0.0
 20
0.0
 30
0.0
 40
3.0
 41
0.0
 71
     5
 72
     5
  1

 11
0.9994246805919202
 21
0.0339161882253633
 31
0.0
 73
     1
 44
1.0
1001
ACAD
1000
MTEXTBEGIN
1070
    73
1070
     1
1070
    44
1040
1.0
1070
    74
1070
     0
1000
MTEXTEND
  0
LINE
  5
3B0B
330
19
100
AcDbEntity
  8
1
100
AcDbLine
 10
68.14264803872479
 20
144.9434252345638
 30
0.0
 11
161.2179827089932
 21
144.9434252345638
 31
0.0
  0
MTEXT
  5
3CA0
330
19
100
AcDbEntity
  8
0
 62
   111
100
AcDbMText
 10
0.0
 20
0.0
 30
0.0
 40
3.0
 41
0.0
 71
     5
 72
     5
  1

 11
0.8978290820304724
 21
-0.4403441148242126
 31
0.0
 73
     1
 44
1.0
1001
ACAD
1000
MTEXTBEGIN
1070
    73
1070
     1
1070
    44
1040
1.0
1070
    74
1070
     0
1000
MTEXTEND
  0
MTEXT
  5
3CA1
330
19
100
AcDbEntity
  8
0
 62
   111
100
AcDbMText
 10
0.0
 20
0.0
 30
0.0
 40
3.0
 41
0.0
 71
     5
 72
     5
  1

 11
0.8978290820304724
 21
-0.4403441148242126
 31
0.0
 73
     1
 44
1.0
1001
ACAD
1000
MTEXTBEGIN
1070
    73
1070
     1
1070
    44
1040
1.0
1070
    74
1070
     0
1000
MTEXTEND
  0
MTEXT
  5
3CA2
330
19
100
AcDbEntity
  8
0
 62
   111
100
AcDbMText
 10
0.0
 20
0.0
 30
0.0
 40
3.0
 41
0.0
 71
     5
 72
     5
  1

 11
0.8978290820304724
 21
-0.4403441148242126
 31
0.0
 73
     1
 44
1.0
1001
ACAD
1000
MTEXTBEGIN
1070
    73
1070
     1
1070
    44
1040
1.0
1070
    74
1070
     0
1000
MTEXTEND
  0
MTEXT
  5
3CA3
330
19
100
AcDbEntity
  8
0
 62
   111
100
AcDbMText
 10
0.0
 20
0.0
 30
0.0
 40
3.0
 41
0.0
 71
     5
 72
     5
  1

 11
0.8978290820304724
 21
-0.4403441148242126
 31
0.0
 73
     1
 44
1.0
1001
ACAD
1000
MTEXTBEGIN
1070
    73
1070
     1
1070
    44
1040
1.0
1070
    74
1070
     0
1000
MTEXTEND
  0
MTEXT
  5
3CA8
330
19
100
AcDbEntity
  8
0
 62
   111
100
AcDbMText
 10
0.0
 20
0.0
 30
0.0
 40
3.0
 41
0.0
 71
     5
 72
     5
  1

 11
0.3826834323650867
 21
-0.923879532511288
 31
0.0
 73
     1
 44
1.0
1001
ACAD
1000
MTEXTBEGIN
1070
    73
1070
     1
1070
    44
1040
1.0
1070
    74
1070
     0
1000
MTEXTEND
  0
LINE
  5
418B
330
19
100
AcDbEntity
  8
2
100
AcDbLine
 10
112.180315373859
 20
187.8706832983263
 30
0.0
 11
112.180315373859
 21
163.5764616138725
 31
0.0
  0
LINE
  5
418C
330
19
100
AcDbEntity
  8
2
100
AcDbLine
 10
117.180315373859
 20
187.8706832983263
 30
0.0
 11
117.180315373859
 21
163.5764592142247
 31
0.0
  0
LINE
  5
418D
330
19
100
AcDbEntity
  8
2
100
AcDbLine
 10
111.680315373859
 20
187.8495775025777
 30
0.0
 11
111.680315373859
 21
181.9434192345638
 31
0.0
  0
LINE
  5
418E
330
19
100
AcDbEntity
  8
2
100
AcDbLine
 10
117.680315373859
 20
187.8495775025777
 30
0.0
 11
117.680315373859
 21
181.9434192345638
 31
0.0
  0
LINE
  5
4194
330
19
100
AcDbEntity
  8
2
100
AcDbLine
 10
111.680315373859
 20
181.9434192345638
 30
0.0
 11
117.680315373859
 21
181.9434192345638
 31
0.0
  0
LINE
  5
4195
330
19
100
AcDbEntity
  8
2
100
AcDbLine
 10
112.180315373859
 20
181.4434192345638
 30
0.0
 11
117.180315373859
 21
181.4434192345638
 31
0.0
  0
LINE
  5
4196
330
19
100
AcDbEntity
  8
2
100
AcDbLine
 10
112.180315373859
 20
181.4434192345638
 30
0.0
 11
111.680315373859
 21
181.9434192345638
 31
0.0
  0
LINE
  5
4197
330
19
100
AcDbEntity
  8
2
100
AcDbLine
 10
117.180315373859
 20
181.4434192345638
 30
0.0
 11
117.680315373859
 21
181.9434192345638
 31
0.0
  0
LINE
  5
419B
330
19
100
AcDbEntity
  8
0
100
AcDbLine
 10
214.0602951230653
 20
160.7434262345638
 30
0.0
 11
214.0602951230653
 21
129.1434262345638
 31
0.0
  0
LINE
  5
419C
330
19
100
AcDbEntity
  8
0
100
AcDbLine
 10
405.5602951230652
 20
129.6434262345637
 30
0.0
 11
405.5602951230652
 21
160.2434262345637
 31
0.0
  0
LINE
  5
419D
330
19
100
AcDbEntity
  8
0
100
AcDbLine
 10
405.0602951230652
 20
160.7434262345638
 30
0.0
 11
405.5602951230652
 21
160.2434262345638
 31
0.0
  0
LINE
  5
419E
330
19
100
AcDbEntity
  8
0
100
AcDbLine
 10
405.0602951230654
 20
129.1434262345639
 30
0.0
 11
405.5602951230654
 21
129.6434262345639
 31
0.0
  0
LINE
  5
419F
330
19
100
AcDbEntity
  8
0
100
AcDbLine
 10
405.0602951230652
 20
160.7434262345637
 30
0.0
 11
405.0602951230652
 21
129.1434262345636
 31
0.0
  0
LINE
  5
41BC
330
19
100
AcDbEntity
  8
2
100
AcDbLine
 10
293.4499764896454
 20
126.1434262345638
 30
0.0
 11
293.4499764896454
 21
163.7434262345638
 31
0.0
  0
LEADER
  5
422E
330
19
100
AcDbEntity
  8
0
100
AcDbLeader
  3
STANDARD
 73
     0
 75
     1
 40
4.5
 41
26.78571428571429
 76
     3
 10
114.680315373859
 20
188.0938771468306
 30
0.0
 10
103.5908481483412
 20
206.0455530347639
 30
0.0
 10
99.84084814834128
 20
206.0455530347639
 30
0.0
340
422F
1001
ACAD
1000
DSTYLE
1002
{
1070
    40
1040
1.5
1070
    41
1040
2.5
1070
    42
1040
0.8
1070
    43
1040
0.8
1070
    44
1040
0.8
1070
    73
1070
     0
1070
    74
1070
     0
1070
    77
1070
     1
1070
    78
1070
     8
1070
   141
1040
-1.0
1070
   147
1040
1.0
1070
   172
1070
     1
1070
   176
1070
   115
1070
   177
1070
   115
1070
   178
1070
     7
1070
   271
1070
     3
1002
}
  0
MTEXT
  5
422F
102
{ACAD_REACTORS
330
422E
102
}
330
19
100
AcDbEntity
  8
0
 62
     7
100
AcDbMText
 10
98.34084814834127
 20
207.5455530347639
 30
0.0
 40
4.5
 41
0.0
 71
     9
 72
     1
  1
M6xP1.0
 73
     1
 44
1.0
1001
ACAD
1000
MTEXTBEGIN
1070
    73
1070
     1
1070
    44
1040
1.0
1070
    74
1070
     0
1000
MTEXTEND
  0
LINE
  5
42C0
330
19
100
AcDbEntity
  8
2
100
AcDbLine
 10
336.4499764896456
 20
126.1434262345638
 30
0.0
 11
336.4499764896454
 21
163.7434262345639
 31
0.0
  0
LINE
  5
4352
330
19
100
AcDbEntity
  8
9
  6
Continuous
100
AcDbLine
 10
213.5602951230652
 20
159.0934262345638
 30
0.0
 11
288.4499764896452
 21
159.0934262345637
 31
0.0
  0
LINE
  5
4353
330
19
100
AcDbEntity
  8
9
  6
Continuous
100
AcDbLine
 10
213.5602951230653
 20
130.7934262345638
 30
0.0
 11
288.4499764896454
 21
130.7934262345638
 31
0.0
  0
LINE
  5
4354
330
19
100
AcDbEntity
  8
9
  6
Continuous
100
AcDbLine
 10
341.4499764896454
 20
159.0934262345639
 30
0.0
 11
405.5602951230652
 21
159.0934262345638
 31
0.0
  0
LINE
  5
4355
330
19
100
AcDbEntity
  8
9
  6
Continuous
100
AcDbLine
 10
341.4499764896455
 20
130.7934262345638
 30
0.0
 11
405.5602951230654
 21
130.7934262345638
 31
0.0
  0
LINE
  5
43F5
330
19
100
AcDbEntity
  8
0
100
AcDbLine
 10
341.4499764896456
 20
117.4434262345637
 30
0.0
 11
341.4499764896453
 21
172.4434262345639
 31
0.0
  0
LINE
  5
43F8
330
19
100
AcDbEntity
  8
0
100
AcDbLine
 10
299.9499764896456
 20
101.9434262345637
 30
0.0
 11
300.4499764896456
 21
102.4434262345637
 31
0.0
  0
LINE
  5
43F9
330
19
100
AcDbEntity
  8
0
100
AcDbLine
 10
299.9499764896452
 20
187.9434262345638
 30
0.0
 11
300.4499764896452
 21
187.4434262345638
 31
0.0
  0
LINE
  5
43FA
330
19
100
AcDbEntity
  8
0
100
AcDbLine
 10
288.4499764896451
 20
187.4434262345636
 30
0.0
 11
288.9499764896451
 21
187.9434262345638
 31
0.0
  0
LINE
  5
43FB
330
19
100
AcDbEntity
  8
0
100
AcDbLine
 10
299.9499764896452
 20
187.9434262345638
 30
0.0
 11
299.9499764896456
 21
101.9434262345638
 31
0.0
  0
LINE
  5
43FC
330
19
100
AcDbEntity
  8
0
100
AcDbLine
 10
288.4499764896456
 20
102.4434262345638
 30
0.0
 11
288.9499764896456
 21
101.9434262345638
 31
0.0
  0
LINE
  5
43FD
330
19
100
AcDbEntity
  8
0
100
AcDbLine
 10
340.9499764896454
 20
172.9434262345639
 30
0.0
 11
341.4499764896453
 21
172.4434262345639
 31
0.0
  0
LINE
  5
43FE
330
19
100
AcDbEntity
  8
0
100
AcDbLine
 10
340.9499764896456
 20
116.9434262345638
 30
0.0
 11
341.4499764896456
 21
117.4434262345638
 31
0.0
  0
LINE
  5
43FF
330
19
100
AcDbEntity
  8
0
100
AcDbLine
 10
340.9499764896454
 20
172.9434262345638
 30
0.0
 11
340.9499764896456
 21
116.9434262345638
 31
0.0
  0
LEADER
  5
447F
330
19
100
AcDbEntity
  8
0
100
AcDbLeader
  3
STANDARD
 73
     0
 74
     0
 75
     1
 40
4.5
 41
23.35714285714286
 76
     3
 10
135.2814896500842
 20
177.3212065958902
 30
0.0
 10
151.2343791913465
 20
195.9331485384173
 30
0.0
 10
154.9843791913465
 20
195.9331485384173
 30
0.0
340
4480
1001
ACAD
1000
DSTYLE
1002
{
1070
    40
1040
1.5
1070
    41
1040
2.5
1070
    42
1040
0.8
1070
    43
1040
0.8
1070
    44
1040
0.8
1070
    73
1070
     0
1070
    74
1070
     0
1070
    77
1070
     1
1070
    78
1070
     8
1070
   141
1040
-1.0
1070
   147
1040
1.0
1070
   172
1070
     1
1070
   176
1070
   115
1070
   177
1070
   115
1070
   178
1070
     7
1070
   271
1070
     3
1002
}
  0
MTEXT
  5
4480
102
{ACAD_REACTORS
330
447F
102
}
330
19
100
AcDbEntity
  8
0
 62
     7
100
AcDbMText
 10
156.4843791913465
 20
197.4331485384173
 30
0.0
 40
4.5
 41
0.0
 71
     7
 72
     1
  1
4-%%c6.6
 73
     1
 44
1.0
1001
ACAD
1000
MTEXTBEGIN
1070
    73
1070
     1
1070
    44
1040
1.0
1070
    74
1070
     0
1000
MTEXTEND
  0
LINE
  5
44B6
330
19
100
AcDbEntity
  8
0
  6
Continuous
100
AcDbLine
 10
341.4499764896454
 20
160.7434262345638
 30
0.0
 11
405.0602951230652
 21
160.7434262345638
 31
0.0
  0
LINE
  5
44B7
330
19
100
AcDbEntity
  8
0
  6
Continuous
100
AcDbLine
 10
341.4499764896455
 20
129.1434262345638
 30
0.0
 11
405.0602951230652
 21
129.1434262345638
 31
0.0
  0
LINE
  5
44B8
330
19
100
AcDbEntity
  8
0
  6
Continuous
100
AcDbLine
 10
214.0602951230653
 20
160.7434262345638
 30
0.0
 11
288.4499764896453
 21
160.7434262345638
 31
0.0
  0
LINE
  5
44B9
330
19
100
AcDbEntity
  8
0
  6
Continuous
100
AcDbLine
 10
214.0602951230653
 20
129.1434262345638
 30
0.0
 11
288.4499764896455
 21
129.1434262345637
 31
0.0
  0
DIMENSION
  5
44BA
330
19
100
AcDbEntity
  8
0
100
AcDbDimension
  2
*D29
 10
423.6780373684792
 20
160.7434262345638
 30
0.0
 11
419.9280373684793
 21
144.9434262345638
 31
0.0
 70
    32
  1
%%C31.6
 71
     5
 42
31.60000000000014
  3
STANDARD
100
AcDbAlignedDimension
 13
405.0602951230652
 23
129.1434262345636
 33
0.0
 14
405.0602951230652
 24
160.7434262345638
 34
0.0
 50
90.0
100
AcDbRotatedDimension
1001
ACAD
1000
DSTYLE
1002
{
1070
    40
1040
1.5
1070
    41
1040
2.5
1070
    42
1040
0.8
1070
    43
1040
0.8
1070
    44
1040
0.8
1070
    73
1070
     0
1070
    74
1070
     0
1070
    77
1070
     3
1070
    78
1070
     8
1070
   141
1040
-1.0
1070
   147
1040
1.0
1070
   172
1070
     1
1070
   176
1070
   115
1070
   177
1070
   115
1070
   178
1070
     7
1070
   271
1070
     3
1002
}
  0
LINE
  5
44C7
330
19
100
AcDbEntity
  8
2
  6
HIDDEN
100
AcDbLine
 10
336.4499764896454
 20
163.7434262345638
 30
0.0
 11
341.4499764896455
 21
163.7434262345638
 31
0.0
  0
LINE
  5
44C8
330
19
100
AcDbEntity
  8
2
  6
HIDDEN
100
AcDbLine
 10
336.4499764896455
 20
126.1434262345638
 30
0.0
 11
341.4499764896456
 21
126.1434262345638
 31
0.0
  0
LINE
  5
44C9
330
19
100
AcDbEntity
  8
2
  6
HIDDEN
100
AcDbLine
 10
288.4499764896453
 20
163.7434262345637
 30
0.0
 11
293.4499764896454
 21
163.7434262345638
 31
0.0
  0
LINE
  5
44CA
330
19
100
AcDbEntity
  8
2
  6
HIDDEN
100
AcDbLine
 10
288.4499764896455
 20
126.1434262345638
 30
0.0
 11
293.4499764896454
 21
126.1434262345638
 31
0.0
  0
LINE
  5
44CB
330
19
100
AcDbEntity
  8
0
100
AcDbLine
 10
300.4499764896455
 20
116.9434262345638
 30
0.0
 11
340.9499764896456
 21
116.9434262345638
 31
0.0
  0
LINE
  5
44CC
330
19
100
AcDbEntity
  8
0
100
AcDbLine
 10
300.4499764896453
 20
172.9434262345638
 30
0.0
 11
340.9499764896454
 21
172.9434262345639
 31
0.0
  0
LINE
  5
44CD
330
19
100
AcDbEntity
  8
0
100
AcDbLine
 10
288.9499764896451
 20
187.9434262345638
 30
0.0
 11
299.9499764896453
 21
187.9434262345638
 31
0.0
  0
LINE
  5
44CE
330
19
100
AcDbEntity
  8
0
100
AcDbLine
 10
288.9499764896456
 20
101.9434262345638
 30
0.0
 11
299.9499764896457
 21
101.9434262345638
 31
0.0
  0
DIMENSION
  5
44DC
330
19
100
AcDbEntity
  8
0
100
AcDbDimension
  2
*D30
 10
280.2284828277188
 20
187.9434262345638
 30
0.0
 11
276.4784828277188
 21
144.9434262345638
 31
0.0
 70
    32
  1
%%c86
 71
     5
 42
85.99999999999996
  3
STANDARD
100
AcDbAlignedDimension
 13
288.9499764896456
 23
101.9434262345638
 33
0.0
 14
288.9499764896451
 24
187.9434262345638
 34
0.0
 50
90.0
100
AcDbRotatedDimension
1001
ACAD
1000
DSTYLE
1002
{
1070
    40
1040
1.5
1070
    41
1040
2.5
1070
    42
1040
0.8
1070
    43
1040
0.8
1070
    44
1040
0.8
1070
    73
1070
     0
1070
    74
1070
     0
1070
    77
1070
     3
1070
    78
1070
     8
1070
   141
1040
-1.0
1070
   147
1040
1.0
1070
   172
1070
     1
1070
   176
1070
   115
1070
   177
1070
   115
1070
   178
1070
     7
1070
   271
1070
     3
1002
}
  0
LINE
  5
44E9
330
19
100
AcDbEntity
  8
0
100
AcDbLine
 10
300.4499764896456
 20
102.4434262345637
 30
0.0
 11
300.4499764896452
 21
187.4434262345638
 31
0.0
  0
DIMENSION
  5
44F4
330
19
100
AcDbEntity
  8
0
100
AcDbDimension
  2
*D31
 10
356.3342994866273
 20
172.9434262345639
 30
0.0
 11
351.8342994866272
 21
144.9434262345639
 31
0.0
 70
    32
  1
%%c56g6
 71
     5
 42
56.00000000000012
  3
STANDARD
100
AcDbAlignedDimension
 13
340.9499764896456
 23
116.9434262345638
 33
0.0
 14
340.9499764896454
 24
172.9434262345639
 34
0.0
 50
90.0
100
AcDbRotatedDimension
1001
ACAD
1000
DSTYLE
1002
{
1070
    40
1040
1.5
1070
    41
1040
2.5
1070
    42
1040
0.8
1070
    43
1040
0.8
1070
    44
1040
0.8
1070
    73
1070
     0
1070
    74
1070
     0
1070
    77
1070
     3
1070
    78
1070
     8
1070
   141
1040
-1.0
1070
   147
1040
1.0
1070
   172
1070
     1
1070
   176
1070
   115
1070
   177
1070
   115
1070
   178
1070
     7
1070
   271
1070
     3
1002
}
  0
DIMENSION
  5
4501
330
19
100
AcDbEntity
  8
0
100
AcDbDimension
  2
*D32
 10
300.4499764896456
 20
87.46831517973658
 30
0.0
 11
294.4499764896455
 21
91.21831517973658
 31
0.0
 70
    32
 71
     5
 42
12.00000000000005
  3
STANDARD
100
AcDbAlignedDimension
 13
288.4499764896456
 23
102.4434262345638
 33
0.0
 14
300.4499764896456
 24
102.4434262345637
 34
0.0
100
AcDbRotatedDimension
1001
ACAD
1000
DSTYLE
1002
{
1070
    40
1040
1.5
1070
    41
1040
2.5
1070
    42
1040
0.8
1070
    43
1040
0.8
1070
    44
1040
0.8
1070
    73
1070
     0
1070
    74
1070
     0
1070
    77
1070
     3
1070
    78
1070
     8
1070
   141
1040
-1.0
1070
   147
1040
1.0
1070
   172
1070
     1
1070
   176
1070
   115
1070
   177
1070
   115
1070
   178
1070
     7
1070
   271
1070
     3
1002
}
  0
DIMENSION
  5
450E
330
19
100
AcDbEntity
  8
0
100
AcDbDimension
  2
*D33
 10
341.4499764896456
 20
87.46831517973658
 30
0.0
 11
320.9499764896456
 21
91.21831517973658
 31
0.0
 70
    32
 71
     5
 42
40.99999999999993
  3
STANDARD
100
AcDbAlignedDimension
 13
300.4499764896456
 23
102.4434262345637
 33
0.0
 14
341.4499764896456
 24
117.4434262345638
 34
0.0
100
AcDbRotatedDimension
1001
ACAD
1000
DSTYLE
1002
{
1070
    40
1040
1.5
1070
    41
1040
2.5
1070
    42
1040
0.8
1070
    43
1040
0.8
1070
    44
1040
0.8
1070
    73
1070
     0
1070
    74
1070
     0
1070
    77
1070
     3
1070
    78
1070
     8
1070
   141
1040
-1.0
1070
   147
1040
1.0
1070
   172
1070
     1
1070
   176
1070
   115
1070
   177
1070
   115
1070
   178
1070
     7
1070
   271
1070
     3
1002
}
  0
DIMENSION
  5
451B
330
19
100
AcDbEntity
  8
0
100
AcDbDimension
  2
*D34
 10
341.4499764896456
 20
78.24109807160517
 30
0.0
 11
314.9499764896455
 21
81.99109807160516
 31
0.0
 70
    32
 71
     5
 42
53.0
  3
STANDARD
100
AcDbAlignedDimension
 13
288.4499764896456
 23
86.26831517973656
 33
0.0
 14
341.4499764896456
 24
86.26831517973656
 34
0.0
100
AcDbRotatedDimension
1001
ACAD
1000
DSTYLE
1002
{
1070
    40
1040
1.5
1070
    41
1040
2.5
1070
    42
1040
0.8
1070
    43
1040
0.8
1070
    44
1040
0.8
1070
    73
1070
     0
1070
    74
1070
     0
1070
    77
1070
     3
1070
    78
1070
     8
1070
   141
1040
-1.0
1070
   147
1040
1.0
1070
   172
1070
     1
1070
   176
1070
   115
1070
   177
1070
   115
1070
   178
1070
     7
1070
   271
1070
     3
1002
}
  0
CIRCLE
  5
4529
330
19
100
AcDbEntity
  8
0
100
AcDbCircle
 10
114.6803064313146
 20
144.9434252345638
 30
0.0
 40
18.8
  0
CIRCLE
  5
452A
330
19
100
AcDbEntity
  8
0
100
AcDbCircle
 10
114.6803064313146
 20
144.9434252345638
 30
0.0
 40
15.8
  0
ARC
  5
452B
330
19
100
AcDbEntity
  8
9
100
AcDbCircle
 10
114.680315373859
 20
144.9434192345638
 30
0.0
 40
14.35
100
AcDbArc
 50
179.9999588293801
 51
90.0
  0
CIRCLE
  5
452C
330
19
100
AcDbEntity
  8
2
100
AcDbCircle
 10
114.6803064313146
 20
144.9434252345638
 30
0.0
 40
28.0
  0
CIRCLE
  5
452D
330
19
100
AcDbEntity
  8
1
100
AcDbCircle
 10
114.6803064313146
 20
144.9434252345638
 30
0.0
 40
35.5
  0
ARC
  5
452E
330
19
100
AcDbEntity
  8
0
100
AcDbCircle
 10
114.680315373859
 20
144.9434192345638
 30
0.0
 40
43.0
100
AcDbArc
 50
217.7492418730147
 51
322.2507574740395
  0
ARC
  5
452F
330
19
100
AcDbEntity
  8
0
100
AcDbCircle
 10
114.680315373859
 20
144.9434192345638
 30
0.0
 40
43.0
100
AcDbArc
 50
37.74924252596051
 51
142.2507581269854
  0
ARC
  5
4530
330
19
100
AcDbEntity
  8
0
100
AcDbCircle
 10
114.680315373859
 20
144.9434192345638
 30
0.0
 40
42.5
100
AcDbArc
 50
36.8698983199119
 51
143.130102354156
  0
ARC
  5
4531
330
19
100
AcDbEntity
  8
0
100
AcDbCircle
 10
114.680315373859
 20
144.9434192345638
 30
0.0
 40
42.5
100
AcDbArc
 50
216.8698976458441
 51
323.1301016800881
  0
LINE
  5
4532
330
19
100
AcDbEntity
  8
0
100
AcDbLine
 10
148.680315073859
 20
171.268312784206
 30
0.0
 11
148.680315073859
 21
118.6185256849215
 31
0.0
  0
LINE
  5
4533
330
19
100
AcDbEntity
  8
0
100
AcDbLine
 10
80.68031537385897
 20
171.2683123967401
 30
0.0
 11
80.68031537385904
 21
118.6185260723874
 31
0.0
  0
CIRCLE
  5
4534
330
19
100
AcDbEntity
  8
0
100
AcDbCircle
 10
96.93031360200933
 20
175.6873312089128
 30
0.0
 40
3.299999999999998
  0
CIRCLE
  5
4535
330
19
100
AcDbEntity
  8
0
100
AcDbCircle
 10
132.430313099516
 20
175.6873232190225
 30
0.0
 40
3.299999999999998
  0
CIRCLE
  5
4536
330
19
100
AcDbEntity
  8
0
100
AcDbCircle
 10
132.4303145627395
 20
114.199528094898
 30
0.0
 40
3.299999999999998
  0
CIRCLE
  5
4537
330
19
100
AcDbEntity
  8
0
100
AcDbCircle
 10
96.93031213878493
 20
114.1995201050074
 30
0.0
 40
3.299999999999998
  0
DIMENSION
  5
453D
330
19
100
AcDbEntity
  8
0
100
AcDbDimension
  2
*D35
 10
99.93031248541081
 20
119.3956723275894
 30
0.0
 11
114.680315620255
 21
92.86142206086834
 31
0.0
 70
    34
 71
     5
 42
1.047197677942153
  3
STANDARD
100
AcDb2LineAngularDimension
 13
135.4303148747028
 23
109.0033758523035
 33
0.0
 14
129.4303142507762
 24
119.3956803374925
 34
0.0
 15
93.93031179215894
 25
109.0033678824253
 35
0.0
 16
104.9851891377711
 26
89.9596358542111
 36
0.0
1001
ACAD
1000
DSTYLE
1002
{
1070
    40
1040
1.5
1070
    41
1040
2.5
1070
    42
1040
0.8
1070
    43
1040
0.8
1070
    44
1040
0.8
1070
    73
1070
     0
1070
    74
1070
     0
1070
    77
1070
     3
1070
    78
1070
     8
1070
   141
1040
-1.0
1070
   147
1040
1.0
1070
   172
1070
     1
1070
   176
1070
   115
1070
   177
1070
   115
1070
   178
1070
     7
1070
   271
1070
     3
1002
}
  0
DIMENSION
  5
454C
330
19
100
AcDbEntity
  8
0
100
AcDbDimension
  2
*D36
 10
148.680315073859
 20
78.45668056908266
 30
0.0
 11
114.680315223859
 21
82.20668056908266
 31
0.0
 70
    32
 71
     5
 42
67.9999997
  3
STANDARD
100
AcDbAlignedDimension
 13
80.68031537385904
 23
118.6185260723874
 33
0.0
 14
148.680315073859
 24
118.6185256849215
 34
0.0
100
AcDbRotatedDimension
1001
ACAD
1000
DSTYLE
1002
{
1070
    40
1040
1.5
1070
    41
1040
2.5
1070
    42
1040
0.8
1070
    43
1040
0.8
1070
    44
1040
0.8
1070
    73
1070
     0
1070
    74
1070
     0
1070
    77
1070
     3
1070
    78
1070
     8
1070
   141
1040
-1.0
1070
   147
1040
1.0
1070
   172
1070
     1
1070
   176
1070
   115
1070
   177
1070
   115
1070
   178
1070
     7
1070
   271
1070
     3
1002
}
  0
DIMENSION
  5
4559
330
19
100
AcDbEntity
  8
0
100
AcDbDimension
  2
*D37
 10
85.2689799412016
 20
164.8236635151271
 30
0.0
 11
167.4440314020249
 21
109.2784093999175
 31
0.0
 70
   163
  1
P,C,D 71
 71
     5
 42
71.0
  3
STANDARD
100
AcDbDiametricDimension
 15
144.0916329214276
 25
125.0631869540004
 35
0.0
 40
0.0
1001
ACAD
1000
DSTYLE
1002
{
1070
    40
1040
1.5
1070
    41
1040
2.5
1070
    42
1040
0.8
1070
    43
1040
0.8
1070
    44
1040
0.8
1070
    73
1070
     0
1070
    74
1070
     0
1070
    77
1070
     3
1070
    78
1070
     8
1070
   141
1040
-1.0
1070
   147
1040
1.0
1070
   172
1070
     1
1070
   176
1070
   115
1070
   177
1070
   115
1070
   178
1070
     7
1070
   271
1070
     3
1070
   288
1070
     1
1002
}
  0
ENDSEC
  0
SECTION
  2
OBJECTS
  0
DICTIONARY
  5
C
330
0
100
AcDbDictionary
281
     1
  3
ACAD_COLOR
350
4568
  3
ACAD_GROUP
350
D
  3
ACAD_LAYOUT
350
4155
  3
ACAD_MATERIAL
350
4567
  3
ACAD_MLEADERSTYLE
350
45D7
  3
ACAD_MLINESTYLE
350
E
  3
ACAD_PLOTSETTINGS
350
4156
  3
ACAD_PLOTSTYLENAME
350
4153
  3
ACAD_SCALELIST
350
45B5
  3
ACAD_TABLESTYLE
350
4569
  3
ACAD_VISUALSTYLE
350
45A4
  3
ACDB_RECOMPOSE_DATA
350
45F5
  3
ACDBVARIABLEDICTIONARY
350
1BF
  3
DWGPROPS
350
45F6
  0
DICTIONARY
  5
45E6
330
F
100
AcDbDictionary
280
     1
281
     1
  3
ADSK_XREC_LAYER_RECONCILED
360
45E7
  0
DICTIONARY
  5
45E8
330
55
100
AcDbDictionary
280
     1
281
     1
  3
ADSK_XREC_LAYER_RECONCILED
360
45E9
  0
DICTIONARY
  5
45EA
330
61
100
AcDbDictionary
280
     1
281
     1
  3
ADSK_XREC_LAYER_RECONCILED
360
45EB
  0
DICTIONARY
  5
45EC
330
62
100
AcDbDictionary
280
     1
281
     1
  3
ADSK_XREC_LAYER_RECONCILED
360
45ED
  0
DICTIONARY
  5
45EE
330
2AD3
100
AcDbDictionary
280
     1
281
     1
  3
ADSK_XREC_LAYER_RECONCILED
360
45EF
  0
DICTIONARY
  5
45FD
330
4544
100
AcDbDictionary
280
     1
281
     1
  3
ACAD_MTEXT_RT
360
45FE
  0
DICTIONARY
  5
4568
102
{ACAD_REACTORS
330
C
102
}
330
C
100
AcDbDictionary
281
     1
  0
DICTIONARY
  5
D
102
{ACAD_REACTORS
330
C
102
}
330
C
100
AcDbDictionary
281
     1
  3
*A1
350
3315
  3
*A2
350
3935
  0
DICTIONARY
  5
4155
102
{ACAD_REACTORS
330
C
102
}
330
C
100
AcDbDictionary
281
     1
  3
Model
350
4157
  3
배치1
350
4158
  0
DICTIONARY
  5
4567
102
{ACAD_REACTORS
330
C
102
}
330
C
100
AcDbDictionary
281
     1
  3
ByBlock
350
4594
  3
ByLayer
350
458C
  3
Global
350
459C
  0
DICTIONARY
  5
45D7
102
{ACAD_REACTORS
330
C
102
}
330
C
100
AcDbDictionary
281
     1
  3
Standard
350
45D8
  0
DICTIONARY
  5
E
102
{ACAD_REACTORS
330
C
102
}
330
C
100
AcDbDictionary
281
     1
  3
STANDARD
350
1C
  0
DICTIONARY
  5
4156
102
{ACAD_REACTORS
330
C
102
}
330
C
100
AcDbDictionary
281
     1
  0
ACDBDICTIONARYWDFLT
  5
4153
102
{ACAD_REACTORS
330
C
102
}
330
C
100
AcDbDictionary
281
     1
  3
Normal
350
4154
100
AcDbDictionaryWithDefault
340
4154
  0
DICTIONARY
  5
45B5
102
{ACAD_REACTORS
330
C
102
}
330
C
100
AcDbDictionary
281
     1
  3
A0
350
45B6
  3
A1
350
45B7
  3
A2
350
45B8
  3
A3
350
45B9
  3
A4
350
45BA
  3
A5
350
45BB
  3
A6
350
45BC
  3
A7
350
45BD
  3
A8
350
45BE
  3
A9
350
45BF
  3
B0
350
45C0
  3
B1
350
45C1
  3
B2
350
45C2
  3
B3
350
45C3
  3
B4
350
45C4
  3
B5
350
45C5
  3
B6
350
45C6
  3
B7
350
45C7
  3
B8
350
45C8
  3
B9
350
45C9
  3
C0
350
45CA
  3
C1
350
45CB
  3
C2
350
45CC
  3
C3
350
45CD
  3
C4
350
45CE
  3
C5
350
45CF
  3
C6
350
45D0
  3
C7
350
45D1
  3
C8
350
45D2
  3
C9
350
45D3
  3
D0
350
45D4
  3
D1
350
45D5
  3
D2
350
45D6
  0
DICTIONARY
  5
4569
102
{ACAD_REACTORS
330
C
102
}
330
C
100
AcDbDictionary
281
     1
  3
Standard
350
456A
  0
DICTIONARY
  5
45A4
102
{ACAD_REACTORS
330
C
102
}
330
C
100
AcDbDictionary
281
     1
  3
2dWireframe
350
45AA
  3
3D Hidden
350
45AC
  3
3dWireframe
350
45AB
  3
Basic
350
45A9
  3
Brighten
350
45B0
  3
ColorChange
350
45B4
  3
Conceptual
350
45AD
  3
Dim
350
45AF
  3
Facepattern
350
45B3
  3
Flat
350
45A5
  3
FlatWithEdges
350
45A6
  3
Gouraud
350
45A7
  3
GouraudWithEdges
350
45A8
  3
Linepattern
350
45B2
  3
Realistic
350
45AE
  3
Thicken
350
45B1
  0
XRECORD
  5
45F5
102
{ACAD_REACTORS
330
C
102
}
330
C
100
AcDbXrecord
280
     1
 90
        1
330
456A
  0
DICTIONARY
  5
1BF
102
{ACAD_REACTORS
330
C
102
}
330
C
100
AcDbDictionary
281
     1
  3
CANNOSCALE
350
45F1
  3
CMLEADERSTYLE
350
45F0
  3
CTABLESTYLE
350
457E
  3
DIMASSOC
350
4169
  3
INDEXCTL
350
45F2
  3
PROJECTNAME
350
457F
  3
SORTENTS
350
1C0
  0
XRECORD
  5
45F6
102
{ACAD_REACTORS
330
C
102
}
330
C
100
AcDbXrecord
280
     1
  1
DWGPROPS COOKIE
  2

  3

  4

  6

  7

  8
양순영
  9

300
=
301
=
302
=
303
=
304
=
305
=
306
=
307
=
308
=
309
=
 40
0.6257654861111112
 41
2452464.575009942
 42
2455643.496045521
  1

 90
        0
  0
XRECORD
  5
45E7
102
{ACAD_REACTORS
330
45E6
102
}
330
45E6
100
AcDbXrecord
280
     1
290
     1
  0
XRECORD
  5
45E9
102
{ACAD_REACTORS
330
45E8
102
}
330
45E8
100
AcDbXrecord
280
     1
290
     1
  0
XRECORD
  5
45EB
102
{ACAD_REACTORS
330
45EA
102
}
330
45EA
100
AcDbXrecord
280
     1
290
     1
  0
XRECORD
  5
45ED
102
{ACAD_REACTORS
330
45EC
102
}
330
45EC
100
AcDbXrecord
280
     1
290
     1
  0
XRECORD
  5
45EF
102
{ACAD_REACTORS
330
45EE
102
}
330
45EE
100
AcDbXrecord
280
     1
290
     1
  0
XRECORD
  5
45FE
102
{ACAD_REACTORS
330
45FD
102
}
330
45FD
100
AcDbXrecord
280
     1
 40
5298.0
  1
\A1;60°
  0
GROUP
  5
3315
102
{ACAD_REACTORS
330
D
102
}
330
D
100
AcDbGroup
300
Ball Screw  BNFN2010-1.5+300L
 70
     1
 71
     1
  0
GROUP
  5
3935
102
{ACAD_REACTORS
330
D
102
}
330
D
100
AcDbGroup
300
Ball Screw  BNFN2010-1.5+300L
 70
     1
 71
     1
  0
LAYOUT
  5
4157
102
{ACAD_XDICTIONARY
360
45F9
102
}
102
{ACAD_REACTORS
330
4155
102
}
330
4155
100
AcDbPlotSettings
  1

  2
SBC-SERVER에서 자동 HP LaserJet 4V
  4
A4
  6

 40
6.805083274841307
 41
5.069413185119628
 42
6.805084228515625
 43
5.027069091796875
 44
209.9733276367186
 45
296.9683227539062
 46
0.0
 47
0.0
 48
0.0
 49
0.0
140
0.0
141
0.0
142
1.0
143
1.0
 70
 11952
 72
     0
 73
     1
 74
     0
  7
1.ctb
 75
     0
147
1.0
148
-1105.008668280591
149
-2180.822690011071
100
AcDbLayout
  1
Model
 70
     1
 71
     0
 10
0.0
 20
0.0
 11
12.0
 21
9.0
 12
0.0
 22
0.0
 32
0.0
 14
0.0
 24
0.0
 34
0.0
 15
0.0
 25
0.0
 35
0.0
146
0.0
 13
0.0
 23
0.0
 33
0.0
 16
1.0
 26
0.0
 36
0.0
 17
0.0
 27
1.0
 37
0.0
 76
     0
330
19
331
4580
  0
LAYOUT
  5
4158
102
{ACAD_XDICTIONARY
360
45FB
102
}
102
{ACAD_REACTORS
330
4155
102
}
330
4155
100
AcDbPlotSettings
  1

  2
SBC-SERVER에서 자동 HP LaserJet 4V
  4

  6

 40
0.0
 41
0.0
 42
0.0
 43
0.0
 44
0.0
 45
0.0
 46
0.0
 47
0.0
 48
0.0
 49
0.0
140
0.0
141
0.0
142
1.0
143
1.0
 70
   688
 72
     0
 73
     0
 74
     5
  7
1.ctb
 75
    16
147
1.0
148
0.0
149
0.0
100
AcDbLayout
  1
배치1
 70
     1
 71
     1
 10
0.0
 20
0.0
 11
12.0
 21
9.0
 12
0.0
 22
0.0
 32
0.0
 14
1.000000000000000E+20
 24
1.000000000000000E+20
 34
1.000000000000000E+20
 15
-1.000000000000000E+20
 25
-1.000000000000000E+20
 35
-1.000000000000000E+20
146
0.0
 13
0.0
 23
0.0
 33
0.0
 16
1.0
 26
0.0
 36
0.0
 17
0.0
 27
1.0
 37
0.0
 76
     0
330
16
  0
MATERIAL
  5
4594
102
{ACAD_XDICTIONARY
360
4595
102
}
102
{ACAD_REACTORS
330
4567
102
}
330
4567
100
AcDbMaterial
  1
ByBlock
 72
     0
 43
0.0208333333333333
 43
0.0
 43
0.0
 43
0.0
 43
0.0
 43
0.0208333333333333
 43
0.0
 43
0.0
 43
0.0
 43
0.0
 43
1.0
 43
0.0
 43
0.0
 43
0.0
 43
0.0
 43
1.0
 77
     0
 47
0.0208333333333333
 47
0.0
 47
0.0
 47
0.0
 47
0.0
 47
0.0208333333333333
 47
0.0
 47
0.0
 47
0.0
 47
0.0
 47
1.0
 47
0.0
 47
0.0
 47
0.0
 47
0.0
 47
1.0
171
     0
 49
0.0208333333333333
 49
0.0
 49
0.0
 49
0.0
 49
0.0
 49
0.0208333333333333
 49
0.0
 49
0.0
 49
0.0
 49
0.0
 49
1.0
 49
0.0
 49
0.0
 49
0.0
 49
0.0
 49
1.0
175
     0
142
0.0208333333333333
142
0.0
142
0.0
142
0.0
142
0.0
142
0.0208333333333333
142
0.0
142
0.0
142
0.0
142
0.0
142
1.0
142
0.0
142
0.0
142
0.0
142
0.0
142
1.0
179
     0
144
0.0208333333333333
144
0.0
144
0.0
144
0.0
144
0.0
144
0.0208333333333333
144
0.0
144
0.0
144
0.0
144
0.0
144
1.0
144
0.0
144
0.0
144
0.0
144
0.0
144
1.0
147
0.0208333333333333
147
0.0
147
0.0
147
0.0
147
0.0
147
0.0208333333333333
147
0.0
147
0.0
147
0.0
147
0.0
147
1.0
147
0.0
147
0.0
147
0.0
147
0.0
147
1.0
  0
MATERIAL
  5
458C
102
{ACAD_XDICTIONARY
360
458D
102
}
102
{ACAD_REACTORS
330
4567
102
}
330
4567
100
AcDbMaterial
  1
ByLayer
 72
     0
 43
0.0208333333333333
 43
0.0
 43
0.0
 43
0.0
 43
0.0
 43
0.0208333333333333
 43
0.0
 43
0.0
 43
0.0
 43
0.0
 43
1.0
 43
0.0
 43
0.0
 43
0.0
 43
0.0
 43
1.0
 77
     0
 47
0.0208333333333333
 47
0.0
 47
0.0
 47
0.0
 47
0.0
 47
0.0208333333333333
 47
0.0
 47
0.0
 47
0.0
 47
0.0
 47
1.0
 47
0.0
 47
0.0
 47
0.0
 47
0.0
 47
1.0
171
     0
 49
0.0208333333333333
 49
0.0
 49
0.0
 49
0.0
 49
0.0
 49
0.0208333333333333
 49
0.0
 49
0.0
 49
0.0
 49
0.0
 49
1.0
 49
0.0
 49
0.0
 49
0.0
 49
0.0
 49
1.0
175
     0
142
0.0208333333333333
142
0.0
142
0.0
142
0.0
142
0.0
142
0.0208333333333333
142
0.0
142
0.0
142
0.0
142
0.0
142
1.0
142
0.0
142
0.0
142
0.0
142
0.0
142
1.0
179
     0
144
0.0208333333333333
144
0.0
144
0.0
144
0.0
144
0.0
144
0.0208333333333333
144
0.0
144
0.0
144
0.0
144
0.0
144
1.0
144
0.0
144
0.0
144
0.0
144
0.0
144
1.0
147
0.0208333333333333
147
0.0
147
0.0
147
0.0
147
0.0
147
0.0208333333333333
147
0.0
147
0.0
147
0.0
147
0.0
147
1.0
147
0.0
147
0.0
147
0.0
147
0.0
147
1.0
  0
MATERIAL
  5
459C
102
{ACAD_XDICTIONARY
360
459D
102
}
102
{ACAD_REACTORS
330
4567
102
}
330
4567
100
AcDbMaterial
  1
Global
 72
     0
 43
0.0208333333333333
 43
0.0
 43
0.0
 43
0.0
 43
0.0
 43
0.0208333333333333
 43
0.0
 43
0.0
 43
0.0
 43
0.0
 43
1.0
 43
0.0
 43
0.0
 43
0.0
 43
0.0
 43
1.0
 77
     0
 47
0.0208333333333333
 47
0.0
 47
0.0
 47
0.0
 47
0.0
 47
0.0208333333333333
 47
0.0
 47
0.0
 47
0.0
 47
0.0
 47
1.0
 47
0.0
 47
0.0
 47
0.0
 47
0.0
 47
1.0
171
     0
 49
0.0208333333333333
 49
0.0
 49
0.0
 49
0.0
 49
0.0
 49
0.0208333333333333
 49
0.0
 49
0.0
 49
0.0
 49
0.0
 49
1.0
 49
0.0
 49
0.0
 49
0.0
 49
0.0
 49
1.0
175
     0
142
0.0208333333333333
142
0.0
142
0.0
142
0.0
142
0.0
142
0.0208333333333333
142
0.0
142
0.0
142
0.0
142
0.0
142
1.0
142
0.0
142
0.0
142
0.0
142
0.0
142
1.0
179
     0
144
0.0208333333333333
144
0.0
144
0.0
144
0.0
144
0.0
144
0.0208333333333333
144
0.0
144
0.0
144
0.0
144
0.0
144
1.0
144
0.0
144
0.0
144
0.0
144
0.0
144
1.0
147
0.0208333333333333
147
0.0
147
0.0
147
0.0
147
0.0
147
0.0208333333333333
147
0.0
147
0.0
147
0.0
147
0.0
147
1.0
147
0.0
147
0.0
147
0.0
147
0.0
147
1.0
  0
MLEADERSTYLE
  5
45D8
102
{ACAD_REACTORS
330
45D7
102
}
330
45D7
100
AcDbMLeaderStyle
170
     2
171
     1
172
     0
 90
        2
 40
0.0
 41
0.0
173
     1
 91
-1056964608
340
13
 92
       -2
290
     1
 42
0.09
291
     1
 43
0.36
  3
Standard
 44
0.18
300

342
10
174
     1
178
     6
175
     1
176
     0
 93
-1056964608
 45
0.18
292
     0
297
     0
 46
0.18
 94
-1056964608
 47
1.0
 49
1.0
140
1.0
293
     1
141
0.0
294
     1
177
     0
142
1.0
295
     0
296
     0
143
0.125
1001
ACAD_MLEADERVER
1070
     2
  0
MLINESTYLE
  5
1C
102
{ACAD_REACTORS
330
E
102
}
330
E
100
AcDbMlineStyle
  2
STANDARD
 70
     0
  3

 62
     0
 51
90.0
 52
90.0
 71
     2
 49
0.5
 62
   256
  6
BYLAYER
 49
-0.5
 62
   256
  6
BYLAYER
  0
ACDBPLACEHOLDER
  5
4154
102
{ACAD_REACTORS
330
4153
102
}
330
4153
  0
SCALE
  5
45B6
102
{ACAD_REACTORS
330
45B5
102
}
330
45B5
100
AcDbScale
 70
     0
300
1:1
140
1.0
141
1.0
290
     1
  0
SCALE
  5
45B7
102
{ACAD_REACTORS
330
45B5
102
}
330
45B5
100
AcDbScale
 70
     0
300
1:2
140
1.0
141
2.0
290
     0
  0
SCALE
  5
45B8
102
{ACAD_REACTORS
330
45B5
102
}
330
45B5
100
AcDbScale
 70
     0
300
1:4
140
1.0
141
4.0
290
     0
  0
SCALE
  5
45B9
102
{ACAD_REACTORS
330
45B5
102
}
330
45B5
100
AcDbScale
 70
     0
300
1:5
140
1.0
141
5.0
290
     0
  0
SCALE
  5
45BA
102
{ACAD_REACTORS
330
45B5
102
}
330
45B5
100
AcDbScale
 70
     0
300
1:8
140
1.0
141
8.0
290
     0
  0
SCALE
  5
45BB
102
{ACAD_REACTORS
330
45B5
102
}
330
45B5
100
AcDbScale
 70
     0
300
1:10
140
1.0
141
10.0
290
     0
  0
SCALE
  5
45BC
102
{ACAD_REACTORS
330
45B5
102
}
330
45B5
100
AcDbScale
 70
     0
300
1:16
140
1.0
141
16.0
290
     0
  0
SCALE
  5
45BD
102
{ACAD_REACTORS
330
45B5
102
}
330
45B5
100
AcDbScale
 70
     0
300
1:20
140
1.0
141
20.0
290
     0
  0
SCALE
  5
45BE
102
{ACAD_REACTORS
330
45B5
102
}
330
45B5
100
AcDbScale
 70
     0
300
1:30
140
1.0
141
30.0
290
     0
  0
SCALE
  5
45BF
102
{ACAD_REACTORS
330
45B5
102
}
330
45B5
100
AcDbScale
 70
     0
300
1:40
140
1.0
141
40.0
290
     0
  0
SCALE
  5
45C0
102
{ACAD_REACTORS
330
45B5
102
}
330
45B5
100
AcDbScale
 70
     0
300
1:50
140
1.0
141
50.0
290
     0
  0
SCALE
  5
45C1
102
{ACAD_REACTORS
330
45B5
102
}
330
45B5
100
AcDbScale
 70
     0
300
1:100
140
1.0
141
100.0
290
     0
  0
SCALE
  5
45C2
102
{ACAD_REACTORS
330
45B5
102
}
330
45B5
100
AcDbScale
 70
     0
300
2:1
140
2.0
141
1.0
290
     0
  0
SCALE
  5
45C3
102
{ACAD_REACTORS
330
45B5
102
}
330
45B5
100
AcDbScale
 70
     0
300
4:1
140
4.0
141
1.0
290
     0
  0
SCALE
  5
45C4
102
{ACAD_REACTORS
330
45B5
102
}
330
45B5
100
AcDbScale
 70
     0
300
8:1
140
8.0
141
1.0
290
     0
  0
SCALE
  5
45C5
102
{ACAD_REACTORS
330
45B5
102
}
330
45B5
100
AcDbScale
 70
     0
300
10:1
140
10.0
141
1.0
290
     0
  0
SCALE
  5
45C6
102
{ACAD_REACTORS
330
45B5
102
}
330
45B5
100
AcDbScale
 70
     0
300
100:1
140
100.0
141
1.0
290
     0
  0
SCALE
  5
45C7
102
{ACAD_REACTORS
330
45B5
102
}
330
45B5
100
AcDbScale
 70
     0
300
1/128" = 1'-0"
140
0.0078125
141
12.0
290
     0
  0
SCALE
  5
45C8
102
{ACAD_REACTORS
330
45B5
102
}
330
45B5
100
AcDbScale
 70
     0
300
1/64" = 1'-0"
140
0.015625
141
12.0
290
     0
  0
SCALE
  5
45C9
102
{ACAD_REACTORS
330
45B5
102
}
330
45B5
100
AcDbScale
 70
     0
300
1/32" = 1'-0"
140
0.03125
141
12.0
290
     0
  0
SCALE
  5
45CA
102
{ACAD_REACTORS
330
45B5
102
}
330
45B5
100
AcDbScale
 70
     0
300
1/16" = 1'-0"
140
0.0625
141
12.0
290
     0
  0
SCALE
  5
45CB
102
{ACAD_REACTORS
330
45B5
102
}
330
45B5
100
AcDbScale
 70
     0
300
3/32" = 1'-0"
140
0.09375
141
12.0
290
     0
  0
SCALE
  5
45CC
102
{ACAD_REACTORS
330
45B5
102
}
330
45B5
100
AcDbScale
 70
     0
300
1/8" = 1'-0"
140
0.125
141
12.0
290
     0
  0
SCALE
  5
45CD
102
{ACAD_REACTORS
330
45B5
102
}
330
45B5
100
AcDbScale
 70
     0
300
3/16" = 1'-0"
140
0.1875
141
12.0
290
     0
  0
SCALE
  5
45CE
102
{ACAD_REACTORS
330
45B5
102
}
330
45B5
100
AcDbScale
 70
     0
300
1/4" = 1'-0"
140
0.25
141
12.0
290
     0
  0
SCALE
  5
45CF
102
{ACAD_REACTORS
330
45B5
102
}
330
45B5
100
AcDbScale
 70
     0
300
3/8" = 1'-0"
140
0.375
141
12.0
290
     0
  0
SCALE
  5
45D0
102
{ACAD_REACTORS
330
45B5
102
}
330
45B5
100
AcDbScale
 70
     0
300
1/2" = 1'-0"
140
0.5
141
12.0
290
     0
  0
SCALE
  5
45D1
102
{ACAD_REACTORS
330
45B5
102
}
330
45B5
100
AcDbScale
 70
     0
300
3/4" = 1'-0"
140
0.75
141
12.0
290
     0
  0
SCALE
  5
45D2
102
{ACAD_REACTORS
330
45B5
102
}
330
45B5
100
AcDbScale
 70
     0
300
1" = 1'-0"
140
1.0
141
12.0
290
     0
  0
SCALE
  5
45D3
102
{ACAD_REACTORS
330
45B5
102
}
330
45B5
100
AcDbScale
 70
     0
300
1-1/2" = 1'-0"
140
1.5
141
12.0
290
     0
  0
SCALE
  5
45D4
102
{ACAD_REACTORS
330
45B5
102
}
330
45B5
100
AcDbScale
 70
     0
300
3" = 1'-0"
140
3.0
141
12.0
290
     0
  0
SCALE
  5
45D5
102
{ACAD_REACTORS
330
45B5
102
}
330
45B5
100
AcDbScale
 70
     0
300
6" = 1'-0"
140
6.0
141
12.0
290
     0
  0
SCALE
  5
45D6
102
{ACAD_REACTORS
330
45B5
102
}
330
45B5
100
AcDbScale
 70
     0
300
1'-0" = 1'-0"
140
12.0
141
12.0
290
     0
  0
TABLESTYLE
  5
456A
102
{ACAD_XDICTIONARY
360
45F3
102
}
102
{ACAD_REACTORS
330
4569
102
}
330
4569
100
AcDbTableStyle
  3
Standard
 70
     0
 71
     0
 40
0.06
 41
0.06
280
     0
281
     0
  7
STANDARD
140
0.18
170
     2
 62
     0
 63
     7
283
     0
274
    -2
284
     1
 64
     0
275
    -2
285
     1
 65
     0
276
    -2
286
     1
 66
     0
277
    -2
287
     1
 67
     0
278
    -2
288
     1
 68
     0
279
    -2
289
     1
 69
     0
  7
STANDARD
140
0.25
170
     5
 62
     0
 63
     7
283
     0
274
    -2
284
     1
 64
     0
275
    -2
285
     1
 65
     0
276
    -2
286
     1
 66
     0
277
    -2
287
     1
 67
     0
278
    -2
288
     1
 68
     0
279
    -2
289
     1
 69
     0
  7
STANDARD
140
0.18
170
     5
 62
     0
 63
     7
283
     0
274
    -2
284
     1
 64
     0
275
    -2
285
     1
 65
     0
276
    -2
286
     1
 66
     0
277
    -2
287
     1
 67
     0
278
    -2
288
     1
 68
     0
279
    -2
289
     1
 69
     0
  0
VISUALSTYLE
  5
45AA
102
{ACAD_REACTORS
330
45A4
102
}
330
45A4
100
AcDbVisualStyle
  2
2dWireframe
 70
     4
 71
     0
 72
     2
 73
     0
 90
        0
 40
-0.6
 41
-30.0
 62
     5
 63
     7
 74
     1
 91
        4
 64
     7
 65
   257
 75
     1
175
     1
 42
1.0
 92
        0
 66
   257
 43
1.0
 76
     1
 77
     6
 78
     2
 67
     7
 79
     5
170
     0
171
     0
290
     0
174
     0
 93
        1
 44
0.0
173
     0
291
     0
 45
0.0
1001
ACAD
1000
AcDbSavedByObjectVersion
1070
     0
  0
VISUALSTYLE
  5
45AC
102
{ACAD_REACTORS
330
45A4
102
}
330
45A4
100
AcDbVisualStyle
  2
3D Hidden
 70
     6
 71
     1
 72
     2
 73
     2
 90
        0
 40
-0.6
 41
-30.0
 62
     5
 63
     7
 74
     2
 91
        2
 64
     7
 65
   257
 75
     2
175
     1
 42
40.0
 92
        0
 66
   257
 43
1.0
 76
     1
 77
     6
 78
     2
 67
     7
 79
     3
170
     0
171
     0
290
     0
174
     0
 93
        1
 44
0.0
173
     0
291
     0
 45
0.0
1001
ACAD
1000
AcDbSavedByObjectVersion
1070
     0
  0
VISUALSTYLE
  5
45AB
102
{ACAD_REACTORS
330
45A4
102
}
330
45A4
100
AcDbVisualStyle
  2
3dWireframe
 70
     5
 71
     0
 72
     2
 73
     0
 90
        0
 40
-0.6
 41
-30.0
 62
     5
 63
     7
 74
     1
 91
        4
 64
     7
 65
   257
 75
     1
175
     1
 42
1.0
 92
        0
 66
   257
 43
1.0
 76
     1
 77
     6
 78
     2
 67
     7
 79
     5
170
     0
171
     0
290
     0
174
     0
 93
        1
 44
0.0
173
     0
291
     0
 45
0.0
1001
ACAD
1000
AcDbSavedByObjectVersion
1070
     0
  0
VISUALSTYLE
  5
45A9
102
{ACAD_REACTORS
330
45A4
102
}
330
45A4
100
AcDbVisualStyle
  2
Basic
 70
     7
 71
     1
 72
     0
 73
     1
 90
        0
 40
-0.6
 41
-30.0
 62
     5
 63
     7
 74
     0
 91
        4
 64
     7
 65
   257
 75
     1
175
     1
 42
1.0
 92
        8
 66
     7
 43
1.0
 76
     1
 77
     6
 78
     2
 67
     7
 79
     5
170
     0
171
     0
290
     0
174
     0
 93
        1
 44
0.0
173
     0
291
     1
 45
0.0
1001
ACAD
1000
AcDbSavedByObjectVersion
1070
     0
  0
VISUALSTYLE
  5
45B0
102
{ACAD_REACTORS
330
45A4
102
}
330
45A4
100
AcDbVisualStyle
  2
Brighten
 70
    12
 71
     2
 72
     2
 73
     0
 90
        0
 40
-0.6
 41
-30.0
 62
     5
 63
     7
 74
     1
 91
        4
 64
     7
 65
   257
 75
     1
175
     1
 42
1.0
 92
        8
 66
     7
 43
1.0
 76
     1
 77
     6
 78
     2
 67
     7
 79
     5
170
     0
171
     0
290
     0
174
     0
 93
        1
 44
50.0
173
     0
291
     1
 45
0.0
1001
ACAD
1000
AcDbSavedByObjectVersion
1070
     0
  0
VISUALSTYLE
  5
45B4
102
{ACAD_REACTORS
330
45A4
102
}
330
45A4
100
AcDbVisualStyle
  2
ColorChange
 70
    16
 71
     2
 72
     2
 73
     3
 90
        0
 40
-0.6
 41
-30.0
 62
     5
 63
     8
 74
     1
 91
        4
 64
     7
 65
   257
 75
     1
175
     1
 42
1.0
 92
        8
 66
     8
 43
1.0
 76
     1
 77
     6
 78
     2
 67
     7
 79
     5
170
     0
171
     0
290
     0
174
     0
 93
        1
 44
0.0
173
     0
291
     1
 45
0.0
1001
ACAD
1000
AcDbSavedByObjectVersion
1070
     0
  0
VISUALSTYLE
  5
45AD
102
{ACAD_REACTORS
330
45A4
102
}
330
45A4
100
AcDbVisualStyle
  2
Conceptual
 70
     9
 71
     3
 72
     2
 73
     0
 90
        0
 40
-0.6
 41
-30.0
 62
     5
 63
     7
 74
     2
 91
        2
 64
     7
 65
   257
 75
     1
175
     1
 42
40.0
 92
        8
 66
     7
 43
1.0
 76
     1
 77
     6
 78
     2
 67
     7
 79
     3
170
     0
171
     0
290
     0
174
     0
 93
        1
 44
0.0
173
     0
291
     0
 45
0.0
1001
ACAD
1000
AcDbSavedByObjectVersion
1070
     0
  0
VISUALSTYLE
  5
45AF
102
{ACAD_REACTORS
330
45A4
102
}
330
45A4
100
AcDbVisualStyle
  2
Dim
 70
    11
 71
     2
 72
     2
 73
     0
 90
        0
 40
-0.6
 41
-30.0
 62
     5
 63
     7
 74
     1
 91
        4
 64
     7
 65
   257
 75
     1
175
     1
 42
1.0
 92
        8
 66
     7
 43
1.0
 76
     1
 77
     6
 78
     2
 67
     7
 79
     5
170
     0
171
     0
290
     0
174
     0
 93
        1
 44
-50.0
173
     0
291
     1
 45
0.0
1001
ACAD
1000
AcDbSavedByObjectVersion
1070
     0
  0
VISUALSTYLE
  5
45B3
102
{ACAD_REACTORS
330
45A4
102
}
330
45A4
100
AcDbVisualStyle
  2
Facepattern
 70
    15
 71
     2
 72
     2
 73
     0
 90
        0
 40
-0.6
 41
-30.0
 62
     5
 63
     7
 74
     1
 91
        4
 64
     7
 65
   257
 75
     1
175
     1
 42
1.0
 92
        8
 66
     7
 43
1.0
 76
     1
 77
     6
 78
     2
 67
     7
 79
     5
170
     0
171
     0
290
     0
174
     0
 93
        1
 44
0.0
173
     0
291
     1
 45
0.0
1001
ACAD
1000
AcDbSavedByObjectVersion
1070
     0
  0
VISUALSTYLE
  5
45A5
102
{ACAD_REACTORS
330
45A4
102
}
330
45A4
100
AcDbVisualStyle
  2
Flat
 70
     0
 71
     2
 72
     1
 73
     1
 90
        2
 40
-0.6
 41
30.0
 62
     5
 63
     7
 74
     0
 91
        4
 64
     7
 65
   257
 75
     1
175
     1
 42
1.0
 92
        8
 66
     7
 43
1.0
 76
     1
 77
     6
 78
     2
 67
     7
 79
     5
170
     0
171
     0
290
     0
174
     0
 93
       13
 44
0.0
173
     0
291
     1
 45
0.0
1001
ACAD
1000
AcDbSavedByObjectVersion
1070
     0
  0
VISUALSTYLE
  5
45A6
102
{ACAD_REACTORS
330
45A4
102
}
330
45A4
100
AcDbVisualStyle
  2
FlatWithEdges
 70
     1
 71
     2
 72
     1
 73
     1
 90
        2
 40
-0.6
 41
30.0
 62
     5
 63
     7
 74
     1
 91
        4
 64
     7
 65
   257
 75
     1
175
     1
 42
1.0
 92
        0
 66
   257
 43
1.0
 76
     1
 77
     6
 78
     2
 67
     7
 79
     5
170
     0
171
     0
290
     0
174
     0
 93
       13
 44
0.0
173
     0
291
     1
 45
0.0
1001
ACAD
1000
AcDbSavedByObjectVersion
1070
     0
  0
VISUALSTYLE
  5
45A7
102
{ACAD_REACTORS
330
45A4
102
}
330
45A4
100
AcDbVisualStyle
  2
Gouraud
 70
     2
 71
     2
 72
     2
 73
     1
 90
        2
 40
-0.6
 41
30.0
 62
     5
 63
     7
 74
     0
 91
        4
 64
     7
 65
   257
 75
     1
175
     1
 42
1.0
 92
        0
 66
     7
 43
1.0
 76
     1
 77
     6
 78
     2
 67
     7
 79
     5
170
     0
171
     0
290
     0
174
     0
 93
       13
 44
0.0
173
     0
291
     1
 45
0.0
1001
ACAD
1000
AcDbSavedByObjectVersion
1070
     0
  0
VISUALSTYLE
  5
45A8
102
{ACAD_REACTORS
330
45A4
102
}
330
45A4
100
AcDbVisualStyle
  2
GouraudWithEdges
 70
     3
 71
     2
 72
     2
 73
     1
 90
        2
 40
-0.6
 41
30.0
 62
     5
 63
     7
 74
     1
 91
        4
 64
     7
 65
   257
 75
     1
175
     1
 42
1.0
 92
        0
 66
   257
 43
1.0
 76
     1
 77
     6
 78
     2
 67
     7
 79
     5
170
     0
171
     0
290
     0
174
     0
 93
       13
 44
0.0
173
     0
291
     1
 45
0.0
1001
ACAD
1000
AcDbSavedByObjectVersion
1070
     0
  0
VISUALSTYLE
  5
45B2
102
{ACAD_REACTORS
330
45A4
102
}
330
45A4
100
AcDbVisualStyle
  2
Linepattern
 70
    14
 71
     2
 72
     2
 73
     0
 90
        0
 40
-0.6
 41
-30.0
 62
     5
 63
     7
 74
     1
 91
        4
 64
     7
 65
   257
 75
     7
175
     7
 42
1.0
 92
        8
 66
     7
 43
1.0
 76
     1
 77
     6
 78
     2
 67
     7
 79
     5
170
     0
171
     0
290
     0
174
     0
 93
        1
 44
0.0
173
     0
291
     1
 45
0.0
1001
ACAD
1000
AcDbSavedByObjectVersion
1070
     0
  0
VISUALSTYLE
  5
45AE
102
{ACAD_REACTORS
330
45A4
102
}
330
45A4
100
AcDbVisualStyle
  2
Realistic
 70
     8
 71
     2
 72
     2
 73
     0
 90
        0
 40
-0.6
 41
-30.0
 62
     5
 63
     7
 74
     1
 91
        0
 64
     7
 65
   257
 75
     1
175
     1
 42
1.0
 92
        8
 66
     8
 43
1.0
 76
     1
 77
     6
 78
     2
 67
     7
 79
     5
170
     0
171
     0
290
     0
174
     0
 93
       13
 44
0.0
173
     0
291
     0
 45
0.0
1001
ACAD
1000
AcDbSavedByObjectVersion
1070
     0
  0
VISUALSTYLE
  5
45B1
102
{ACAD_REACTORS
330
45A4
102
}
330
45A4
100
AcDbVisualStyle
  2
Thicken
 70
    13
 71
     2
 72
     2
 73
     0
 90
        0
 40
-0.6
 41
-30.0
 62
     5
 63
     7
 74
     1
 91
        4
 64
     7
 65
   257
 75
     1
175
     1
 42
1.0
 92
       12
 66
     7
 43
1.0
 76
     1
 77
     6
 78
     2
 67
     7
 79
     5
170
     0
171
     0
290
     0
174
     0
 93
        1
 44
0.0
173
     0
291
     1
 45
0.0
1001
ACAD
1000
AcDbSavedByObjectVersion
1070
     0
  0
DICTIONARYVAR
  5
45F1
102
{ACAD_REACTORS
330
1BF
102
}
330
1BF
100
DictionaryVariables
280
     0
  1
1:1
  0
DICTIONARYVAR
  5
45F0
102
{ACAD_REACTORS
330
1BF
102
}
330
1BF
100
DictionaryVariables
280
     0
  1
STANDARD
  0
DICTIONARYVAR
  5
457E
102
{ACAD_REACTORS
330
1BF
102
}
330
1BF
100
DictionaryVariables
280
     0
  1
STANDARD
  0
DICTIONARYVAR
  5
4169
102
{ACAD_REACTORS
330
1BF
102
}
330
1BF
100
DictionaryVariables
280
     0
  1
1
  0
DICTIONARYVAR
  5
45F2
102
{ACAD_REACTORS
330
1BF
102
}
330
1BF
100
DictionaryVariables
280
     0
  1
0
  0
DICTIONARYVAR
  5
457F
102
{ACAD_REACTORS
330
1BF
102
}
330
1BF
100
DictionaryVariables
280
     0
  1

  0
DICTIONARYVAR
  5
1C0
102
{ACAD_REACTORS
330
1BF
102
}
330
1BF
100
DictionaryVariables
280
     0
  1
96
  0
DICTIONARY
  5
45F9
330
4157
100
AcDbDictionary
280
     1
281
     1
  3
ACAD_XREC_ROUNDTRIP
360
45FA
  0
DICTIONARY
  5
45FB
330
4158
100
AcDbDictionary
280
     1
281
     1
  3
ACAD_XREC_ROUNDTRIP
360
45FC
  0
DICTIONARY
  5
4595
330
4594
100
AcDbDictionary
280
     1
281
     1
  3
ACAD_XREC_ROUNDTRIP
360
4601
  3
BUMPTILE
360
4597
  3
DIFFUSETILE
360
4596
  3
OPACITYTILE
360
459A
  3
REFLECTIONTILE
360
4599
  3
REFRACTIONTILE
360
459B
  3
SPECULARTILE
360
4598
  0
DICTIONARY
  5
458D
330
458C
100
AcDbDictionary
280
     1
281
     1
  3
ACAD_XREC_ROUNDTRIP
360
4600
  3
BUMPTILE
360
458F
  3
DIFFUSETILE
360
458E
  3
OPACITYTILE
360
4592
  3
REFLECTIONTILE
360
4591
  3
REFRACTIONTILE
360
4593
  3
SPECULARTILE
360
4590
  0
DICTIONARY
  5
459D
330
459C
100
AcDbDictionary
280
     1
281
     1
  3
ACAD_XREC_ROUNDTRIP
360
4602
  3
BUMPTILE
360
459F
  3
DIFFUSETILE
360
459E
  3
OPACITYTILE
360
45A2
  3
REFLECTIONTILE
360
45A1
  3
REFRACTIONTILE
360
45A3
  3
SPECULARTILE
360
45A0
  0
DICTIONARY
  5
45F3
330
456A
100
AcDbDictionary
280
     1
281
     1
  3
ACAD_ROUNDTRIP_2008_TABLESTYLE_CELLSTYLEMAP
360
45F4
  3
ACAD_XREC_ROUNDTRIP
360
45FF
  0
XRECORD
  5
45FA
102
{ACAD_REACTORS
330
45F9
102
}
330
45F9
100
AcDbXrecord
280
     1
102
SHADEPLOT
 70
     0
102
SHADEPLOTRESLEVEL
 70
     2
102
SHADEPLOTCUSTOMDPI
 70
   300
  0
XRECORD
  5
45FC
102
{ACAD_REACTORS
330
45FB
102
}
330
45FB
100
AcDbXrecord
280
     1
102
SHADEPLOT
 70
     0
102
SHADEPLOTRESLEVEL
 70
     2
102
SHADEPLOTCUSTOMDPI
 70
   300
  0
XRECORD
  5
4601
102
{ACAD_REACTORS
330
4595
102
}
330
4595
100
AcDbXrecord
280
     1
102
MATERIAL
148
0.0
149
0.0
149
0.0
 93
        0
 94
      127
282
     0
 72
     0
 77
     0
171
     0
175
     0
179
     0
273
     0
  0
XRECORD
  5
4597
102
{ACAD_REACTORS
330
4595
102
}
330
4595
100
AcDbXrecord
280
     1
270
     1
271
     1
  0
XRECORD
  5
4596
102
{ACAD_REACTORS
330
4595
102
}
330
4595
100
AcDbXrecord
280
     1
270
     1
271
     1
  0
XRECORD
  5
459A
102
{ACAD_REACTORS
330
4595
102
}
330
4595
100
AcDbXrecord
280
     1
270
     1
271
     1
  0
XRECORD
  5
4599
102
{ACAD_REACTORS
330
4595
102
}
330
4595
100
AcDbXrecord
280
     1
270
     1
271
     1
  0
XRECORD
  5
459B
102
{ACAD_REACTORS
330
4595
102
}
330
4595
100
AcDbXrecord
280
     1
270
     1
271
     1
  0
XRECORD
  5
4598
102
{ACAD_REACTORS
330
4595
102
}
330
4595
100
AcDbXrecord
280
     1
270
     1
271
     1
  0
XRECORD
  5
4600
102
{ACAD_REACTORS
330
458D
102
}
330
458D
100
AcDbXrecord
280
     1
102
MATERIAL
148
0.0
149
0.0
149
0.0
 93
        0
 94
      127
282
     0
 72
     0
 77
     0
171
     0
175
     0
179
     0
273
     0
  0
XRECORD
  5
458F
102
{ACAD_REACTORS
330
458D
102
}
330
458D
100
AcDbXrecord
280
     1
270
     1
271
     1
  0
XRECORD
  5
458E
102
{ACAD_REACTORS
330
458D
102
}
330
458D
100
AcDbXrecord
280
     1
270
     1
271
     1
  0
XRECORD
  5
4592
102
{ACAD_REACTORS
330
458D
102
}
330
458D
100
AcDbXrecord
280
     1
270
     1
271
     1
  0
XRECORD
  5
4591
102
{ACAD_REACTORS
330
458D
102
}
330
458D
100
AcDbXrecord
280
     1
270
     1
271
     1
  0
XRECORD
  5
4593
102
{ACAD_REACTORS
330
458D
102
}
330
458D
100
AcDbXrecord
280
     1
270
     1
271
     1
  0
XRECORD
  5
4590
102
{ACAD_REACTORS
330
458D
102
}
330
458D
100
AcDbXrecord
280
     1
270
     1
271
     1
  0
XRECORD
  5
4602
102
{ACAD_REACTORS
330
459D
102
}
330
459D
100
AcDbXrecord
280
     1
102
MATERIAL
148
0.0
149
0.0
149
0.0
 93
        0
 94
      127
282
     0
 72
     0
 77
     0
171
     0
175
     0
179
     0
273
     0
  0
XRECORD
  5
459F
102
{ACAD_REACTORS
330
459D
102
}
330
459D
100
AcDbXrecord
280
     1
270
     1
271
     1
  0
XRECORD
  5
459E
102
{ACAD_REACTORS
330
459D
102
}
330
459D
100
AcDbXrecord
280
     1
270
     1
271
     1
  0
XRECORD
  5
45A2
102
{ACAD_REACTORS
330
459D
102
}
330
459D
100
AcDbXrecord
280
     1
270
     1
271
     1
  0
XRECORD
  5
45A1
102
{ACAD_REACTORS
330
459D
102
}
330
459D
100
AcDbXrecord
280
     1
270
     1
271
     1
  0
XRECORD
  5
45A3
102
{ACAD_REACTORS
330
459D
102
}
330
459D
100
AcDbXrecord
280
     1
270
     1
271
     1
  0
XRECORD
  5
45A0
102
{ACAD_REACTORS
330
459D
102
}
330
459D
100
AcDbXrecord
280
     1
270
     1
271
     1
  0
CELLSTYLEMAP
  5
45F4
102
{ACAD_REACTORS
330
45F3
102
}
330
45F3
100
AcDbCellStyleMap
 90
        3
300
CELLSTYLE
  1
TABLEFORMAT_BEGIN
 90
        5
170
     1
 91
        0
 92
    32768
 62
   257
 93
        1
300
CONTENTFORMAT
  1
CONTENTFORMAT_BEGIN
 90
        0
 91
        0
 92
        4
 93
        0
300

 40
0.0
140
1.0
 94
        5
 62
     0
340
10
144
0.25
309
CONTENTFORMAT_END
171
     0
 94
        6
 95
        1
302
GRIDFORMAT
  1
GRIDFORMAT_BEGIN
 90
        0
 91
        1
 62
     0
 92
       -2
340
0
 93
        0
 40
0.045
309
GRIDFORMAT_END
 95
        2
302
GRIDFORMAT
  1
GRIDFORMAT_BEGIN
 90
        0
 91
        1
 62
     0
 92
       -2
340
0
 93
        0
 40
0.045
309
GRIDFORMAT_END
 95
        4
302
GRIDFORMAT
  1
GRIDFORMAT_BEGIN
 90
        0
 91
        1
 62
     0
 92
       -2
340
0
 93
        0
 40
0.045
309
GRIDFORMAT_END
 95
        8
302
GRIDFORMAT
  1
GRIDFORMAT_BEGIN
 90
        0
 91
        1
 62
     0
 92
       -2
340
0
 93
        0
 40
0.045
309
GRIDFORMAT_END
 95
       16
302
GRIDFORMAT
  1
GRIDFORMAT_BEGIN
 90
        0
 91
        1
 62
     0
 92
       -2
340
0
 93
        0
 40
0.045
309
GRIDFORMAT_END
 95
       32
302
GRIDFORMAT
  1
GRIDFORMAT_BEGIN
 90
        0
 91
        1
 62
     0
 92
       -2
340
0
 93
        0
 40
0.045
309
GRIDFORMAT_END
309
TABLEFORMAT_END
  1
CELLSTYLE_BEGIN
 90
        1
 91
        1
300
_TITLE
309
CELLSTYLE_END
300
CELLSTYLE
  1
TABLEFORMAT_BEGIN
 90
        5
170
     1
 91
        0
 92
        0
 62
   257
 93
        1
300
CONTENTFORMAT
  1
CONTENTFORMAT_BEGIN
 90
        0
 91
        0
 92
        4
 93
        0
300

 40
0.0
140
1.0
 94
        5
 62
     0
340
10
144
0.18
309
CONTENTFORMAT_END
171
     0
 94
        6
 95
        1
302
GRIDFORMAT
  1
GRIDFORMAT_BEGIN
 90
        0
 91
        1
 62
     0
 92
       -2
340
0
 93
        0
 40
0.045
309
GRIDFORMAT_END
 95
        2
302
GRIDFORMAT
  1
GRIDFORMAT_BEGIN
 90
        0
 91
        1
 62
     0
 92
       -2
340
0
 93
        0
 40
0.045
309
GRIDFORMAT_END
 95
        4
302
GRIDFORMAT
  1
GRIDFORMAT_BEGIN
 90
        0
 91
        1
 62
     0
 92
       -2
340
0
 93
        0
 40
0.045
309
GRIDFORMAT_END
 95
        8
302
GRIDFORMAT
  1
GRIDFORMAT_BEGIN
 90
        0
 91
        1
 62
     0
 92
       -2
340
0
 93
        0
 40
0.045
309
GRIDFORMAT_END
 95
       16
302
GRIDFORMAT
  1
GRIDFORMAT_BEGIN
 90
        0
 91
        1
 62
     0
 92
       -2
340
0
 93
        0
 40
0.045
309
GRIDFORMAT_END
 95
       32
302
GRIDFORMAT
  1
GRIDFORMAT_BEGIN
 90
        0
 91
        1
 62
     0
 92
       -2
340
0
 93
        0
 40
0.045
309
GRIDFORMAT_END
309
TABLEFORMAT_END
  1
CELLSTYLE_BEGIN
 90
        2
 91
        1
300
_HEADER
309
CELLSTYLE_END
300
CELLSTYLE
  1
TABLEFORMAT_BEGIN
 90
        5
170
     1
 91
        0
 92
        0
 62
   257
 93
        1
300
CONTENTFORMAT
  1
CONTENTFORMAT_BEGIN
 90
        0
 91
        0
 92
        4
 93
        0
300

 40
0.0
140
1.0
 94
        2
 62
     0
340
10
144
0.18
309
CONTENTFORMAT_END
171
     0
 94
        6
 95
        1
302
GRIDFORMAT
  1
GRIDFORMAT_BEGIN
 90
        0
 91
        1
 62
     0
 92
       -2
340
0
 93
        0
 40
0.045
309
GRIDFORMAT_END
 95
        2
302
GRIDFORMAT
  1
GRIDFORMAT_BEGIN
 90
        0
 91
        1
 62
     0
 92
       -2
340
0
 93
        0
 40
0.045
309
GRIDFORMAT_END
 95
        4
302
GRIDFORMAT
  1
GRIDFORMAT_BEGIN
 90
        0
 91
        1
 62
     0
 92
       -2
340
0
 93
        0
 40
0.045
309
GRIDFORMAT_END
 95
        8
302
GRIDFORMAT
  1
GRIDFORMAT_BEGIN
 90
        0
 91
        1
 62
     0
 92
       -2
340
0
 93
        0
 40
0.045
309
GRIDFORMAT_END
 95
       16
302
GRIDFORMAT
  1
GRIDFORMAT_BEGIN
 90
        0
 91
        1
 62
     0
 92
       -2
340
0
 93
        0
 40
0.045
309
GRIDFORMAT_END
 95
       32
302
GRIDFORMAT
  1
GRIDFORMAT_BEGIN
 90
        0
 91
        1
 62
     0
 92
       -2
340
0
 93
        0
 40
0.045
309
GRIDFORMAT_END
309
TABLEFORMAT_END
  1
CELLSTYLE_BEGIN
 90
        3
 91
        2
300
_DATA
309
CELLSTYLE_END
  0
XRECORD
  5
45FF
102
{ACAD_REACTORS
330
45F3
102
}
330
45F3
100
AcDbXrecord
280
     1
102
ACAD_ROUNDTRIP_PRE2007_TABLESTYLE
 90
        4
 91
        0
  1

 92
        4
 93
        0
  2

 94
        4
 95
        0
  3

  0
ENDSEC
  0
EOF
