  0
SECTION
  2
HEADER
  9
$ACADVER
  1
AC1015
  9
$ACADMAINTVER
 70
    20
  9
$DWGCODEPAGE
  3
ANSI_949
  9
$INSBASE
 10
0.0
 20
0.0
 30
0.0
  9
$EXTMIN
 10
63.9746230055963
 20
37.42410351827755
 30
-0.0015258207003583
  9
$EXTMAX
 10
423.5975735285701
 20
216.9764105104566
 30
0.0000000349246037
  9
$LIMMIN
 10
0.0
 20
0.0
  9
$LIMMAX
 10
420.0
 20
297.0
  9
$ORTHOMODE
 70
     0
  9
$REGENMODE
 70
     1
  9
$FILLMODE
 70
     1
  9
$QTEXTMODE
 70
     0
  9
$MIRRTEXT
 70
     1
  9
$LTSCALE
 40
10.0
  9
$ATTMODE
 70
     1
  9
$TEXTSIZE
 40
3.149999999999999
  9
$TRACEWID
 40
0.05
  9
$TEXTSTYLE
  7
H
  9
$CLAYER
  8
0
  9
$CELTYPE
  6
BYLAYER
  9
$CECOLOR
 62
   256
  9
$CELTSCALE
 40
1.0
  9
$DISPSILH
 70
     0
  9
$DIMSCALE
 40
1.5
  9
$DIMASZ
 40
2.5
  9
$DIMEXO
 40
0.8
  9
$DIMDLI
 40
0.8
  9
$DIMRND
 40
0.0
  9
$DIMDLE
 40
0.0
  9
$DIMEXE
 40
0.8
  9
$DIMTP
 40
0.0
  9
$DIMTM
 40
0.0
  9
$DIMTXT
 40
3.0
  9
$DIMCEN
 40
-1.0
  9
$DIMTSZ
 40
0.0
  9
$DIMTOL
 70
     0
  9
$DIMLIM
 70
     0
  9
$DIMTIH
 70
     0
  9
$DIMTOH
 70
     0
  9
$DIMSE1
 70
     0
  9
$DIMSE2
 70
     0
  9
$DIMTAD
 70
     3
  9
$DIMZIN
 70
     8
  9
$DIMBLK
  1

  9
$DIMASO
 70
     1
  9
$DIMSHO
 70
     1
  9
$DIMPOST
  1

  9
$DIMAPOST
  1

  9
$DIMALT
 70
     0
  9
$DIMALTD
 70
     2
  9
$DIMALTF
 40
25.4
  9
$DIMLFAC
 40
1.0
  9
$DIMTOFL
 70
     1
  9
$DIMTVP
 40
0.0
  9
$DIMTIX
 70
     0
  9
$DIMSOXD
 70
     0
  9
$DIMSAH
 70
     0
  9
$DIMBLK1
  1

  9
$DIMBLK2
  1

  9
$DIMSTYLE
  2
STANDARD
  9
$DIMCLRD
 70
   115
  9
$DIMCLRE
 70
   115
  9
$DIMCLRT
 70
     7
  9
$DIMTFAC
 40
1.0
  9
$DIMGAP
 40
1.0
  9
$DIMJUST
 70
     0
  9
$DIMSD1
 70
     0
  9
$DIMSD2
 70
     0
  9
$DIMTOLJ
 70
     1
  9
$DIMTZIN
 70
     0
  9
$DIMALTZ
 70
     0
  9
$DIMALTTZ
 70
     0
  9
$DIMUPT
 70
     0
  9
$DIMDEC
 70
     3
  9
$DIMTDEC
 70
     4
  9
$DIMALTU
 70
     2
  9
$DIMALTTD
 70
     2
  9
$DIMTXSTY
  7
STANDARD
  9
$DIMAUNIT
 70
     0
  9
$DIMADEC
 70
     0
  9
$DIMALTRND
 40
0.0
  9
$DIMAZIN
 70
     0
  9
$DIMDSEP
 70
    46
  9
$DIMATFIT
 70
     3
  9
$DIMFRAC
 70
     0
  9
$DIMLDRBLK
  1

  9
$DIMLUNIT
 70
     2
  9
$DIMLWD
 70
    -2
  9
$DIMLWE
 70
    -2
  9
$DIMTMOVE
 70
     0
  9
$LUNITS
 70
     2
  9
$LUPREC
 70
     4
  9
$SKETCHINC
 40
0.1
  9
$FILLETRAD
 40
0.5
  9
$AUNITS
 70
     0
  9
$AUPREC
 70
     0
  9
$MENU
  1
.
  9
$ELEVATION
 40
0.0
  9
$PELEVATION
 40
0.0
  9
$THICKNESS
 40
0.0
  9
$LIMCHECK
 70
     0
  9
$CHAMFERA
 40
0.5
  9
$CHAMFERB
 40
0.5
  9
$CHAMFERC
 40
1.0
  9
$CHAMFERD
 40
0.0
  9
$SKPOLY
 70
     1
  9
$TDCREATE
 40
2452464.575009942
  9
$TDUCREATE
 40
2452464.200009942
  9
$TDUPDATE
 40
2455643.495769352
  9
$TDUUPDATE
 40
2455643.120769352
  9
$TDINDWG
 40
0.3999657755
  9
$TDUSRTIMER
 40
0.3999657755
  9
$USRTIMER
 70
     1
  9
$ANGBASE
 50
0.0
  9
$ANGDIR
 70
     0
  9
$PDMODE
 70
     0
  9
$PDSIZE
 40
0.0
  9
$PLINEWID
 40
0.5
  9
$SPLFRAME
 70
     0
  9
$SPLINETYPE
 70
     6
  9
$SPLINESEGS
 70
     8
  9
$HANDSEED
  5
4550
  9
$SURFTAB1
 70
     6
  9
$SURFTAB2
 70
     6
  9
$SURFTYPE
 70
     6
  9
$SURFU
 70
     6
  9
$SURFV
 70
     6
  9
$UCSBASE
  2

  9
$UCSNAME
  2

  9
$UCSORG
 10
0.0
 20
0.0
 30
0.0
  9
$UCSXDIR
 10
1.0
 20
0.0
 30
0.0
  9
$UCSYDIR
 10
0.0
 20
1.0
 30
0.0
  9
$UCSORTHOREF
  2

  9
$UCSORTHOVIEW
 70
     0
  9
$UCSORGTOP
 10
0.0
 20
0.0
 30
0.0
  9
$UCSORGBOTTOM
 10
0.0
 20
0.0
 30
0.0
  9
$UCSORGLEFT
 10
0.0
 20
0.0
 30
0.0
  9
$UCSORGRIGHT
 10
0.0
 20
0.0
 30
0.0
  9
$UCSORGFRONT
 10
0.0
 20
0.0
 30
0.0
  9
$UCSORGBACK
 10
0.0
 20
0.0
 30
0.0
  9
$PUCSBASE
  2

  9
$PUCSNAME
  2

  9
$PUCSORG
 10
0.0
 20
0.0
 30
0.0
  9
$PUCSXDIR
 10
1.0
 20
0.0
 30
0.0
  9
$PUCSYDIR
 10
0.0
 20
1.0
 30
0.0
  9
$PUCSORTHOREF
  2

  9
$PUCSORTHOVIEW
 70
     0
  9
$PUCSORGTOP
 10
0.0
 20
0.0
 30
0.0
  9
$PUCSORGBOTTOM
 10
0.0
 20
0.0
 30
0.0
  9
$PUCSORGLEFT
 10
0.0
 20
0.0
 30
0.0
  9
$PUCSORGRIGHT
 10
0.0
 20
0.0
 30
0.0
  9
$PUCSORGFRONT
 10
0.0
 20
0.0
 30
0.0
  9
$PUCSORGBACK
 10
0.0
 20
0.0
 30
0.0
  9
$USERI1
 70
     0
  9
$USERI2
 70
   452
  9
$USERI3
 70
     1
  9
$USERI4
 70
     0
  9
$USERI5
 70
     0
  9
$USERR1
 40
0.0
  9
$USERR2
 40
0.0
  9
$USERR3
 40
0.0
  9
$USERR4
 40
0.0
  9
$USERR5
 40
0.0
  9
$WORLDVIEW
 70
     1
  9
$SHADEDGE
 70
     3
  9
$SHADEDIF
 70
    70
  9
$TILEMODE
 70
     1
  9
$MAXACTVP
 70
    48
  9
$PINSBASE
 10
0.0
 20
0.0
 30
0.0
  9
$PLIMCHECK
 70
     0
  9
$PEXTMIN
 10
1.000000000000000E+20
 20
1.000000000000000E+20
 30
1.000000000000000E+20
  9
$PEXTMAX
 10
-1.000000000000000E+20
 20
-1.000000000000000E+20
 30
-1.000000000000000E+20
  9
$PLIMMIN
 10
0.0
 20
0.0
  9
$PLIMMAX
 10
12.0
 20
9.0
  9
$UNITMODE
 70
     0
  9
$VISRETAIN
 70
     1
  9
$PLINEGEN
 70
     0
  9
$PSLTSCALE
 70
     1
  9
$TREEDEPTH
 70
  3020
  9
$CMLSTYLE
  2
STANDARD
  9
$CMLJUST
 70
     0
  9
$CMLSCALE
 40
1.0
  9
$PROXYGRAPHICS
 70
     1
  9
$MEASUREMENT
 70
     0
  9
$CELWEIGHT
370
    -1
  9
$ENDCAPS
280
     0
  9
$JOINSTYLE
280
     0
  9
$LWDISPLAY
290
     0
  9
$INSUNITS
 70
     0
  9
$HYPERLINKBASE
  1

  9
$STYLESHEET
  1
1.CTB
  9
$XEDIT
290
     1
  9
$CEPSNTYPE
380
     0
  9
$PSTYLEMODE
290
     1
  9
$FINGERPRINTGUID
  2
{3172CC46-24FC-4775-9257-50F4EA4939B8}
  9
$VERSIONGUID
  2
{03670B0E-5D9C-437D-B86B-17AF6DC2BF04}
  9
$EXTNAMES
290
     1
  9
$PSVPSCALE
 40
0.0
  9
$OLESTARTUP
290
     0
  0
ENDSEC
  0
SECTION
  2
CLASSES
  0
CLASS
  1
DICTIONARYVAR
  2
AcDbDictionaryVar
  3
ObjectDBX Classes
 90
        0
280
     0
281
     0
  0
CLASS
  1
ACDBDICTIONARYWDFLT
  2
AcDbDictionaryWithDefault
  3
ObjectDBX Classes
 90
        0
280
     0
281
     0
  0
CLASS
  1
ACDBPLACEHOLDER
  2
AcDbPlaceHolder
  3
ObjectDBX Classes
 90
        0
280
     0
281
     0
  0
CLASS
  1
LAYOUT
  2
AcDbLayout
  3
ObjectDBX Classes
 90
        0
280
     0
281
     0
  0
CLASS
  1
TABLESTYLE
  2
AcDbTableStyle
  3
ObjectDBX Classes
 90
     4095
280
     0
281
     0
  0
CLASS
  1
MATERIAL
  2
AcDbMaterial
  3
ObjectDBX Classes
 90
     1153
280
     0
281
     0
  0
CLASS
  1
VISUALSTYLE
  2
AcDbVisualStyle
  3
ObjectDBX Classes
 90
     4095
280
     0
281
     0
  0
CLASS
  1
SCALE
  2
AcDbScale
  3
ObjectDBX Classes
 90
     1153
280
     0
281
     0
  0
CLASS
  1
MLEADERSTYLE
  2
AcDbMLeaderStyle
  3
ACDB_MLEADERSTYLE_CLASS
 90
     4095
280
     0
281
     0
  0
CLASS
  1
CELLSTYLEMAP
  2
AcDbCellStyleMap
  3
ObjectDBX Classes
 90
     1152
280
     0
281
     0
  0
ENDSEC
  0
SECTION
  2
TABLES
  0
TABLE
  2
VPORT
  5
8
330
0
100
AcDbSymbolTable
 70
     1
  0
VPORT
  5
44C5
330
8
100
AcDbSymbolTableRecord
100
AcDbViewportTableRecord
  2
*Active
 70
     0
 10
0.0
 20
0.0
 11
1.0
 21
1.0
 12
238.1033725714321
 22
131.8660195894597
 13
0.0
 23
0.0
 14
0.5
 24
0.5
 15
0.5
 25
0.5
 16
0.0
 26
0.0
 36
1.0
 17
0.0
 27
0.0
 37
0.0
 40
208.7595894451959
 41
2.336349924585218
 42
50.0
 43
0.0
 44
0.0
 50
0.0
 51
0.0
 71
     0
 72
   100
 73
     1
 74
     1
 75
     0
 76
     0
 77
     0
 78
     0
281
     0
 65
     1
110
0.0
120
0.0
130
0.0
111
1.0
121
0.0
131
0.0
112
0.0
122
1.0
132
0.0
 79
     0
146
0.0
  0
ENDTAB
  0
TABLE
  2
LTYPE
  5
5
330
0
100
AcDbSymbolTable
 70
     9
  0
LTYPE
  5
13
330
5
100
AcDbSymbolTableRecord
100
AcDbLinetypeTableRecord
  2
BYBLOCK
 70
     0
  3

 72
    65
 73
     0
 40
0.0
  0
LTYPE
  5
14
330
5
100
AcDbSymbolTableRecord
100
AcDbLinetypeTableRecord
  2
BYLAYER
 70
     0
  3

 72
    65
 73
     0
 40
0.0
  0
LTYPE
  5
15
330
5
100
AcDbSymbolTableRecord
100
AcDbLinetypeTableRecord
  2
CONTINUOUS
 70
     0
  3
Solid line
 72
    65
 73
     0
 40
0.0
  0
LTYPE
  5
5D
330
5
100
AcDbSymbolTableRecord
100
AcDbLinetypeTableRecord
  2
CENTER
 70
     0
  3
Center ____ _ ____ _ ____ _ ____ _ ____ _ ____
 72
    65
 73
     4
 40
2.0
 49
1.25
 74
     0
 49
-0.25
 74
     0
 49
0.25
 74
     0
 49
-0.25
 74
     0
  0
LTYPE
  5
5E
330
5
100
AcDbSymbolTableRecord
100
AcDbLinetypeTableRecord
  2
HIDDEN
 70
     0
  3
Hidden __ __ __ __ __ __ __ __ __ __ __ __ __ _
 72
    65
 73
     2
 40
0.375
 49
0.25
 74
     0
 49
-0.125
 74
     0
  0
LTYPE
  5
2ACA
330
5
100
AcDbSymbolTableRecord
100
AcDbLinetypeTableRecord
  2
2
 70
     0
  3
MEDUSA PEN 2
 72
    65
 73
     4
 40
15.1
 49
9.5
 74
     0
 49
-1.6
 74
     0
 49
2.399999999999999
 74
     0
 49
-1.6
 74
     0
  0
ENDTAB
  0
TABLE
  2
LAYER
  5
2
330
0
100
AcDbSymbolTable
 70
    37
  0
LAYER
  5
F
102
{ACAD_XDICTIONARY
360
452B
102
}
330
2
100
AcDbSymbolTableRecord
100
AcDbLayerTableRecord
  2
0
 70
     0
 62
     7
  6
CONTINUOUS
370
    -3
390
4154
  0
LAYER
  5
55
102
{ACAD_XDICTIONARY
360
452D
102
}
330
2
100
AcDbSymbolTableRecord
100
AcDbLayerTableRecord
  2
9
 70
     0
 62
     3
  6
CONTINUOUS
370
    -3
390
4154
  0
LAYER
  5
61
102
{ACAD_XDICTIONARY
360
452F
102
}
330
2
100
AcDbSymbolTableRecord
100
AcDbLayerTableRecord
  2
1
 70
     0
 62
     1
  6
CENTER
370
    -3
390
4154
  0
LAYER
  5
62
102
{ACAD_XDICTIONARY
360
4531
102
}
330
2
100
AcDbSymbolTableRecord
100
AcDbLayerTableRecord
  2
2
 70
     0
 62
     2
  6
HIDDEN
370
    -3
390
4154
  0
LAYER
  5
24EF
330
2
100
AcDbSymbolTableRecord
100
AcDbLayerTableRecord
  2
DEFPOINTS
 70
     0
 62
     7
  6
CONTINUOUS
290
     0
370
    -3
390
4154
  0
LAYER
  5
2AD3
102
{ACAD_XDICTIONARY
360
4533
102
}
330
2
100
AcDbSymbolTableRecord
100
AcDbLayerTableRecord
  2
SL2-11
 70
     0
 62
     1
  6
2
370
    -3
390
4154
  0
ENDTAB
  0
TABLE
  2
STYLE
  5
3
330
0
100
AcDbSymbolTable
 70
     8
  0
STYLE
  5
10
330
3
100
AcDbSymbolTableRecord
100
AcDbTextStyleTableRecord
  2
STANDARD
 70
     0
 40
0.0
 41
1.0
 50
0.0
 71
     0
 42
3.0
  3
romans.shx
  4

  0
STYLE
  5
167
330
3
100
AcDbSymbolTableRecord
100
AcDbTextStyleTableRecord
  2
STYLE1
 70
     0
 40
0.0
 41
1.0
 50
0.0
 71
     0
 42
3.149999999999999
  3
Gulim.ttf
  4

1001
ACAD
1000
Gulim
1071
    33074
  0
STYLE
  5
2AD7
330
3
100
AcDbSymbolTableRecord
100
AcDbTextStyleTableRecord
  2
T2
 70
     0
 40
0.0
 41
1.0
 50
0.1
 71
     0
 42
3.5
  3
monotxt
  4

  0
STYLE
  5
44C2
330
3
100
AcDbSymbolTableRecord
100
AcDbTextStyleTableRecord
  2
H
 70
     0
 40
0.0
 41
1.0
 50
0.0
 71
     0
 42
3.149999999999999
  3
txt.shx
  4

  0
ENDTAB
  0
TABLE
  2
VIEW
  5
6
330
0
100
AcDbSymbolTable
 70
     0
  0
ENDTAB
  0
TABLE
  2
UCS
  5
7
330
0
100
AcDbSymbolTable
 70
     0
  0
ENDTAB
  0
TABLE
  2
APPID
  5
9
330
0
100
AcDbSymbolTable
 70
     4
  0
APPID
  5
11
330
9
100
AcDbSymbolTableRecord
100
AcDbRegAppTableRecord
  2
ACAD
 70
     0
  0
APPID
  5
2325
330
9
100
AcDbSymbolTableRecord
100
AcDbRegAppTableRecord
  2
MCLBOMATTRIB
 70
     0
  0
APPID
  5
2326
330
9
100
AcDbSymbolTableRecord
100
AcDbRegAppTableRecord
  2
MCLBOM
 70
     0
  0
APPID
  5
451E
330
9
100
AcDbSymbolTableRecord
100
AcDbRegAppTableRecord
  2
ACAD_MLEADERVER
 70
     0
  0
ENDTAB
  0
TABLE
  2
DIMSTYLE
  5
A
330
0
100
AcDbSymbolTable
 70
     3
100
AcDbDimStyleTable
 71
     1
340
1D
  0
DIMSTYLE
105
1D
102
{ACAD_REACTORS
330
4401
330
440E
330
441B
330
4428
330
4435
330
4442
330
4481
330
4490
330
449D
102
}
330
A
100
AcDbSymbolTableRecord
100
AcDbDimStyleTableRecord
  2
STANDARD
 70
     0
 41
2.0
140
3.0
176
     2
177
     2
178
     4
340
10
  0
ENDTAB
  0
TABLE
  2
BLOCK_RECORD
  5
1
330
0
100
AcDbSymbolTable
 70
    39
  0
BLOCK_RECORD
  5
19
330
1
100
AcDbSymbolTableRecord
100
AcDbBlockTableRecord
  2
*MODEL_SPACE
340
4157
  0
BLOCK_RECORD
  5
16
330
1
100
AcDbSymbolTableRecord
100
AcDbBlockTableRecord
  2
*PAPER_SPACE
340
4158
  0
BLOCK_RECORD
  5
1B8B
330
1
100
AcDbSymbolTableRecord
100
AcDbBlockTableRecord
  2
MCLBOMATTRIB
340
0
102
{BLKREFS
331
247E
331
238D
102
}
  0
BLOCK_RECORD
  5
4402
330
1
100
AcDbSymbolTableRecord
100
AcDbBlockTableRecord
  2
*D29
340
0
  0
BLOCK_RECORD
  5
440F
330
1
100
AcDbSymbolTableRecord
100
AcDbBlockTableRecord
  2
*D30
340
0
  0
BLOCK_RECORD
  5
441C
330
1
100
AcDbSymbolTableRecord
100
AcDbBlockTableRecord
  2
*D31
340
0
  0
BLOCK_RECORD
  5
4429
330
1
100
AcDbSymbolTableRecord
100
AcDbBlockTableRecord
  2
*D32
340
0
  0
BLOCK_RECORD
  5
4436
330
1
100
AcDbSymbolTableRecord
100
AcDbBlockTableRecord
  2
*D33
340
0
  0
BLOCK_RECORD
  5
4443
330
1
100
AcDbSymbolTableRecord
100
AcDbBlockTableRecord
  2
*D34
340
0
  0
BLOCK_RECORD
  5
4482
330
1
100
AcDbSymbolTableRecord
100
AcDbBlockTableRecord
  2
*D35
340
0
  0
BLOCK_RECORD
  5
4491
330
1
100
AcDbSymbolTableRecord
100
AcDbBlockTableRecord
  2
*D36
340
0
  0
BLOCK_RECORD
  5
449E
330
1
100
AcDbSymbolTableRecord
100
AcDbBlockTableRecord
  2
*D37
340
0
  0
ENDTAB
  0
ENDSEC
  0
SECTION
  2
BLOCKS
  0
BLOCK
  5
1A
330
19
100
AcDbEntity
  8
0
100
AcDbBlockBegin
  2
*MODEL_SPACE
 70
     0
 10
0.0
 20
0.0
 30
0.0
  3
*MODEL_SPACE
  1

  0
ENDBLK
  5
1B
330
19
100
AcDbEntity
  8
0
100
AcDbBlockEnd
  0
BLOCK
  5
17
330
16
100
AcDbEntity
 67
     1
  8
0
100
AcDbBlockBegin
  2
*PAPER_SPACE
 70
     0
 10
0.0
 20
0.0
 30
0.0
  3
*PAPER_SPACE
  1

  0
ENDBLK
  5
18
330
16
100
AcDbEntity
 67
     1
  8
0
100
AcDbBlockEnd
  0
BLOCK
  5
1B8C
330
1B8B
100
AcDbEntity
  8
0
100
AcDbBlockBegin
  2
MCLBOMATTRIB
 70
     2
 10
0.0
 20
0.0
 30
0.0
  3
MCLBOMATTRIB
  1
MCLBOMATTRIB
  0
ENDBLK
  5
1B8D
330
1B8B
100
AcDbEntity
  8
0
100
AcDbBlockEnd
  0
BLOCK
  5
440C
330
4402
100
AcDbEntity
  8
0
100
AcDbBlockBegin
  2
*D29
 70
     1
 10
0.0
 20
0.0
 30
0.0
  3
*D29
  1

  0
LINE
  5
4403
330
4402
100
AcDbEntity
  8
0
 62
   115
370
    -2
100
AcDbLine
 10
406.2602951230655
 20
132.6434262345637
 30
0.0
 11
423.5846457648005
 21
132.6434262345637
 31
0.0
  0
LINE
  5
4404
330
4402
100
AcDbEntity
  8
0
 62
   115
370
    -2
100
AcDbLine
 10
406.2602951230655
 20
157.2434262345638
 30
0.0
 11
423.5846457648005
 21
157.2434262345638
 31
0.0
  0
LINE
  5
4405
330
4402
100
AcDbEntity
  8
0
 62
   115
370
    -2
100
AcDbLine
 10
422.3846457648004
 20
136.3934262345638
 30
0.0
 11
422.3846457648004
 21
153.4934262345638
 31
0.0
  0
SOLID
  5
4406
330
4402
100
AcDbEntity
  8
0
 62
   115
100
AcDbTrace
 10
421.7596457648005
 20
136.3934262345638
 30
0.0
 11
423.0096457648005
 21
136.3934262345638
 31
0.0
 12
422.3846457648004
 22
132.6434262345637
 32
0.0
 13
422.3846457648004
 23
132.6434262345637
 33
0.0
  0
SOLID
  5
4407
330
4402
100
AcDbEntity
  8
0
 62
   115
100
AcDbTrace
 10
421.7596457648005
 20
153.4934262345638
 30
0.0
 11
423.0096457648005
 21
153.4934262345638
 31
0.0
 12
422.3846457648004
 22
157.2434262345638
 32
0.0
 13
422.3846457648004
 23
157.2434262345638
 33
0.0
  0
MTEXT
  5
4408
330
4402
100
AcDbEntity
  8
0
 62
     7
100
AcDbMText
 10
418.6346457648005
 20
144.9434262345638
 30
0.0
 40
4.5
 41
0.0
 71
     5
 72
     1
  1
\A1;%%c24.6
 11
0.0000000000000001
 21
1.0
 31
0.0
 73
     1
 44
1.0
1001
ACAD
1000
MTEXTBEGIN
1070
    73
1070
     1
1070
    44
1040
1.0
1070
    74
1070
     0
1000
MTEXTEND
  0
POINT
  5
4409
330
4402
100
AcDbEntity
  8
DEFPOINTS
 62
     0
100
AcDbPoint
 10
405.0602951230652
 20
132.6434262345637
 30
0.0
  0
POINT
  5
440A
330
4402
100
AcDbEntity
  8
DEFPOINTS
 62
     0
100
AcDbPoint
 10
405.0602951230652
 20
157.2434262345638
 30
0.0
  0
POINT
  5
440B
330
4402
100
AcDbEntity
  8
DEFPOINTS
 62
     0
100
AcDbPoint
 10
422.3846457648004
 20
157.2434262345638
 30
0.0
  0
ENDBLK
  5
440D
330
4402
100
AcDbEntity
  8
0
100
AcDbBlockEnd
  0
BLOCK
  5
4419
330
440F
100
AcDbEntity
  8
0
100
AcDbBlockBegin
  2
*D30
 70
     1
 10
0.0
 20
0.0
 30
0.0
  3
*D30
  1

  0
LINE
  5
4410
330
440F
100
AcDbEntity
  8
0
 62
   115
370
    -2
100
AcDbLine
 10
270.6272930649567
 20
96.24342623456378
 30
0.0
 11
270.6272930649567
 21
84.28493430433588
 31
0.0
  0
LINE
  5
4411
330
440F
100
AcDbEntity
  8
0
 62
   115
370
    -2
100
AcDbLine
 10
285.6272930649567
 20
96.24342623456378
 30
0.0
 11
285.6272930649567
 21
84.28493430433588
 31
0.0
  0
LINE
  5
4412
330
440F
100
AcDbEntity
  8
0
 62
   115
370
    -2
100
AcDbLine
 10
274.3772930649567
 20
85.48493430433586
 30
0.0
 11
281.8772930649568
 21
85.48493430433586
 31
0.0
  0
SOLID
  5
4413
330
440F
100
AcDbEntity
  8
0
 62
   115
100
AcDbTrace
 10
274.3772930649567
 20
86.10993430433586
 30
0.0
 11
274.3772930649567
 21
84.85993430433586
 31
0.0
 12
270.6272930649567
 22
85.48493430433586
 32
0.0
 13
270.6272930649567
 23
85.48493430433586
 33
0.0
  0
SOLID
  5
4414
330
440F
100
AcDbEntity
  8
0
 62
   115
100
AcDbTrace
 10
281.8772930649568
 20
86.10993430433586
 30
0.0
 11
281.8772930649568
 21
84.85993430433586
 31
0.0
 12
285.6272930649567
 22
85.48493430433586
 32
0.0
 13
285.6272930649567
 23
85.48493430433586
 33
0.0
  0
MTEXT
  5
4415
330
440F
100
AcDbEntity
  8
0
 62
     7
100
AcDbMText
 10
278.1272930649568
 20
89.23493430433586
 30
0.0
 40
4.5
 41
0.0
 71
     5
 72
     1
  1
\A1;15
 73
     1
 44
1.0
1001
ACAD
1000
MTEXTBEGIN
1070
    73
1070
     1
1070
    44
1040
1.0
1070
    74
1070
     0
1000
MTEXTEND
  0
POINT
  5
4416
330
440F
100
AcDbEntity
  8
DEFPOINTS
 62
     0
100
AcDbPoint
 10
270.6272930649567
 20
97.44342623456379
 30
0.0
  0
POINT
  5
4417
330
440F
100
AcDbEntity
  8
DEFPOINTS
 62
     0
100
AcDbPoint
 10
285.6272930649567
 20
97.44342623456377
 30
0.0
  0
POINT
  5
4418
330
440F
100
AcDbEntity
  8
DEFPOINTS
 62
     0
100
AcDbPoint
 10
285.6272930649567
 20
85.48493430433586
 30
0.0
  0
ENDBLK
  5
441A
330
440F
100
AcDbEntity
  8
0
100
AcDbBlockEnd
  0
BLOCK
  5
4426
330
441C
100
AcDbEntity
  8
0
100
AcDbBlockBegin
  2
*D31
 70
     1
 10
0.0
 20
0.0
 30
0.0
  3
*D31
  1

  0
LINE
  5
441D
330
441C
100
AcDbEntity
  8
0
 62
   115
370
    -2
100
AcDbLine
 10
285.6272930649567
 20
96.24342623456378
 30
0.0
 11
285.6272930649567
 21
84.28493430433588
 31
0.0
  0
LINE
  5
441E
330
441C
100
AcDbEntity
  8
0
 62
   115
370
    -2
100
AcDbLine
 10
355.6272930649567
 20
114.2434262345638
 30
0.0
 11
355.6272930649567
 21
84.28493430433588
 31
0.0
  0
LINE
  5
441F
330
441C
100
AcDbEntity
  8
0
 62
   115
370
    -2
100
AcDbLine
 10
289.3772930649567
 20
85.48493430433586
 30
0.0
 11
351.8772930649567
 21
85.48493430433586
 31
0.0
  0
SOLID
  5
4420
330
441C
100
AcDbEntity
  8
0
 62
   115
100
AcDbTrace
 10
289.3772930649567
 20
86.10993430433586
 30
0.0
 11
289.3772930649567
 21
84.85993430433586
 31
0.0
 12
285.6272930649567
 22
85.48493430433586
 32
0.0
 13
285.6272930649567
 23
85.48493430433586
 33
0.0
  0
SOLID
  5
4421
330
441C
100
AcDbEntity
  8
0
 62
   115
100
AcDbTrace
 10
351.8772930649567
 20
86.10993430433586
 30
0.0
 11
351.8772930649567
 21
84.85993430433586
 31
0.0
 12
355.6272930649567
 22
85.48493430433586
 32
0.0
 13
355.6272930649567
 23
85.48493430433586
 33
0.0
  0
MTEXT
  5
4422
330
441C
100
AcDbEntity
  8
0
 62
     7
100
AcDbMText
 10
320.6272930649567
 20
89.23493430433586
 30
0.0
 40
4.5
 41
0.0
 71
     5
 72
     1
  1
\A1;70
 73
     1
 44
1.0
1001
ACAD
1000
MTEXTBEGIN
1070
    73
1070
     1
1070
    44
1040
1.0
1070
    74
1070
     0
1000
MTEXTEND
  0
POINT
  5
4423
330
441C
100
AcDbEntity
  8
DEFPOINTS
 62
     0
100
AcDbPoint
 10
285.6272930649567
 20
97.44342623456377
 30
0.0
  0
POINT
  5
4424
330
441C
100
AcDbEntity
  8
DEFPOINTS
 62
     0
100
AcDbPoint
 10
355.6272930649567
 20
115.4434262345638
 30
0.0
  0
POINT
  5
4425
330
441C
100
AcDbEntity
  8
DEFPOINTS
 62
     0
100
AcDbPoint
 10
355.6272930649567
 20
85.48493430433586
 30
0.0
  0
ENDBLK
  5
4427
330
441C
100
AcDbEntity
  8
0
100
AcDbBlockEnd
  0
BLOCK
  5
4433
330
4429
100
AcDbEntity
  8
0
100
AcDbBlockBegin
  2
*D32
 70
     1
 10
0.0
 20
0.0
 30
0.0
  3
*D32
  1

  0
LINE
  5
442A
330
4429
100
AcDbEntity
  8
0
 62
   115
370
    -2
100
AcDbLine
 10
270.6272930649567
 20
83.08493430433586
 30
0.0
 11
270.6272930649567
 21
75.39586196892877
 31
0.0
  0
LINE
  5
442B
330
4429
100
AcDbEntity
  8
0
 62
   115
370
    -2
100
AcDbLine
 10
355.6272930649567
 20
83.08493430433586
 30
0.0
 11
355.6272930649567
 21
75.39586196892877
 31
0.0
  0
LINE
  5
442C
330
4429
100
AcDbEntity
  8
0
 62
   115
370
    -2
100
AcDbLine
 10
274.3772930649567
 20
76.59586196892878
 30
0.0
 11
351.8772930649567
 21
76.59586196892878
 31
0.0
  0
SOLID
  5
442D
330
4429
100
AcDbEntity
  8
0
 62
   115
100
AcDbTrace
 10
274.3772930649567
 20
77.22086196892878
 30
0.0
 11
274.3772930649567
 21
75.97086196892878
 31
0.0
 12
270.6272930649567
 22
76.59586196892878
 32
0.0
 13
270.6272930649567
 23
76.59586196892878
 33
0.0
  0
SOLID
  5
442E
330
4429
100
AcDbEntity
  8
0
 62
   115
100
AcDbTrace
 10
351.8772930649567
 20
77.22086196892878
 30
0.0
 11
351.8772930649567
 21
75.97086196892878
 31
0.0
 12
355.6272930649567
 22
76.59586196892878
 32
0.0
 13
355.6272930649567
 23
76.59586196892878
 33
0.0
  0
MTEXT
  5
442F
330
4429
100
AcDbEntity
  8
0
 62
     7
100
AcDbMText
 10
313.1272930649567
 20
80.34586196892879
 30
0.0
 40
4.5
 41
0.0
 71
     5
 72
     1
  1
\A1;85
 73
     1
 44
1.0
1001
ACAD
1000
MTEXTBEGIN
1070
    73
1070
     1
1070
    44
1040
1.0
1070
    74
1070
     0
1000
MTEXTEND
  0
POINT
  5
4430
330
4429
100
AcDbEntity
  8
DEFPOINTS
 62
     0
100
AcDbPoint
 10
270.6272930649567
 20
84.28493430433588
 30
0.0
  0
POINT
  5
4431
330
4429
100
AcDbEntity
  8
DEFPOINTS
 62
     0
100
AcDbPoint
 10
355.6272930649567
 20
84.28493430433588
 30
0.0
  0
POINT
  5
4432
330
4429
100
AcDbEntity
  8
DEFPOINTS
 62
     0
100
AcDbPoint
 10
355.6272930649567
 20
76.59586196892878
 30
0.0
  0
ENDBLK
  5
4434
330
4429
100
AcDbEntity
  8
0
100
AcDbBlockEnd
  0
BLOCK
  5
4440
330
4436
100
AcDbEntity
  8
0
100
AcDbBlockBegin
  2
*D33
 70
     1
 10
0.0
 20
0.0
 30
0.0
  3
*D33
  1

  0
LINE
  5
4437
330
4436
100
AcDbEntity
  8
0
 62
   115
370
    -2
100
AcDbLine
 10
356.3272930649567
 20
114.9434262345638
 30
0.0
 11
372.9113917185854
 21
114.9434262345638
 31
0.0
  0
LINE
  5
4438
330
4436
100
AcDbEntity
  8
0
 62
   115
370
    -2
100
AcDbLine
 10
356.3272930649564
 20
174.9434262345639
 30
0.0
 11
372.9113917185854
 21
174.9434262345639
 31
0.0
  0
LINE
  5
4439
330
4436
100
AcDbEntity
  8
0
 62
   115
370
    -2
100
AcDbLine
 10
371.7113917185853
 20
118.6934262345638
 30
0.0
 11
371.7113917185855
 21
171.1934262345639
 31
0.0
  0
SOLID
  5
443A
330
4436
100
AcDbEntity
  8
0
 62
   115
100
AcDbTrace
 10
371.0863917185853
 20
118.6934262345638
 30
0.0
 11
372.3363917185853
 21
118.6934262345638
 31
0.0
 12
371.7113917185853
 22
114.9434262345638
 32
0.0
 13
371.7113917185853
 23
114.9434262345638
 33
0.0
  0
SOLID
  5
443B
330
4436
100
AcDbEntity
  8
0
 62
   115
100
AcDbTrace
 10
371.0863917185855
 20
171.1934262345639
 30
0.0
 11
372.3363917185853
 21
171.1934262345639
 31
0.0
 12
371.7113917185855
 22
174.9434262345639
 32
0.0
 13
371.7113917185855
 23
174.9434262345639
 33
0.0
  0
MTEXT
  5
443C
330
4436
100
AcDbEntity
  8
0
 62
     7
100
AcDbMText
 10
367.2113917185853
 20
144.9434262345639
 30
0.0
 40
4.5
 41
0.0
 71
     5
 72
     1
  1
\A1;%%c60g6
 11
0.0000000000000001
 21
1.0
 31
0.0
 73
     1
 44
1.0
1001
ACAD
1000
MTEXTBEGIN
1070
    73
1070
     1
1070
    44
1040
1.0
1070
    74
1070
     0
1000
MTEXTEND
  0
POINT
  5
443D
330
4436
100
AcDbEntity
  8
DEFPOINTS
 62
     0
100
AcDbPoint
 10
355.1272930649567
 20
114.9434262345638
 30
0.0
  0
POINT
  5
443E
330
4436
100
AcDbEntity
  8
DEFPOINTS
 62
     0
100
AcDbPoint
 10
355.1272930649564
 20
174.9434262345639
 30
0.0
  0
POINT
  5
443F
330
4436
100
AcDbEntity
  8
DEFPOINTS
 62
     0
100
AcDbPoint
 10
371.7113917185855
 20
174.9434262345639
 30
0.0
  0
ENDBLK
  5
4441
330
4436
100
AcDbEntity
  8
0
100
AcDbBlockEnd
  0
BLOCK
  5
444D
330
4443
100
AcDbEntity
  8
0
100
AcDbBlockBegin
  2
*D34
 70
     1
 10
0.0
 20
0.0
 30
0.0
  3
*D34
  1

  0
LINE
  5
4444
330
4443
100
AcDbEntity
  8
0
 62
   115
370
    -2
100
AcDbLine
 10
269.9272930649568
 20
96.94342623456378
 30
0.0
 11
261.2685980582298
 21
96.94342623456378
 31
0.0
  0
LINE
  5
4445
330
4443
100
AcDbEntity
  8
0
 62
   115
370
    -2
100
AcDbLine
 10
269.9272930649562
 20
192.9434262345638
 30
0.0
 11
261.2685980582299
 21
192.9434262345638
 31
0.0
  0
LINE
  5
4446
330
4443
100
AcDbEntity
  8
0
 62
   115
370
    -2
100
AcDbLine
 10
262.4685980582298
 20
100.6934262345638
 30
0.0
 11
262.4685980582299
 21
189.1934262345638
 31
0.0
  0
SOLID
  5
4447
330
4443
100
AcDbEntity
  8
0
 62
   115
100
AcDbTrace
 10
261.8435980582298
 20
100.6934262345638
 30
0.0
 11
263.0935980582298
 21
100.6934262345638
 31
0.0
 12
262.4685980582298
 22
96.94342623456378
 32
0.0
 13
262.4685980582298
 23
96.94342623456378
 33
0.0
  0
SOLID
  5
4448
330
4443
100
AcDbEntity
  8
0
 62
   115
100
AcDbTrace
 10
261.8435980582299
 20
189.1934262345638
 30
0.0
 11
263.0935980582299
 21
189.1934262345638
 31
0.0
 12
262.4685980582299
 22
192.9434262345638
 32
0.0
 13
262.4685980582299
 23
192.9434262345638
 33
0.0
  0
MTEXT
  5
4449
330
4443
100
AcDbEntity
  8
0
 62
     7
100
AcDbMText
 10
258.7185980582298
 20
144.9434262345638
 30
0.0
 40
4.5
 41
0.0
 71
     5
 72
     1
  1
\A1;%%c96
 11
0.0000000000000001
 21
1.0
 31
0.0
 73
     1
 44
1.0
1001
ACAD
1000
MTEXTBEGIN
1070
    73
1070
     1
1070
    44
1040
1.0
1070
    74
1070
     0
1000
MTEXTEND
  0
POINT
  5
444A
330
4443
100
AcDbEntity
  8
DEFPOINTS
 62
     0
100
AcDbPoint
 10
271.1272930649567
 20
96.94342623456378
 30
0.0
  0
POINT
  5
444B
330
4443
100
AcDbEntity
  8
DEFPOINTS
 62
     0
100
AcDbPoint
 10
271.1272930649562
 20
192.9434262345638
 30
0.0
  0
POINT
  5
444C
330
4443
100
AcDbEntity
  8
DEFPOINTS
 62
     0
100
AcDbPoint
 10
262.4685980582299
 20
192.9434262345638
 30
0.0
  0
ENDBLK
  5
444E
330
4443
100
AcDbEntity
  8
0
100
AcDbBlockEnd
  0
BLOCK
  5
448E
330
4482
100
AcDbEntity
  8
0
100
AcDbBlockBegin
  2
*D35
 70
     1
 10
0.0
 20
0.0
 30
0.0
  3
*D35
  1

  0
LINE
  5
4483
330
4482
100
AcDbEntity
  8
0
 62
   115
370
    -2
100
AcDbLine
 10
91.0803114628643
 20
104.0670232709723
 30
0.0
 11
83.53742351290462
 21
91.00236011853253
 31
0.0
  0
LINE
  5
4484
330
4482
100
AcDbEntity
  8
0
 62
   115
370
    -2
100
AcDbLine
 10
138.2803151710679
 20
104.0670312218386
 30
0.0
 11
145.823207715204
 21
91.00235991078378
 31
0.0
  0
ARC
  5
4485
330
4482
100
AcDbEntity
  8
0
 62
   115
370
    -2
100
AcDbCircle
 10
114.68031579397
 20
144.9434235340394
 30
0.0
 40
61.08577736550922
100
AcDbArc
 50
243.5178842230893
 51
296.4821153947006
  0
SOLID
  5
4486
330
4482
100
AcDbEntity
  8
0
 62
   115
100
AcDbTrace
 10
87.14530188431373
 20
89.71655440852297
 30
0.0
 11
87.73677964783111
 21
90.81776013647051
 31
0.0
 12
84.13742358222981
 22
92.04159056304892
 32
0.0
 13
84.13742358222981
 23
92.04159056304892
 33
0.0
  0
SOLID
  5
4487
330
4482
100
AcDbEntity
  8
0
 62
   115
100
AcDbTrace
 10
141.6238515790461
 20
90.81775995673494
 30
0.0
 11
142.2153293352176
 21
89.71655422484174
 31
0.0
 12
145.2232076528114
 22
92.04159035930272
 32
0.0
 13
145.2232076528114
 23
92.04159035930272
 33
0.0
  0
MTEXT
  5
4488
102
{ACAD_XDICTIONARY
360
454A
102
}
330
4482
100
AcDbEntity
  8
0
 62
     7
100
AcDbMText
 10
114.6803156027315
 20
87.60764616853023
 30
0.0
 40
4.5
 41
0.0
 71
     5
 72
     1
  1
\A1;60\U+00B0
 11
1.0
 21
-0.0000000033354119
 31
0.0
 73
     1
 44
1.0
1001
ACAD
1000
MTEXTBEGIN
1070
    73
1070
     1
1070
    44
1040
1.0
1070
    74
1070
     0
1000
MTEXTEND
  0
POINT
  5
4489
330
4482
100
AcDbEntity
  8
DEFPOINTS
 62
     0
100
AcDbPoint
 10
104.0728804016428
 20
84.78567664516267
 30
0.0
  0
POINT
  5
448A
330
4482
100
AcDbEntity
  8
DEFPOINTS
 62
     0
100
AcDbPoint
 10
91.68031153218947
 20
105.1062537154887
 30
0.0
  0
POINT
  5
448B
330
4482
100
AcDbEntity
  8
DEFPOINTS
 62
     0
100
AcDbPoint
 10
137.6803151086753
 20
105.1062616703575
 30
0.0
  0
POINT
  5
448C
330
4482
100
AcDbEntity
  8
DEFPOINTS
 62
     0
100
AcDbPoint
 10
130.6803143807609
 20
117.230616903078
 30
0.0
  0
POINT
  5
448D
330
4482
100
AcDbEntity
  8
DEFPOINTS
 62
     0
100
AcDbPoint
 10
98.6803123409833
 20
117.2306089015135
 30
0.0
  0
ENDBLK
  5
448F
330
4482
100
AcDbEntity
  8
0
100
AcDbBlockEnd
  0
BLOCK
  5
449B
330
4491
100
AcDbEntity
  8
0
100
AcDbBlockBegin
  2
*D36
 70
     1
 10
0.0
 20
0.0
 30
0.0
  3
*D36
  1

  0
LINE
  5
4492
330
4491
100
AcDbEntity
  8
0
 62
   115
370
    -2
100
AcDbLine
 10
78.68031537385906
 20
111.9944035017886
 30
0.0
 11
78.68031537385906
 21
71.5985106999835
 31
0.0
  0
LINE
  5
4493
330
4491
100
AcDbEntity
  8
0
 62
   115
370
    -2
100
AcDbLine
 10
150.680315073859
 20
111.9944031616207
 30
0.0
 11
150.680315073859
 21
71.5985106999835
 31
0.0
  0
LINE
  5
4494
330
4491
100
AcDbEntity
  8
0
 62
   115
370
    -2
100
AcDbLine
 10
82.43031537385906
 20
72.7985106999835
 30
0.0
 11
146.930315073859
 21
72.7985106999835
 31
0.0
  0
SOLID
  5
4495
330
4491
100
AcDbEntity
  8
0
 62
   115
100
AcDbTrace
 10
82.43031537385906
 20
73.4235106999835
 30
0.0
 11
82.43031537385906
 21
72.1735106999835
 31
0.0
 12
78.68031537385906
 22
72.7985106999835
 32
0.0
 13
78.68031537385906
 23
72.7985106999835
 33
0.0
  0
SOLID
  5
4496
330
4491
100
AcDbEntity
  8
0
 62
   115
100
AcDbTrace
 10
146.930315073859
 20
73.4235106999835
 30
0.0
 11
146.930315073859
 21
72.1735106999835
 31
0.0
 12
150.680315073859
 22
72.7985106999835
 32
0.0
 13
150.680315073859
 23
72.7985106999835
 33
0.0
  0
MTEXT
  5
4497
330
4491
100
AcDbEntity
  8
0
 62
     7
100
AcDbMText
 10
114.680315223859
 20
76.5485106999835
 30
0.0
 40
4.5
 41
0.0
 71
     5
 72
     1
  1
\A1;72
 73
     1
 44
1.0
1001
ACAD
1000
MTEXTBEGIN
1070
    73
1070
     1
1070
    44
1040
1.0
1070
    74
1070
     0
1000
MTEXTEND
  0
POINT
  5
4498
330
4491
100
AcDbEntity
  8
DEFPOINTS
 62
     0
100
AcDbPoint
 10
78.68031537385906
 20
113.1944035017886
 30
0.0
  0
POINT
  5
4499
330
4491
100
AcDbEntity
  8
DEFPOINTS
 62
     0
100
AcDbPoint
 10
150.680315073859
 20
113.1944031616207
 30
0.0
  0
POINT
  5
449A
330
4491
100
AcDbEntity
  8
DEFPOINTS
 62
     0
100
AcDbPoint
 10
150.680315073859
 20
72.7985106999835
 30
0.0
  0
ENDBLK
  5
449C
330
4491
100
AcDbEntity
  8
0
100
AcDbBlockEnd
  0
BLOCK
  5
44A7
330
449E
100
AcDbEntity
  8
0
100
AcDbBlockBegin
  2
*D37
 70
     1
 10
0.0
 20
0.0
 30
0.0
  3
*D37
  1

  0
LINE
  5
449F
330
449E
100
AcDbEntity
  8
0
 62
   115
370
    -2
100
AcDbLine
 10
182.6400973612233
 20
99.27442205691669
 30
0.0
 11
150.1628678141284
 21
121.0991316255081
 31
0.0
  0
LINE
  5
44A0
330
449E
100
AcDbEntity
  8
0
 62
   115
370
    -2
100
AcDbLine
 10
79.19774504850082
 20
168.7877188436194
 30
0.0
 11
76.08523966404348
 21
170.8793235461682
 31
0.0
  0
MTEXT
  5
44A1
330
449E
100
AcDbEntity
  8
0
 62
     7
100
AcDbMText
 10
171.5425050854045
 20
111.7664226305937
 30
0.0
 40
4.5
 41
0.0
 71
     5
 72
     1
  1
\A1;P,C,D 78
 11
0.8300014358552928
 21
-0.557761254012998
 31
0.0
 73
     1
 44
1.0
1001
ACAD
1000
MTEXTBEGIN
1070
    73
1070
     1
1070
    44
1040
1.0
1070
    74
1070
     0
1000
MTEXTEND
  0
LINE
  5
44A2
330
449E
100
AcDbEntity
  8
0
 62
   115
370
    -2
100
AcDbLine
 10
82.31025043295819
 20
166.6961141410707
 30
0.0
 11
147.050362429671
 21
123.1907363280568
 31
0.0
  0
SOLID
  5
44A3
330
449E
100
AcDbEntity
  8
0
 62
   115
100
AcDbTrace
 10
79.54634583225895
 20
169.306469741029
 30
0.0
 11
78.84914426474272
 21
168.2689679462099
 31
0.0
 12
82.31025043295819
 22
166.6961141410707
 32
0.0
 13
82.31025043295819
 23
166.6961141410707
 33
0.0
  0
SOLID
  5
44A4
330
449E
100
AcDbEntity
  8
0
 62
   115
100
AcDbTrace
 10
150.5114685978865
 20
121.6178825229176
 30
0.0
 11
149.8142670303703
 21
120.5803807280985
 31
0.0
 12
147.050362429671
 22
123.1907363280568
 32
0.0
 13
147.050362429671
 23
123.1907363280568
 33
0.0
  0
POINT
  5
44A5
330
449E
100
AcDbEntity
  8
DEFPOINTS
 62
     0
100
AcDbPoint
 10
147.050362429671
 20
123.1907363280568
 30
0.0
  0
POINT
  5
44A6
330
449E
100
AcDbEntity
  8
DEFPOINTS
 62
     0
100
AcDbPoint
 10
82.31025043295819
 20
166.6961141410707
 30
0.0
  0
ENDBLK
  5
44A8
330
449E
100
AcDbEntity
  8
0
100
AcDbBlockEnd
  0
ENDSEC
  0
SECTION
  2
ENTITIES
  0
INSERT
  5
247E
330
19
100
AcDbEntity
  8
0
100
AcDbBlockReference
  2
MCLBOMATTRIB
 10
0.0
 20
0.0
 30
0.0
1001
MCLBOMATTRIB
1002
{
1000
1
1005
0
1005
0
1000
강관 용접식 플렌지
1005
0
1000
Steel Welding Pipe Flange
1005
0
1000
SOP 5K 10A FF
1005
0
1000

1005
2480
1000
1
1005
0
1000

1005
2481
1000

1005
0
1000

1005
2482
1000

1005
0
1000

1005
0
1000

1005
0
1000

1005
0
1000

1005
0
1000

1005
0
1002
}
  0
TEXT
  5
2480
330
19
100
AcDbEntity
  8
0
 62
   111
100
AcDbText
 10
344.9746279359911
 20
60.9644544167441
 30
0.0
 40
2.5
  1

  7
STYLE1
100
AcDbText
  0
TEXT
  5
2481
330
19
100
AcDbEntity
  8
0
 62
   111
100
AcDbText
 10
379.9746279359911
 20
60.9644544167441
 30
0.0
 40
2.5
  1

  7
STYLE1
100
AcDbText
  0
TEXT
  5
2482
330
19
100
AcDbEntity
  8
0
 62
   111
100
AcDbText
 10
394.9746279359911
 20
60.9644544167441
 30
0.0
 40
2.5
  1

  7
STYLE1
100
AcDbText
  0
MTEXT
  5
24CA
330
19
100
AcDbEntity
  8
0
100
AcDbMText
 10
295.0
 20
25.00000000000007
 30
0.0
 40
2.5
 41
20.0
 71
     5
 72
     5
  1

  7
STYLE1
 73
     1
 44
1.0
1001
ACAD
1000
MTEXTBEGIN
1070
    73
1070
     1
1070
    44
1040
1.0
1070
    74
1070
     0
1000
MTEXTEND
  0
MTEXT
  5
24DF
330
19
100
AcDbEntity
  8
0
100
AcDbMText
 10
265.0
 20
292.0
 30
0.0
 40
1.8
 41
15.0
 71
     1
 72
     5
  1

  7
STYLE1
 73
     1
 44
1.0
1001
ACAD
1000
MTEXTBEGIN
1070
    73
1070
     1
1070
    44
1040
1.0
1070
    74
1070
     0
1000
MTEXTEND
  0
LINE
  5
2EC4
330
19
100
AcDbEntity
  8
1
100
AcDbLine
 10
208.5420390941106
 20
144.9434262345638
 30
0.0
 11
408.9673582225096
 21
144.9434262345638
 31
0.0
  0
LINE
  5
324C
330
19
100
AcDbEntity
  8
0
100
AcDbLine
 10
271.1272870649564
 20
96.94343223456421
 30
0.0
 11
271.1272870649564
 21
192.9434202345639
 31
0.0
  0
TEXT
  5
32A5
330
19
100
AcDbEntity
  8
0
100
AcDbText
 10
164.7515592626525
 20
37.42461678082264
 30
0.0
 40
10.5
  1
STK2510-4-R
  7
T2
 72
     4
 11
220.7515592626525
 21
42.67461678082264
 31
0.0
100
AcDbText
  0
LINE
  5
34B0
330
19
100
AcDbEntity
  8
SL2-11
100
AcDbLine
 10
91.68031360200933
 20
184.7805979486494
 30
0.0
 11
98.6803136020093
 21
172.6562422956673
 31
0.0
  0
LINE
  5
34EB
330
19
100
AcDbEntity
  8
SL2-11
100
AcDbLine
 10
137.6803130388565
 20
184.7805899937809
 30
0.0
 11
130.6803131197358
 21
172.6562342941031
 31
0.0
  0
LINE
  5
355D
330
19
100
AcDbEntity
  8
1
100
AcDbLine
 10
114.680315373859
 20
195.6282984906348
 30
0.0
 11
114.680315373859
 21
94.25855197849278
 31
0.0
  0
LINE
  5
375C
330
19
100
AcDbEntity
  8
SL2-11
100
AcDbLine
 10
137.6803151086753
 20
105.1062616703575
 30
0.0
 11
130.6803143807609
 21
117.230616903078
 31
0.0
  0
LINE
  5
3784
330
19
100
AcDbEntity
  8
SL2-11
100
AcDbLine
 10
91.68031153218947
 20
105.1062537154887
 30
0.0
 11
98.6803123409833
 21
117.2306089015135
 31
0.0
  0
LINE
  5
3945
330
19
100
AcDbEntity
  8
0
100
AcDbLine
 10
270.6272930649567
 20
97.44342623456379
 30
0.0
 11
270.6272930649562
 21
192.4434262345638
 31
0.0
  0
LINE
  5
394B
330
19
100
AcDbEntity
  8
0
100
AcDbLine
 10
213.5602951230653
 20
133.1434262345637
 30
0.0
 11
213.5602951230653
 21
156.7434262345638
 31
0.0
  0
LINE
  5
394E
330
19
100
AcDbEntity
  8
0
100
AcDbLine
 10
214.0602951230653
 20
157.2434262345638
 30
0.0
 11
213.5602951230653
 21
156.7434262345638
 31
0.0
  0
LINE
  5
394F
330
19
100
AcDbEntity
  8
0
100
AcDbLine
 10
213.5602951230652
 20
133.1434262345638
 30
0.0
 11
214.0602951230653
 21
132.6434262345637
 31
0.0
  0
MTEXT
  5
3954
330
19
100
AcDbEntity
  8
0
 62
   111
100
AcDbMText
 10
0.0
 20
0.0
 30
0.0
 40
3.0
 41
0.0
 71
     5
 72
     5
  1

 11
0.6658655619423123
 21
0.7460717481712123
 31
0.0
 73
     1
 44
1.0
1001
ACAD
1000
MTEXTBEGIN
1070
    73
1070
     1
1070
    44
1040
1.0
1070
    74
1070
     0
1000
MTEXTEND
  0
MTEXT
  5
3959
330
19
100
AcDbEntity
  8
0
 62
   111
100
AcDbMText
 10
0.0
 20
0.0
 30
0.0
 40
3.0
 41
0.0
 71
     5
 72
     5
  1

 11
0.9994246805919202
 21
0.0339161882253633
 31
0.0
 73
     1
 44
1.0
1001
ACAD
1000
MTEXTBEGIN
1070
    73
1070
     1
1070
    44
1040
1.0
1070
    74
1070
     0
1000
MTEXTEND
  0
LINE
  5
3B0B
330
19
100
AcDbEntity
  8
1
100
AcDbLine
 10
63.995442117788
 20
144.9434252345638
 30
0.0
 11
165.36518862993
 21
144.9434252345638
 31
0.0
  0
MTEXT
  5
3CA0
330
19
100
AcDbEntity
  8
0
 62
   111
100
AcDbMText
 10
0.0
 20
0.0
 30
0.0
 40
3.0
 41
0.0
 71
     5
 72
     5
  1

 11
0.8978290820304724
 21
-0.4403441148242126
 31
0.0
 73
     1
 44
1.0
1001
ACAD
1000
MTEXTBEGIN
1070
    73
1070
     1
1070
    44
1040
1.0
1070
    74
1070
     0
1000
MTEXTEND
  0
MTEXT
  5
3CA1
330
19
100
AcDbEntity
  8
0
 62
   111
100
AcDbMText
 10
0.0
 20
0.0
 30
0.0
 40
3.0
 41
0.0
 71
     5
 72
     5
  1

 11
0.8978290820304724
 21
-0.4403441148242126
 31
0.0
 73
     1
 44
1.0
1001
ACAD
1000
MTEXTBEGIN
1070
    73
1070
     1
1070
    44
1040
1.0
1070
    74
1070
     0
1000
MTEXTEND
  0
MTEXT
  5
3CA2
330
19
100
AcDbEntity
  8
0
 62
   111
100
AcDbMText
 10
0.0
 20
0.0
 30
0.0
 40
3.0
 41
0.0
 71
     5
 72
     5
  1

 11
0.8978290820304724
 21
-0.4403441148242126
 31
0.0
 73
     1
 44
1.0
1001
ACAD
1000
MTEXTBEGIN
1070
    73
1070
     1
1070
    44
1040
1.0
1070
    74
1070
     0
1000
MTEXTEND
  0
MTEXT
  5
3CA3
330
19
100
AcDbEntity
  8
0
 62
   111
100
AcDbMText
 10
0.0
 20
0.0
 30
0.0
 40
3.0
 41
0.0
 71
     5
 72
     5
  1

 11
0.8978290820304724
 21
-0.4403441148242126
 31
0.0
 73
     1
 44
1.0
1001
ACAD
1000
MTEXTBEGIN
1070
    73
1070
     1
1070
    44
1040
1.0
1070
    74
1070
     0
1000
MTEXTEND
  0
MTEXT
  5
3CA8
330
19
100
AcDbEntity
  8
0
 62
   111
100
AcDbMText
 10
0.0
 20
0.0
 30
0.0
 40
3.0
 41
0.0
 71
     5
 72
     5
  1

 11
0.3826834323650867
 21
-0.923879532511288
 31
0.0
 73
     1
 44
1.0
1001
ACAD
1000
MTEXTBEGIN
1070
    73
1070
     1
1070
    44
1040
1.0
1070
    74
1070
     0
1000
MTEXTEND
  0
LINE
  5
418B
330
19
100
AcDbEntity
  8
2
100
AcDbLine
 10
112.180315373859
 20
192.8782708563223
 30
0.0
 11
112.180315373859
 21
160.544388176403
 31
0.0
  0
LINE
  5
418C
330
19
100
AcDbEntity
  8
2
100
AcDbLine
 10
117.180315373859
 20
192.8782708563223
 30
0.0
 11
117.180315373859
 21
160.5443853103795
 31
0.0
  0
LINE
  5
418D
330
19
100
AcDbEntity
  8
2
100
AcDbLine
 10
111.680315373859
 20
192.8495775025777
 30
0.0
 11
111.680315373859
 21
186.9434192345638
 31
0.0
  0
LINE
  5
418E
330
19
100
AcDbEntity
  8
2
100
AcDbLine
 10
117.680315373859
 20
192.8495775025777
 30
0.0
 11
117.680315373859
 21
186.9434192345638
 31
0.0
  0
LINE
  5
4194
330
19
100
AcDbEntity
  8
2
100
AcDbLine
 10
111.680315373859
 20
186.9434192345638
 30
0.0
 11
117.680315373859
 21
186.9434192345638
 31
0.0
  0
LINE
  5
4195
330
19
100
AcDbEntity
  8
2
100
AcDbLine
 10
112.180315373859
 20
186.4434192345638
 30
0.0
 11
117.180315373859
 21
186.4434192345638
 31
0.0
  0
LINE
  5
4196
330
19
100
AcDbEntity
  8
2
100
AcDbLine
 10
112.180315373859
 20
186.4434192345638
 30
0.0
 11
111.680315373859
 21
186.9434192345638
 31
0.0
  0
LINE
  5
4197
330
19
100
AcDbEntity
  8
2
100
AcDbLine
 10
117.180315373859
 20
186.4434192345638
 30
0.0
 11
117.680315373859
 21
186.9434192345638
 31
0.0
  0
LINE
  5
419B
330
19
100
AcDbEntity
  8
0
100
AcDbLine
 10
214.0602951230653
 20
157.2434262345638
 30
0.0
 11
214.0602951230653
 21
132.6434262345637
 31
0.0
  0
LINE
  5
419C
330
19
100
AcDbEntity
  8
0
100
AcDbLine
 10
405.5602951230652
 20
133.1434262345638
 30
0.0
 11
405.5602951230652
 21
156.7434262345639
 31
0.0
  0
LINE
  5
419D
330
19
100
AcDbEntity
  8
0
100
AcDbLine
 10
405.0602951230652
 20
157.2434262345638
 30
0.0
 11
405.5602951230652
 21
156.7434262345638
 31
0.0
  0
LINE
  5
419E
330
19
100
AcDbEntity
  8
0
100
AcDbLine
 10
405.0602951230652
 20
132.6434262345637
 30
0.0
 11
405.5602951230652
 21
133.1434262345638
 31
0.0
  0
LINE
  5
419F
330
19
100
AcDbEntity
  8
0
100
AcDbLine
 10
405.0602951230652
 20
157.2434262345638
 30
0.0
 11
405.0602951230652
 21
132.6434262345637
 31
0.0
  0
LINE
  5
41BC
330
19
100
AcDbEntity
  8
2
100
AcDbLine
 10
275.6272930649565
 20
129.1434262345638
 30
0.0
 11
275.6272930649565
 21
160.7434262345638
 31
0.0
  0
LEADER
  5
422E
330
19
100
AcDbEntity
  8
0
100
AcDbLeader
  3
STANDARD
 73
     0
 75
     1
 40
4.5
 41
26.78571428571429
 76
     3
 10
114.680315373859
 20
193.009807714636
 30
0.0
 10
103.5908481483412
 20
210.9614836025693
 30
0.0
 10
99.84084814834128
 20
210.9614836025693
 30
0.0
340
422F
1001
ACAD
1000
DSTYLE
1002
{
1070
    40
1040
1.5
1070
    41
1040
2.5
1070
    42
1040
0.8
1070
    43
1040
0.8
1070
    44
1040
0.8
1070
    73
1070
     0
1070
    74
1070
     0
1070
    77
1070
     1
1070
    78
1070
     8
1070
   141
1040
-1.0
1070
   147
1040
1.0
1070
   172
1070
     1
1070
   176
1070
   115
1070
   177
1070
   115
1070
   178
1070
     7
1070
   271
1070
     3
1002
}
  0
MTEXT
  5
422F
102
{ACAD_REACTORS
330
422E
102
}
330
19
100
AcDbEntity
  8
0
 62
     7
100
AcDbMText
 10
98.34084814834127
 20
212.4614836025693
 30
0.0
 40
4.5
 41
0.0
 71
     9
 72
     1
  1
M6xP1.0
 73
     1
 44
1.0
1001
ACAD
1000
MTEXTBEGIN
1070
    73
1070
     1
1070
    44
1040
1.0
1070
    74
1070
     0
1000
MTEXTEND
  0
LINE
  5
42C0
330
19
100
AcDbEntity
  8
2
100
AcDbLine
 10
350.6272930649567
 20
129.1434262345638
 30
0.0
 11
350.6272930649565
 21
160.7434262345639
 31
0.0
  0
LINE
  5
434E
330
19
100
AcDbEntity
  8
0
  6
Continuous
100
AcDbLine
 10
214.0602951230653
 20
157.2434262345638
 30
0.0
 11
270.6272930649564
 21
157.2434262345638
 31
0.0
  0
LINE
  5
434F
330
19
100
AcDbEntity
  8
0
  6
Continuous
100
AcDbLine
 10
214.0602951230653
 20
132.6434262345637
 30
0.0
 11
270.6272930649566
 21
132.6434262345637
 31
0.0
  0
LINE
  5
4350
330
19
100
AcDbEntity
  8
0
  6
Continuous
100
AcDbLine
 10
355.6272930649565
 20
157.2434262345638
 30
0.0
 11
405.0602951230652
 21
157.2434262345638
 31
0.0
  0
LINE
  5
4351
330
19
100
AcDbEntity
  8
0
  6
Continuous
100
AcDbLine
 10
355.6272930649565
 20
132.6434262345637
 30
0.0
 11
405.0602951230652
 21
132.6434262345637
 31
0.0
  0
LINE
  5
4352
330
19
100
AcDbEntity
  8
9
  6
Continuous
100
AcDbLine
 10
213.5602951230652
 20
155.5934262345638
 30
0.0
 11
270.6272930649564
 21
155.5934262345637
 31
0.0
  0
LINE
  5
4353
330
19
100
AcDbEntity
  8
9
  6
Continuous
100
AcDbLine
 10
213.5602951230653
 20
134.2934262345638
 30
0.0
 11
270.6272930649566
 21
134.2934262345638
 31
0.0
  0
LINE
  5
4354
330
19
100
AcDbEntity
  8
9
  6
Continuous
100
AcDbLine
 10
355.6272930649565
 20
155.5934262345638
 30
0.0
 11
405.5602951230652
 21
155.5934262345638
 31
0.0
  0
LINE
  5
4355
330
19
100
AcDbEntity
  8
9
  6
Continuous
100
AcDbLine
 10
355.6272930649565
 20
134.2934262345638
 30
0.0
 11
405.5602951230652
 21
134.2934262345638
 31
0.0
  0
LINE
  5
4367
330
19
100
AcDbEntity
  8
2
  6
HIDDEN
100
AcDbLine
 10
270.6272930649564
 20
160.7434262345637
 30
0.0
 11
275.6272930649565
 21
160.7434262345638
 31
0.0
  0
LINE
  5
4368
330
19
100
AcDbEntity
  8
2
  6
HIDDEN
100
AcDbLine
 10
270.6272930649566
 20
129.1434262345638
 30
0.0
 11
275.6272930649565
 21
129.1434262345638
 31
0.0
  0
LINE
  5
4369
330
19
100
AcDbEntity
  8
2
  6
HIDDEN
100
AcDbLine
 10
350.6272930649566
 20
129.1434262345638
 30
0.0
 11
355.6272930649567
 21
129.1434262345638
 31
0.0
  0
LINE
  5
436A
330
19
100
AcDbEntity
  8
2
  6
HIDDEN
100
AcDbLine
 10
350.6272930649566
 20
160.7434262345638
 30
0.0
 11
355.6272930649566
 21
160.7434262345638
 31
0.0
  0
CIRCLE
  5
43AE
330
19
100
AcDbEntity
  8
0
100
AcDbCircle
 10
114.6803064313146
 20
144.9434252345638
 30
0.0
 40
12.3
  0
CIRCLE
  5
43AF
330
19
100
AcDbEntity
  8
0
100
AcDbCircle
 10
114.6803064313146
 20
144.9434252345638
 30
0.0
 40
15.8
  0
ARC
  5
43B0
330
19
100
AcDbEntity
  8
9
100
AcDbCircle
 10
114.680315373859
 20
144.9434192345638
 30
0.0
 40
10.85
100
AcDbArc
 50
179.9999588293801
 51
90.0
  0
LINE
  5
43F0
330
19
100
AcDbEntity
  8
0
100
AcDbLine
 10
285.6272930649563
 20
174.9434262345638
 30
0.0
 11
355.1272930649564
 21
174.9434262345639
 31
0.0
  0
LINE
  5
43F1
330
19
100
AcDbEntity
  8
0
100
AcDbLine
 10
285.6272930649567
 20
114.9434262345638
 30
0.0
 11
355.1272930649567
 21
114.9434262345638
 31
0.0
  0
LINE
  5
43F2
330
19
100
AcDbEntity
  8
0
100
AcDbLine
 10
271.1272930649562
 20
192.9434262345638
 30
0.0
 11
285.1272930649563
 21
192.9434262345638
 31
0.0
  0
LINE
  5
43F3
330
19
100
AcDbEntity
  8
0
100
AcDbLine
 10
271.1272930649567
 20
96.94342623456378
 30
0.0
 11
285.1272930649567
 21
96.94342623456378
 31
0.0
  0
LINE
  5
43F4
330
19
100
AcDbEntity
  8
0
100
AcDbLine
 10
285.6272930649567
 20
97.44342623456377
 30
0.0
 11
285.6272930649563
 21
192.4434262345638
 31
0.0
  0
LINE
  5
43F5
330
19
100
AcDbEntity
  8
0
100
AcDbLine
 10
355.6272930649567
 20
115.4434262345638
 30
0.0
 11
355.6272930649563
 21
174.4434262345639
 31
0.0
  0
LINE
  5
43F8
330
19
100
AcDbEntity
  8
0
100
AcDbLine
 10
285.1272930649567
 20
96.94342623456378
 30
0.0
 11
285.6272930649567
 21
97.44342623456377
 31
0.0
  0
LINE
  5
43F9
330
19
100
AcDbEntity
  8
0
100
AcDbLine
 10
285.1272930649563
 20
192.9434262345638
 30
0.0
 11
285.6272930649563
 21
192.4434262345638
 31
0.0
  0
LINE
  5
43FA
330
19
100
AcDbEntity
  8
0
100
AcDbLine
 10
270.6272930649562
 20
192.4434262345638
 30
0.0
 11
271.1272930649562
 21
192.9434262345638
 31
0.0
  0
LINE
  5
43FB
330
19
100
AcDbEntity
  8
0
100
AcDbLine
 10
285.1272930649563
 20
192.9434262345638
 30
0.0
 11
285.1272930649567
 21
96.94342623456378
 31
0.0
  0
LINE
  5
43FC
330
19
100
AcDbEntity
  8
0
100
AcDbLine
 10
270.6272930649567
 20
97.44342623456379
 30
0.0
 11
271.1272930649567
 21
96.94342623456378
 31
0.0
  0
LINE
  5
43FD
330
19
100
AcDbEntity
  8
0
100
AcDbLine
 10
355.1272930649564
 20
174.9434262345639
 30
0.0
 11
355.6272930649563
 21
174.4434262345639
 31
0.0
  0
LINE
  5
43FE
330
19
100
AcDbEntity
  8
0
100
AcDbLine
 10
355.1272930649567
 20
114.9434262345638
 30
0.0
 11
355.6272930649567
 21
115.4434262345638
 31
0.0
  0
LINE
  5
43FF
330
19
100
AcDbEntity
  8
0
100
AcDbLine
 10
355.1272930649564
 20
174.9434262345639
 30
0.0
 11
355.1272930649567
 21
114.9434262345638
 31
0.0
  0
DIMENSION
  5
4401
330
19
100
AcDbEntity
  8
0
100
AcDbDimension
  2
*D29
 10
422.3846457648004
 20
157.2434262345638
 30
0.0
 11
418.6346457648005
 21
144.9434262345638
 31
0.0
 70
    32
  1
%%c24.6
 71
     5
 42
24.59999999999997
  3
STANDARD
100
AcDbAlignedDimension
 13
405.0602951230652
 23
132.6434262345637
 33
0.0
 14
405.0602951230652
 24
157.2434262345638
 34
0.0
 50
90.0
100
AcDbRotatedDimension
1001
ACAD
1000
DSTYLE
1002
{
1070
    40
1040
1.5
1070
    41
1040
2.5
1070
    42
1040
0.8
1070
    43
1040
0.8
1070
    44
1040
0.8
1070
    73
1070
     0
1070
    74
1070
     0
1070
    77
1070
     3
1070
    78
1070
     8
1070
   141
1040
-1.0
1070
   147
1040
1.0
1070
   172
1070
     1
1070
   176
1070
   115
1070
   177
1070
   115
1070
   178
1070
     7
1070
   271
1070
     3
1002
}
  0
DIMENSION
  5
440E
330
19
100
AcDbEntity
  8
0
100
AcDbDimension
  2
*D30
 10
285.6272930649567
 20
85.48493430433586
 30
0.0
 11
278.1272930649568
 21
89.23493430433586
 31
0.0
 70
    32
 71
     5
 42
15.0
  3
STANDARD
100
AcDbAlignedDimension
 13
270.6272930649567
 23
97.44342623456379
 33
0.0
 14
285.6272930649567
 24
97.44342623456377
 34
0.0
100
AcDbRotatedDimension
1001
ACAD
1000
DSTYLE
1002
{
1070
    40
1040
1.5
1070
    41
1040
2.5
1070
    42
1040
0.8
1070
    43
1040
0.8
1070
    44
1040
0.8
1070
    73
1070
     0
1070
    74
1070
     0
1070
    77
1070
     3
1070
    78
1070
     8
1070
   141
1040
-1.0
1070
   147
1040
1.0
1070
   172
1070
     1
1070
   176
1070
   115
1070
   177
1070
   115
1070
   178
1070
     7
1070
   271
1070
     3
1002
}
  0
DIMENSION
  5
441B
330
19
100
AcDbEntity
  8
0
100
AcDbDimension
  2
*D31
 10
355.6272930649567
 20
85.48493430433586
 30
0.0
 11
320.6272930649567
 21
89.23493430433586
 31
0.0
 70
    32
 71
     5
 42
69.99999999999992
  3
STANDARD
100
AcDbAlignedDimension
 13
285.6272930649567
 23
97.44342623456377
 33
0.0
 14
355.6272930649567
 24
115.4434262345638
 34
0.0
100
AcDbRotatedDimension
1001
ACAD
1000
DSTYLE
1002
{
1070
    40
1040
1.5
1070
    41
1040
2.5
1070
    42
1040
0.8
1070
    43
1040
0.8
1070
    44
1040
0.8
1070
    73
1070
     0
1070
    74
1070
     0
1070
    77
1070
     3
1070
    78
1070
     8
1070
   141
1040
-1.0
1070
   147
1040
1.0
1070
   172
1070
     1
1070
   176
1070
   115
1070
   177
1070
   115
1070
   178
1070
     7
1070
   271
1070
     3
1002
}
  0
DIMENSION
  5
4428
330
19
100
AcDbEntity
  8
0
100
AcDbDimension
  2
*D32
 10
355.6272930649567
 20
76.59586196892878
 30
0.0
 11
313.1272930649567
 21
80.34586196892879
 31
0.0
 70
    32
 71
     5
 42
84.99999999999992
  3
STANDARD
100
AcDbAlignedDimension
 13
270.6272930649567
 23
84.28493430433588
 33
0.0
 14
355.6272930649567
 24
84.28493430433588
 34
0.0
100
AcDbRotatedDimension
1001
ACAD
1000
DSTYLE
1002
{
1070
    40
1040
1.5
1070
    41
1040
2.5
1070
    42
1040
0.8
1070
    43
1040
0.8
1070
    44
1040
0.8
1070
    73
1070
     0
1070
    74
1070
     0
1070
    77
1070
     3
1070
    78
1070
     8
1070
   141
1040
-1.0
1070
   147
1040
1.0
1070
   172
1070
     1
1070
   176
1070
   115
1070
   177
1070
   115
1070
   178
1070
     7
1070
   271
1070
     3
1002
}
  0
DIMENSION
  5
4435
330
19
100
AcDbEntity
  8
0
100
AcDbDimension
  2
*D33
 10
371.7113917185855
 20
174.9434262345639
 30
0.0
 11
367.2113917185853
 21
144.9434262345639
 31
0.0
 70
    32
  1
%%c60g6
 71
     5
 42
60.0000000000001
  3
STANDARD
100
AcDbAlignedDimension
 13
355.1272930649567
 23
114.9434262345638
 33
0.0
 14
355.1272930649564
 24
174.9434262345639
 34
0.0
 50
90.0
100
AcDbRotatedDimension
1001
ACAD
1000
DSTYLE
1002
{
1070
    40
1040
1.5
1070
    41
1040
2.5
1070
    42
1040
0.8
1070
    43
1040
0.8
1070
    44
1040
0.8
1070
    73
1070
     0
1070
    74
1070
     0
1070
    77
1070
     3
1070
    78
1070
     8
1070
   141
1040
-1.0
1070
   147
1040
1.0
1070
   172
1070
     1
1070
   176
1070
   115
1070
   177
1070
   115
1070
   178
1070
     7
1070
   271
1070
     3
1002
}
  0
DIMENSION
  5
4442
330
19
100
AcDbEntity
  8
0
100
AcDbDimension
  2
*D34
 10
262.4685980582299
 20
192.9434262345638
 30
0.0
 11
258.7185980582298
 21
144.9434262345638
 31
0.0
 70
    32
  1
%%c96
 71
     5
 42
96.0
  3
STANDARD
100
AcDbAlignedDimension
 13
271.1272930649567
 23
96.94342623456378
 33
0.0
 14
271.1272930649562
 24
192.9434262345638
 34
0.0
 50
90.0
100
AcDbRotatedDimension
1001
ACAD
1000
DSTYLE
1002
{
1070
    40
1040
1.5
1070
    41
1040
2.5
1070
    42
1040
0.8
1070
    43
1040
0.8
1070
    44
1040
0.8
1070
    73
1070
     0
1070
    74
1070
     0
1070
    77
1070
     3
1070
    78
1070
     8
1070
   141
1040
-1.0
1070
   147
1040
1.0
1070
   172
1070
     1
1070
   176
1070
   115
1070
   177
1070
   115
1070
   178
1070
     7
1070
   271
1070
     3
1002
}
  0
CIRCLE
  5
446B
330
19
100
AcDbEntity
  8
2
100
AcDbCircle
 10
114.6803064313146
 20
144.9434252345638
 30
0.0
 40
30.0
  0
CIRCLE
  5
446C
330
19
100
AcDbEntity
  8
1
100
AcDbCircle
 10
114.6803064313146
 20
144.9434252345638
 30
0.0
 40
39.0
  0
ARC
  5
446D
330
19
100
AcDbEntity
  8
0
100
AcDbCircle
 10
114.680315373859
 20
144.9434192345638
 30
0.0
 40
48.0
100
AcDbArc
 50
41.40962265066499
 51
138.5903778907292
  0
ARC
  5
446E
330
19
100
AcDbEntity
  8
0
100
AcDbCircle
 10
114.680315373859
 20
144.9434192345638
 30
0.0
 40
48.0
100
AcDbArc
 50
221.4096221092709
 51
318.590377349335
  0
LINE
  5
446F
330
19
100
AcDbEntity
  8
0
100
AcDbLine
 10
78.68031537385896
 20
176.6924349673388
 30
0.0
 11
78.68031537385906
 21
113.1944035017886
 31
0.0
  0
LINE
  5
4470
330
19
100
AcDbEntity
  8
0
100
AcDbLine
 10
150.680315073859
 20
176.6924353075068
 30
0.0
 11
150.680315073859
 21
113.1944031616207
 31
0.0
  0
ARC
  5
4472
330
19
100
AcDbEntity
  8
0
100
AcDbCircle
 10
114.680315373859
 20
144.9434192345638
 30
0.0
 40
47.5
100
AcDbArc
 50
40.72104814688435
 51
139.2789524078072
  0
ARC
  5
4473
330
19
100
AcDbEntity
  8
0
100
AcDbCircle
 10
114.680315373859
 20
144.9434192345638
 30
0.0
 40
47.5
100
AcDbArc
 50
220.7210475921927
 51
319.2789518531157
  0
CIRCLE
  5
4474
330
19
100
AcDbEntity
  8
0
100
AcDbCircle
 10
95.18031360200929
 20
178.7184201221583
 30
0.0
 40
4.5
  0
CIRCLE
  5
4475
330
19
100
AcDbEntity
  8
0
100
AcDbCircle
 10
134.1803130792962
 20
178.718412143942
 30
0.0
 40
4.5
  0
CIRCLE
  5
4476
330
19
100
AcDbEntity
  8
0
100
AcDbCircle
 10
134.1803147447181
 20
111.1684392867178
 30
0.0
 40
4.5
  0
CIRCLE
  5
4477
330
19
100
AcDbEntity
  8
0
100
AcDbCircle
 10
95.18031193658638
 20
111.1684313085011
 30
0.0
 40
4.5
  0
LEADER
  5
447F
330
19
100
AcDbEntity
  8
0
100
AcDbLeader
  3
STANDARD
 73
     0
 74
     0
 75
     1
 40
4.5
 41
16.7142857142857
 76
     3
 10
137.7870734240334
 20
181.5648645592005
 30
0.0
 10
153.7399629652957
 20
200.1768065017276
 30
0.0
 10
157.4899629652957
 20
200.1768065017276
 30
0.0
340
4480
1001
ACAD
1000
DSTYLE
1002
{
1070
    40
1040
1.5
1070
    41
1040
2.5
1070
    42
1040
0.8
1070
    43
1040
0.8
1070
    44
1040
0.8
1070
    73
1070
     0
1070
    74
1070
     0
1070
    77
1070
     1
1070
    78
1070
     8
1070
   141
1040
-1.0
1070
   147
1040
1.0
1070
   172
1070
     1
1070
   176
1070
   115
1070
   177
1070
   115
1070
   178
1070
     7
1070
   271
1070
     3
1002
}
  0
MTEXT
  5
4480
102
{ACAD_REACTORS
330
447F
102
}
330
19
100
AcDbEntity
  8
0
 62
     7
100
AcDbMText
 10
158.9899629652957
 20
201.6768065017276
 30
0.0
 40
4.5
 41
0.0
 71
     7
 72
     1
  1
4-%%c9
 73
     1
 44
1.0
1001
ACAD
1000
MTEXTBEGIN
1070
    73
1070
     1
1070
    44
1040
1.0
1070
    74
1070
     0
1000
MTEXTEND
  0
DIMENSION
  5
4481
330
19
100
AcDbEntity
  8
0
100
AcDbDimension
  2
*D35
 10
98.6803123409833
 20
117.2306089015135
 30
0.0
 11
114.6803156027315
 21
87.60764616853025
 31
0.0
 70
    34
 71
     5
 42
1.047197677942153
  3
STANDARD
100
AcDb2LineAngularDimension
 13
137.6803151086753
 23
105.1062616703575
 33
0.0
 14
130.6803143807609
 24
117.230616903078
 34
0.0
 15
91.68031153218947
 25
105.1062537154887
 35
0.0
 16
104.0728804016428
 26
84.78567664516267
 36
0.0
1001
ACAD
1000
DSTYLE
1002
{
1070
    40
1040
1.5
1070
    41
1040
2.5
1070
    42
1040
0.8
1070
    43
1040
0.8
1070
    44
1040
0.8
1070
    73
1070
     0
1070
    74
1070
     0
1070
    77
1070
     3
1070
    78
1070
     8
1070
   141
1040
-1.0
1070
   147
1040
1.0
1070
   172
1070
     1
1070
   176
1070
   115
1070
   177
1070
   115
1070
   178
1070
     7
1070
   271
1070
     3
1002
}
  0
DIMENSION
  5
4490
330
19
100
AcDbEntity
  8
0
100
AcDbDimension
  2
*D36
 10
150.680315073859
 20
72.7985106999835
 30
0.0
 11
114.680315223859
 21
76.5485106999835
 31
0.0
 70
    32
 71
     5
 42
71.99999969999997
  3
STANDARD
100
AcDbAlignedDimension
 13
78.68031537385906
 23
113.1944035017886
 33
0.0
 14
150.680315073859
 24
113.1944031616207
 34
0.0
100
AcDbRotatedDimension
1001
ACAD
1000
DSTYLE
1002
{
1070
    40
1040
1.5
1070
    41
1040
2.5
1070
    42
1040
0.8
1070
    43
1040
0.8
1070
    44
1040
0.8
1070
    73
1070
     0
1070
    74
1070
     0
1070
    77
1070
     3
1070
    78
1070
     8
1070
   141
1040
-1.0
1070
   147
1040
1.0
1070
   172
1070
     1
1070
   176
1070
   115
1070
   177
1070
   115
1070
   178
1070
     7
1070
   271
1070
     3
1002
}
  0
DIMENSION
  5
449D
330
19
100
AcDbEntity
  8
0
100
AcDbDimension
  2
*D37
 10
82.31025043295819
 20
166.6961141410707
 30
0.0
 11
169.2118598454216
 21
108.2982023450555
 31
0.0
 70
   163
  1
P,C,D 78
 71
     5
 42
78.00000000000003
  3
STANDARD
100
AcDbDiametricDimension
 15
147.050362429671
 25
123.1907363280568
 35
0.0
 40
0.0
1001
ACAD
1000
DSTYLE
1002
{
1070
    40
1040
1.5
1070
    41
1040
2.5
1070
    42
1040
0.8
1070
    43
1040
0.8
1070
    44
1040
0.8
1070
    73
1070
     0
1070
    74
1070
     0
1070
    77
1070
     3
1070
    78
1070
     8
1070
   141
1040
-1.0
1070
   147
1040
1.0
1070
   172
1070
     1
1070
   176
1070
   115
1070
   177
1070
   115
1070
   178
1070
     7
1070
   271
1070
     3
1070
   288
1070
     1
1002
}
  0
ENDSEC
  0
SECTION
  2
OBJECTS
  0
DICTIONARY
  5
C
330
0
100
AcDbDictionary
281
     1
  3
ACAD_COLOR
350
44AD
  3
ACAD_GROUP
350
D
  3
ACAD_LAYOUT
350
4155
  3
ACAD_MATERIAL
350
44AC
  3
ACAD_MLEADERSTYLE
350
451C
  3
ACAD_MLINESTYLE
350
E
  3
ACAD_PLOTSETTINGS
350
4156
  3
ACAD_PLOTSTYLENAME
350
4153
  3
ACAD_SCALELIST
350
44FA
  3
ACAD_TABLESTYLE
350
44AE
  3
ACAD_VISUALSTYLE
350
44E9
  3
ACDB_RECOMPOSE_DATA
350
4542
  3
ACDBVARIABLEDICTIONARY
350
1BF
  3
DWGPROPS
350
4543
  0
DICTIONARY
  5
452B
330
F
100
AcDbDictionary
280
     1
281
     1
  3
ADSK_XREC_LAYER_RECONCILED
360
452C
  0
DICTIONARY
  5
452D
330
55
100
AcDbDictionary
280
     1
281
     1
  3
ADSK_XREC_LAYER_RECONCILED
360
452E
  0
DICTIONARY
  5
452F
330
61
100
AcDbDictionary
280
     1
281
     1
  3
ADSK_XREC_LAYER_RECONCILED
360
4530
  0
DICTIONARY
  5
4531
330
62
100
AcDbDictionary
280
     1
281
     1
  3
ADSK_XREC_LAYER_RECONCILED
360
4532
  0
DICTIONARY
  5
4533
330
2AD3
100
AcDbDictionary
280
     1
281
     1
  3
ADSK_XREC_LAYER_RECONCILED
360
4534
  0
DICTIONARY
  5
454A
330
4488
100
AcDbDictionary
280
     1
281
     1
  3
ACAD_MTEXT_RT
360
454B
  0
DICTIONARY
  5
44AD
102
{ACAD_REACTORS
330
C
102
}
330
C
100
AcDbDictionary
281
     1
  0
DICTIONARY
  5
D
102
{ACAD_REACTORS
330
C
102
}
330
C
100
AcDbDictionary
281
     1
  3
*A1
350
3315
  3
*A2
350
3935
  0
DICTIONARY
  5
4155
102
{ACAD_REACTORS
330
C
102
}
330
C
100
AcDbDictionary
281
     1
  3
Model
350
4157
  3
배치1
350
4158
  0
DICTIONARY
  5
44AC
102
{ACAD_REACTORS
330
C
102
}
330
C
100
AcDbDictionary
281
     1
  3
ByBlock
350
44D9
  3
ByLayer
350
44D1
  3
Global
350
44E1
  0
DICTIONARY
  5
451C
102
{ACAD_REACTORS
330
C
102
}
330
C
100
AcDbDictionary
281
     1
  3
Standard
350
451D
  0
DICTIONARY
  5
E
102
{ACAD_REACTORS
330
C
102
}
330
C
100
AcDbDictionary
281
     1
  3
STANDARD
350
1C
  0
DICTIONARY
  5
4156
102
{ACAD_REACTORS
330
C
102
}
330
C
100
AcDbDictionary
281
     1
  0
ACDBDICTIONARYWDFLT
  5
4153
102
{ACAD_REACTORS
330
C
102
}
330
C
100
AcDbDictionary
281
     1
  3
Normal
350
4154
100
AcDbDictionaryWithDefault
340
4154
  0
DICTIONARY
  5
44FA
102
{ACAD_REACTORS
330
C
102
}
330
C
100
AcDbDictionary
281
     1
  3
A0
350
44FB
  3
A1
350
44FC
  3
A2
350
44FD
  3
A3
350
44FE
  3
A4
350
44FF
  3
A5
350
4500
  3
A6
350
4501
  3
A7
350
4502
  3
A8
350
4503
  3
A9
350
4504
  3
B0
350
4505
  3
B1
350
4506
  3
B2
350
4507
  3
B3
350
4508
  3
B4
350
4509
  3
B5
350
450A
  3
B6
350
450B
  3
B7
350
450C
  3
B8
350
450D
  3
B9
350
450E
  3
C0
350
450F
  3
C1
350
4510
  3
C2
350
4511
  3
C3
350
4512
  3
C4
350
4513
  3
C5
350
4514
  3
C6
350
4515
  3
C7
350
4516
  3
C8
350
4517
  3
C9
350
4518
  3
D0
350
4519
  3
D1
350
451A
  3
D2
350
451B
  0
DICTIONARY
  5
44AE
102
{ACAD_REACTORS
330
C
102
}
330
C
100
AcDbDictionary
281
     1
  3
Standard
350
44AF
  0
DICTIONARY
  5
44E9
102
{ACAD_REACTORS
330
C
102
}
330
C
100
AcDbDictionary
281
     1
  3
2dWireframe
350
44EF
  3
3D Hidden
350
44F1
  3
3dWireframe
350
44F0
  3
Basic
350
44EE
  3
Brighten
350
44F5
  3
ColorChange
350
44F9
  3
Conceptual
350
44F2
  3
Dim
350
44F4
  3
Facepattern
350
44F8
  3
Flat
350
44EA
  3
FlatWithEdges
350
44EB
  3
Gouraud
350
44EC
  3
GouraudWithEdges
350
44ED
  3
Linepattern
350
44F7
  3
Realistic
350
44F3
  3
Thicken
350
44F6
  0
XRECORD
  5
4542
102
{ACAD_REACTORS
330
C
102
}
330
C
100
AcDbXrecord
280
     1
 90
        1
330
44AF
  0
DICTIONARY
  5
1BF
102
{ACAD_REACTORS
330
C
102
}
330
C
100
AcDbDictionary
281
     1
  3
CANNOSCALE
350
453E
  3
CMLEADERSTYLE
350
453D
  3
CTABLESTYLE
350
44C3
  3
DIMASSOC
350
4169
  3
INDEXCTL
350
453F
  3
PROJECTNAME
350
44C4
  3
SORTENTS
350
1C0
  0
XRECORD
  5
4543
102
{ACAD_REACTORS
330
C
102
}
330
C
100
AcDbXrecord
280
     1
  1
DWGPROPS COOKIE
  2

  3

  4

  6

  7

  8
양순영
  9

300
=
301
=
302
=
303
=
304
=
305
=
306
=
307
=
308
=
309
=
 40
0.3999652430555555
 41
2452464.575009942
 42
2455643.495769352
  1

 90
        0
  0
XRECORD
  5
452C
102
{ACAD_REACTORS
330
452B
102
}
330
452B
100
AcDbXrecord
280
     1
290
     1
  0
XRECORD
  5
452E
102
{ACAD_REACTORS
330
452D
102
}
330
452D
100
AcDbXrecord
280
     1
290
     1
  0
XRECORD
  5
4530
102
{ACAD_REACTORS
330
452F
102
}
330
452F
100
AcDbXrecord
280
     1
290
     1
  0
XRECORD
  5
4532
102
{ACAD_REACTORS
330
4531
102
}
330
4531
100
AcDbXrecord
280
     1
290
     1
  0
XRECORD
  5
4534
102
{ACAD_REACTORS
330
4533
102
}
330
4533
100
AcDbXrecord
280
     1
290
     1
  0
XRECORD
  5
454B
102
{ACAD_REACTORS
330
454A
102
}
330
454A
100
AcDbXrecord
280
     1
 40
5298.0
  1
\A1;60°
  0
GROUP
  5
3315
102
{ACAD_REACTORS
330
D
102
}
330
D
100
AcDbGroup
300
Ball Screw  BNFN2010-1.5+300L
 70
     1
 71
     1
  0
GROUP
  5
3935
102
{ACAD_REACTORS
330
D
102
}
330
D
100
AcDbGroup
300
Ball Screw  BNFN2010-1.5+300L
 70
     1
 71
     1
  0
LAYOUT
  5
4157
102
{ACAD_XDICTIONARY
360
4546
102
}
102
{ACAD_REACTORS
330
4155
102
}
330
4155
100
AcDbPlotSettings
  1

  2
SBC-SERVER에서 자동 HP LaserJet 4V
  4
A4
  6

 40
6.805083274841307
 41
5.069413185119628
 42
6.805084228515625
 43
5.027069091796875
 44
209.9733276367186
 45
296.9683227539062
 46
0.0
 47
0.0
 48
0.0
 49
0.0
140
0.0
141
0.0
142
1.0
143
1.0
 70
 11952
 72
     0
 73
     1
 74
     0
  7
1.ctb
 75
     0
147
1.0
148
-1105.008668280591
149
-2180.822690011071
100
AcDbLayout
  1
Model
 70
     1
 71
     0
 10
0.0
 20
0.0
 11
12.0
 21
9.0
 12
0.0
 22
0.0
 32
0.0
 14
0.0
 24
0.0
 34
0.0
 15
0.0
 25
0.0
 35
0.0
146
0.0
 13
0.0
 23
0.0
 33
0.0
 16
1.0
 26
0.0
 36
0.0
 17
0.0
 27
1.0
 37
0.0
 76
     0
330
19
331
44C5
  0
LAYOUT
  5
4158
102
{ACAD_XDICTIONARY
360
4548
102
}
102
{ACAD_REACTORS
330
4155
102
}
330
4155
100
AcDbPlotSettings
  1

  2
SBC-SERVER에서 자동 HP LaserJet 4V
  4

  6

 40
0.0
 41
0.0
 42
0.0
 43
0.0
 44
0.0
 45
0.0
 46
0.0
 47
0.0
 48
0.0
 49
0.0
140
0.0
141
0.0
142
1.0
143
1.0
 70
   688
 72
     0
 73
     0
 74
     5
  7
1.ctb
 75
    16
147
1.0
148
0.0
149
0.0
100
AcDbLayout
  1
배치1
 70
     1
 71
     1
 10
0.0
 20
0.0
 11
12.0
 21
9.0
 12
0.0
 22
0.0
 32
0.0
 14
1.000000000000000E+20
 24
1.000000000000000E+20
 34
1.000000000000000E+20
 15
-1.000000000000000E+20
 25
-1.000000000000000E+20
 35
-1.000000000000000E+20
146
0.0
 13
0.0
 23
0.0
 33
0.0
 16
1.0
 26
0.0
 36
0.0
 17
0.0
 27
1.0
 37
0.0
 76
     0
330
16
  0
MATERIAL
  5
44D9
102
{ACAD_XDICTIONARY
360
44DA
102
}
102
{ACAD_REACTORS
330
44AC
102
}
330
44AC
100
AcDbMaterial
  1
ByBlock
 72
     0
 43
0.0208333333333333
 43
0.0
 43
0.0
 43
0.0
 43
0.0
 43
0.0208333333333333
 43
0.0
 43
0.0
 43
0.0
 43
0.0
 43
1.0
 43
0.0
 43
0.0
 43
0.0
 43
0.0
 43
1.0
 77
     0
 47
0.0208333333333333
 47
0.0
 47
0.0
 47
0.0
 47
0.0
 47
0.0208333333333333
 47
0.0
 47
0.0
 47
0.0
 47
0.0
 47
1.0
 47
0.0
 47
0.0
 47
0.0
 47
0.0
 47
1.0
171
     0
 49
0.0208333333333333
 49
0.0
 49
0.0
 49
0.0
 49
0.0
 49
0.0208333333333333
 49
0.0
 49
0.0
 49
0.0
 49
0.0
 49
1.0
 49
0.0
 49
0.0
 49
0.0
 49
0.0
 49
1.0
175
     0
142
0.0208333333333333
142
0.0
142
0.0
142
0.0
142
0.0
142
0.0208333333333333
142
0.0
142
0.0
142
0.0
142
0.0
142
1.0
142
0.0
142
0.0
142
0.0
142
0.0
142
1.0
179
     0
144
0.0208333333333333
144
0.0
144
0.0
144
0.0
144
0.0
144
0.0208333333333333
144
0.0
144
0.0
144
0.0
144
0.0
144
1.0
144
0.0
144
0.0
144
0.0
144
0.0
144
1.0
147
0.0208333333333333
147
0.0
147
0.0
147
0.0
147
0.0
147
0.0208333333333333
147
0.0
147
0.0
147
0.0
147
0.0
147
1.0
147
0.0
147
0.0
147
0.0
147
0.0
147
1.0
  0
MATERIAL
  5
44D1
102
{ACAD_XDICTIONARY
360
44D2
102
}
102
{ACAD_REACTORS
330
44AC
102
}
330
44AC
100
AcDbMaterial
  1
ByLayer
 72
     0
 43
0.0208333333333333
 43
0.0
 43
0.0
 43
0.0
 43
0.0
 43
0.0208333333333333
 43
0.0
 43
0.0
 43
0.0
 43
0.0
 43
1.0
 43
0.0
 43
0.0
 43
0.0
 43
0.0
 43
1.0
 77
     0
 47
0.0208333333333333
 47
0.0
 47
0.0
 47
0.0
 47
0.0
 47
0.0208333333333333
 47
0.0
 47
0.0
 47
0.0
 47
0.0
 47
1.0
 47
0.0
 47
0.0
 47
0.0
 47
0.0
 47
1.0
171
     0
 49
0.0208333333333333
 49
0.0
 49
0.0
 49
0.0
 49
0.0
 49
0.0208333333333333
 49
0.0
 49
0.0
 49
0.0
 49
0.0
 49
1.0
 49
0.0
 49
0.0
 49
0.0
 49
0.0
 49
1.0
175
     0
142
0.0208333333333333
142
0.0
142
0.0
142
0.0
142
0.0
142
0.0208333333333333
142
0.0
142
0.0
142
0.0
142
0.0
142
1.0
142
0.0
142
0.0
142
0.0
142
0.0
142
1.0
179
     0
144
0.0208333333333333
144
0.0
144
0.0
144
0.0
144
0.0
144
0.0208333333333333
144
0.0
144
0.0
144
0.0
144
0.0
144
1.0
144
0.0
144
0.0
144
0.0
144
0.0
144
1.0
147
0.0208333333333333
147
0.0
147
0.0
147
0.0
147
0.0
147
0.0208333333333333
147
0.0
147
0.0
147
0.0
147
0.0
147
1.0
147
0.0
147
0.0
147
0.0
147
0.0
147
1.0
  0
MATERIAL
  5
44E1
102
{ACAD_XDICTIONARY
360
44E2
102
}
102
{ACAD_REACTORS
330
44AC
102
}
330
44AC
100
AcDbMaterial
  1
Global
 72
     0
 43
0.0208333333333333
 43
0.0
 43
0.0
 43
0.0
 43
0.0
 43
0.0208333333333333
 43
0.0
 43
0.0
 43
0.0
 43
0.0
 43
1.0
 43
0.0
 43
0.0
 43
0.0
 43
0.0
 43
1.0
 77
     0
 47
0.0208333333333333
 47
0.0
 47
0.0
 47
0.0
 47
0.0
 47
0.0208333333333333
 47
0.0
 47
0.0
 47
0.0
 47
0.0
 47
1.0
 47
0.0
 47
0.0
 47
0.0
 47
0.0
 47
1.0
171
     0
 49
0.0208333333333333
 49
0.0
 49
0.0
 49
0.0
 49
0.0
 49
0.0208333333333333
 49
0.0
 49
0.0
 49
0.0
 49
0.0
 49
1.0
 49
0.0
 49
0.0
 49
0.0
 49
0.0
 49
1.0
175
     0
142
0.0208333333333333
142
0.0
142
0.0
142
0.0
142
0.0
142
0.0208333333333333
142
0.0
142
0.0
142
0.0
142
0.0
142
1.0
142
0.0
142
0.0
142
0.0
142
0.0
142
1.0
179
     0
144
0.0208333333333333
144
0.0
144
0.0
144
0.0
144
0.0
144
0.0208333333333333
144
0.0
144
0.0
144
0.0
144
0.0
144
1.0
144
0.0
144
0.0
144
0.0
144
0.0
144
1.0
147
0.0208333333333333
147
0.0
147
0.0
147
0.0
147
0.0
147
0.0208333333333333
147
0.0
147
0.0
147
0.0
147
0.0
147
1.0
147
0.0
147
0.0
147
0.0
147
0.0
147
1.0
  0
MLEADERSTYLE
  5
451D
102
{ACAD_REACTORS
330
451C
102
}
330
451C
100
AcDbMLeaderStyle
170
     2
171
     1
172
     0
 90
        2
 40
0.0
 41
0.0
173
     1
 91
-1056964608
340
13
 92
       -2
290
     1
 42
0.09
291
     1
 43
0.36
  3
Standard
 44
0.18
300

342
10
174
     1
178
     6
175
     1
176
     0
 93
-1056964608
 45
0.18
292
     0
297
     0
 46
0.18
 94
-1056964608
 47
1.0
 49
1.0
140
1.0
293
     1
141
0.0
294
     1
177
     0
142
1.0
295
     0
296
     0
143
0.125
1001
ACAD_MLEADERVER
1070
     2
  0
MLINESTYLE
  5
1C
102
{ACAD_REACTORS
330
E
102
}
330
E
100
AcDbMlineStyle
  2
STANDARD
 70
     0
  3

 62
     0
 51
90.0
 52
90.0
 71
     2
 49
0.5
 62
   256
  6
BYLAYER
 49
-0.5
 62
   256
  6
BYLAYER
  0
ACDBPLACEHOLDER
  5
4154
102
{ACAD_REACTORS
330
4153
102
}
330
4153
  0
SCALE
  5
44FB
102
{ACAD_REACTORS
330
44FA
102
}
330
44FA
100
AcDbScale
 70
     0
300
1:1
140
1.0
141
1.0
290
     1
  0
SCALE
  5
44FC
102
{ACAD_REACTORS
330
44FA
102
}
330
44FA
100
AcDbScale
 70
     0
300
1:2
140
1.0
141
2.0
290
     0
  0
SCALE
  5
44FD
102
{ACAD_REACTORS
330
44FA
102
}
330
44FA
100
AcDbScale
 70
     0
300
1:4
140
1.0
141
4.0
290
     0
  0
SCALE
  5
44FE
102
{ACAD_REACTORS
330
44FA
102
}
330
44FA
100
AcDbScale
 70
     0
300
1:5
140
1.0
141
5.0
290
     0
  0
SCALE
  5
44FF
102
{ACAD_REACTORS
330
44FA
102
}
330
44FA
100
AcDbScale
 70
     0
300
1:8
140
1.0
141
8.0
290
     0
  0
SCALE
  5
4500
102
{ACAD_REACTORS
330
44FA
102
}
330
44FA
100
AcDbScale
 70
     0
300
1:10
140
1.0
141
10.0
290
     0
  0
SCALE
  5
4501
102
{ACAD_REACTORS
330
44FA
102
}
330
44FA
100
AcDbScale
 70
     0
300
1:16
140
1.0
141
16.0
290
     0
  0
SCALE
  5
4502
102
{ACAD_REACTORS
330
44FA
102
}
330
44FA
100
AcDbScale
 70
     0
300
1:20
140
1.0
141
20.0
290
     0
  0
SCALE
  5
4503
102
{ACAD_REACTORS
330
44FA
102
}
330
44FA
100
AcDbScale
 70
     0
300
1:30
140
1.0
141
30.0
290
     0
  0
SCALE
  5
4504
102
{ACAD_REACTORS
330
44FA
102
}
330
44FA
100
AcDbScale
 70
     0
300
1:40
140
1.0
141
40.0
290
     0
  0
SCALE
  5
4505
102
{ACAD_REACTORS
330
44FA
102
}
330
44FA
100
AcDbScale
 70
     0
300
1:50
140
1.0
141
50.0
290
     0
  0
SCALE
  5
4506
102
{ACAD_REACTORS
330
44FA
102
}
330
44FA
100
AcDbScale
 70
     0
300
1:100
140
1.0
141
100.0
290
     0
  0
SCALE
  5
4507
102
{ACAD_REACTORS
330
44FA
102
}
330
44FA
100
AcDbScale
 70
     0
300
2:1
140
2.0
141
1.0
290
     0
  0
SCALE
  5
4508
102
{ACAD_REACTORS
330
44FA
102
}
330
44FA
100
AcDbScale
 70
     0
300
4:1
140
4.0
141
1.0
290
     0
  0
SCALE
  5
4509
102
{ACAD_REACTORS
330
44FA
102
}
330
44FA
100
AcDbScale
 70
     0
300
8:1
140
8.0
141
1.0
290
     0
  0
SCALE
  5
450A
102
{ACAD_REACTORS
330
44FA
102
}
330
44FA
100
AcDbScale
 70
     0
300
10:1
140
10.0
141
1.0
290
     0
  0
SCALE
  5
450B
102
{ACAD_REACTORS
330
44FA
102
}
330
44FA
100
AcDbScale
 70
     0
300
100:1
140
100.0
141
1.0
290
     0
  0
SCALE
  5
450C
102
{ACAD_REACTORS
330
44FA
102
}
330
44FA
100
AcDbScale
 70
     0
300
1/128" = 1'-0"
140
0.0078125
141
12.0
290
     0
  0
SCALE
  5
450D
102
{ACAD_REACTORS
330
44FA
102
}
330
44FA
100
AcDbScale
 70
     0
300
1/64" = 1'-0"
140
0.015625
141
12.0
290
     0
  0
SCALE
  5
450E
102
{ACAD_REACTORS
330
44FA
102
}
330
44FA
100
AcDbScale
 70
     0
300
1/32" = 1'-0"
140
0.03125
141
12.0
290
     0
  0
SCALE
  5
450F
102
{ACAD_REACTORS
330
44FA
102
}
330
44FA
100
AcDbScale
 70
     0
300
1/16" = 1'-0"
140
0.0625
141
12.0
290
     0
  0
SCALE
  5
4510
102
{ACAD_REACTORS
330
44FA
102
}
330
44FA
100
AcDbScale
 70
     0
300
3/32" = 1'-0"
140
0.09375
141
12.0
290
     0
  0
SCALE
  5
4511
102
{ACAD_REACTORS
330
44FA
102
}
330
44FA
100
AcDbScale
 70
     0
300
1/8" = 1'-0"
140
0.125
141
12.0
290
     0
  0
SCALE
  5
4512
102
{ACAD_REACTORS
330
44FA
102
}
330
44FA
100
AcDbScale
 70
     0
300
3/16" = 1'-0"
140
0.1875
141
12.0
290
     0
  0
SCALE
  5
4513
102
{ACAD_REACTORS
330
44FA
102
}
330
44FA
100
AcDbScale
 70
     0
300
1/4" = 1'-0"
140
0.25
141
12.0
290
     0
  0
SCALE
  5
4514
102
{ACAD_REACTORS
330
44FA
102
}
330
44FA
100
AcDbScale
 70
     0
300
3/8" = 1'-0"
140
0.375
141
12.0
290
     0
  0
SCALE
  5
4515
102
{ACAD_REACTORS
330
44FA
102
}
330
44FA
100
AcDbScale
 70
     0
300
1/2" = 1'-0"
140
0.5
141
12.0
290
     0
  0
SCALE
  5
4516
102
{ACAD_REACTORS
330
44FA
102
}
330
44FA
100
AcDbScale
 70
     0
300
3/4" = 1'-0"
140
0.75
141
12.0
290
     0
  0
SCALE
  5
4517
102
{ACAD_REACTORS
330
44FA
102
}
330
44FA
100
AcDbScale
 70
     0
300
1" = 1'-0"
140
1.0
141
12.0
290
     0
  0
SCALE
  5
4518
102
{ACAD_REACTORS
330
44FA
102
}
330
44FA
100
AcDbScale
 70
     0
300
1-1/2" = 1'-0"
140
1.5
141
12.0
290
     0
  0
SCALE
  5
4519
102
{ACAD_REACTORS
330
44FA
102
}
330
44FA
100
AcDbScale
 70
     0
300
3" = 1'-0"
140
3.0
141
12.0
290
     0
  0
SCALE
  5
451A
102
{ACAD_REACTORS
330
44FA
102
}
330
44FA
100
AcDbScale
 70
     0
300
6" = 1'-0"
140
6.0
141
12.0
290
     0
  0
SCALE
  5
451B
102
{ACAD_REACTORS
330
44FA
102
}
330
44FA
100
AcDbScale
 70
     0
300
1'-0" = 1'-0"
140
12.0
141
12.0
290
     0
  0
TABLESTYLE
  5
44AF
102
{ACAD_XDICTIONARY
360
4540
102
}
102
{ACAD_REACTORS
330
44AE
102
}
330
44AE
100
AcDbTableStyle
  3
Standard
 70
     0
 71
     0
 40
0.06
 41
0.06
280
     0
281
     0
  7
STANDARD
140
0.18
170
     2
 62
     0
 63
     7
283
     0
274
    -2
284
     1
 64
     0
275
    -2
285
     1
 65
     0
276
    -2
286
     1
 66
     0
277
    -2
287
     1
 67
     0
278
    -2
288
     1
 68
     0
279
    -2
289
     1
 69
     0
  7
STANDARD
140
0.25
170
     5
 62
     0
 63
     7
283
     0
274
    -2
284
     1
 64
     0
275
    -2
285
     1
 65
     0
276
    -2
286
     1
 66
     0
277
    -2
287
     1
 67
     0
278
    -2
288
     1
 68
     0
279
    -2
289
     1
 69
     0
  7
STANDARD
140
0.18
170
     5
 62
     0
 63
     7
283
     0
274
    -2
284
     1
 64
     0
275
    -2
285
     1
 65
     0
276
    -2
286
     1
 66
     0
277
    -2
287
     1
 67
     0
278
    -2
288
     1
 68
     0
279
    -2
289
     1
 69
     0
  0
VISUALSTYLE
  5
44EF
102
{ACAD_REACTORS
330
44E9
102
}
330
44E9
100
AcDbVisualStyle
  2
2dWireframe
 70
     4
 71
     0
 72
     2
 73
     0
 90
        0
 40
-0.6
 41
-30.0
 62
     5
 63
     7
 74
     1
 91
        4
 64
     7
 65
   257
 75
     1
175
     1
 42
1.0
 92
        0
 66
   257
 43
1.0
 76
     1
 77
     6
 78
     2
 67
     7
 79
     5
170
     0
171
     0
290
     0
174
     0
 93
        1
 44
0.0
173
     0
291
     0
 45
0.0
1001
ACAD
1000
AcDbSavedByObjectVersion
1070
     0
  0
VISUALSTYLE
  5
44F1
102
{ACAD_REACTORS
330
44E9
102
}
330
44E9
100
AcDbVisualStyle
  2
3D Hidden
 70
     6
 71
     1
 72
     2
 73
     2
 90
        0
 40
-0.6
 41
-30.0
 62
     5
 63
     7
 74
     2
 91
        2
 64
     7
 65
   257
 75
     2
175
     1
 42
40.0
 92
        0
 66
   257
 43
1.0
 76
     1
 77
     6
 78
     2
 67
     7
 79
     3
170
     0
171
     0
290
     0
174
     0
 93
        1
 44
0.0
173
     0
291
     0
 45
0.0
1001
ACAD
1000
AcDbSavedByObjectVersion
1070
     0
  0
VISUALSTYLE
  5
44F0
102
{ACAD_REACTORS
330
44E9
102
}
330
44E9
100
AcDbVisualStyle
  2
3dWireframe
 70
     5
 71
     0
 72
     2
 73
     0
 90
        0
 40
-0.6
 41
-30.0
 62
     5
 63
     7
 74
     1
 91
        4
 64
     7
 65
   257
 75
     1
175
     1
 42
1.0
 92
        0
 66
   257
 43
1.0
 76
     1
 77
     6
 78
     2
 67
     7
 79
     5
170
     0
171
     0
290
     0
174
     0
 93
        1
 44
0.0
173
     0
291
     0
 45
0.0
1001
ACAD
1000
AcDbSavedByObjectVersion
1070
     0
  0
VISUALSTYLE
  5
44EE
102
{ACAD_REACTORS
330
44E9
102
}
330
44E9
100
AcDbVisualStyle
  2
Basic
 70
     7
 71
     1
 72
     0
 73
     1
 90
        0
 40
-0.6
 41
-30.0
 62
     5
 63
     7
 74
     0
 91
        4
 64
     7
 65
   257
 75
     1
175
     1
 42
1.0
 92
        8
 66
     7
 43
1.0
 76
     1
 77
     6
 78
     2
 67
     7
 79
     5
170
     0
171
     0
290
     0
174
     0
 93
        1
 44
0.0
173
     0
291
     1
 45
0.0
1001
ACAD
1000
AcDbSavedByObjectVersion
1070
     0
  0
VISUALSTYLE
  5
44F5
102
{ACAD_REACTORS
330
44E9
102
}
330
44E9
100
AcDbVisualStyle
  2
Brighten
 70
    12
 71
     2
 72
     2
 73
     0
 90
        0
 40
-0.6
 41
-30.0
 62
     5
 63
     7
 74
     1
 91
        4
 64
     7
 65
   257
 75
     1
175
     1
 42
1.0
 92
        8
 66
     7
 43
1.0
 76
     1
 77
     6
 78
     2
 67
     7
 79
     5
170
     0
171
     0
290
     0
174
     0
 93
        1
 44
50.0
173
     0
291
     1
 45
0.0
1001
ACAD
1000
AcDbSavedByObjectVersion
1070
     0
  0
VISUALSTYLE
  5
44F9
102
{ACAD_REACTORS
330
44E9
102
}
330
44E9
100
AcDbVisualStyle
  2
ColorChange
 70
    16
 71
     2
 72
     2
 73
     3
 90
        0
 40
-0.6
 41
-30.0
 62
     5
 63
     8
 74
     1
 91
        4
 64
     7
 65
   257
 75
     1
175
     1
 42
1.0
 92
        8
 66
     8
 43
1.0
 76
     1
 77
     6
 78
     2
 67
     7
 79
     5
170
     0
171
     0
290
     0
174
     0
 93
        1
 44
0.0
173
     0
291
     1
 45
0.0
1001
ACAD
1000
AcDbSavedByObjectVersion
1070
     0
  0
VISUALSTYLE
  5
44F2
102
{ACAD_REACTORS
330
44E9
102
}
330
44E9
100
AcDbVisualStyle
  2
Conceptual
 70
     9
 71
     3
 72
     2
 73
     0
 90
        0
 40
-0.6
 41
-30.0
 62
     5
 63
     7
 74
     2
 91
        2
 64
     7
 65
   257
 75
     1
175
     1
 42
40.0
 92
        8
 66
     7
 43
1.0
 76
     1
 77
     6
 78
     2
 67
     7
 79
     3
170
     0
171
     0
290
     0
174
     0
 93
        1
 44
0.0
173
     0
291
     0
 45
0.0
1001
ACAD
1000
AcDbSavedByObjectVersion
1070
     0
  0
VISUALSTYLE
  5
44F4
102
{ACAD_REACTORS
330
44E9
102
}
330
44E9
100
AcDbVisualStyle
  2
Dim
 70
    11
 71
     2
 72
     2
 73
     0
 90
        0
 40
-0.6
 41
-30.0
 62
     5
 63
     7
 74
     1
 91
        4
 64
     7
 65
   257
 75
     1
175
     1
 42
1.0
 92
        8
 66
     7
 43
1.0
 76
     1
 77
     6
 78
     2
 67
     7
 79
     5
170
     0
171
     0
290
     0
174
     0
 93
        1
 44
-50.0
173
     0
291
     1
 45
0.0
1001
ACAD
1000
AcDbSavedByObjectVersion
1070
     0
  0
VISUALSTYLE
  5
44F8
102
{ACAD_REACTORS
330
44E9
102
}
330
44E9
100
AcDbVisualStyle
  2
Facepattern
 70
    15
 71
     2
 72
     2
 73
     0
 90
        0
 40
-0.6
 41
-30.0
 62
     5
 63
     7
 74
     1
 91
        4
 64
     7
 65
   257
 75
     1
175
     1
 42
1.0
 92
        8
 66
     7
 43
1.0
 76
     1
 77
     6
 78
     2
 67
     7
 79
     5
170
     0
171
     0
290
     0
174
     0
 93
        1
 44
0.0
173
     0
291
     1
 45
0.0
1001
ACAD
1000
AcDbSavedByObjectVersion
1070
     0
  0
VISUALSTYLE
  5
44EA
102
{ACAD_REACTORS
330
44E9
102
}
330
44E9
100
AcDbVisualStyle
  2
Flat
 70
     0
 71
     2
 72
     1
 73
     1
 90
        2
 40
-0.6
 41
30.0
 62
     5
 63
     7
 74
     0
 91
        4
 64
     7
 65
   257
 75
     1
175
     1
 42
1.0
 92
        8
 66
     7
 43
1.0
 76
     1
 77
     6
 78
     2
 67
     7
 79
     5
170
     0
171
     0
290
     0
174
     0
 93
       13
 44
0.0
173
     0
291
     1
 45
0.0
1001
ACAD
1000
AcDbSavedByObjectVersion
1070
     0
  0
VISUALSTYLE
  5
44EB
102
{ACAD_REACTORS
330
44E9
102
}
330
44E9
100
AcDbVisualStyle
  2
FlatWithEdges
 70
     1
 71
     2
 72
     1
 73
     1
 90
        2
 40
-0.6
 41
30.0
 62
     5
 63
     7
 74
     1
 91
        4
 64
     7
 65
   257
 75
     1
175
     1
 42
1.0
 92
        0
 66
   257
 43
1.0
 76
     1
 77
     6
 78
     2
 67
     7
 79
     5
170
     0
171
     0
290
     0
174
     0
 93
       13
 44
0.0
173
     0
291
     1
 45
0.0
1001
ACAD
1000
AcDbSavedByObjectVersion
1070
     0
  0
VISUALSTYLE
  5
44EC
102
{ACAD_REACTORS
330
44E9
102
}
330
44E9
100
AcDbVisualStyle
  2
Gouraud
 70
     2
 71
     2
 72
     2
 73
     1
 90
        2
 40
-0.6
 41
30.0
 62
     5
 63
     7
 74
     0
 91
        4
 64
     7
 65
   257
 75
     1
175
     1
 42
1.0
 92
        0
 66
     7
 43
1.0
 76
     1
 77
     6
 78
     2
 67
     7
 79
     5
170
     0
171
     0
290
     0
174
     0
 93
       13
 44
0.0
173
     0
291
     1
 45
0.0
1001
ACAD
1000
AcDbSavedByObjectVersion
1070
     0
  0
VISUALSTYLE
  5
44ED
102
{ACAD_REACTORS
330
44E9
102
}
330
44E9
100
AcDbVisualStyle
  2
GouraudWithEdges
 70
     3
 71
     2
 72
     2
 73
     1
 90
        2
 40
-0.6
 41
30.0
 62
     5
 63
     7
 74
     1
 91
        4
 64
     7
 65
   257
 75
     1
175
     1
 42
1.0
 92
        0
 66
   257
 43
1.0
 76
     1
 77
     6
 78
     2
 67
     7
 79
     5
170
     0
171
     0
290
     0
174
     0
 93
       13
 44
0.0
173
     0
291
     1
 45
0.0
1001
ACAD
1000
AcDbSavedByObjectVersion
1070
     0
  0
VISUALSTYLE
  5
44F7
102
{ACAD_REACTORS
330
44E9
102
}
330
44E9
100
AcDbVisualStyle
  2
Linepattern
 70
    14
 71
     2
 72
     2
 73
     0
 90
        0
 40
-0.6
 41
-30.0
 62
     5
 63
     7
 74
     1
 91
        4
 64
     7
 65
   257
 75
     7
175
     7
 42
1.0
 92
        8
 66
     7
 43
1.0
 76
     1
 77
     6
 78
     2
 67
     7
 79
     5
170
     0
171
     0
290
     0
174
     0
 93
        1
 44
0.0
173
     0
291
     1
 45
0.0
1001
ACAD
1000
AcDbSavedByObjectVersion
1070
     0
  0
VISUALSTYLE
  5
44F3
102
{ACAD_REACTORS
330
44E9
102
}
330
44E9
100
AcDbVisualStyle
  2
Realistic
 70
     8
 71
     2
 72
     2
 73
     0
 90
        0
 40
-0.6
 41
-30.0
 62
     5
 63
     7
 74
     1
 91
        0
 64
     7
 65
   257
 75
     1
175
     1
 42
1.0
 92
        8
 66
     8
 43
1.0
 76
     1
 77
     6
 78
     2
 67
     7
 79
     5
170
     0
171
     0
290
     0
174
     0
 93
       13
 44
0.0
173
     0
291
     0
 45
0.0
1001
ACAD
1000
AcDbSavedByObjectVersion
1070
     0
  0
VISUALSTYLE
  5
44F6
102
{ACAD_REACTORS
330
44E9
102
}
330
44E9
100
AcDbVisualStyle
  2
Thicken
 70
    13
 71
     2
 72
     2
 73
     0
 90
        0
 40
-0.6
 41
-30.0
 62
     5
 63
     7
 74
     1
 91
        4
 64
     7
 65
   257
 75
     1
175
     1
 42
1.0
 92
       12
 66
     7
 43
1.0
 76
     1
 77
     6
 78
     2
 67
     7
 79
     5
170
     0
171
     0
290
     0
174
     0
 93
        1
 44
0.0
173
     0
291
     1
 45
0.0
1001
ACAD
1000
AcDbSavedByObjectVersion
1070
     0
  0
DICTIONARYVAR
  5
453E
102
{ACAD_REACTORS
330
1BF
102
}
330
1BF
100
DictionaryVariables
280
     0
  1
1:1
  0
DICTIONARYVAR
  5
453D
102
{ACAD_REACTORS
330
1BF
102
}
330
1BF
100
DictionaryVariables
280
     0
  1
STANDARD
  0
DICTIONARYVAR
  5
44C3
102
{ACAD_REACTORS
330
1BF
102
}
330
1BF
100
DictionaryVariables
280
     0
  1
STANDARD
  0
DICTIONARYVAR
  5
4169
102
{ACAD_REACTORS
330
1BF
102
}
330
1BF
100
DictionaryVariables
280
     0
  1
1
  0
DICTIONARYVAR
  5
453F
102
{ACAD_REACTORS
330
1BF
102
}
330
1BF
100
DictionaryVariables
280
     0
  1
0
  0
DICTIONARYVAR
  5
44C4
102
{ACAD_REACTORS
330
1BF
102
}
330
1BF
100
DictionaryVariables
280
     0
  1

  0
DICTIONARYVAR
  5
1C0
102
{ACAD_REACTORS
330
1BF
102
}
330
1BF
100
DictionaryVariables
280
     0
  1
96
  0
DICTIONARY
  5
4546
330
4157
100
AcDbDictionary
280
     1
281
     1
  3
ACAD_XREC_ROUNDTRIP
360
4547
  0
DICTIONARY
  5
4548
330
4158
100
AcDbDictionary
280
     1
281
     1
  3
ACAD_XREC_ROUNDTRIP
360
4549
  0
DICTIONARY
  5
44DA
330
44D9
100
AcDbDictionary
280
     1
281
     1
  3
ACAD_XREC_ROUNDTRIP
360
454E
  3
BUMPTILE
360
44DC
  3
DIFFUSETILE
360
44DB
  3
OPACITYTILE
360
44DF
  3
REFLECTIONTILE
360
44DE
  3
REFRACTIONTILE
360
44E0
  3
SPECULARTILE
360
44DD
  0
DICTIONARY
  5
44D2
330
44D1
100
AcDbDictionary
280
     1
281
     1
  3
ACAD_XREC_ROUNDTRIP
360
454D
  3
BUMPTILE
360
44D4
  3
DIFFUSETILE
360
44D3
  3
OPACITYTILE
360
44D7
  3
REFLECTIONTILE
360
44D6
  3
REFRACTIONTILE
360
44D8
  3
SPECULARTILE
360
44D5
  0
DICTIONARY
  5
44E2
330
44E1
100
AcDbDictionary
280
     1
281
     1
  3
ACAD_XREC_ROUNDTRIP
360
454F
  3
BUMPTILE
360
44E4
  3
DIFFUSETILE
360
44E3
  3
OPACITYTILE
360
44E7
  3
REFLECTIONTILE
360
44E6
  3
REFRACTIONTILE
360
44E8
  3
SPECULARTILE
360
44E5
  0
DICTIONARY
  5
4540
330
44AF
100
AcDbDictionary
280
     1
281
     1
  3
ACAD_ROUNDTRIP_2008_TABLESTYLE_CELLSTYLEMAP
360
4541
  3
ACAD_XREC_ROUNDTRIP
360
454C
  0
XRECORD
  5
4547
102
{ACAD_REACTORS
330
4546
102
}
330
4546
100
AcDbXrecord
280
     1
102
SHADEPLOT
 70
     0
102
SHADEPLOTRESLEVEL
 70
     2
102
SHADEPLOTCUSTOMDPI
 70
   300
  0
XRECORD
  5
4549
102
{ACAD_REACTORS
330
4548
102
}
330
4548
100
AcDbXrecord
280
     1
102
SHADEPLOT
 70
     0
102
SHADEPLOTRESLEVEL
 70
     2
102
SHADEPLOTCUSTOMDPI
 70
   300
  0
XRECORD
  5
454E
102
{ACAD_REACTORS
330
44DA
102
}
330
44DA
100
AcDbXrecord
280
     1
102
MATERIAL
148
0.0
149
0.0
149
0.0
 93
        0
 94
      127
282
     0
 72
     0
 77
     0
171
     0
175
     0
179
     0
273
     0
  0
XRECORD
  5
44DC
102
{ACAD_REACTORS
330
44DA
102
}
330
44DA
100
AcDbXrecord
280
     1
270
     1
271
     1
  0
XRECORD
  5
44DB
102
{ACAD_REACTORS
330
44DA
102
}
330
44DA
100
AcDbXrecord
280
     1
270
     1
271
     1
  0
XRECORD
  5
44DF
102
{ACAD_REACTORS
330
44DA
102
}
330
44DA
100
AcDbXrecord
280
     1
270
     1
271
     1
  0
XRECORD
  5
44DE
102
{ACAD_REACTORS
330
44DA
102
}
330
44DA
100
AcDbXrecord
280
     1
270
     1
271
     1
  0
XRECORD
  5
44E0
102
{ACAD_REACTORS
330
44DA
102
}
330
44DA
100
AcDbXrecord
280
     1
270
     1
271
     1
  0
XRECORD
  5
44DD
102
{ACAD_REACTORS
330
44DA
102
}
330
44DA
100
AcDbXrecord
280
     1
270
     1
271
     1
  0
XRECORD
  5
454D
102
{ACAD_REACTORS
330
44D2
102
}
330
44D2
100
AcDbXrecord
280
     1
102
MATERIAL
148
0.0
149
0.0
149
0.0
 93
        0
 94
      127
282
     0
 72
     0
 77
     0
171
     0
175
     0
179
     0
273
     0
  0
XRECORD
  5
44D4
102
{ACAD_REACTORS
330
44D2
102
}
330
44D2
100
AcDbXrecord
280
     1
270
     1
271
     1
  0
XRECORD
  5
44D3
102
{ACAD_REACTORS
330
44D2
102
}
330
44D2
100
AcDbXrecord
280
     1
270
     1
271
     1
  0
XRECORD
  5
44D7
102
{ACAD_REACTORS
330
44D2
102
}
330
44D2
100
AcDbXrecord
280
     1
270
     1
271
     1
  0
XRECORD
  5
44D6
102
{ACAD_REACTORS
330
44D2
102
}
330
44D2
100
AcDbXrecord
280
     1
270
     1
271
     1
  0
XRECORD
  5
44D8
102
{ACAD_REACTORS
330
44D2
102
}
330
44D2
100
AcDbXrecord
280
     1
270
     1
271
     1
  0
XRECORD
  5
44D5
102
{ACAD_REACTORS
330
44D2
102
}
330
44D2
100
AcDbXrecord
280
     1
270
     1
271
     1
  0
XRECORD
  5
454F
102
{ACAD_REACTORS
330
44E2
102
}
330
44E2
100
AcDbXrecord
280
     1
102
MATERIAL
148
0.0
149
0.0
149
0.0
 93
        0
 94
      127
282
     0
 72
     0
 77
     0
171
     0
175
     0
179
     0
273
     0
  0
XRECORD
  5
44E4
102
{ACAD_REACTORS
330
44E2
102
}
330
44E2
100
AcDbXrecord
280
     1
270
     1
271
     1
  0
XRECORD
  5
44E3
102
{ACAD_REACTORS
330
44E2
102
}
330
44E2
100
AcDbXrecord
280
     1
270
     1
271
     1
  0
XRECORD
  5
44E7
102
{ACAD_REACTORS
330
44E2
102
}
330
44E2
100
AcDbXrecord
280
     1
270
     1
271
     1
  0
XRECORD
  5
44E6
102
{ACAD_REACTORS
330
44E2
102
}
330
44E2
100
AcDbXrecord
280
     1
270
     1
271
     1
  0
XRECORD
  5
44E8
102
{ACAD_REACTORS
330
44E2
102
}
330
44E2
100
AcDbXrecord
280
     1
270
     1
271
     1
  0
XRECORD
  5
44E5
102
{ACAD_REACTORS
330
44E2
102
}
330
44E2
100
AcDbXrecord
280
     1
270
     1
271
     1
  0
CELLSTYLEMAP
  5
4541
102
{ACAD_REACTORS
330
4540
102
}
330
4540
100
AcDbCellStyleMap
 90
        3
300
CELLSTYLE
  1
TABLEFORMAT_BEGIN
 90
        5
170
     1
 91
        0
 92
    32768
 62
   257
 93
        1
300
CONTENTFORMAT
  1
CONTENTFORMAT_BEGIN
 90
        0
 91
        0
 92
        4
 93
        0
300

 40
0.0
140
1.0
 94
        5
 62
     0
340
10
144
0.25
309
CONTENTFORMAT_END
171
     0
 94
        6
 95
        1
302
GRIDFORMAT
  1
GRIDFORMAT_BEGIN
 90
        0
 91
        1
 62
     0
 92
       -2
340
0
 93
        0
 40
0.045
309
GRIDFORMAT_END
 95
        2
302
GRIDFORMAT
  1
GRIDFORMAT_BEGIN
 90
        0
 91
        1
 62
     0
 92
       -2
340
0
 93
        0
 40
0.045
309
GRIDFORMAT_END
 95
        4
302
GRIDFORMAT
  1
GRIDFORMAT_BEGIN
 90
        0
 91
        1
 62
     0
 92
       -2
340
0
 93
        0
 40
0.045
309
GRIDFORMAT_END
 95
        8
302
GRIDFORMAT
  1
GRIDFORMAT_BEGIN
 90
        0
 91
        1
 62
     0
 92
       -2
340
0
 93
        0
 40
0.045
309
GRIDFORMAT_END
 95
       16
302
GRIDFORMAT
  1
GRIDFORMAT_BEGIN
 90
        0
 91
        1
 62
     0
 92
       -2
340
0
 93
        0
 40
0.045
309
GRIDFORMAT_END
 95
       32
302
GRIDFORMAT
  1
GRIDFORMAT_BEGIN
 90
        0
 91
        1
 62
     0
 92
       -2
340
0
 93
        0
 40
0.045
309
GRIDFORMAT_END
309
TABLEFORMAT_END
  1
CELLSTYLE_BEGIN
 90
        1
 91
        1
300
_TITLE
309
CELLSTYLE_END
300
CELLSTYLE
  1
TABLEFORMAT_BEGIN
 90
        5
170
     1
 91
        0
 92
        0
 62
   257
 93
        1
300
CONTENTFORMAT
  1
CONTENTFORMAT_BEGIN
 90
        0
 91
        0
 92
        4
 93
        0
300

 40
0.0
140
1.0
 94
        5
 62
     0
340
10
144
0.18
309
CONTENTFORMAT_END
171
     0
 94
        6
 95
        1
302
GRIDFORMAT
  1
GRIDFORMAT_BEGIN
 90
        0
 91
        1
 62
     0
 92
       -2
340
0
 93
        0
 40
0.045
309
GRIDFORMAT_END
 95
        2
302
GRIDFORMAT
  1
GRIDFORMAT_BEGIN
 90
        0
 91
        1
 62
     0
 92
       -2
340
0
 93
        0
 40
0.045
309
GRIDFORMAT_END
 95
        4
302
GRIDFORMAT
  1
GRIDFORMAT_BEGIN
 90
        0
 91
        1
 62
     0
 92
       -2
340
0
 93
        0
 40
0.045
309
GRIDFORMAT_END
 95
        8
302
GRIDFORMAT
  1
GRIDFORMAT_BEGIN
 90
        0
 91
        1
 62
     0
 92
       -2
340
0
 93
        0
 40
0.045
309
GRIDFORMAT_END
 95
       16
302
GRIDFORMAT
  1
GRIDFORMAT_BEGIN
 90
        0
 91
        1
 62
     0
 92
       -2
340
0
 93
        0
 40
0.045
309
GRIDFORMAT_END
 95
       32
302
GRIDFORMAT
  1
GRIDFORMAT_BEGIN
 90
        0
 91
        1
 62
     0
 92
       -2
340
0
 93
        0
 40
0.045
309
GRIDFORMAT_END
309
TABLEFORMAT_END
  1
CELLSTYLE_BEGIN
 90
        2
 91
        1
300
_HEADER
309
CELLSTYLE_END
300
CELLSTYLE
  1
TABLEFORMAT_BEGIN
 90
        5
170
     1
 91
        0
 92
        0
 62
   257
 93
        1
300
CONTENTFORMAT
  1
CONTENTFORMAT_BEGIN
 90
        0
 91
        0
 92
        4
 93
        0
300

 40
0.0
140
1.0
 94
        2
 62
     0
340
10
144
0.18
309
CONTENTFORMAT_END
171
     0
 94
        6
 95
        1
302
GRIDFORMAT
  1
GRIDFORMAT_BEGIN
 90
        0
 91
        1
 62
     0
 92
       -2
340
0
 93
        0
 40
0.045
309
GRIDFORMAT_END
 95
        2
302
GRIDFORMAT
  1
GRIDFORMAT_BEGIN
 90
        0
 91
        1
 62
     0
 92
       -2
340
0
 93
        0
 40
0.045
309
GRIDFORMAT_END
 95
        4
302
GRIDFORMAT
  1
GRIDFORMAT_BEGIN
 90
        0
 91
        1
 62
     0
 92
       -2
340
0
 93
        0
 40
0.045
309
GRIDFORMAT_END
 95
        8
302
GRIDFORMAT
  1
GRIDFORMAT_BEGIN
 90
        0
 91
        1
 62
     0
 92
       -2
340
0
 93
        0
 40
0.045
309
GRIDFORMAT_END
 95
       16
302
GRIDFORMAT
  1
GRIDFORMAT_BEGIN
 90
        0
 91
        1
 62
     0
 92
       -2
340
0
 93
        0
 40
0.045
309
GRIDFORMAT_END
 95
       32
302
GRIDFORMAT
  1
GRIDFORMAT_BEGIN
 90
        0
 91
        1
 62
     0
 92
       -2
340
0
 93
        0
 40
0.045
309
GRIDFORMAT_END
309
TABLEFORMAT_END
  1
CELLSTYLE_BEGIN
 90
        3
 91
        2
300
_DATA
309
CELLSTYLE_END
  0
XRECORD
  5
454C
102
{ACAD_REACTORS
330
4540
102
}
330
4540
100
AcDbXrecord
280
     1
102
ACAD_ROUNDTRIP_PRE2007_TABLESTYLE
 90
        4
 91
        0
  1

 92
        4
 93
        0
  2

 94
        4
 95
        0
  3

  0
ENDSEC
  0
EOF
