  0
SECTION
  2
HEADER
  9
$ACADVER
  1
AC1015
  9
$ACADMAINTVER
 70
    20
  9
$DWGCODEPAGE
  3
ANSI_949
  9
$INSBASE
 10
0.0
 20
0.0
 30
0.0
  9
$EXTMIN
 10
7.130967561973105
 20
1.123780227351931
 30
0.0
  9
$EXTMAX
 10
388.3542887438002
 20
202.395095122497
 30
0.0
  9
$LIMMIN
 10
0.0
 20
0.0
  9
$LIMMAX
 10
420.0
 20
297.0
  9
$ORTHOMODE
 70
     0
  9
$REGENMODE
 70
     1
  9
$FILLMODE
 70
     1
  9
$QTEXTMODE
 70
     0
  9
$MIRRTEXT
 70
     1
  9
$LTSCALE
 40
10.0
  9
$ATTMODE
 70
     1
  9
$TEXTSIZE
 40
3.149999999999999
  9
$TRACEWID
 40
0.05
  9
$TEXTSTYLE
  7
H
  9
$CLAYER
  8
0
  9
$CELTYPE
  6
BYLAYER
  9
$CECOLOR
 62
   256
  9
$CELTSCALE
 40
1.0
  9
$DISPSILH
 70
     0
  9
$DIMSCALE
 40
1.5
  9
$DIMASZ
 40
2.5
  9
$DIMEXO
 40
0.8
  9
$DIMDLI
 40
0.8
  9
$DIMRND
 40
0.0
  9
$DIMDLE
 40
0.0
  9
$DIMEXE
 40
0.8
  9
$DIMTP
 40
0.0
  9
$DIMTM
 40
0.0
  9
$DIMTXT
 40
3.0
  9
$DIMCEN
 40
-1.0
  9
$DIMTSZ
 40
0.0
  9
$DIMTOL
 70
     0
  9
$DIMLIM
 70
     0
  9
$DIMTIH
 70
     0
  9
$DIMTOH
 70
     0
  9
$DIMSE1
 70
     0
  9
$DIMSE2
 70
     0
  9
$DIMTAD
 70
     3
  9
$DIMZIN
 70
     8
  9
$DIMBLK
  1

  9
$DIMASO
 70
     1
  9
$DIMSHO
 70
     1
  9
$DIMPOST
  1

  9
$DIMAPOST
  1

  9
$DIMALT
 70
     0
  9
$DIMALTD
 70
     2
  9
$DIMALTF
 40
25.4
  9
$DIMLFAC
 40
1.0
  9
$DIMTOFL
 70
     1
  9
$DIMTVP
 40
0.0
  9
$DIMTIX
 70
     0
  9
$DIMSOXD
 70
     0
  9
$DIMSAH
 70
     0
  9
$DIMBLK1
  1

  9
$DIMBLK2
  1

  9
$DIMSTYLE
  2
STANDARD
  9
$DIMCLRD
 70
   115
  9
$DIMCLRE
 70
   115
  9
$DIMCLRT
 70
     7
  9
$DIMTFAC
 40
1.0
  9
$DIMGAP
 40
1.0
  9
$DIMJUST
 70
     0
  9
$DIMSD1
 70
     0
  9
$DIMSD2
 70
     0
  9
$DIMTOLJ
 70
     1
  9
$DIMTZIN
 70
     0
  9
$DIMALTZ
 70
     0
  9
$DIMALTTZ
 70
     0
  9
$DIMUPT
 70
     0
  9
$DIMDEC
 70
     3
  9
$DIMTDEC
 70
     4
  9
$DIMALTU
 70
     2
  9
$DIMALTTD
 70
     2
  9
$DIMTXSTY
  7
STANDARD
  9
$DIMAUNIT
 70
     0
  9
$DIMADEC
 70
     0
  9
$DIMALTRND
 40
0.0
  9
$DIMAZIN
 70
     0
  9
$DIMDSEP
 70
    46
  9
$DIMATFIT
 70
     3
  9
$DIMFRAC
 70
     0
  9
$DIMLDRBLK
  1

  9
$DIMLUNIT
 70
     2
  9
$DIMLWD
 70
    -2
  9
$DIMLWE
 70
    -2
  9
$DIMTMOVE
 70
     0
  9
$LUNITS
 70
     2
  9
$LUPREC
 70
     4
  9
$SKETCHINC
 40
0.1
  9
$FILLETRAD
 40
0.5
  9
$AUNITS
 70
     0
  9
$AUPREC
 70
     0
  9
$MENU
  1
.
  9
$ELEVATION
 40
0.0
  9
$PELEVATION
 40
0.0
  9
$THICKNESS
 40
0.0
  9
$LIMCHECK
 70
     0
  9
$CHAMFERA
 40
0.5
  9
$CHAMFERB
 40
0.5
  9
$CHAMFERC
 40
1.0
  9
$CHAMFERD
 40
0.0
  9
$SKPOLY
 70
     1
  9
$TDCREATE
 40
2452464.575009942
  9
$TDUCREATE
 40
2452464.200009942
  9
$TDUPDATE
 40
2455643.495240718
  9
$TDUUPDATE
 40
2455643.120240718
  9
$TDINDWG
 40
0.3349317708
  9
$TDUSRTIMER
 40
0.3349317708
  9
$USRTIMER
 70
     1
  9
$ANGBASE
 50
0.0
  9
$ANGDIR
 70
     0
  9
$PDMODE
 70
     0
  9
$PDSIZE
 40
0.0
  9
$PLINEWID
 40
0.5
  9
$SPLFRAME
 70
     0
  9
$SPLINETYPE
 70
     6
  9
$SPLINESEGS
 70
     8
  9
$HANDSEED
  5
448C
  9
$SURFTAB1
 70
     6
  9
$SURFTAB2
 70
     6
  9
$SURFTYPE
 70
     6
  9
$SURFU
 70
     6
  9
$SURFV
 70
     6
  9
$UCSBASE
  2

  9
$UCSNAME
  2

  9
$UCSORG
 10
0.0
 20
0.0
 30
0.0
  9
$UCSXDIR
 10
1.0
 20
0.0
 30
0.0
  9
$UCSYDIR
 10
0.0
 20
1.0
 30
0.0
  9
$UCSORTHOREF
  2

  9
$UCSORTHOVIEW
 70
     0
  9
$UCSORGTOP
 10
0.0
 20
0.0
 30
0.0
  9
$UCSORGBOTTOM
 10
0.0
 20
0.0
 30
0.0
  9
$UCSORGLEFT
 10
0.0
 20
0.0
 30
0.0
  9
$UCSORGRIGHT
 10
0.0
 20
0.0
 30
0.0
  9
$UCSORGFRONT
 10
0.0
 20
0.0
 30
0.0
  9
$UCSORGBACK
 10
0.0
 20
0.0
 30
0.0
  9
$PUCSBASE
  2

  9
$PUCSNAME
  2

  9
$PUCSORG
 10
0.0
 20
0.0
 30
0.0
  9
$PUCSXDIR
 10
1.0
 20
0.0
 30
0.0
  9
$PUCSYDIR
 10
0.0
 20
1.0
 30
0.0
  9
$PUCSORTHOREF
  2

  9
$PUCSORTHOVIEW
 70
     0
  9
$PUCSORGTOP
 10
0.0
 20
0.0
 30
0.0
  9
$PUCSORGBOTTOM
 10
0.0
 20
0.0
 30
0.0
  9
$PUCSORGLEFT
 10
0.0
 20
0.0
 30
0.0
  9
$PUCSORGRIGHT
 10
0.0
 20
0.0
 30
0.0
  9
$PUCSORGFRONT
 10
0.0
 20
0.0
 30
0.0
  9
$PUCSORGBACK
 10
0.0
 20
0.0
 30
0.0
  9
$USERI1
 70
     0
  9
$USERI2
 70
   452
  9
$USERI3
 70
     1
  9
$USERI4
 70
     0
  9
$USERI5
 70
     0
  9
$USERR1
 40
0.0
  9
$USERR2
 40
0.0
  9
$USERR3
 40
0.0
  9
$USERR4
 40
0.0
  9
$USERR5
 40
0.0
  9
$WORLDVIEW
 70
     1
  9
$SHADEDGE
 70
     3
  9
$SHADEDIF
 70
    70
  9
$TILEMODE
 70
     1
  9
$MAXACTVP
 70
    48
  9
$PINSBASE
 10
0.0
 20
0.0
 30
0.0
  9
$PLIMCHECK
 70
     0
  9
$PEXTMIN
 10
1.000000000000000E+20
 20
1.000000000000000E+20
 30
1.000000000000000E+20
  9
$PEXTMAX
 10
-1.000000000000000E+20
 20
-1.000000000000000E+20
 30
-1.000000000000000E+20
  9
$PLIMMIN
 10
0.0
 20
0.0
  9
$PLIMMAX
 10
12.0
 20
9.0
  9
$UNITMODE
 70
     0
  9
$VISRETAIN
 70
     1
  9
$PLINEGEN
 70
     0
  9
$PSLTSCALE
 70
     1
  9
$TREEDEPTH
 70
  3020
  9
$CMLSTYLE
  2
STANDARD
  9
$CMLJUST
 70
     0
  9
$CMLSCALE
 40
1.0
  9
$PROXYGRAPHICS
 70
     1
  9
$MEASUREMENT
 70
     0
  9
$CELWEIGHT
370
    -1
  9
$ENDCAPS
280
     0
  9
$JOINSTYLE
280
     0
  9
$LWDISPLAY
290
     0
  9
$INSUNITS
 70
     0
  9
$HYPERLINKBASE
  1

  9
$STYLESHEET
  1
1.CTB
  9
$XEDIT
290
     1
  9
$CEPSNTYPE
380
     0
  9
$PSTYLEMODE
290
     1
  9
$FINGERPRINTGUID
  2
{3172CC46-24FC-4775-9257-50F4EA4939B8}
  9
$VERSIONGUID
  2
{C71CB163-9438-4F14-972A-BAB15F3C608F}
  9
$EXTNAMES
290
     1
  9
$PSVPSCALE
 40
0.0
  9
$OLESTARTUP
290
     0
  0
ENDSEC
  0
SECTION
  2
CLASSES
  0
CLASS
  1
DICTIONARYVAR
  2
AcDbDictionaryVar
  3
ObjectDBX Classes
 90
        0
280
     0
281
     0
  0
CLASS
  1
ACDBDICTIONARYWDFLT
  2
AcDbDictionaryWithDefault
  3
ObjectDBX Classes
 90
        0
280
     0
281
     0
  0
CLASS
  1
ACDBPLACEHOLDER
  2
AcDbPlaceHolder
  3
ObjectDBX Classes
 90
        0
280
     0
281
     0
  0
CLASS
  1
LAYOUT
  2
AcDbLayout
  3
ObjectDBX Classes
 90
        0
280
     0
281
     0
  0
CLASS
  1
TABLESTYLE
  2
AcDbTableStyle
  3
ObjectDBX Classes
 90
     4095
280
     0
281
     0
  0
CLASS
  1
MATERIAL
  2
AcDbMaterial
  3
ObjectDBX Classes
 90
     1153
280
     0
281
     0
  0
CLASS
  1
VISUALSTYLE
  2
AcDbVisualStyle
  3
ObjectDBX Classes
 90
     4095
280
     0
281
     0
  0
CLASS
  1
SCALE
  2
AcDbScale
  3
ObjectDBX Classes
 90
     1153
280
     0
281
     0
  0
CLASS
  1
MLEADERSTYLE
  2
AcDbMLeaderStyle
  3
ACDB_MLEADERSTYLE_CLASS
 90
     4095
280
     0
281
     0
  0
CLASS
  1
CELLSTYLEMAP
  2
AcDbCellStyleMap
  3
ObjectDBX Classes
 90
     1152
280
     0
281
     0
  0
ENDSEC
  0
SECTION
  2
TABLES
  0
TABLE
  2
VPORT
  5
8
330
0
100
AcDbSymbolTable
 70
     1
  0
VPORT
  5
4409
330
8
100
AcDbSymbolTableRecord
100
AcDbViewportTableRecord
  2
*Active
 70
     0
 10
0.0
 20
0.0
 11
1.0
 21
1.0
 12
236.1013230256901
 22
137.8772025450546
 13
0.0
 23
0.0
 14
0.5
 24
0.5
 15
0.5
 25
0.5
 16
0.0
 26
0.0
 36
1.0
 17
0.0
 27
0.0
 37
0.0
 40
183.8344324146455
 41
2.336349924585218
 42
50.0
 43
0.0
 44
0.0
 50
0.0
 51
0.0
 71
     0
 72
   100
 73
     1
 74
     1
 75
     0
 76
     0
 77
     0
 78
     0
281
     0
 65
     1
110
0.0
120
0.0
130
0.0
111
1.0
121
0.0
131
0.0
112
0.0
122
1.0
132
0.0
 79
     0
146
0.0
  0
ENDTAB
  0
TABLE
  2
LTYPE
  5
5
330
0
100
AcDbSymbolTable
 70
     9
  0
LTYPE
  5
13
330
5
100
AcDbSymbolTableRecord
100
AcDbLinetypeTableRecord
  2
BYBLOCK
 70
     0
  3

 72
    65
 73
     0
 40
0.0
  0
LTYPE
  5
14
330
5
100
AcDbSymbolTableRecord
100
AcDbLinetypeTableRecord
  2
BYLAYER
 70
     0
  3

 72
    65
 73
     0
 40
0.0
  0
LTYPE
  5
15
330
5
100
AcDbSymbolTableRecord
100
AcDbLinetypeTableRecord
  2
CONTINUOUS
 70
     0
  3
Solid line
 72
    65
 73
     0
 40
0.0
  0
LTYPE
  5
5D
330
5
100
AcDbSymbolTableRecord
100
AcDbLinetypeTableRecord
  2
CENTER
 70
     0
  3
Center ____ _ ____ _ ____ _ ____ _ ____ _ ____
 72
    65
 73
     4
 40
2.0
 49
1.25
 74
     0
 49
-0.25
 74
     0
 49
0.25
 74
     0
 49
-0.25
 74
     0
  0
LTYPE
  5
5E
330
5
100
AcDbSymbolTableRecord
100
AcDbLinetypeTableRecord
  2
HIDDEN
 70
     0
  3
Hidden __ __ __ __ __ __ __ __ __ __ __ __ __ _
 72
    65
 73
     2
 40
0.375
 49
0.25
 74
     0
 49
-0.125
 74
     0
  0
LTYPE
  5
2ACA
330
5
100
AcDbSymbolTableRecord
100
AcDbLinetypeTableRecord
  2
2
 70
     0
  3
MEDUSA PEN 2
 72
    65
 73
     4
 40
15.1
 49
9.5
 74
     0
 49
-1.6
 74
     0
 49
2.399999999999999
 74
     0
 49
-1.6
 74
     0
  0
ENDTAB
  0
TABLE
  2
LAYER
  5
2
330
0
100
AcDbSymbolTable
 70
    37
  0
LAYER
  5
F
102
{ACAD_XDICTIONARY
360
446F
102
}
330
2
100
AcDbSymbolTableRecord
100
AcDbLayerTableRecord
  2
0
 70
     0
 62
     7
  6
CONTINUOUS
370
    -3
390
4154
  0
LAYER
  5
55
102
{ACAD_XDICTIONARY
360
4471
102
}
330
2
100
AcDbSymbolTableRecord
100
AcDbLayerTableRecord
  2
9
 70
     0
 62
     3
  6
CONTINUOUS
370
    -3
390
4154
  0
LAYER
  5
61
102
{ACAD_XDICTIONARY
360
4473
102
}
330
2
100
AcDbSymbolTableRecord
100
AcDbLayerTableRecord
  2
1
 70
     0
 62
     1
  6
CENTER
370
    -3
390
4154
  0
LAYER
  5
62
102
{ACAD_XDICTIONARY
360
4475
102
}
330
2
100
AcDbSymbolTableRecord
100
AcDbLayerTableRecord
  2
2
 70
     0
 62
     2
  6
HIDDEN
370
    -3
390
4154
  0
LAYER
  5
24EF
330
2
100
AcDbSymbolTableRecord
100
AcDbLayerTableRecord
  2
DEFPOINTS
 70
     0
 62
     7
  6
CONTINUOUS
290
     0
370
    -3
390
4154
  0
LAYER
  5
2AD3
102
{ACAD_XDICTIONARY
360
4477
102
}
330
2
100
AcDbSymbolTableRecord
100
AcDbLayerTableRecord
  2
SL2-11
 70
     0
 62
     1
  6
2
370
    -3
390
4154
  0
ENDTAB
  0
TABLE
  2
STYLE
  5
3
330
0
100
AcDbSymbolTable
 70
     7
  0
STYLE
  5
10
330
3
100
AcDbSymbolTableRecord
100
AcDbTextStyleTableRecord
  2
STANDARD
 70
     0
 40
0.0
 41
1.0
 50
0.0
 71
     0
 42
3.0
  3
romans.shx
  4

  0
STYLE
  5
167
330
3
100
AcDbSymbolTableRecord
100
AcDbTextStyleTableRecord
  2
STYLE1
 70
     0
 40
0.0
 41
1.0
 50
0.0
 71
     0
 42
3.149999999999999
  3
Gulim.ttf
  4

1001
ACAD
1000
Gulim
1071
    33074
  0
STYLE
  5
2AD7
330
3
100
AcDbSymbolTableRecord
100
AcDbTextStyleTableRecord
  2
T2
 70
     0
 40
0.0
 41
1.0
 50
0.1
 71
     0
 42
3.5
  3
monotxt
  4

  0
STYLE
  5
4406
330
3
100
AcDbSymbolTableRecord
100
AcDbTextStyleTableRecord
  2
H
 70
     0
 40
0.0
 41
1.0
 50
0.0
 71
     0
 42
3.149999999999999
  3
txt.shx
  4

  0
ENDTAB
  0
TABLE
  2
VIEW
  5
6
330
0
100
AcDbSymbolTable
 70
     0
  0
ENDTAB
  0
TABLE
  2
UCS
  5
7
330
0
100
AcDbSymbolTable
 70
     0
  0
ENDTAB
  0
TABLE
  2
APPID
  5
9
330
0
100
AcDbSymbolTable
 70
     4
  0
APPID
  5
11
330
9
100
AcDbSymbolTableRecord
100
AcDbRegAppTableRecord
  2
ACAD
 70
     0
  0
APPID
  5
2325
330
9
100
AcDbSymbolTableRecord
100
AcDbRegAppTableRecord
  2
MCLBOMATTRIB
 70
     0
  0
APPID
  5
2326
330
9
100
AcDbSymbolTableRecord
100
AcDbRegAppTableRecord
  2
MCLBOM
 70
     0
  0
APPID
  5
4462
330
9
100
AcDbSymbolTableRecord
100
AcDbRegAppTableRecord
  2
ACAD_MLEADERVER
 70
     0
  0
ENDTAB
  0
TABLE
  2
DIMSTYLE
  5
A
330
0
100
AcDbSymbolTable
 70
     2
100
AcDbDimStyleTable
 71
     1
340
1D
  0
DIMSTYLE
105
1D
102
{ACAD_REACTORS
330
4356
330
436B
330
4378
330
4385
330
4394
330
43A1
330
43C4
330
43D0
330
43DF
102
}
330
A
100
AcDbSymbolTableRecord
100
AcDbDimStyleTableRecord
  2
STANDARD
 70
     0
 41
2.0
140
3.0
176
     2
177
     2
178
     4
340
10
  0
ENDTAB
  0
TABLE
  2
BLOCK_RECORD
  5
1
330
0
100
AcDbSymbolTable
 70
    38
  0
BLOCK_RECORD
  5
19
330
1
100
AcDbSymbolTableRecord
100
AcDbBlockTableRecord
  2
*MODEL_SPACE
340
4157
  0
BLOCK_RECORD
  5
16
330
1
100
AcDbSymbolTableRecord
100
AcDbBlockTableRecord
  2
*PAPER_SPACE
340
4158
  0
BLOCK_RECORD
  5
1B8B
330
1
100
AcDbSymbolTableRecord
100
AcDbBlockTableRecord
  2
MCLBOMATTRIB
340
0
102
{BLKREFS
331
247E
331
238D
102
}
  0
BLOCK_RECORD
  5
4357
330
1
100
AcDbSymbolTableRecord
100
AcDbBlockTableRecord
  2
*D29
340
0
  0
BLOCK_RECORD
  5
436C
330
1
100
AcDbSymbolTableRecord
100
AcDbBlockTableRecord
  2
*D30
340
0
  0
BLOCK_RECORD
  5
4379
330
1
100
AcDbSymbolTableRecord
100
AcDbBlockTableRecord
  2
*D31
340
0
  0
BLOCK_RECORD
  5
4386
330
1
100
AcDbSymbolTableRecord
100
AcDbBlockTableRecord
  2
*D32
340
0
  0
BLOCK_RECORD
  5
4395
330
1
100
AcDbSymbolTableRecord
100
AcDbBlockTableRecord
  2
*D33
340
0
  0
BLOCK_RECORD
  5
43A2
330
1
100
AcDbSymbolTableRecord
100
AcDbBlockTableRecord
  2
*D34
340
0
  0
BLOCK_RECORD
  5
43C5
330
1
100
AcDbSymbolTableRecord
100
AcDbBlockTableRecord
  2
*D35
340
0
  0
BLOCK_RECORD
  5
43D1
330
1
100
AcDbSymbolTableRecord
100
AcDbBlockTableRecord
  2
*D36
340
0
  0
BLOCK_RECORD
  5
43E0
330
1
100
AcDbSymbolTableRecord
100
AcDbBlockTableRecord
  2
*D37
340
0
  0
ENDTAB
  0
ENDSEC
  0
SECTION
  2
BLOCKS
  0
BLOCK
  5
1A
330
19
100
AcDbEntity
  8
0
100
AcDbBlockBegin
  2
*MODEL_SPACE
 70
     0
 10
0.0
 20
0.0
 30
0.0
  3
*MODEL_SPACE
  1

  0
ENDBLK
  5
1B
330
19
100
AcDbEntity
  8
0
100
AcDbBlockEnd
  0
BLOCK
  5
17
330
16
100
AcDbEntity
 67
     1
  8
0
100
AcDbBlockBegin
  2
*PAPER_SPACE
 70
     0
 10
0.0
 20
0.0
 30
0.0
  3
*PAPER_SPACE
  1

  0
ENDBLK
  5
18
330
16
100
AcDbEntity
 67
     1
  8
0
100
AcDbBlockEnd
  0
BLOCK
  5
1B8C
330
1B8B
100
AcDbEntity
  8
0
100
AcDbBlockBegin
  2
MCLBOMATTRIB
 70
     2
 10
0.0
 20
0.0
 30
0.0
  3
MCLBOMATTRIB
  1
MCLBOMATTRIB
  0
ENDBLK
  5
1B8D
330
1B8B
100
AcDbEntity
  8
0
100
AcDbBlockEnd
  0
BLOCK
  5
4361
330
4357
100
AcDbEntity
  8
0
100
AcDbBlockBegin
  2
*D29
 70
     1
 10
0.0
 20
0.0
 30
0.0
  3
*D29
  1

  0
LINE
  5
4358
330
4357
100
AcDbEntity
  8
0
 62
   115
370
    -2
100
AcDbLine
 10
374.2602951230654
 20
132.6434262345637
 30
0.0
 11
388.3542887438002
 21
132.6434262345637
 31
0.0
  0
LINE
  5
4359
330
4357
100
AcDbEntity
  8
0
 62
   115
370
    -2
100
AcDbLine
 10
374.2602951230654
 20
157.2434262345638
 30
0.0
 11
388.3542887438002
 21
157.2434262345638
 31
0.0
  0
LINE
  5
435A
330
4357
100
AcDbEntity
  8
0
 62
   115
370
    -2
100
AcDbLine
 10
387.1542887438002
 20
136.3934262345637
 30
0.0
 11
387.1542887438002
 21
153.4934262345638
 31
0.0
  0
SOLID
  5
435B
330
4357
100
AcDbEntity
  8
0
 62
   115
100
AcDbTrace
 10
386.5292887438002
 20
136.3934262345637
 30
0.0
 11
387.7792887438002
 21
136.3934262345637
 31
0.0
 12
387.1542887438002
 22
132.6434262345637
 32
0.0
 13
387.1542887438002
 23
132.6434262345637
 33
0.0
  0
SOLID
  5
435C
330
4357
100
AcDbEntity
  8
0
 62
   115
100
AcDbTrace
 10
386.5292887438002
 20
153.4934262345638
 30
0.0
 11
387.7792887438002
 21
153.4934262345638
 31
0.0
 12
387.1542887438002
 22
157.2434262345638
 32
0.0
 13
387.1542887438002
 23
157.2434262345638
 33
0.0
  0
MTEXT
  5
435D
330
4357
100
AcDbEntity
  8
0
 62
     7
100
AcDbMText
 10
383.4042887438002
 20
144.9434262345638
 30
0.0
 40
4.5
 41
0.0
 71
     5
 72
     1
  1
\A1;%%C24.6
 11
0.0000000000000001
 21
1.0
 31
0.0
 73
     1
 44
1.0
1001
ACAD
1000
MTEXTBEGIN
1070
    73
1070
     1
1070
    44
1040
1.0
1070
    74
1070
     0
1000
MTEXTEND
  0
POINT
  5
435E
330
4357
100
AcDbEntity
  8
DEFPOINTS
 62
     0
100
AcDbPoint
 10
373.0602951230653
 20
132.6434262345637
 30
0.0
  0
POINT
  5
435F
330
4357
100
AcDbEntity
  8
DEFPOINTS
 62
     0
100
AcDbPoint
 10
373.0602951230653
 20
157.2434262345638
 30
0.0
  0
POINT
  5
4360
330
4357
100
AcDbEntity
  8
DEFPOINTS
 62
     0
100
AcDbPoint
 10
387.1542887438002
 20
157.2434262345638
 30
0.0
  0
ENDBLK
  5
4362
330
4357
100
AcDbEntity
  8
0
100
AcDbBlockEnd
  0
BLOCK
  5
4376
330
436C
100
AcDbEntity
  8
0
100
AcDbBlockBegin
  2
*D30
 70
     1
 10
0.0
 20
0.0
 30
0.0
  3
*D30
  1

  0
LINE
  5
436D
330
436C
100
AcDbEntity
  8
0
 62
   115
370
    -2
100
AcDbLine
 10
324.3272930649563
 20
123.4434262345638
 30
0.0
 11
336.8304360794101
 21
123.4434262345638
 31
0.0
  0
LINE
  5
436E
330
436C
100
AcDbEntity
  8
0
 62
   115
370
    -2
100
AcDbLine
 10
324.3272930649563
 20
166.4434262345638
 30
0.0
 11
336.8304360794102
 21
166.4434262345638
 31
0.0
  0
LINE
  5
436F
330
436C
100
AcDbEntity
  8
0
 62
   115
370
    -2
100
AcDbLine
 10
335.6304360794101
 20
127.1934262345638
 30
0.0
 11
335.6304360794102
 21
162.6934262345639
 31
0.0
  0
SOLID
  5
4370
330
436C
100
AcDbEntity
  8
0
 62
   115
100
AcDbTrace
 10
335.0054360794101
 20
127.1934262345638
 30
0.0
 11
336.2554360794101
 21
127.1934262345638
 31
0.0
 12
335.6304360794101
 22
123.4434262345638
 32
0.0
 13
335.6304360794101
 23
123.4434262345638
 33
0.0
  0
SOLID
  5
4371
330
436C
100
AcDbEntity
  8
0
 62
   115
100
AcDbTrace
 10
335.0054360794102
 20
162.6934262345639
 30
0.0
 11
336.2554360794102
 21
162.6934262345639
 31
0.0
 12
335.6304360794102
 22
166.4434262345638
 32
0.0
 13
335.6304360794102
 23
166.4434262345638
 33
0.0
  0
MTEXT
  5
4372
330
436C
100
AcDbEntity
  8
0
 62
     7
100
AcDbMText
 10
331.8804360794101
 20
144.9434262345638
 30
0.0
 40
4.5
 41
0.0
 71
     5
 72
     1
  1
\A1;%%c43h7
 11
0.0000000000000001
 21
1.0
 31
0.0
 73
     1
 44
1.0
1001
ACAD
1000
MTEXTBEGIN
1070
    73
1070
     1
1070
    44
1040
1.0
1070
    74
1070
     0
1000
MTEXTEND
  0
POINT
  5
4373
330
436C
100
AcDbEntity
  8
DEFPOINTS
 62
     0
100
AcDbPoint
 10
323.1272930649563
 20
123.4434262345638
 30
0.0
  0
POINT
  5
4374
330
436C
100
AcDbEntity
  8
DEFPOINTS
 62
     0
100
AcDbPoint
 10
323.1272930649563
 20
166.4434262345638
 30
0.0
  0
POINT
  5
4375
330
436C
100
AcDbEntity
  8
DEFPOINTS
 62
     0
100
AcDbPoint
 10
335.6304360794102
 20
166.4434262345638
 30
0.0
  0
ENDBLK
  5
4377
330
436C
100
AcDbEntity
  8
0
100
AcDbBlockEnd
  0
BLOCK
  5
4383
330
4379
100
AcDbEntity
  8
0
100
AcDbBlockBegin
  2
*D31
 70
     1
 10
0.0
 20
0.0
 30
0.0
  3
*D31
  1

  0
LINE
  5
437A
330
4379
100
AcDbEntity
  8
0
 62
   115
370
    -2
100
AcDbLine
 10
269.9272870649564
 20
111.4434322345641
 30
0.0
 11
260.9079044255843
 21
111.4434322345641
 31
0.0
  0
LINE
  5
437B
330
4379
100
AcDbEntity
  8
0
 62
   115
370
    -2
100
AcDbLine
 10
269.9272930649564
 20
178.4434262345638
 30
0.0
 11
260.9079044255844
 21
178.4434262345638
 31
0.0
  0
LINE
  5
437C
330
4379
100
AcDbEntity
  8
0
 62
   115
370
    -2
100
AcDbLine
 10
262.1079044255843
 20
115.1934322345641
 30
0.0
 11
262.1079044255844
 21
174.6934262345638
 31
0.0
  0
SOLID
  5
437D
330
4379
100
AcDbEntity
  8
0
 62
   115
100
AcDbTrace
 10
261.4829044255843
 20
115.1934322345641
 30
0.0
 11
262.7329044255843
 21
115.1934322345641
 31
0.0
 12
262.1079044255843
 22
111.4434322345641
 32
0.0
 13
262.1079044255843
 23
111.4434322345641
 33
0.0
  0
SOLID
  5
437E
330
4379
100
AcDbEntity
  8
0
 62
   115
100
AcDbTrace
 10
261.4829044255844
 20
174.6934262345638
 30
0.0
 11
262.7329044255844
 21
174.6934262345638
 31
0.0
 12
262.1079044255844
 22
178.4434262345638
 32
0.0
 13
262.1079044255844
 23
178.4434262345638
 33
0.0
  0
MTEXT
  5
437F
330
4379
100
AcDbEntity
  8
0
 62
     7
100
AcDbMText
 10
258.3579044255843
 20
144.943429234564
 30
0.0
 40
4.5
 41
0.0
 71
     5
 72
     1
  1
\A1;%%c67
 11
0.0000000000000001
 21
1.0
 31
0.0
 73
     1
 44
1.0
1001
ACAD
1000
MTEXTBEGIN
1070
    73
1070
     1
1070
    44
1040
1.0
1070
    74
1070
     0
1000
MTEXTEND
  0
POINT
  5
4380
330
4379
100
AcDbEntity
  8
DEFPOINTS
 62
     0
100
AcDbPoint
 10
271.1272870649564
 20
111.4434322345641
 30
0.0
  0
POINT
  5
4381
330
4379
100
AcDbEntity
  8
DEFPOINTS
 62
     0
100
AcDbPoint
 10
271.1272930649563
 20
178.4434262345638
 30
0.0
  0
POINT
  5
4382
330
4379
100
AcDbEntity
  8
DEFPOINTS
 62
     0
100
AcDbPoint
 10
262.1079044255844
 20
178.4434262345638
 30
0.0
  0
ENDBLK
  5
4384
330
4379
100
AcDbEntity
  8
0
100
AcDbBlockEnd
  0
BLOCK
  5
4392
330
4386
100
AcDbEntity
  8
0
100
AcDbBlockBegin
  2
*D32
 70
     1
 10
0.0
 20
0.0
 30
0.0
  3
*D32
  1

  0
LINE
  5
4387
330
4386
100
AcDbEntity
  8
0
 62
   115
370
    -2
100
AcDbLine
 10
270.6272930649567
 20
110.7434262345638
 30
0.0
 11
270.6272930649567
 21
97.22622124702416
 31
0.0
  0
LINE
  5
4388
330
4386
100
AcDbEntity
  8
0
 62
   115
370
    -2
100
AcDbLine
 10
280.6272930649566
 20
110.7434262345638
 30
0.0
 11
280.6272930649566
 21
97.22622124702416
 31
0.0
  0
LINE
  5
4389
330
4386
100
AcDbEntity
  8
0
 62
   115
370
    -2
100
AcDbLine
 10
266.8772930649567
 20
98.42622124702415
 30
0.0
 11
263.1272930649567
 21
98.42622124702415
 31
0.0
  0
LINE
  5
438A
330
4386
100
AcDbEntity
  8
0
 62
   115
370
    -2
100
AcDbLine
 10
284.3772930649566
 20
98.42622124702415
 30
0.0
 11
288.1272930649566
 21
98.42622124702415
 31
0.0
  0
LINE
  5
438B
330
4386
100
AcDbEntity
  8
0
 62
   115
370
    -2
100
AcDbLine
 10
270.6272930649567
 20
98.42622124702415
 30
0.0
 11
280.6272930649566
 21
98.42622124702415
 31
0.0
  0
SOLID
  5
438C
330
4386
100
AcDbEntity
  8
0
 62
   115
100
AcDbTrace
 10
266.8772930649567
 20
99.05122124702415
 30
0.0
 11
266.8772930649567
 21
97.80122124702415
 31
0.0
 12
270.6272930649567
 22
98.42622124702415
 32
0.0
 13
270.6272930649567
 23
98.42622124702415
 33
0.0
  0
SOLID
  5
438D
330
4386
100
AcDbEntity
  8
0
 62
   115
100
AcDbTrace
 10
284.3772930649566
 20
99.05122124702415
 30
0.0
 11
284.3772930649566
 21
97.80122124702415
 31
0.0
 12
280.6272930649566
 22
98.42622124702415
 32
0.0
 13
280.6272930649566
 23
98.42622124702415
 33
0.0
  0
MTEXT
  5
438E
330
4386
100
AcDbEntity
  8
0
 62
     7
100
AcDbMText
 10
275.6272930649567
 20
102.1762212470241
 30
0.0
 40
4.5
 41
0.0
 71
     5
 72
     1
  1
\A1;10
 73
     1
 44
1.0
1001
ACAD
1000
MTEXTBEGIN
1070
    73
1070
     1
1070
    44
1040
1.0
1070
    74
1070
     0
1000
MTEXTEND
  0
POINT
  5
438F
330
4386
100
AcDbEntity
  8
DEFPOINTS
 62
     0
100
AcDbPoint
 10
270.6272930649567
 20
111.9434262345638
 30
0.0
  0
POINT
  5
4390
330
4386
100
AcDbEntity
  8
DEFPOINTS
 62
     0
100
AcDbPoint
 10
280.6272930649566
 20
111.9434262345638
 30
0.0
  0
POINT
  5
4391
330
4386
100
AcDbEntity
  8
DEFPOINTS
 62
     0
100
AcDbPoint
 10
280.6272930649566
 20
98.42622124702415
 30
0.0
  0
ENDBLK
  5
4393
330
4386
100
AcDbEntity
  8
0
100
AcDbBlockEnd
  0
BLOCK
  5
439F
330
4395
100
AcDbEntity
  8
0
100
AcDbBlockBegin
  2
*D33
 70
     1
 10
0.0
 20
0.0
 30
0.0
  3
*D33
  1

  0
LINE
  5
4396
330
4395
100
AcDbEntity
  8
0
 62
   115
370
    -2
100
AcDbLine
 10
280.6272930649567
 20
110.7434262345638
 30
0.0
 11
280.6272930649567
 21
97.22622124702416
 31
0.0
  0
LINE
  5
4397
330
4395
100
AcDbEntity
  8
0
 62
   115
370
    -2
100
AcDbLine
 10
323.6272930649565
 20
122.7434262345638
 30
0.0
 11
323.6272930649565
 21
97.22622124702416
 31
0.0
  0
LINE
  5
4398
330
4395
100
AcDbEntity
  8
0
 62
   115
370
    -2
100
AcDbLine
 10
284.3772930649567
 20
98.42622124702415
 30
0.0
 11
319.8772930649564
 21
98.42622124702415
 31
0.0
  0
SOLID
  5
4399
330
4395
100
AcDbEntity
  8
0
 62
   115
100
AcDbTrace
 10
284.3772930649567
 20
99.05122124702415
 30
0.0
 11
284.3772930649567
 21
97.80122124702415
 31
0.0
 12
280.6272930649567
 22
98.42622124702415
 32
0.0
 13
280.6272930649567
 23
98.42622124702415
 33
0.0
  0
SOLID
  5
439A
330
4395
100
AcDbEntity
  8
0
 62
   115
100
AcDbTrace
 10
319.8772930649564
 20
99.05122124702415
 30
0.0
 11
319.8772930649564
 21
97.80122124702415
 31
0.0
 12
323.6272930649565
 22
98.42622124702415
 32
0.0
 13
323.6272930649565
 23
98.42622124702415
 33
0.0
  0
MTEXT
  5
439B
330
4395
100
AcDbEntity
  8
0
 62
     7
100
AcDbMText
 10
302.1272930649566
 20
102.1762212470241
 30
0.0
 40
4.5
 41
0.0
 71
     5
 72
     1
  1
\A1;43
 73
     1
 44
1.0
1001
ACAD
1000
MTEXTBEGIN
1070
    73
1070
     1
1070
    44
1040
1.0
1070
    74
1070
     0
1000
MTEXTEND
  0
POINT
  5
439C
330
4395
100
AcDbEntity
  8
DEFPOINTS
 62
     0
100
AcDbPoint
 10
280.6272930649567
 20
111.9434262345638
 30
0.0
  0
POINT
  5
439D
330
4395
100
AcDbEntity
  8
DEFPOINTS
 62
     0
100
AcDbPoint
 10
323.6272930649565
 20
123.9434262345638
 30
0.0
  0
POINT
  5
439E
330
4395
100
AcDbEntity
  8
DEFPOINTS
 62
     0
100
AcDbPoint
 10
323.6272930649565
 20
98.42622124702415
 30
0.0
  0
ENDBLK
  5
43A0
330
4395
100
AcDbEntity
  8
0
100
AcDbBlockEnd
  0
BLOCK
  5
43AC
330
43A2
100
AcDbEntity
  8
0
100
AcDbBlockBegin
  2
*D34
 70
     1
 10
0.0
 20
0.0
 30
0.0
  3
*D34
  1

  0
LINE
  5
43A3
330
43A2
100
AcDbEntity
  8
0
 62
   115
370
    -2
100
AcDbLine
 10
270.6272930649567
 20
96.02622124702415
 30
0.0
 11
270.6272930649567
 21
87.71120357759734
 31
0.0
  0
LINE
  5
43A4
330
43A2
100
AcDbEntity
  8
0
 62
   115
370
    -2
100
AcDbLine
 10
323.6272930649565
 20
96.02622124702415
 30
0.0
 11
323.6272930649565
 21
87.71120357759734
 31
0.0
  0
LINE
  5
43A5
330
43A2
100
AcDbEntity
  8
0
 62
   115
370
    -2
100
AcDbLine
 10
274.3772930649567
 20
88.91120357759735
 30
0.0
 11
319.8772930649564
 21
88.91120357759735
 31
0.0
  0
SOLID
  5
43A6
330
43A2
100
AcDbEntity
  8
0
 62
   115
100
AcDbTrace
 10
274.3772930649567
 20
89.53620357759735
 30
0.0
 11
274.3772930649567
 21
88.28620357759735
 31
0.0
 12
270.6272930649567
 22
88.91120357759735
 32
0.0
 13
270.6272930649567
 23
88.91120357759735
 33
0.0
  0
SOLID
  5
43A7
330
43A2
100
AcDbEntity
  8
0
 62
   115
100
AcDbTrace
 10
319.8772930649564
 20
89.53620357759735
 30
0.0
 11
319.8772930649564
 21
88.28620357759735
 31
0.0
 12
323.6272930649565
 22
88.91120357759735
 32
0.0
 13
323.6272930649565
 23
88.91120357759735
 33
0.0
  0
MTEXT
  5
43A8
330
43A2
100
AcDbEntity
  8
0
 62
     7
100
AcDbMText
 10
297.1272930649566
 20
92.66120357759735
 30
0.0
 40
4.5
 41
0.0
 71
     5
 72
     1
  1
\A1;53
 73
     1
 44
1.0
1001
ACAD
1000
MTEXTBEGIN
1070
    73
1070
     1
1070
    44
1040
1.0
1070
    74
1070
     0
1000
MTEXTEND
  0
POINT
  5
43A9
330
43A2
100
AcDbEntity
  8
DEFPOINTS
 62
     0
100
AcDbPoint
 10
270.6272930649567
 20
97.22622124702416
 30
0.0
  0
POINT
  5
43AA
330
43A2
100
AcDbEntity
  8
DEFPOINTS
 62
     0
100
AcDbPoint
 10
323.6272930649565
 20
97.22622124702416
 30
0.0
  0
POINT
  5
43AB
330
43A2
100
AcDbEntity
  8
DEFPOINTS
 62
     0
100
AcDbPoint
 10
323.6272930649565
 20
88.91120357759735
 30
0.0
  0
ENDBLK
  5
43AD
330
43A2
100
AcDbEntity
  8
0
100
AcDbBlockEnd
  0
BLOCK
  5
43CE
330
43C5
100
AcDbEntity
  8
0
100
AcDbBlockBegin
  2
*D35
 70
     1
 10
0.0
 20
0.0
 30
0.0
  3
*D35
  1

  0
LINE
  5
43C6
330
43C5
100
AcDbEntity
  8
0
 62
   115
370
    -2
100
AcDbLine
 10
185.7711600663555
 20
106.8931920680492
 30
0.0
 11
155.977079942936
 21
127.2902152554014
 31
0.0
  0
LINE
  5
43C7
330
43C5
100
AcDbEntity
  8
0
 62
   115
370
    -2
100
AcDbLine
 10
104.404735515652
 20
162.5966352137261
 30
0.0
 11
101.310394850015
 21
164.7150204112256
 31
0.0
  0
MTEXT
  5
43C8
330
43C5
100
AcDbEntity
  8
0
 62
     7
100
AcDbMText
 10
174.7817767003922
 20
119.4804906618282
 30
0.0
 40
4.5
 41
0.0
 71
     5
 72
     1
  1
\A1;P,C,D 55
 11
0.8251575108365432
 21
-0.5649027193331968
 31
0.0
 73
     1
 44
1.0
1001
ACAD
1000
MTEXTBEGIN
1070
    73
1070
     1
1070
    44
1040
1.0
1070
    74
1070
     0
1000
MTEXTEND
  0
LINE
  5
43C9
330
43C5
100
AcDbEntity
  8
0
 62
   115
370
    -2
100
AcDbLine
 10
107.499076181289
 20
160.4782500162267
 30
0.0
 11
152.882739277299
 21
129.4086004529009
 31
0.0
  0
SOLID
  5
43CA
330
43C5
100
AcDbEntity
  8
0
 62
   115
100
AcDbTrace
 10
104.7577997152353
 20
163.112358657999
 30
0.0
 11
104.0516713160688
 21
162.0809117694533
 31
0.0
 12
107.499076181289
 22
160.4782500162267
 32
0.0
 13
107.499076181289
 23
160.4782500162267
 33
0.0
  0
SOLID
  5
43CB
330
43C5
100
AcDbEntity
  8
0
 62
   115
100
AcDbTrace
 10
156.3301441425192
 20
127.8059386996742
 30
0.0
 11
155.6240157433527
 21
126.7744918111285
 31
0.0
 12
152.882739277299
 22
129.4086004529009
 32
0.0
 13
152.882739277299
 23
129.4086004529009
 33
0.0
  0
POINT
  5
43CC
330
43C5
100
AcDbEntity
  8
DEFPOINTS
 62
     0
100
AcDbPoint
 10
152.882739277299
 20
129.4086004529009
 30
0.0
  0
POINT
  5
43CD
330
43C5
100
AcDbEntity
  8
DEFPOINTS
 62
     0
100
AcDbPoint
 10
107.499076181289
 20
160.4782500162267
 30
0.0
  0
ENDBLK
  5
43CF
330
43C5
100
AcDbEntity
  8
0
100
AcDbBlockEnd
  0
BLOCK
  5
43DD
330
43D1
100
AcDbEntity
  8
0
100
AcDbBlockBegin
  2
*D36
 70
     1
 10
0.0
 20
0.0
 30
0.0
  3
*D36
  1

  0
LINE
  5
43D2
330
43D1
100
AcDbEntity
  8
0
 62
   115
370
    -2
100
AcDbLine
 10
113.6782270681699
 20
116.3426098493437
 30
0.0
 11
106.9553104826424
 21
104.6981785420569
 31
0.0
  0
LINE
  5
43D3
330
43D1
100
AcDbEntity
  8
0
 62
   115
370
    -2
100
AcDbLine
 10
146.7036022436095
 20
116.342617847488
 30
0.0
 11
153.4265234327874
 21
104.6981783870562
 31
0.0
  0
ARC
  5
43D4
330
43D1
100
AcDbEntity
  8
0
 62
   115
370
    -2
100
AcDbCircle
 10
130.1909170919494
 20
144.9434235340393
 30
0.0
 40
45.27120784923885
100
AcDbArc
 50
244.7473987344891
 51
295.2526008833008
  0
SOLID
  5
43D5
330
43D1
100
AcDbEntity
  8
0
 62
   115
100
AcDbTrace
 10
110.5879618033546
 20
103.4447791892748
 30
0.0
 11
111.1675903186197
 21
104.5522676922813
 31
0.0
 12
107.5553105519676
 22
105.7374089865733
 32
0.0
 13
107.5553105519676
 23
105.7374089865733
 33
0.0
  0
SOLID
  5
43D6
330
43D1
100
AcDbEntity
  8
0
 62
   115
100
AcDbTrace
 10
149.2142435958369
 20
104.55226756538
 30
0.0
 11
149.7938721037141
 21
103.4447790585069
 31
0.0
 12
152.8265233703948
 22
105.737408835575
 32
0.0
 13
152.8265233703948
 23
105.737408835575
 33
0.0
  0
MTEXT
  5
43D7
102
{ACAD_XDICTIONARY
360
4486
102
}
330
43D1
100
AcDbEntity
  8
0
 62
     7
100
AcDbMText
 10
130.1909169534591
 20
103.4222156848004
 30
0.0
 40
4.5
 41
0.0
 71
     5
 72
     1
  1
\A1;60\U+00B0
 11
1.0
 21
-0.0000000033354111
 31
0.0
 73
     1
 44
1.0
1001
ACAD
1000
MTEXTBEGIN
1070
    73
1070
     1
1070
    44
1040
1.0
1070
    74
1070
     0
1000
MTEXTEND
  0
POINT
  5
43D8
330
43D1
100
AcDbEntity
  8
DEFPOINTS
 62
     0
100
AcDbPoint
 10
122.329653257652
 20
100.3599872481657
 30
0.0
  0
POINT
  5
43D9
330
43D1
100
AcDbEntity
  8
DEFPOINTS
 62
     0
100
AcDbPoint
 10
114.278227137495
 20
117.38184029386
 30
0.0
  0
POINT
  5
43DA
330
43D1
100
AcDbEntity
  8
DEFPOINTS
 62
     0
100
AcDbPoint
 10
146.1036021812168
 20
117.3818482960069
 30
0.0
  0
POINT
  5
43DB
330
43D1
100
AcDbEntity
  8
DEFPOINTS
 62
     0
100
AcDbPoint
 10
141.7782287083185
 20
124.8736138740415
 30
0.0
  0
POINT
  5
43DC
330
43D1
100
AcDbEntity
  8
DEFPOINTS
 62
     0
100
AcDbPoint
 10
118.6036006603696
 20
124.8736058430408
 30
0.0
  0
ENDBLK
  5
43DE
330
43D1
100
AcDbEntity
  8
0
100
AcDbBlockEnd
  0
BLOCK
  5
43EA
330
43E0
100
AcDbEntity
  8
0
100
AcDbBlockBegin
  2
*D37
 70
     1
 10
0.0
 20
0.0
 30
0.0
  3
*D37
  1

  0
LINE
  5
43E1
330
43E0
100
AcDbEntity
  8
0
 62
   115
370
    -2
100
AcDbLine
 10
105.1909166718384
 20
121.444316113586
 30
0.0
 11
105.1909166718384
 21
89.09204294983942
 31
0.0
  0
LINE
  5
43E2
330
43E0
100
AcDbEntity
  8
0
 62
   115
370
    -2
100
AcDbLine
 10
155.1909163718384
 20
121.4443157772497
 30
0.0
 11
155.1909163718384
 21
89.09204294983942
 31
0.0
  0
LINE
  5
43E3
330
43E0
100
AcDbEntity
  8
0
 62
   115
370
    -2
100
AcDbLine
 10
108.9409166718384
 20
90.29204294983939
 30
0.0
 11
151.4409163718384
 21
90.29204294983939
 31
0.0
  0
SOLID
  5
43E4
330
43E0
100
AcDbEntity
  8
0
 62
   115
100
AcDbTrace
 10
108.9409166718384
 20
90.91704294983939
 30
0.0
 11
108.9409166718384
 21
89.66704294983939
 31
0.0
 12
105.1909166718384
 22
90.29204294983939
 32
0.0
 13
105.1909166718384
 23
90.29204294983939
 33
0.0
  0
SOLID
  5
43E5
330
43E0
100
AcDbEntity
  8
0
 62
   115
100
AcDbTrace
 10
151.4409163718384
 20
90.91704294983939
 30
0.0
 11
151.4409163718384
 21
89.66704294983939
 31
0.0
 12
155.1909163718384
 22
90.29204294983939
 32
0.0
 13
155.1909163718384
 23
90.29204294983939
 33
0.0
  0
MTEXT
  5
43E6
330
43E0
100
AcDbEntity
  8
0
 62
     7
100
AcDbMText
 10
130.1909165218384
 20
94.04204294983939
 30
0.0
 40
4.5
 41
0.0
 71
     5
 72
     1
  1
\A1;50
 73
     1
 44
1.0
1001
ACAD
1000
MTEXTBEGIN
1070
    73
1070
     1
1070
    44
1040
1.0
1070
    74
1070
     0
1000
MTEXTEND
  0
POINT
  5
43E7
330
43E0
100
AcDbEntity
  8
DEFPOINTS
 62
     0
100
AcDbPoint
 10
105.1909166718384
 20
122.644316113586
 30
0.0
  0
POINT
  5
43E8
330
43E0
100
AcDbEntity
  8
DEFPOINTS
 62
     0
100
AcDbPoint
 10
155.1909163718384
 20
122.6443157772497
 30
0.0
  0
POINT
  5
43E9
330
43E0
100
AcDbEntity
  8
DEFPOINTS
 62
     0
100
AcDbPoint
 10
155.1909163718384
 20
90.29204294983939
 30
0.0
  0
ENDBLK
  5
43EB
330
43E0
100
AcDbEntity
  8
0
100
AcDbBlockEnd
  0
ENDSEC
  0
SECTION
  2
ENTITIES
  0
INSERT
  5
247E
330
19
100
AcDbEntity
  8
0
100
AcDbBlockReference
  2
MCLBOMATTRIB
 10
0.0
 20
0.0
 30
0.0
1001
MCLBOMATTRIB
1002
{
1000
1
1005
0
1005
0
1000
강관 용접식 플렌지
1005
0
1000
Steel Welding Pipe Flange
1005
0
1000
SOP 5K 10A FF
1005
0
1000

1005
2480
1000
1
1005
0
1000

1005
2481
1000

1005
0
1000

1005
2482
1000

1005
0
1000

1005
0
1000

1005
0
1000

1005
0
1000

1005
0
1000

1005
0
1002
}
  0
TEXT
  5
2480
330
19
100
AcDbEntity
  8
0
 62
   111
100
AcDbText
 10
344.9746279359911
 20
60.9644544167441
 30
0.0
 40
2.5
  1

  7
STYLE1
100
AcDbText
  0
TEXT
  5
2481
330
19
100
AcDbEntity
  8
0
 62
   111
100
AcDbText
 10
379.9746279359911
 20
60.9644544167441
 30
0.0
 40
2.5
  1

  7
STYLE1
100
AcDbText
  0
TEXT
  5
2482
330
19
100
AcDbEntity
  8
0
 62
   111
100
AcDbText
 10
394.9746279359911
 20
60.9644544167441
 30
0.0
 40
2.5
  1

  7
STYLE1
100
AcDbText
  0
MTEXT
  5
24CA
330
19
100
AcDbEntity
  8
0
100
AcDbMText
 10
295.0
 20
25.00000000000007
 30
0.0
 40
2.5
 41
20.0
 71
     5
 72
     5
  1

  7
STYLE1
 73
     1
 44
1.0
1001
ACAD
1000
MTEXTBEGIN
1070
    73
1070
     1
1070
    44
1040
1.0
1070
    74
1070
     0
1000
MTEXTEND
  0
MTEXT
  5
24DF
330
19
100
AcDbEntity
  8
0
100
AcDbMText
 10
265.0
 20
292.0
 30
0.0
 40
1.8
 41
15.0
 71
     1
 72
     5
  1

  7
STYLE1
 73
     1
 44
1.0
1001
ACAD
1000
MTEXTBEGIN
1070
    73
1070
     1
1070
    44
1040
1.0
1070
    74
1070
     0
1000
MTEXTEND
  0
LINE
  5
2EC4
330
19
100
AcDbEntity
  8
1
100
AcDbLine
 10
208.5420390941106
 20
144.9434262345638
 30
0.0
 11
374.9566795444386
 21
144.9434262345638
 31
0.0
  0
LINE
  5
324C
330
19
100
AcDbEntity
  8
0
100
AcDbLine
 10
271.1272870649564
 20
111.4434322345641
 30
0.0
 11
271.1272870649564
 21
178.4434202345638
 31
0.0
  0
TEXT
  5
32A5
330
19
100
AcDbEntity
  8
0
100
AcDbText
 10
164.7515592626525
 20
55.68228192348909
 30
0.0
 40
10.5
  1
STK2505-4-R
  7
T2
 72
     4
 11
220.7515592626525
 21
60.93228192348909
 31
0.0
100
AcDbText
  0
LINE
  5
34B0
330
19
100
AcDbEntity
  8
SL2-11
100
AcDbLine
 10
114.2782283884327
 20
172.5050108974963
 30
0.0
 11
118.6036014115451
 21
165.0132450597777
 31
0.0
  0
LINE
  5
34EB
330
19
100
AcDbEntity
  8
SL2-11
100
AcDbLine
 10
146.1036009302802
 20
172.5050028953497
 30
0.0
 11
141.7782279571439
 21
165.0132370287774
 31
0.0
  0
LINE
  5
355D
330
19
100
AcDbEntity
  8
1
100
AcDbLine
 10
130.1909166718384
 20
180.6453562432079
 30
0.0
 11
130.1909166718384
 21
109.2414818324613
 31
0.0
  0
LINE
  5
375C
330
19
100
AcDbEntity
  8
SL2-11
100
AcDbLine
 10
146.1036021812168
 20
117.3818482960069
 30
0.0
 11
141.7782287083185
 21
124.8736138740415
 31
0.0
  0
LINE
  5
3784
330
19
100
AcDbEntity
  8
SL2-11
100
AcDbLine
 10
114.278227137495
 20
117.38184029386
 30
0.0
 11
118.6036006603696
 21
124.8736058430408
 31
0.0
  0
LINE
  5
3945
330
19
100
AcDbEntity
  8
0
100
AcDbLine
 10
270.6272930649567
 20
111.9434262345637
 30
0.0
 11
270.6272930649563
 21
177.9434262345638
 31
0.0
  0
LINE
  5
394B
330
19
100
AcDbEntity
  8
0
100
AcDbLine
 10
213.5602951230653
 20
133.1434262345637
 30
0.0
 11
213.5602951230653
 21
156.7434262345638
 31
0.0
  0
LINE
  5
394E
330
19
100
AcDbEntity
  8
0
100
AcDbLine
 10
214.0602951230653
 20
157.2434262345638
 30
0.0
 11
213.5602951230653
 21
156.7434262345638
 31
0.0
  0
LINE
  5
394F
330
19
100
AcDbEntity
  8
0
100
AcDbLine
 10
213.5602951230652
 20
133.1434262345638
 30
0.0
 11
214.0602951230653
 21
132.6434262345637
 31
0.0
  0
MTEXT
  5
3954
330
19
100
AcDbEntity
  8
0
 62
   111
100
AcDbMText
 10
0.0
 20
0.0
 30
0.0
 40
3.0
 41
0.0
 71
     5
 72
     5
  1

 11
0.6658655619423123
 21
0.7460717481712123
 31
0.0
 73
     1
 44
1.0
1001
ACAD
1000
MTEXTBEGIN
1070
    73
1070
     1
1070
    44
1040
1.0
1070
    74
1070
     0
1000
MTEXTEND
  0
MTEXT
  5
3959
330
19
100
AcDbEntity
  8
0
 62
   111
100
AcDbMText
 10
0.0
 20
0.0
 30
0.0
 40
3.0
 41
0.0
 71
     5
 72
     5
  1

 11
0.9994246805919202
 21
0.0339161882253633
 31
0.0
 73
     1
 44
1.0
1001
ACAD
1000
MTEXTBEGIN
1070
    73
1070
     1
1070
    44
1040
1.0
1070
    74
1070
     0
1000
MTEXTEND
  0
LINE
  5
3B0B
330
19
100
AcDbEntity
  8
1
100
AcDbLine
 10
94.48897946646566
 20
144.9434252345638
 30
0.0
 11
165.8928538772111
 21
144.9434252345638
 31
0.0
  0
MTEXT
  5
3CA0
330
19
100
AcDbEntity
  8
0
 62
   111
100
AcDbMText
 10
0.0
 20
0.0
 30
0.0
 40
3.0
 41
0.0
 71
     5
 72
     5
  1

 11
0.8978290820304724
 21
-0.4403441148242126
 31
0.0
 73
     1
 44
1.0
1001
ACAD
1000
MTEXTBEGIN
1070
    73
1070
     1
1070
    44
1040
1.0
1070
    74
1070
     0
1000
MTEXTEND
  0
MTEXT
  5
3CA1
330
19
100
AcDbEntity
  8
0
 62
   111
100
AcDbMText
 10
0.0
 20
0.0
 30
0.0
 40
3.0
 41
0.0
 71
     5
 72
     5
  1

 11
0.8978290820304724
 21
-0.4403441148242126
 31
0.0
 73
     1
 44
1.0
1001
ACAD
1000
MTEXTBEGIN
1070
    73
1070
     1
1070
    44
1040
1.0
1070
    74
1070
     0
1000
MTEXTEND
  0
MTEXT
  5
3CA2
330
19
100
AcDbEntity
  8
0
 62
   111
100
AcDbMText
 10
0.0
 20
0.0
 30
0.0
 40
3.0
 41
0.0
 71
     5
 72
     5
  1

 11
0.8978290820304724
 21
-0.4403441148242126
 31
0.0
 73
     1
 44
1.0
1001
ACAD
1000
MTEXTBEGIN
1070
    73
1070
     1
1070
    44
1040
1.0
1070
    74
1070
     0
1000
MTEXTEND
  0
MTEXT
  5
3CA3
330
19
100
AcDbEntity
  8
0
 62
   111
100
AcDbMText
 10
0.0
 20
0.0
 30
0.0
 40
3.0
 41
0.0
 71
     5
 72
     5
  1

 11
0.8978290820304724
 21
-0.4403441148242126
 31
0.0
 73
     1
 44
1.0
1001
ACAD
1000
MTEXTBEGIN
1070
    73
1070
     1
1070
    44
1040
1.0
1070
    74
1070
     0
1000
MTEXTEND
  0
MTEXT
  5
3CA8
330
19
100
AcDbEntity
  8
0
 62
   111
100
AcDbMText
 10
0.0
 20
0.0
 30
0.0
 40
3.0
 41
0.0
 71
     5
 72
     5
  1

 11
0.3826834323650867
 21
-0.923879532511288
 31
0.0
 73
     1
 44
1.0
1001
ACAD
1000
MTEXTBEGIN
1070
    73
1070
     1
1070
    44
1040
1.0
1070
    74
1070
     0
1000
MTEXTEND
  0
LINE
  5
418B
330
19
100
AcDbEntity
  8
2
100
AcDbLine
 10
127.6909166718384
 20
178.3500054115439
 30
0.0
 11
127.6909166718384
 21
160.544388176403
 31
0.0
  0
LINE
  5
418C
330
19
100
AcDbEntity
  8
2
100
AcDbLine
 10
132.6909166718384
 20
178.3500054115439
 30
0.0
 11
132.6909166718384
 21
160.5443853103795
 31
0.0
  0
LINE
  5
418D
330
19
100
AcDbEntity
  8
2
100
AcDbLine
 10
127.1909166718384
 20
178.3088204759695
 30
0.0
 11
127.1909166718384
 21
172.4434192345638
 31
0.0
  0
LINE
  5
418E
330
19
100
AcDbEntity
  8
2
100
AcDbLine
 10
133.1909166718384
 20
178.3088204759695
 30
0.0
 11
133.1909166718384
 21
172.4434192345638
 31
0.0
  0
LINE
  5
4194
330
19
100
AcDbEntity
  8
2
100
AcDbLine
 10
127.1909166718384
 20
172.4434192345638
 30
0.0
 11
133.1909166718384
 21
172.4434192345638
 31
0.0
  0
LINE
  5
4195
330
19
100
AcDbEntity
  8
2
100
AcDbLine
 10
127.6909166718384
 20
171.9434192345638
 30
0.0
 11
132.6909166718384
 21
171.9434192345638
 31
0.0
  0
LINE
  5
4196
330
19
100
AcDbEntity
  8
2
100
AcDbLine
 10
127.6909166718384
 20
171.9434192345638
 30
0.0
 11
127.1909166718384
 21
172.4434192345638
 31
0.0
  0
LINE
  5
4197
330
19
100
AcDbEntity
  8
2
100
AcDbLine
 10
132.6909166718384
 20
171.9434192345638
 30
0.0
 11
133.1909166718384
 21
172.4434192345638
 31
0.0
  0
LINE
  5
419B
330
19
100
AcDbEntity
  8
0
100
AcDbLine
 10
214.0602951230653
 20
157.2434262345638
 30
0.0
 11
214.0602951230653
 21
132.6434262345637
 31
0.0
  0
LINE
  5
419C
330
19
100
AcDbEntity
  8
0
100
AcDbLine
 10
373.5602951230653
 20
133.1434262345638
 30
0.0
 11
373.5602951230653
 21
156.7434262345639
 31
0.0
  0
LINE
  5
419D
330
19
100
AcDbEntity
  8
0
100
AcDbLine
 10
373.0602951230653
 20
157.2434262345638
 30
0.0
 11
373.5602951230653
 21
156.7434262345638
 31
0.0
  0
LINE
  5
419E
330
19
100
AcDbEntity
  8
0
100
AcDbLine
 10
373.0602951230653
 20
132.6434262345637
 30
0.0
 11
373.5602951230653
 21
133.1434262345638
 31
0.0
  0
LINE
  5
419F
330
19
100
AcDbEntity
  8
0
100
AcDbLine
 10
373.0602951230653
 20
157.2434262345638
 30
0.0
 11
373.0602951230653
 21
132.6434262345637
 31
0.0
  0
LINE
  5
41B1
330
19
100
AcDbEntity
  8
0
100
AcDbLine
 10
280.6272930649567
 20
111.9434262345638
 30
0.0
 11
280.6272930649564
 21
177.9434262345636
 31
0.0
  0
LINE
  5
41B2
330
19
100
AcDbEntity
  8
0
100
AcDbLine
 10
280.1272930649568
 20
111.4434262345638
 30
0.0
 11
280.1272930649563
 21
178.4434262345639
 31
0.0
  0
LINE
  5
41B7
330
19
100
AcDbEntity
  8
0
100
AcDbLine
 10
280.1272930649564
 20
178.4434262345638
 30
0.0
 11
280.6272930649564
 21
177.9434262345638
 31
0.0
  0
LINE
  5
41B8
330
19
100
AcDbEntity
  8
0
100
AcDbLine
 10
270.6272930649567
 20
111.9434262345638
 30
0.0
 11
271.1272930649567
 21
111.4434262345638
 31
0.0
  0
LINE
  5
41B9
330
19
100
AcDbEntity
  8
0
100
AcDbLine
 10
280.1272930649566
 20
111.4434262345638
 30
0.0
 11
280.6272930649566
 21
111.9434262345638
 31
0.0
  0
LINE
  5
41BC
330
19
100
AcDbEntity
  8
2
100
AcDbLine
 10
275.6272930649565
 20
129.1434262345638
 30
0.0
 11
275.6272930649565
 21
160.7434262345638
 31
0.0
  0
LEADER
  5
422E
330
19
100
AcDbEntity
  8
0
100
AcDbLeader
  3
STANDARD
 73
     0
 75
     1
 40
4.5
 41
26.78571428571429
 76
     3
 10
130.1909166718384
 20
178.4434192345638
 30
0.0
 10
119.1014494463206
 20
196.3950951224971
 30
0.0
 10
115.3514494463206
 20
196.3950951224971
 30
0.0
340
422F
1001
ACAD
1000
DSTYLE
1002
{
1070
    40
1040
1.5
1070
    41
1040
2.5
1070
    42
1040
0.8
1070
    43
1040
0.8
1070
    44
1040
0.8
1070
    73
1070
     0
1070
    74
1070
     0
1070
    77
1070
     1
1070
    78
1070
     8
1070
   141
1040
-1.0
1070
   147
1040
1.0
1070
   172
1070
     1
1070
   176
1070
   115
1070
   177
1070
   115
1070
   178
1070
     7
1070
   271
1070
     3
1002
}
  0
MTEXT
  5
422F
102
{ACAD_REACTORS
330
422E
102
}
330
19
100
AcDbEntity
  8
0
 62
     7
100
AcDbMText
 10
113.8514494463206
 20
197.895095122497
 30
0.0
 40
4.5
 41
0.0
 71
     9
 72
     1
  1
M6xP1.0
 73
     1
 44
1.0
1001
ACAD
1000
MTEXTBEGIN
1070
    73
1070
     1
1070
    44
1040
1.0
1070
    74
1070
     0
1000
MTEXTEND
  0
LINE
  5
42B2
330
19
100
AcDbEntity
  8
0
100
AcDbLine
 10
323.6272930649565
 20
123.9434262345638
 30
0.0
 11
323.6272930649564
 21
165.9434262345638
 31
0.0
  0
LINE
  5
42B7
330
19
100
AcDbEntity
  8
0
100
AcDbLine
 10
271.1272930649563
 20
178.4434262345638
 30
0.0
 11
270.6272930649563
 21
177.9434262345638
 31
0.0
  0
LINE
  5
42C0
330
19
100
AcDbEntity
  8
2
100
AcDbLine
 10
318.6272930649565
 20
129.1434262345638
 30
0.0
 11
318.6272930649563
 21
160.7434262345639
 31
0.0
  0
LINE
  5
42C5
330
19
100
AcDbEntity
  8
0
100
AcDbLine
 10
323.1272930649563
 20
166.4434262345638
 30
0.0
 11
323.1272930649563
 21
123.4434262345637
 31
0.0
  0
LINE
  5
42E2
330
19
100
AcDbEntity
  8
0
100
AcDbLine
 10
323.1272930649563
 20
166.4434262345638
 30
0.0
 11
323.6272930649564
 21
165.9434262345639
 31
0.0
  0
LINE
  5
42E3
330
19
100
AcDbEntity
  8
0
100
AcDbLine
 10
323.1272930649565
 20
123.4434262345638
 30
0.0
 11
323.6272930649565
 21
123.9434262345638
 31
0.0
  0
LINE
  5
434E
330
19
100
AcDbEntity
  8
0
  6
Continuous
100
AcDbLine
 10
214.0602951230653
 20
157.2434262345638
 30
0.0
 11
270.6272930649564
 21
157.2434262345638
 31
0.0
  0
LINE
  5
434F
330
19
100
AcDbEntity
  8
0
  6
Continuous
100
AcDbLine
 10
214.0602951230653
 20
132.6434262345637
 30
0.0
 11
270.6272930649566
 21
132.6434262345637
 31
0.0
  0
LINE
  5
4350
330
19
100
AcDbEntity
  8
0
  6
Continuous
100
AcDbLine
 10
323.6272930649564
 20
157.2434262345638
 30
0.0
 11
373.0602951230653
 21
157.2434262345638
 31
0.0
  0
LINE
  5
4351
330
19
100
AcDbEntity
  8
0
  6
Continuous
100
AcDbLine
 10
323.6272930649564
 20
132.6434262345637
 30
0.0
 11
373.0602951230653
 21
132.6434262345637
 31
0.0
  0
LINE
  5
4352
330
19
100
AcDbEntity
  8
9
  6
Continuous
100
AcDbLine
 10
213.5602951230652
 20
155.5934262345638
 30
0.0
 11
270.6272930649564
 21
155.5934262345637
 31
0.0
  0
LINE
  5
4353
330
19
100
AcDbEntity
  8
9
  6
Continuous
100
AcDbLine
 10
213.5602951230653
 20
134.2934262345638
 30
0.0
 11
270.6272930649566
 21
134.2934262345638
 31
0.0
  0
LINE
  5
4354
330
19
100
AcDbEntity
  8
9
  6
Continuous
100
AcDbLine
 10
323.6272930649564
 20
155.5934262345638
 30
0.0
 11
373.5602951230653
 21
155.5934262345638
 31
0.0
  0
LINE
  5
4355
330
19
100
AcDbEntity
  8
9
  6
Continuous
100
AcDbLine
 10
323.6272930649564
 20
134.2934262345638
 30
0.0
 11
373.5602951230653
 21
134.2934262345638
 31
0.0
  0
DIMENSION
  5
4356
330
19
100
AcDbEntity
  8
0
100
AcDbDimension
  2
*D29
 10
387.1542887438002
 20
157.2434262345638
 30
0.0
 11
383.4042887438002
 21
144.9434262345638
 31
0.0
 70
    32
  1
%%C24.6
 71
     5
 42
24.60000000000011
  3
STANDARD
100
AcDbAlignedDimension
 13
373.0602951230653
 23
132.6434262345637
 33
0.0
 14
373.0602951230653
 24
157.2434262345638
 34
0.0
 50
90.0
100
AcDbRotatedDimension
1001
ACAD
1000
DSTYLE
1002
{
1070
    40
1040
1.5
1070
    41
1040
2.5
1070
    42
1040
0.8
1070
    43
1040
0.8
1070
    44
1040
0.8
1070
    73
1070
     0
1070
    74
1070
     0
1070
    77
1070
     3
1070
    78
1070
     8
1070
   141
1040
-1.0
1070
   147
1040
1.0
1070
   172
1070
     1
1070
   176
1070
   115
1070
   177
1070
   115
1070
   178
1070
     7
1070
   271
1070
     3
1002
}
  0
LINE
  5
4363
330
19
100
AcDbEntity
  8
0
100
AcDbLine
 10
280.6272930649565
 20
166.4434262345638
 30
0.0
 11
323.1272930649563
 21
166.4434262345638
 31
0.0
  0
LINE
  5
4364
330
19
100
AcDbEntity
  8
0
100
AcDbLine
 10
280.6272930649566
 20
123.4434262345638
 30
0.0
 11
323.1272930649565
 21
123.4434262345638
 31
0.0
  0
LINE
  5
4365
330
19
100
AcDbEntity
  8
0
100
AcDbLine
 10
271.1272930649563
 20
178.4434262345638
 30
0.0
 11
280.1272930649564
 21
178.4434262345638
 31
0.0
  0
LINE
  5
4366
330
19
100
AcDbEntity
  8
0
100
AcDbLine
 10
271.1272930649567
 20
111.4434262345638
 30
0.0
 11
280.1272930649566
 21
111.4434262345638
 31
0.0
  0
LINE
  5
4367
330
19
100
AcDbEntity
  8
2
  6
HIDDEN
100
AcDbLine
 10
270.6272930649564
 20
160.7434262345637
 30
0.0
 11
275.6272930649565
 21
160.7434262345638
 31
0.0
  0
LINE
  5
4368
330
19
100
AcDbEntity
  8
2
  6
HIDDEN
100
AcDbLine
 10
270.6272930649566
 20
129.1434262345638
 30
0.0
 11
275.6272930649565
 21
129.1434262345638
 31
0.0
  0
LINE
  5
4369
330
19
100
AcDbEntity
  8
2
  6
HIDDEN
100
AcDbLine
 10
318.6272930649565
 20
129.1434262345638
 30
0.0
 11
323.6272930649566
 21
129.1434262345638
 31
0.0
  0
LINE
  5
436A
330
19
100
AcDbEntity
  8
2
  6
HIDDEN
100
AcDbLine
 10
318.6272930649563
 20
160.7434262345638
 30
0.0
 11
323.6272930649564
 21
160.7434262345638
 31
0.0
  0
DIMENSION
  5
436B
330
19
100
AcDbEntity
  8
0
100
AcDbDimension
  2
*D30
 10
335.6304360794102
 20
166.4434262345638
 30
0.0
 11
331.8804360794101
 21
144.9434262345638
 31
0.0
 70
    32
  1
%%c43h7
 71
     5
 42
43.0000000000001
  3
STANDARD
100
AcDbAlignedDimension
 13
323.1272930649563
 23
123.4434262345638
 33
0.0
 14
323.1272930649563
 24
166.4434262345638
 34
0.0
 50
90.0
100
AcDbRotatedDimension
1001
ACAD
1000
DSTYLE
1002
{
1070
    40
1040
1.5
1070
    41
1040
2.5
1070
    42
1040
0.8
1070
    43
1040
0.8
1070
    44
1040
0.8
1070
    73
1070
     0
1070
    74
1070
     0
1070
    77
1070
     3
1070
    78
1070
     8
1070
   141
1040
-1.0
1070
   147
1040
1.0
1070
   172
1070
     1
1070
   176
1070
   115
1070
   177
1070
   115
1070
   178
1070
     7
1070
   271
1070
     3
1002
}
  0
DIMENSION
  5
4378
330
19
100
AcDbEntity
  8
0
100
AcDbDimension
  2
*D31
 10
262.1079044255844
 20
178.4434262345638
 30
0.0
 11
258.3579044255843
 21
144.943429234564
 31
0.0
 70
    32
  1
%%c67
 71
     5
 42
66.99999399999966
  3
STANDARD
100
AcDbAlignedDimension
 13
271.1272870649564
 23
111.4434322345641
 33
0.0
 14
271.1272930649563
 24
178.4434262345638
 34
0.0
 50
90.0
100
AcDbRotatedDimension
1001
ACAD
1000
DSTYLE
1002
{
1070
    40
1040
1.5
1070
    41
1040
2.5
1070
    42
1040
0.8
1070
    43
1040
0.8
1070
    44
1040
0.8
1070
    73
1070
     0
1070
    74
1070
     0
1070
    77
1070
     3
1070
    78
1070
     8
1070
   141
1040
-1.0
1070
   147
1040
1.0
1070
   172
1070
     1
1070
   176
1070
   115
1070
   177
1070
   115
1070
   178
1070
     7
1070
   271
1070
     3
1002
}
  0
DIMENSION
  5
4385
330
19
100
AcDbEntity
  8
0
100
AcDbDimension
  2
*D32
 10
280.6272930649566
 20
98.42622124702415
 30
0.0
 11
275.6272930649567
 21
102.1762212470241
 31
0.0
 70
    32
 71
     5
 42
9.999999999999943
  3
STANDARD
100
AcDbAlignedDimension
 13
270.6272930649567
 23
111.9434262345638
 33
0.0
 14
280.6272930649566
 24
111.9434262345638
 34
0.0
100
AcDbRotatedDimension
1001
ACAD
1000
DSTYLE
1002
{
1070
    40
1040
1.5
1070
    41
1040
2.5
1070
    42
1040
0.8
1070
    43
1040
0.8
1070
    44
1040
0.8
1070
    73
1070
     0
1070
    74
1070
     0
1070
    77
1070
     3
1070
    78
1070
     8
1070
   141
1040
-1.0
1070
   147
1040
1.0
1070
   172
1070
     1
1070
   176
1070
   115
1070
   177
1070
   115
1070
   178
1070
     7
1070
   271
1070
     3
1002
}
  0
DIMENSION
  5
4394
330
19
100
AcDbEntity
  8
0
100
AcDbDimension
  2
*D33
 10
323.6272930649565
 20
98.42622124702415
 30
0.0
 11
302.1272930649566
 21
102.1762212470241
 31
0.0
 70
    32
 71
     5
 42
42.99999999999977
  3
STANDARD
100
AcDbAlignedDimension
 13
280.6272930649567
 23
111.9434262345638
 33
0.0
 14
323.6272930649565
 24
123.9434262345638
 34
0.0
100
AcDbRotatedDimension
1001
ACAD
1000
DSTYLE
1002
{
1070
    40
1040
1.5
1070
    41
1040
2.5
1070
    42
1040
0.8
1070
    43
1040
0.8
1070
    44
1040
0.8
1070
    73
1070
     0
1070
    74
1070
     0
1070
    77
1070
     3
1070
    78
1070
     8
1070
   141
1040
-1.0
1070
   147
1040
1.0
1070
   172
1070
     1
1070
   176
1070
   115
1070
   177
1070
   115
1070
   178
1070
     7
1070
   271
1070
     3
1002
}
  0
DIMENSION
  5
43A1
330
19
100
AcDbEntity
  8
0
100
AcDbDimension
  2
*D34
 10
323.6272930649565
 20
88.91120357759735
 30
0.0
 11
297.1272930649566
 21
92.66120357759735
 31
0.0
 70
    32
 71
     5
 42
52.99999999999977
  3
STANDARD
100
AcDbAlignedDimension
 13
270.6272930649567
 23
97.22622124702416
 33
0.0
 14
323.6272930649565
 24
97.22622124702416
 34
0.0
100
AcDbRotatedDimension
1001
ACAD
1000
DSTYLE
1002
{
1070
    40
1040
1.5
1070
    41
1040
2.5
1070
    42
1040
0.8
1070
    43
1040
0.8
1070
    44
1040
0.8
1070
    73
1070
     0
1070
    74
1070
     0
1070
    77
1070
     3
1070
    78
1070
     8
1070
   141
1040
-1.0
1070
   147
1040
1.0
1070
   172
1070
     1
1070
   176
1070
   115
1070
   177
1070
   115
1070
   178
1070
     7
1070
   271
1070
     3
1002
}
  0
CIRCLE
  5
43AE
330
19
100
AcDbEntity
  8
0
100
AcDbCircle
 10
130.190907729294
 20
144.9434252345638
 30
0.0
 40
12.3
  0
CIRCLE
  5
43AF
330
19
100
AcDbEntity
  8
0
100
AcDbCircle
 10
130.190907729294
 20
144.9434252345638
 30
0.0
 40
15.8
  0
ARC
  5
43B0
330
19
100
AcDbEntity
  8
9
100
AcDbCircle
 10
130.1909166718384
 20
144.9434192345638
 30
0.0
 40
10.85
100
AcDbArc
 50
179.9999588293801
 51
90.0
  0
CIRCLE
  5
43B1
330
19
100
AcDbEntity
  8
2
100
AcDbCircle
 10
130.190907729294
 20
144.9434252345638
 30
0.0
 40
21.5
  0
CIRCLE
  5
43B2
330
19
100
AcDbEntity
  8
1
100
AcDbCircle
 10
130.190907729294
 20
144.9434252345638
 30
0.0
 40
27.5
  0
ARC
  5
43B3
330
19
100
AcDbEntity
  8
0
100
AcDbCircle
 10
130.1909166718384
 20
144.9434192345638
 30
0.0
 40
33.5
100
AcDbArc
 50
41.73181781061987
 51
138.2681829602063
  0
ARC
  5
43B4
330
19
100
AcDbEntity
  8
0
100
AcDbCircle
 10
130.1909166718384
 20
144.9434192345638
 30
0.0
 40
33.0
100
AcDbArc
 50
40.74905517543718
 51
139.2509456225296
  0
ARC
  5
43B5
330
19
100
AcDbEntity
  8
0
100
AcDbCircle
 10
130.1909166718384
 20
144.9434192345638
 30
0.0
 40
33.5
100
AcDbArc
 50
221.7318170397938
 51
318.2681821893801
  0
ARC
  5
43B6
330
19
100
AcDbEntity
  8
0
100
AcDbCircle
 10
130.1909166718384
 20
144.9434192345638
 30
0.0
 40
33.0
100
AcDbArc
 50
220.7490543774705
 51
319.2509448245628
  0
CIRCLE
  5
43B7
330
19
100
AcDbEntity
  8
0
100
AcDbCircle
 10
116.4409148999889
 20
168.759127978637
 30
0.0
 40
2.75
  0
CIRCLE
  5
43B8
330
19
100
AcDbEntity
  8
0
100
AcDbCircle
 10
143.940914443712
 20
168.7591199620635
 30
0.0
 40
2.75
  0
CIRCLE
  5
43B9
330
19
100
AcDbEntity
  8
0
100
AcDbCircle
 10
116.4409138989323
 20
121.1277230684504
 30
0.0
 40
2.75
  0
CIRCLE
  5
43BA
330
19
100
AcDbEntity
  8
0
100
AcDbCircle
 10
143.9409154447677
 20
121.1277310850242
 30
0.0
 40
2.75
  0
LINE
  5
43BF
330
19
100
AcDbEntity
  8
0
100
AcDbLine
 10
105.1909166718383
 20
167.2425223555415
 30
0.0
 11
105.1909166718384
 21
122.644316113586
 31
0.0
  0
LINE
  5
43C0
330
19
100
AcDbEntity
  8
0
100
AcDbLine
 10
155.1909163718384
 20
167.2425226918779
 30
0.0
 11
155.1909163718384
 21
122.6443157772497
 31
0.0
  0
DIMENSION
  5
43C4
330
19
100
AcDbEntity
  8
0
100
AcDbDimension
  2
*D35
 10
107.499076181289
 20
160.4782500162267
 30
0.0
 11
172.4212903374642
 21
116.0325110629755
 31
0.0
 70
    35
  1
P,C,D 55
 71
     5
 42
55.00000000000003
  3
STANDARD
100
AcDbDiametricDimension
 15
152.882739277299
 25
129.4086004529009
 35
0.0
 40
0.0
1001
ACAD
1000
DSTYLE
1002
{
1070
    40
1040
1.5
1070
    41
1040
2.5
1070
    42
1040
0.8
1070
    43
1040
0.8
1070
    44
1040
0.8
1070
    73
1070
     0
1070
    74
1070
     0
1070
    77
1070
     3
1070
    78
1070
     8
1070
   141
1040
-1.0
1070
   147
1040
1.0
1070
   172
1070
     1
1070
   176
1070
   115
1070
   177
1070
   115
1070
   178
1070
     7
1070
   271
1070
     3
1070
   288
1070
     1
1002
}
  0
DIMENSION
  5
43D0
330
19
100
AcDbEntity
  8
0
100
AcDbDimension
  2
*D36
 10
118.6036006603696
 20
124.8736058430408
 30
0.0
 11
130.1909169534591
 21
103.4222156848004
 31
0.0
 70
    34
 71
     5
 42
1.047197677942155
  3
STANDARD
100
AcDb2LineAngularDimension
 13
146.1036021812168
 23
117.3818482960069
 33
0.0
 14
141.7782287083185
 24
124.8736138740415
 34
0.0
 15
114.278227137495
 25
117.38184029386
 35
0.0
 16
122.329653257652
 26
100.3599872481657
 36
0.0
1001
ACAD
1000
DSTYLE
1002
{
1070
    40
1040
1.5
1070
    41
1040
2.5
1070
    42
1040
0.8
1070
    43
1040
0.8
1070
    44
1040
0.8
1070
    73
1070
     0
1070
    74
1070
     0
1070
    77
1070
     3
1070
    78
1070
     8
1070
   141
1040
-1.0
1070
   147
1040
1.0
1070
   172
1070
     1
1070
   176
1070
   115
1070
   177
1070
   115
1070
   178
1070
     7
1070
   271
1070
     3
1002
}
  0
DIMENSION
  5
43DF
330
19
100
AcDbEntity
  8
0
100
AcDbDimension
  2
*D37
 10
155.1909163718384
 20
90.29204294983939
 30
0.0
 11
130.1909165218384
 21
94.04204294983939
 31
0.0
 70
    32
 71
     5
 42
49.99999970000001
  3
STANDARD
100
AcDbAlignedDimension
 13
105.1909166718384
 23
122.644316113586
 33
0.0
 14
155.1909163718384
 24
122.6443157772497
 34
0.0
100
AcDbRotatedDimension
1001
ACAD
1000
DSTYLE
1002
{
1070
    40
1040
1.5
1070
    41
1040
2.5
1070
    42
1040
0.8
1070
    43
1040
0.8
1070
    44
1040
0.8
1070
    73
1070
     0
1070
    74
1070
     0
1070
    77
1070
     3
1070
    78
1070
     8
1070
   141
1040
-1.0
1070
   147
1040
1.0
1070
   172
1070
     1
1070
   176
1070
   115
1070
   177
1070
   115
1070
   178
1070
     7
1070
   271
1070
     3
1002
}
  0
LEADER
  5
43EC
330
19
100
AcDbEntity
  8
0
100
AcDbLeader
  3
STANDARD
 73
     0
 74
     0
 75
     1
 40
4.5
 41
23.35714285714285
 76
     3
 10
146.6254761904641
 20
170.3284840159414
 30
0.0
 10
164.2705597624189
 20
188.4781413758977
 30
0.0
 10
168.0205597624189
 20
188.4781413758977
 30
0.0
340
43ED
1001
ACAD
1000
DSTYLE
1002
{
1070
    40
1040
1.5
1070
    41
1040
2.5
1070
    42
1040
0.8
1070
    43
1040
0.8
1070
    44
1040
0.8
1070
    73
1070
     0
1070
    74
1070
     0
1070
    77
1070
     1
1070
    78
1070
     8
1070
   141
1040
-1.0
1070
   147
1040
1.0
1070
   172
1070
     1
1070
   176
1070
   115
1070
   177
1070
   115
1070
   178
1070
     7
1070
   271
1070
     3
1002
}
  0
MTEXT
  5
43ED
102
{ACAD_REACTORS
330
43EC
102
}
330
19
100
AcDbEntity
  8
0
 62
     7
100
AcDbMText
 10
169.5205597624189
 20
189.9781413758977
 30
0.0
 40
4.5
 41
0.0
 71
     7
 72
     1
  1
4-%%c5.5
 73
     1
 44
1.0
1001
ACAD
1000
MTEXTBEGIN
1070
    73
1070
     1
1070
    44
1040
1.0
1070
    74
1070
     0
1000
MTEXTEND
  0
ENDSEC
  0
SECTION
  2
OBJECTS
  0
DICTIONARY
  5
C
330
0
100
AcDbDictionary
281
     1
  3
ACAD_COLOR
350
43F1
  3
ACAD_GROUP
350
D
  3
ACAD_LAYOUT
350
4155
  3
ACAD_MATERIAL
350
43F0
  3
ACAD_MLEADERSTYLE
350
4460
  3
ACAD_MLINESTYLE
350
E
  3
ACAD_PLOTSETTINGS
350
4156
  3
ACAD_PLOTSTYLENAME
350
4153
  3
ACAD_SCALELIST
350
443E
  3
ACAD_TABLESTYLE
350
43F2
  3
ACAD_VISUALSTYLE
350
442D
  3
ACDB_RECOMPOSE_DATA
350
447E
  3
ACDBVARIABLEDICTIONARY
350
1BF
  3
DWGPROPS
350
447F
  0
DICTIONARY
  5
446F
330
F
100
AcDbDictionary
280
     1
281
     1
  3
ADSK_XREC_LAYER_RECONCILED
360
4470
  0
DICTIONARY
  5
4471
330
55
100
AcDbDictionary
280
     1
281
     1
  3
ADSK_XREC_LAYER_RECONCILED
360
4472
  0
DICTIONARY
  5
4473
330
61
100
AcDbDictionary
280
     1
281
     1
  3
ADSK_XREC_LAYER_RECONCILED
360
4474
  0
DICTIONARY
  5
4475
330
62
100
AcDbDictionary
280
     1
281
     1
  3
ADSK_XREC_LAYER_RECONCILED
360
4476
  0
DICTIONARY
  5
4477
330
2AD3
100
AcDbDictionary
280
     1
281
     1
  3
ADSK_XREC_LAYER_RECONCILED
360
4478
  0
DICTIONARY
  5
4486
330
43D7
100
AcDbDictionary
280
     1
281
     1
  3
ACAD_MTEXT_RT
360
4487
  0
DICTIONARY
  5
43F1
102
{ACAD_REACTORS
330
C
102
}
330
C
100
AcDbDictionary
281
     1
  0
DICTIONARY
  5
D
102
{ACAD_REACTORS
330
C
102
}
330
C
100
AcDbDictionary
281
     1
  3
*A1
350
3315
  3
*A2
350
3935
  0
DICTIONARY
  5
4155
102
{ACAD_REACTORS
330
C
102
}
330
C
100
AcDbDictionary
281
     1
  3
Model
350
4157
  3
배치1
350
4158
  0
DICTIONARY
  5
43F0
102
{ACAD_REACTORS
330
C
102
}
330
C
100
AcDbDictionary
281
     1
  3
ByBlock
350
441D
  3
ByLayer
350
4415
  3
Global
350
4425
  0
DICTIONARY
  5
4460
102
{ACAD_REACTORS
330
C
102
}
330
C
100
AcDbDictionary
281
     1
  3
Standard
350
4461
  0
DICTIONARY
  5
E
102
{ACAD_REACTORS
330
C
102
}
330
C
100
AcDbDictionary
281
     1
  3
STANDARD
350
1C
  0
DICTIONARY
  5
4156
102
{ACAD_REACTORS
330
C
102
}
330
C
100
AcDbDictionary
281
     1
  0
ACDBDICTIONARYWDFLT
  5
4153
102
{ACAD_REACTORS
330
C
102
}
330
C
100
AcDbDictionary
281
     1
  3
Normal
350
4154
100
AcDbDictionaryWithDefault
340
4154
  0
DICTIONARY
  5
443E
102
{ACAD_REACTORS
330
C
102
}
330
C
100
AcDbDictionary
281
     1
  3
A0
350
443F
  3
A1
350
4440
  3
A2
350
4441
  3
A3
350
4442
  3
A4
350
4443
  3
A5
350
4444
  3
A6
350
4445
  3
A7
350
4446
  3
A8
350
4447
  3
A9
350
4448
  3
B0
350
4449
  3
B1
350
444A
  3
B2
350
444B
  3
B3
350
444C
  3
B4
350
444D
  3
B5
350
444E
  3
B6
350
444F
  3
B7
350
4450
  3
B8
350
4451
  3
B9
350
4452
  3
C0
350
4453
  3
C1
350
4454
  3
C2
350
4455
  3
C3
350
4456
  3
C4
350
4457
  3
C5
350
4458
  3
C6
350
4459
  3
C7
350
445A
  3
C8
350
445B
  3
C9
350
445C
  3
D0
350
445D
  3
D1
350
445E
  3
D2
350
445F
  0
DICTIONARY
  5
43F2
102
{ACAD_REACTORS
330
C
102
}
330
C
100
AcDbDictionary
281
     1
  3
Standard
350
43F3
  0
DICTIONARY
  5
442D
102
{ACAD_REACTORS
330
C
102
}
330
C
100
AcDbDictionary
281
     1
  3
2dWireframe
350
4433
  3
3D Hidden
350
4435
  3
3dWireframe
350
4434
  3
Basic
350
4432
  3
Brighten
350
4439
  3
ColorChange
350
443D
  3
Conceptual
350
4436
  3
Dim
350
4438
  3
Facepattern
350
443C
  3
Flat
350
442E
  3
FlatWithEdges
350
442F
  3
Gouraud
350
4430
  3
GouraudWithEdges
350
4431
  3
Linepattern
350
443B
  3
Realistic
350
4437
  3
Thicken
350
443A
  0
XRECORD
  5
447E
102
{ACAD_REACTORS
330
C
102
}
330
C
100
AcDbXrecord
280
     1
 90
        1
330
43F3
  0
DICTIONARY
  5
1BF
102
{ACAD_REACTORS
330
C
102
}
330
C
100
AcDbDictionary
281
     1
  3
CANNOSCALE
350
447A
  3
CMLEADERSTYLE
350
4479
  3
CTABLESTYLE
350
4407
  3
DIMASSOC
350
4169
  3
INDEXCTL
350
447B
  3
PROJECTNAME
350
4408
  3
SORTENTS
350
1C0
  0
XRECORD
  5
447F
102
{ACAD_REACTORS
330
C
102
}
330
C
100
AcDbXrecord
280
     1
  1
DWGPROPS COOKIE
  2

  3

  4

  6

  7

  8
양순영
  9

300
=
301
=
302
=
303
=
304
=
305
=
306
=
307
=
308
=
309
=
 40
0.3349312384259259
 41
2452464.575009942
 42
2455643.495240718
  1

 90
        0
  0
XRECORD
  5
4470
102
{ACAD_REACTORS
330
446F
102
}
330
446F
100
AcDbXrecord
280
     1
290
     1
  0
XRECORD
  5
4472
102
{ACAD_REACTORS
330
4471
102
}
330
4471
100
AcDbXrecord
280
     1
290
     1
  0
XRECORD
  5
4474
102
{ACAD_REACTORS
330
4473
102
}
330
4473
100
AcDbXrecord
280
     1
290
     1
  0
XRECORD
  5
4476
102
{ACAD_REACTORS
330
4475
102
}
330
4475
100
AcDbXrecord
280
     1
290
     1
  0
XRECORD
  5
4478
102
{ACAD_REACTORS
330
4477
102
}
330
4477
100
AcDbXrecord
280
     1
290
     1
  0
XRECORD
  5
4487
102
{ACAD_REACTORS
330
4486
102
}
330
4486
100
AcDbXrecord
280
     1
 40
5298.0
  1
\A1;60°
  0
GROUP
  5
3315
102
{ACAD_REACTORS
330
D
102
}
330
D
100
AcDbGroup
300
Ball Screw  BNFN2010-1.5+300L
 70
     1
 71
     1
  0
GROUP
  5
3935
102
{ACAD_REACTORS
330
D
102
}
330
D
100
AcDbGroup
300
Ball Screw  BNFN2010-1.5+300L
 70
     1
 71
     1
  0
LAYOUT
  5
4157
102
{ACAD_XDICTIONARY
360
4482
102
}
102
{ACAD_REACTORS
330
4155
102
}
330
4155
100
AcDbPlotSettings
  1

  2
SBC-SERVER에서 자동 HP LaserJet 4V
  4
A4
  6

 40
6.805083274841307
 41
5.069413185119628
 42
6.805084228515625
 43
5.027069091796875
 44
209.9733276367186
 45
296.9683227539062
 46
0.0
 47
0.0
 48
0.0
 49
0.0
140
0.0
141
0.0
142
1.0
143
1.0
 70
 11952
 72
     0
 73
     1
 74
     0
  7
1.ctb
 75
     0
147
1.0
148
-1105.008668280591
149
-2180.822690011071
100
AcDbLayout
  1
Model
 70
     1
 71
     0
 10
0.0
 20
0.0
 11
12.0
 21
9.0
 12
0.0
 22
0.0
 32
0.0
 14
0.0
 24
0.0
 34
0.0
 15
0.0
 25
0.0
 35
0.0
146
0.0
 13
0.0
 23
0.0
 33
0.0
 16
1.0
 26
0.0
 36
0.0
 17
0.0
 27
1.0
 37
0.0
 76
     0
330
19
331
4409
  0
LAYOUT
  5
4158
102
{ACAD_XDICTIONARY
360
4484
102
}
102
{ACAD_REACTORS
330
4155
102
}
330
4155
100
AcDbPlotSettings
  1

  2
SBC-SERVER에서 자동 HP LaserJet 4V
  4

  6

 40
0.0
 41
0.0
 42
0.0
 43
0.0
 44
0.0
 45
0.0
 46
0.0
 47
0.0
 48
0.0
 49
0.0
140
0.0
141
0.0
142
1.0
143
1.0
 70
   688
 72
     0
 73
     0
 74
     5
  7
1.ctb
 75
    16
147
1.0
148
0.0
149
0.0
100
AcDbLayout
  1
배치1
 70
     1
 71
     1
 10
0.0
 20
0.0
 11
12.0
 21
9.0
 12
0.0
 22
0.0
 32
0.0
 14
1.000000000000000E+20
 24
1.000000000000000E+20
 34
1.000000000000000E+20
 15
-1.000000000000000E+20
 25
-1.000000000000000E+20
 35
-1.000000000000000E+20
146
0.0
 13
0.0
 23
0.0
 33
0.0
 16
1.0
 26
0.0
 36
0.0
 17
0.0
 27
1.0
 37
0.0
 76
     0
330
16
  0
MATERIAL
  5
441D
102
{ACAD_XDICTIONARY
360
441E
102
}
102
{ACAD_REACTORS
330
43F0
102
}
330
43F0
100
AcDbMaterial
  1
ByBlock
 72
     0
 43
0.0208333333333333
 43
0.0
 43
0.0
 43
0.0
 43
0.0
 43
0.0208333333333333
 43
0.0
 43
0.0
 43
0.0
 43
0.0
 43
1.0
 43
0.0
 43
0.0
 43
0.0
 43
0.0
 43
1.0
 77
     0
 47
0.0208333333333333
 47
0.0
 47
0.0
 47
0.0
 47
0.0
 47
0.0208333333333333
 47
0.0
 47
0.0
 47
0.0
 47
0.0
 47
1.0
 47
0.0
 47
0.0
 47
0.0
 47
0.0
 47
1.0
171
     0
 49
0.0208333333333333
 49
0.0
 49
0.0
 49
0.0
 49
0.0
 49
0.0208333333333333
 49
0.0
 49
0.0
 49
0.0
 49
0.0
 49
1.0
 49
0.0
 49
0.0
 49
0.0
 49
0.0
 49
1.0
175
     0
142
0.0208333333333333
142
0.0
142
0.0
142
0.0
142
0.0
142
0.0208333333333333
142
0.0
142
0.0
142
0.0
142
0.0
142
1.0
142
0.0
142
0.0
142
0.0
142
0.0
142
1.0
179
     0
144
0.0208333333333333
144
0.0
144
0.0
144
0.0
144
0.0
144
0.0208333333333333
144
0.0
144
0.0
144
0.0
144
0.0
144
1.0
144
0.0
144
0.0
144
0.0
144
0.0
144
1.0
147
0.0208333333333333
147
0.0
147
0.0
147
0.0
147
0.0
147
0.0208333333333333
147
0.0
147
0.0
147
0.0
147
0.0
147
1.0
147
0.0
147
0.0
147
0.0
147
0.0
147
1.0
  0
MATERIAL
  5
4415
102
{ACAD_XDICTIONARY
360
4416
102
}
102
{ACAD_REACTORS
330
43F0
102
}
330
43F0
100
AcDbMaterial
  1
ByLayer
 72
     0
 43
0.0208333333333333
 43
0.0
 43
0.0
 43
0.0
 43
0.0
 43
0.0208333333333333
 43
0.0
 43
0.0
 43
0.0
 43
0.0
 43
1.0
 43
0.0
 43
0.0
 43
0.0
 43
0.0
 43
1.0
 77
     0
 47
0.0208333333333333
 47
0.0
 47
0.0
 47
0.0
 47
0.0
 47
0.0208333333333333
 47
0.0
 47
0.0
 47
0.0
 47
0.0
 47
1.0
 47
0.0
 47
0.0
 47
0.0
 47
0.0
 47
1.0
171
     0
 49
0.0208333333333333
 49
0.0
 49
0.0
 49
0.0
 49
0.0
 49
0.0208333333333333
 49
0.0
 49
0.0
 49
0.0
 49
0.0
 49
1.0
 49
0.0
 49
0.0
 49
0.0
 49
0.0
 49
1.0
175
     0
142
0.0208333333333333
142
0.0
142
0.0
142
0.0
142
0.0
142
0.0208333333333333
142
0.0
142
0.0
142
0.0
142
0.0
142
1.0
142
0.0
142
0.0
142
0.0
142
0.0
142
1.0
179
     0
144
0.0208333333333333
144
0.0
144
0.0
144
0.0
144
0.0
144
0.0208333333333333
144
0.0
144
0.0
144
0.0
144
0.0
144
1.0
144
0.0
144
0.0
144
0.0
144
0.0
144
1.0
147
0.0208333333333333
147
0.0
147
0.0
147
0.0
147
0.0
147
0.0208333333333333
147
0.0
147
0.0
147
0.0
147
0.0
147
1.0
147
0.0
147
0.0
147
0.0
147
0.0
147
1.0
  0
MATERIAL
  5
4425
102
{ACAD_XDICTIONARY
360
4426
102
}
102
{ACAD_REACTORS
330
43F0
102
}
330
43F0
100
AcDbMaterial
  1
Global
 72
     0
 43
0.0208333333333333
 43
0.0
 43
0.0
 43
0.0
 43
0.0
 43
0.0208333333333333
 43
0.0
 43
0.0
 43
0.0
 43
0.0
 43
1.0
 43
0.0
 43
0.0
 43
0.0
 43
0.0
 43
1.0
 77
     0
 47
0.0208333333333333
 47
0.0
 47
0.0
 47
0.0
 47
0.0
 47
0.0208333333333333
 47
0.0
 47
0.0
 47
0.0
 47
0.0
 47
1.0
 47
0.0
 47
0.0
 47
0.0
 47
0.0
 47
1.0
171
     0
 49
0.0208333333333333
 49
0.0
 49
0.0
 49
0.0
 49
0.0
 49
0.0208333333333333
 49
0.0
 49
0.0
 49
0.0
 49
0.0
 49
1.0
 49
0.0
 49
0.0
 49
0.0
 49
0.0
 49
1.0
175
     0
142
0.0208333333333333
142
0.0
142
0.0
142
0.0
142
0.0
142
0.0208333333333333
142
0.0
142
0.0
142
0.0
142
0.0
142
1.0
142
0.0
142
0.0
142
0.0
142
0.0
142
1.0
179
     0
144
0.0208333333333333
144
0.0
144
0.0
144
0.0
144
0.0
144
0.0208333333333333
144
0.0
144
0.0
144
0.0
144
0.0
144
1.0
144
0.0
144
0.0
144
0.0
144
0.0
144
1.0
147
0.0208333333333333
147
0.0
147
0.0
147
0.0
147
0.0
147
0.0208333333333333
147
0.0
147
0.0
147
0.0
147
0.0
147
1.0
147
0.0
147
0.0
147
0.0
147
0.0
147
1.0
  0
MLEADERSTYLE
  5
4461
102
{ACAD_REACTORS
330
4460
102
}
330
4460
100
AcDbMLeaderStyle
170
     2
171
     1
172
     0
 90
        2
 40
0.0
 41
0.0
173
     1
 91
-1056964608
340
13
 92
       -2
290
     1
 42
0.09
291
     1
 43
0.36
  3
Standard
 44
0.18
300

342
10
174
     1
178
     6
175
     1
176
     0
 93
-1056964608
 45
0.18
292
     0
297
     0
 46
0.18
 94
-1056964608
 47
1.0
 49
1.0
140
1.0
293
     1
141
0.0
294
     1
177
     0
142
1.0
295
     0
296
     0
143
0.125
1001
ACAD_MLEADERVER
1070
     2
  0
MLINESTYLE
  5
1C
102
{ACAD_REACTORS
330
E
102
}
330
E
100
AcDbMlineStyle
  2
STANDARD
 70
     0
  3

 62
     0
 51
90.0
 52
90.0
 71
     2
 49
0.5
 62
   256
  6
BYLAYER
 49
-0.5
 62
   256
  6
BYLAYER
  0
ACDBPLACEHOLDER
  5
4154
102
{ACAD_REACTORS
330
4153
102
}
330
4153
  0
SCALE
  5
443F
102
{ACAD_REACTORS
330
443E
102
}
330
443E
100
AcDbScale
 70
     0
300
1:1
140
1.0
141
1.0
290
     1
  0
SCALE
  5
4440
102
{ACAD_REACTORS
330
443E
102
}
330
443E
100
AcDbScale
 70
     0
300
1:2
140
1.0
141
2.0
290
     0
  0
SCALE
  5
4441
102
{ACAD_REACTORS
330
443E
102
}
330
443E
100
AcDbScale
 70
     0
300
1:4
140
1.0
141
4.0
290
     0
  0
SCALE
  5
4442
102
{ACAD_REACTORS
330
443E
102
}
330
443E
100
AcDbScale
 70
     0
300
1:5
140
1.0
141
5.0
290
     0
  0
SCALE
  5
4443
102
{ACAD_REACTORS
330
443E
102
}
330
443E
100
AcDbScale
 70
     0
300
1:8
140
1.0
141
8.0
290
     0
  0
SCALE
  5
4444
102
{ACAD_REACTORS
330
443E
102
}
330
443E
100
AcDbScale
 70
     0
300
1:10
140
1.0
141
10.0
290
     0
  0
SCALE
  5
4445
102
{ACAD_REACTORS
330
443E
102
}
330
443E
100
AcDbScale
 70
     0
300
1:16
140
1.0
141
16.0
290
     0
  0
SCALE
  5
4446
102
{ACAD_REACTORS
330
443E
102
}
330
443E
100
AcDbScale
 70
     0
300
1:20
140
1.0
141
20.0
290
     0
  0
SCALE
  5
4447
102
{ACAD_REACTORS
330
443E
102
}
330
443E
100
AcDbScale
 70
     0
300
1:30
140
1.0
141
30.0
290
     0
  0
SCALE
  5
4448
102
{ACAD_REACTORS
330
443E
102
}
330
443E
100
AcDbScale
 70
     0
300
1:40
140
1.0
141
40.0
290
     0
  0
SCALE
  5
4449
102
{ACAD_REACTORS
330
443E
102
}
330
443E
100
AcDbScale
 70
     0
300
1:50
140
1.0
141
50.0
290
     0
  0
SCALE
  5
444A
102
{ACAD_REACTORS
330
443E
102
}
330
443E
100
AcDbScale
 70
     0
300
1:100
140
1.0
141
100.0
290
     0
  0
SCALE
  5
444B
102
{ACAD_REACTORS
330
443E
102
}
330
443E
100
AcDbScale
 70
     0
300
2:1
140
2.0
141
1.0
290
     0
  0
SCALE
  5
444C
102
{ACAD_REACTORS
330
443E
102
}
330
443E
100
AcDbScale
 70
     0
300
4:1
140
4.0
141
1.0
290
     0
  0
SCALE
  5
444D
102
{ACAD_REACTORS
330
443E
102
}
330
443E
100
AcDbScale
 70
     0
300
8:1
140
8.0
141
1.0
290
     0
  0
SCALE
  5
444E
102
{ACAD_REACTORS
330
443E
102
}
330
443E
100
AcDbScale
 70
     0
300
10:1
140
10.0
141
1.0
290
     0
  0
SCALE
  5
444F
102
{ACAD_REACTORS
330
443E
102
}
330
443E
100
AcDbScale
 70
     0
300
100:1
140
100.0
141
1.0
290
     0
  0
SCALE
  5
4450
102
{ACAD_REACTORS
330
443E
102
}
330
443E
100
AcDbScale
 70
     0
300
1/128" = 1'-0"
140
0.0078125
141
12.0
290
     0
  0
SCALE
  5
4451
102
{ACAD_REACTORS
330
443E
102
}
330
443E
100
AcDbScale
 70
     0
300
1/64" = 1'-0"
140
0.015625
141
12.0
290
     0
  0
SCALE
  5
4452
102
{ACAD_REACTORS
330
443E
102
}
330
443E
100
AcDbScale
 70
     0
300
1/32" = 1'-0"
140
0.03125
141
12.0
290
     0
  0
SCALE
  5
4453
102
{ACAD_REACTORS
330
443E
102
}
330
443E
100
AcDbScale
 70
     0
300
1/16" = 1'-0"
140
0.0625
141
12.0
290
     0
  0
SCALE
  5
4454
102
{ACAD_REACTORS
330
443E
102
}
330
443E
100
AcDbScale
 70
     0
300
3/32" = 1'-0"
140
0.09375
141
12.0
290
     0
  0
SCALE
  5
4455
102
{ACAD_REACTORS
330
443E
102
}
330
443E
100
AcDbScale
 70
     0
300
1/8" = 1'-0"
140
0.125
141
12.0
290
     0
  0
SCALE
  5
4456
102
{ACAD_REACTORS
330
443E
102
}
330
443E
100
AcDbScale
 70
     0
300
3/16" = 1'-0"
140
0.1875
141
12.0
290
     0
  0
SCALE
  5
4457
102
{ACAD_REACTORS
330
443E
102
}
330
443E
100
AcDbScale
 70
     0
300
1/4" = 1'-0"
140
0.25
141
12.0
290
     0
  0
SCALE
  5
4458
102
{ACAD_REACTORS
330
443E
102
}
330
443E
100
AcDbScale
 70
     0
300
3/8" = 1'-0"
140
0.375
141
12.0
290
     0
  0
SCALE
  5
4459
102
{ACAD_REACTORS
330
443E
102
}
330
443E
100
AcDbScale
 70
     0
300
1/2" = 1'-0"
140
0.5
141
12.0
290
     0
  0
SCALE
  5
445A
102
{ACAD_REACTORS
330
443E
102
}
330
443E
100
AcDbScale
 70
     0
300
3/4" = 1'-0"
140
0.75
141
12.0
290
     0
  0
SCALE
  5
445B
102
{ACAD_REACTORS
330
443E
102
}
330
443E
100
AcDbScale
 70
     0
300
1" = 1'-0"
140
1.0
141
12.0
290
     0
  0
SCALE
  5
445C
102
{ACAD_REACTORS
330
443E
102
}
330
443E
100
AcDbScale
 70
     0
300
1-1/2" = 1'-0"
140
1.5
141
12.0
290
     0
  0
SCALE
  5
445D
102
{ACAD_REACTORS
330
443E
102
}
330
443E
100
AcDbScale
 70
     0
300
3" = 1'-0"
140
3.0
141
12.0
290
     0
  0
SCALE
  5
445E
102
{ACAD_REACTORS
330
443E
102
}
330
443E
100
AcDbScale
 70
     0
300
6" = 1'-0"
140
6.0
141
12.0
290
     0
  0
SCALE
  5
445F
102
{ACAD_REACTORS
330
443E
102
}
330
443E
100
AcDbScale
 70
     0
300
1'-0" = 1'-0"
140
12.0
141
12.0
290
     0
  0
TABLESTYLE
  5
43F3
102
{ACAD_XDICTIONARY
360
447C
102
}
102
{ACAD_REACTORS
330
43F2
102
}
330
43F2
100
AcDbTableStyle
  3
Standard
 70
     0
 71
     0
 40
0.06
 41
0.06
280
     0
281
     0
  7
STANDARD
140
0.18
170
     2
 62
     0
 63
     7
283
     0
274
    -2
284
     1
 64
     0
275
    -2
285
     1
 65
     0
276
    -2
286
     1
 66
     0
277
    -2
287
     1
 67
     0
278
    -2
288
     1
 68
     0
279
    -2
289
     1
 69
     0
  7
STANDARD
140
0.25
170
     5
 62
     0
 63
     7
283
     0
274
    -2
284
     1
 64
     0
275
    -2
285
     1
 65
     0
276
    -2
286
     1
 66
     0
277
    -2
287
     1
 67
     0
278
    -2
288
     1
 68
     0
279
    -2
289
     1
 69
     0
  7
STANDARD
140
0.18
170
     5
 62
     0
 63
     7
283
     0
274
    -2
284
     1
 64
     0
275
    -2
285
     1
 65
     0
276
    -2
286
     1
 66
     0
277
    -2
287
     1
 67
     0
278
    -2
288
     1
 68
     0
279
    -2
289
     1
 69
     0
  0
VISUALSTYLE
  5
4433
102
{ACAD_REACTORS
330
442D
102
}
330
442D
100
AcDbVisualStyle
  2
2dWireframe
 70
     4
 71
     0
 72
     2
 73
     0
 90
        0
 40
-0.6
 41
-30.0
 62
     5
 63
     7
 74
     1
 91
        4
 64
     7
 65
   257
 75
     1
175
     1
 42
1.0
 92
        0
 66
   257
 43
1.0
 76
     1
 77
     6
 78
     2
 67
     7
 79
     5
170
     0
171
     0
290
     0
174
     0
 93
        1
 44
0.0
173
     0
291
     0
 45
0.0
1001
ACAD
1000
AcDbSavedByObjectVersion
1070
     0
  0
VISUALSTYLE
  5
4435
102
{ACAD_REACTORS
330
442D
102
}
330
442D
100
AcDbVisualStyle
  2
3D Hidden
 70
     6
 71
     1
 72
     2
 73
     2
 90
        0
 40
-0.6
 41
-30.0
 62
     5
 63
     7
 74
     2
 91
        2
 64
     7
 65
   257
 75
     2
175
     1
 42
40.0
 92
        0
 66
   257
 43
1.0
 76
     1
 77
     6
 78
     2
 67
     7
 79
     3
170
     0
171
     0
290
     0
174
     0
 93
        1
 44
0.0
173
     0
291
     0
 45
0.0
1001
ACAD
1000
AcDbSavedByObjectVersion
1070
     0
  0
VISUALSTYLE
  5
4434
102
{ACAD_REACTORS
330
442D
102
}
330
442D
100
AcDbVisualStyle
  2
3dWireframe
 70
     5
 71
     0
 72
     2
 73
     0
 90
        0
 40
-0.6
 41
-30.0
 62
     5
 63
     7
 74
     1
 91
        4
 64
     7
 65
   257
 75
     1
175
     1
 42
1.0
 92
        0
 66
   257
 43
1.0
 76
     1
 77
     6
 78
     2
 67
     7
 79
     5
170
     0
171
     0
290
     0
174
     0
 93
        1
 44
0.0
173
     0
291
     0
 45
0.0
1001
ACAD
1000
AcDbSavedByObjectVersion
1070
     0
  0
VISUALSTYLE
  5
4432
102
{ACAD_REACTORS
330
442D
102
}
330
442D
100
AcDbVisualStyle
  2
Basic
 70
     7
 71
     1
 72
     0
 73
     1
 90
        0
 40
-0.6
 41
-30.0
 62
     5
 63
     7
 74
     0
 91
        4
 64
     7
 65
   257
 75
     1
175
     1
 42
1.0
 92
        8
 66
     7
 43
1.0
 76
     1
 77
     6
 78
     2
 67
     7
 79
     5
170
     0
171
     0
290
     0
174
     0
 93
        1
 44
0.0
173
     0
291
     1
 45
0.0
1001
ACAD
1000
AcDbSavedByObjectVersion
1070
     0
  0
VISUALSTYLE
  5
4439
102
{ACAD_REACTORS
330
442D
102
}
330
442D
100
AcDbVisualStyle
  2
Brighten
 70
    12
 71
     2
 72
     2
 73
     0
 90
        0
 40
-0.6
 41
-30.0
 62
     5
 63
     7
 74
     1
 91
        4
 64
     7
 65
   257
 75
     1
175
     1
 42
1.0
 92
        8
 66
     7
 43
1.0
 76
     1
 77
     6
 78
     2
 67
     7
 79
     5
170
     0
171
     0
290
     0
174
     0
 93
        1
 44
50.0
173
     0
291
     1
 45
0.0
1001
ACAD
1000
AcDbSavedByObjectVersion
1070
     0
  0
VISUALSTYLE
  5
443D
102
{ACAD_REACTORS
330
442D
102
}
330
442D
100
AcDbVisualStyle
  2
ColorChange
 70
    16
 71
     2
 72
     2
 73
     3
 90
        0
 40
-0.6
 41
-30.0
 62
     5
 63
     8
 74
     1
 91
        4
 64
     7
 65
   257
 75
     1
175
     1
 42
1.0
 92
        8
 66
     8
 43
1.0
 76
     1
 77
     6
 78
     2
 67
     7
 79
     5
170
     0
171
     0
290
     0
174
     0
 93
        1
 44
0.0
173
     0
291
     1
 45
0.0
1001
ACAD
1000
AcDbSavedByObjectVersion
1070
     0
  0
VISUALSTYLE
  5
4436
102
{ACAD_REACTORS
330
442D
102
}
330
442D
100
AcDbVisualStyle
  2
Conceptual
 70
     9
 71
     3
 72
     2
 73
     0
 90
        0
 40
-0.6
 41
-30.0
 62
     5
 63
     7
 74
     2
 91
        2
 64
     7
 65
   257
 75
     1
175
     1
 42
40.0
 92
        8
 66
     7
 43
1.0
 76
     1
 77
     6
 78
     2
 67
     7
 79
     3
170
     0
171
     0
290
     0
174
     0
 93
        1
 44
0.0
173
     0
291
     0
 45
0.0
1001
ACAD
1000
AcDbSavedByObjectVersion
1070
     0
  0
VISUALSTYLE
  5
4438
102
{ACAD_REACTORS
330
442D
102
}
330
442D
100
AcDbVisualStyle
  2
Dim
 70
    11
 71
     2
 72
     2
 73
     0
 90
        0
 40
-0.6
 41
-30.0
 62
     5
 63
     7
 74
     1
 91
        4
 64
     7
 65
   257
 75
     1
175
     1
 42
1.0
 92
        8
 66
     7
 43
1.0
 76
     1
 77
     6
 78
     2
 67
     7
 79
     5
170
     0
171
     0
290
     0
174
     0
 93
        1
 44
-50.0
173
     0
291
     1
 45
0.0
1001
ACAD
1000
AcDbSavedByObjectVersion
1070
     0
  0
VISUALSTYLE
  5
443C
102
{ACAD_REACTORS
330
442D
102
}
330
442D
100
AcDbVisualStyle
  2
Facepattern
 70
    15
 71
     2
 72
     2
 73
     0
 90
        0
 40
-0.6
 41
-30.0
 62
     5
 63
     7
 74
     1
 91
        4
 64
     7
 65
   257
 75
     1
175
     1
 42
1.0
 92
        8
 66
     7
 43
1.0
 76
     1
 77
     6
 78
     2
 67
     7
 79
     5
170
     0
171
     0
290
     0
174
     0
 93
        1
 44
0.0
173
     0
291
     1
 45
0.0
1001
ACAD
1000
AcDbSavedByObjectVersion
1070
     0
  0
VISUALSTYLE
  5
442E
102
{ACAD_REACTORS
330
442D
102
}
330
442D
100
AcDbVisualStyle
  2
Flat
 70
     0
 71
     2
 72
     1
 73
     1
 90
        2
 40
-0.6
 41
30.0
 62
     5
 63
     7
 74
     0
 91
        4
 64
     7
 65
   257
 75
     1
175
     1
 42
1.0
 92
        8
 66
     7
 43
1.0
 76
     1
 77
     6
 78
     2
 67
     7
 79
     5
170
     0
171
     0
290
     0
174
     0
 93
       13
 44
0.0
173
     0
291
     1
 45
0.0
1001
ACAD
1000
AcDbSavedByObjectVersion
1070
     0
  0
VISUALSTYLE
  5
442F
102
{ACAD_REACTORS
330
442D
102
}
330
442D
100
AcDbVisualStyle
  2
FlatWithEdges
 70
     1
 71
     2
 72
     1
 73
     1
 90
        2
 40
-0.6
 41
30.0
 62
     5
 63
     7
 74
     1
 91
        4
 64
     7
 65
   257
 75
     1
175
     1
 42
1.0
 92
        0
 66
   257
 43
1.0
 76
     1
 77
     6
 78
     2
 67
     7
 79
     5
170
     0
171
     0
290
     0
174
     0
 93
       13
 44
0.0
173
     0
291
     1
 45
0.0
1001
ACAD
1000
AcDbSavedByObjectVersion
1070
     0
  0
VISUALSTYLE
  5
4430
102
{ACAD_REACTORS
330
442D
102
}
330
442D
100
AcDbVisualStyle
  2
Gouraud
 70
     2
 71
     2
 72
     2
 73
     1
 90
        2
 40
-0.6
 41
30.0
 62
     5
 63
     7
 74
     0
 91
        4
 64
     7
 65
   257
 75
     1
175
     1
 42
1.0
 92
        0
 66
     7
 43
1.0
 76
     1
 77
     6
 78
     2
 67
     7
 79
     5
170
     0
171
     0
290
     0
174
     0
 93
       13
 44
0.0
173
     0
291
     1
 45
0.0
1001
ACAD
1000
AcDbSavedByObjectVersion
1070
     0
  0
VISUALSTYLE
  5
4431
102
{ACAD_REACTORS
330
442D
102
}
330
442D
100
AcDbVisualStyle
  2
GouraudWithEdges
 70
     3
 71
     2
 72
     2
 73
     1
 90
        2
 40
-0.6
 41
30.0
 62
     5
 63
     7
 74
     1
 91
        4
 64
     7
 65
   257
 75
     1
175
     1
 42
1.0
 92
        0
 66
   257
 43
1.0
 76
     1
 77
     6
 78
     2
 67
     7
 79
     5
170
     0
171
     0
290
     0
174
     0
 93
       13
 44
0.0
173
     0
291
     1
 45
0.0
1001
ACAD
1000
AcDbSavedByObjectVersion
1070
     0
  0
VISUALSTYLE
  5
443B
102
{ACAD_REACTORS
330
442D
102
}
330
442D
100
AcDbVisualStyle
  2
Linepattern
 70
    14
 71
     2
 72
     2
 73
     0
 90
        0
 40
-0.6
 41
-30.0
 62
     5
 63
     7
 74
     1
 91
        4
 64
     7
 65
   257
 75
     7
175
     7
 42
1.0
 92
        8
 66
     7
 43
1.0
 76
     1
 77
     6
 78
     2
 67
     7
 79
     5
170
     0
171
     0
290
     0
174
     0
 93
        1
 44
0.0
173
     0
291
     1
 45
0.0
1001
ACAD
1000
AcDbSavedByObjectVersion
1070
     0
  0
VISUALSTYLE
  5
4437
102
{ACAD_REACTORS
330
442D
102
}
330
442D
100
AcDbVisualStyle
  2
Realistic
 70
     8
 71
     2
 72
     2
 73
     0
 90
        0
 40
-0.6
 41
-30.0
 62
     5
 63
     7
 74
     1
 91
        0
 64
     7
 65
   257
 75
     1
175
     1
 42
1.0
 92
        8
 66
     8
 43
1.0
 76
     1
 77
     6
 78
     2
 67
     7
 79
     5
170
     0
171
     0
290
     0
174
     0
 93
       13
 44
0.0
173
     0
291
     0
 45
0.0
1001
ACAD
1000
AcDbSavedByObjectVersion
1070
     0
  0
VISUALSTYLE
  5
443A
102
{ACAD_REACTORS
330
442D
102
}
330
442D
100
AcDbVisualStyle
  2
Thicken
 70
    13
 71
     2
 72
     2
 73
     0
 90
        0
 40
-0.6
 41
-30.0
 62
     5
 63
     7
 74
     1
 91
        4
 64
     7
 65
   257
 75
     1
175
     1
 42
1.0
 92
       12
 66
     7
 43
1.0
 76
     1
 77
     6
 78
     2
 67
     7
 79
     5
170
     0
171
     0
290
     0
174
     0
 93
        1
 44
0.0
173
     0
291
     1
 45
0.0
1001
ACAD
1000
AcDbSavedByObjectVersion
1070
     0
  0
DICTIONARYVAR
  5
447A
102
{ACAD_REACTORS
330
1BF
102
}
330
1BF
100
DictionaryVariables
280
     0
  1
1:1
  0
DICTIONARYVAR
  5
4479
102
{ACAD_REACTORS
330
1BF
102
}
330
1BF
100
DictionaryVariables
280
     0
  1
STANDARD
  0
DICTIONARYVAR
  5
4407
102
{ACAD_REACTORS
330
1BF
102
}
330
1BF
100
DictionaryVariables
280
     0
  1
STANDARD
  0
DICTIONARYVAR
  5
4169
102
{ACAD_REACTORS
330
1BF
102
}
330
1BF
100
DictionaryVariables
280
     0
  1
1
  0
DICTIONARYVAR
  5
447B
102
{ACAD_REACTORS
330
1BF
102
}
330
1BF
100
DictionaryVariables
280
     0
  1
0
  0
DICTIONARYVAR
  5
4408
102
{ACAD_REACTORS
330
1BF
102
}
330
1BF
100
DictionaryVariables
280
     0
  1

  0
DICTIONARYVAR
  5
1C0
102
{ACAD_REACTORS
330
1BF
102
}
330
1BF
100
DictionaryVariables
280
     0
  1
96
  0
DICTIONARY
  5
4482
330
4157
100
AcDbDictionary
280
     1
281
     1
  3
ACAD_XREC_ROUNDTRIP
360
4483
  0
DICTIONARY
  5
4484
330
4158
100
AcDbDictionary
280
     1
281
     1
  3
ACAD_XREC_ROUNDTRIP
360
4485
  0
DICTIONARY
  5
441E
330
441D
100
AcDbDictionary
280
     1
281
     1
  3
ACAD_XREC_ROUNDTRIP
360
448A
  3
BUMPTILE
360
4420
  3
DIFFUSETILE
360
441F
  3
OPACITYTILE
360
4423
  3
REFLECTIONTILE
360
4422
  3
REFRACTIONTILE
360
4424
  3
SPECULARTILE
360
4421
  0
DICTIONARY
  5
4416
330
4415
100
AcDbDictionary
280
     1
281
     1
  3
ACAD_XREC_ROUNDTRIP
360
4489
  3
BUMPTILE
360
4418
  3
DIFFUSETILE
360
4417
  3
OPACITYTILE
360
441B
  3
REFLECTIONTILE
360
441A
  3
REFRACTIONTILE
360
441C
  3
SPECULARTILE
360
4419
  0
DICTIONARY
  5
4426
330
4425
100
AcDbDictionary
280
     1
281
     1
  3
ACAD_XREC_ROUNDTRIP
360
448B
  3
BUMPTILE
360
4428
  3
DIFFUSETILE
360
4427
  3
OPACITYTILE
360
442B
  3
REFLECTIONTILE
360
442A
  3
REFRACTIONTILE
360
442C
  3
SPECULARTILE
360
4429
  0
DICTIONARY
  5
447C
330
43F3
100
AcDbDictionary
280
     1
281
     1
  3
ACAD_ROUNDTRIP_2008_TABLESTYLE_CELLSTYLEMAP
360
447D
  3
ACAD_XREC_ROUNDTRIP
360
4488
  0
XRECORD
  5
4483
102
{ACAD_REACTORS
330
4482
102
}
330
4482
100
AcDbXrecord
280
     1
102
SHADEPLOT
 70
     0
102
SHADEPLOTRESLEVEL
 70
     2
102
SHADEPLOTCUSTOMDPI
 70
   300
  0
XRECORD
  5
4485
102
{ACAD_REACTORS
330
4484
102
}
330
4484
100
AcDbXrecord
280
     1
102
SHADEPLOT
 70
     0
102
SHADEPLOTRESLEVEL
 70
     2
102
SHADEPLOTCUSTOMDPI
 70
   300
  0
XRECORD
  5
448A
102
{ACAD_REACTORS
330
441E
102
}
330
441E
100
AcDbXrecord
280
     1
102
MATERIAL
148
0.0
149
0.0
149
0.0
 93
        0
 94
      127
282
     0
 72
     0
 77
     0
171
     0
175
     0
179
     0
273
     0
  0
XRECORD
  5
4420
102
{ACAD_REACTORS
330
441E
102
}
330
441E
100
AcDbXrecord
280
     1
270
     1
271
     1
  0
XRECORD
  5
441F
102
{ACAD_REACTORS
330
441E
102
}
330
441E
100
AcDbXrecord
280
     1
270
     1
271
     1
  0
XRECORD
  5
4423
102
{ACAD_REACTORS
330
441E
102
}
330
441E
100
AcDbXrecord
280
     1
270
     1
271
     1
  0
XRECORD
  5
4422
102
{ACAD_REACTORS
330
441E
102
}
330
441E
100
AcDbXrecord
280
     1
270
     1
271
     1
  0
XRECORD
  5
4424
102
{ACAD_REACTORS
330
441E
102
}
330
441E
100
AcDbXrecord
280
     1
270
     1
271
     1
  0
XRECORD
  5
4421
102
{ACAD_REACTORS
330
441E
102
}
330
441E
100
AcDbXrecord
280
     1
270
     1
271
     1
  0
XRECORD
  5
4489
102
{ACAD_REACTORS
330
4416
102
}
330
4416
100
AcDbXrecord
280
     1
102
MATERIAL
148
0.0
149
0.0
149
0.0
 93
        0
 94
      127
282
     0
 72
     0
 77
     0
171
     0
175
     0
179
     0
273
     0
  0
XRECORD
  5
4418
102
{ACAD_REACTORS
330
4416
102
}
330
4416
100
AcDbXrecord
280
     1
270
     1
271
     1
  0
XRECORD
  5
4417
102
{ACAD_REACTORS
330
4416
102
}
330
4416
100
AcDbXrecord
280
     1
270
     1
271
     1
  0
XRECORD
  5
441B
102
{ACAD_REACTORS
330
4416
102
}
330
4416
100
AcDbXrecord
280
     1
270
     1
271
     1
  0
XRECORD
  5
441A
102
{ACAD_REACTORS
330
4416
102
}
330
4416
100
AcDbXrecord
280
     1
270
     1
271
     1
  0
XRECORD
  5
441C
102
{ACAD_REACTORS
330
4416
102
}
330
4416
100
AcDbXrecord
280
     1
270
     1
271
     1
  0
XRECORD
  5
4419
102
{ACAD_REACTORS
330
4416
102
}
330
4416
100
AcDbXrecord
280
     1
270
     1
271
     1
  0
XRECORD
  5
448B
102
{ACAD_REACTORS
330
4426
102
}
330
4426
100
AcDbXrecord
280
     1
102
MATERIAL
148
0.0
149
0.0
149
0.0
 93
        0
 94
      127
282
     0
 72
     0
 77
     0
171
     0
175
     0
179
     0
273
     0
  0
XRECORD
  5
4428
102
{ACAD_REACTORS
330
4426
102
}
330
4426
100
AcDbXrecord
280
     1
270
     1
271
     1
  0
XRECORD
  5
4427
102
{ACAD_REACTORS
330
4426
102
}
330
4426
100
AcDbXrecord
280
     1
270
     1
271
     1
  0
XRECORD
  5
442B
102
{ACAD_REACTORS
330
4426
102
}
330
4426
100
AcDbXrecord
280
     1
270
     1
271
     1
  0
XRECORD
  5
442A
102
{ACAD_REACTORS
330
4426
102
}
330
4426
100
AcDbXrecord
280
     1
270
     1
271
     1
  0
XRECORD
  5
442C
102
{ACAD_REACTORS
330
4426
102
}
330
4426
100
AcDbXrecord
280
     1
270
     1
271
     1
  0
XRECORD
  5
4429
102
{ACAD_REACTORS
330
4426
102
}
330
4426
100
AcDbXrecord
280
     1
270
     1
271
     1
  0
CELLSTYLEMAP
  5
447D
102
{ACAD_REACTORS
330
447C
102
}
330
447C
100
AcDbCellStyleMap
 90
        3
300
CELLSTYLE
  1
TABLEFORMAT_BEGIN
 90
        5
170
     1
 91
        0
 92
    32768
 62
   257
 93
        1
300
CONTENTFORMAT
  1
CONTENTFORMAT_BEGIN
 90
        0
 91
        0
 92
        4
 93
        0
300

 40
0.0
140
1.0
 94
        5
 62
     0
340
10
144
0.25
309
CONTENTFORMAT_END
171
     0
 94
        6
 95
        1
302
GRIDFORMAT
  1
GRIDFORMAT_BEGIN
 90
        0
 91
        1
 62
     0
 92
       -2
340
0
 93
        0
 40
0.045
309
GRIDFORMAT_END
 95
        2
302
GRIDFORMAT
  1
GRIDFORMAT_BEGIN
 90
        0
 91
        1
 62
     0
 92
       -2
340
0
 93
        0
 40
0.045
309
GRIDFORMAT_END
 95
        4
302
GRIDFORMAT
  1
GRIDFORMAT_BEGIN
 90
        0
 91
        1
 62
     0
 92
       -2
340
0
 93
        0
 40
0.045
309
GRIDFORMAT_END
 95
        8
302
GRIDFORMAT
  1
GRIDFORMAT_BEGIN
 90
        0
 91
        1
 62
     0
 92
       -2
340
0
 93
        0
 40
0.045
309
GRIDFORMAT_END
 95
       16
302
GRIDFORMAT
  1
GRIDFORMAT_BEGIN
 90
        0
 91
        1
 62
     0
 92
       -2
340
0
 93
        0
 40
0.045
309
GRIDFORMAT_END
 95
       32
302
GRIDFORMAT
  1
GRIDFORMAT_BEGIN
 90
        0
 91
        1
 62
     0
 92
       -2
340
0
 93
        0
 40
0.045
309
GRIDFORMAT_END
309
TABLEFORMAT_END
  1
CELLSTYLE_BEGIN
 90
        1
 91
        1
300
_TITLE
309
CELLSTYLE_END
300
CELLSTYLE
  1
TABLEFORMAT_BEGIN
 90
        5
170
     1
 91
        0
 92
        0
 62
   257
 93
        1
300
CONTENTFORMAT
  1
CONTENTFORMAT_BEGIN
 90
        0
 91
        0
 92
        4
 93
        0
300

 40
0.0
140
1.0
 94
        5
 62
     0
340
10
144
0.18
309
CONTENTFORMAT_END
171
     0
 94
        6
 95
        1
302
GRIDFORMAT
  1
GRIDFORMAT_BEGIN
 90
        0
 91
        1
 62
     0
 92
       -2
340
0
 93
        0
 40
0.045
309
GRIDFORMAT_END
 95
        2
302
GRIDFORMAT
  1
GRIDFORMAT_BEGIN
 90
        0
 91
        1
 62
     0
 92
       -2
340
0
 93
        0
 40
0.045
309
GRIDFORMAT_END
 95
        4
302
GRIDFORMAT
  1
GRIDFORMAT_BEGIN
 90
        0
 91
        1
 62
     0
 92
       -2
340
0
 93
        0
 40
0.045
309
GRIDFORMAT_END
 95
        8
302
GRIDFORMAT
  1
GRIDFORMAT_BEGIN
 90
        0
 91
        1
 62
     0
 92
       -2
340
0
 93
        0
 40
0.045
309
GRIDFORMAT_END
 95
       16
302
GRIDFORMAT
  1
GRIDFORMAT_BEGIN
 90
        0
 91
        1
 62
     0
 92
       -2
340
0
 93
        0
 40
0.045
309
GRIDFORMAT_END
 95
       32
302
GRIDFORMAT
  1
GRIDFORMAT_BEGIN
 90
        0
 91
        1
 62
     0
 92
       -2
340
0
 93
        0
 40
0.045
309
GRIDFORMAT_END
309
TABLEFORMAT_END
  1
CELLSTYLE_BEGIN
 90
        2
 91
        1
300
_HEADER
309
CELLSTYLE_END
300
CELLSTYLE
  1
TABLEFORMAT_BEGIN
 90
        5
170
     1
 91
        0
 92
        0
 62
   257
 93
        1
300
CONTENTFORMAT
  1
CONTENTFORMAT_BEGIN
 90
        0
 91
        0
 92
        4
 93
        0
300

 40
0.0
140
1.0
 94
        2
 62
     0
340
10
144
0.18
309
CONTENTFORMAT_END
171
     0
 94
        6
 95
        1
302
GRIDFORMAT
  1
GRIDFORMAT_BEGIN
 90
        0
 91
        1
 62
     0
 92
       -2
340
0
 93
        0
 40
0.045
309
GRIDFORMAT_END
 95
        2
302
GRIDFORMAT
  1
GRIDFORMAT_BEGIN
 90
        0
 91
        1
 62
     0
 92
       -2
340
0
 93
        0
 40
0.045
309
GRIDFORMAT_END
 95
        4
302
GRIDFORMAT
  1
GRIDFORMAT_BEGIN
 90
        0
 91
        1
 62
     0
 92
       -2
340
0
 93
        0
 40
0.045
309
GRIDFORMAT_END
 95
        8
302
GRIDFORMAT
  1
GRIDFORMAT_BEGIN
 90
        0
 91
        1
 62
     0
 92
       -2
340
0
 93
        0
 40
0.045
309
GRIDFORMAT_END
 95
       16
302
GRIDFORMAT
  1
GRIDFORMAT_BEGIN
 90
        0
 91
        1
 62
     0
 92
       -2
340
0
 93
        0
 40
0.045
309
GRIDFORMAT_END
 95
       32
302
GRIDFORMAT
  1
GRIDFORMAT_BEGIN
 90
        0
 91
        1
 62
     0
 92
       -2
340
0
 93
        0
 40
0.045
309
GRIDFORMAT_END
309
TABLEFORMAT_END
  1
CELLSTYLE_BEGIN
 90
        3
 91
        2
300
_DATA
309
CELLSTYLE_END
  0
XRECORD
  5
4488
102
{ACAD_REACTORS
330
447C
102
}
330
447C
100
AcDbXrecord
280
     1
102
ACAD_ROUNDTRIP_PRE2007_TABLESTYLE
 90
        4
 91
        0
  1

 92
        4
 93
        0
  2

 94
        4
 95
        0
  3

  0
ENDSEC
  0
EOF
