  0
SECTION
  2
HEADER
  9
$ACADVER
  1
AC1015
  9
$ACADMAINTVER
 70
    20
  9
$DWGCODEPAGE
  3
ANSI_949
  9
$INSBASE
 10
0.0
 20
0.0
 30
0.0
  9
$EXTMIN
 10
7.130967561973105
 20
1.123780227351931
 30
0.0
  9
$EXTMAX
 10
390.5495417415558
 20
214.8950951224971
 30
0.0
  9
$LIMMIN
 10
0.0
 20
0.0
  9
$LIMMAX
 10
420.0
 20
297.0
  9
$ORTHOMODE
 70
     1
  9
$REGENMODE
 70
     1
  9
$FILLMODE
 70
     1
  9
$QTEXTMODE
 70
     0
  9
$MIRRTEXT
 70
     1
  9
$LTSCALE
 40
10.0
  9
$ATTMODE
 70
     1
  9
$TEXTSIZE
 40
3.149999999999999
  9
$TRACEWID
 40
0.05
  9
$TEXTSTYLE
  7
H
  9
$CLAYER
  8
0
  9
$CELTYPE
  6
BYLAYER
  9
$CECOLOR
 62
   256
  9
$CELTSCALE
 40
1.0
  9
$DISPSILH
 70
     0
  9
$DIMSCALE
 40
1.5
  9
$DIMASZ
 40
2.5
  9
$DIMEXO
 40
0.8
  9
$DIMDLI
 40
0.8
  9
$DIMRND
 40
0.0
  9
$DIMDLE
 40
0.0
  9
$DIMEXE
 40
0.8
  9
$DIMTP
 40
0.0
  9
$DIMTM
 40
0.0
  9
$DIMTXT
 40
3.0
  9
$DIMCEN
 40
-1.0
  9
$DIMTSZ
 40
0.0
  9
$DIMTOL
 70
     0
  9
$DIMLIM
 70
     0
  9
$DIMTIH
 70
     0
  9
$DIMTOH
 70
     0
  9
$DIMSE1
 70
     0
  9
$DIMSE2
 70
     0
  9
$DIMTAD
 70
     3
  9
$DIMZIN
 70
     8
  9
$DIMBLK
  1

  9
$DIMASO
 70
     1
  9
$DIMSHO
 70
     1
  9
$DIMPOST
  1

  9
$DIMAPOST
  1

  9
$DIMALT
 70
     0
  9
$DIMALTD
 70
     2
  9
$DIMALTF
 40
25.4
  9
$DIMLFAC
 40
1.0
  9
$DIMTOFL
 70
     1
  9
$DIMTVP
 40
0.0
  9
$DIMTIX
 70
     0
  9
$DIMSOXD
 70
     0
  9
$DIMSAH
 70
     0
  9
$DIMBLK1
  1

  9
$DIMBLK2
  1

  9
$DIMSTYLE
  2
STANDARD
  9
$DIMCLRD
 70
   115
  9
$DIMCLRE
 70
   115
  9
$DIMCLRT
 70
     7
  9
$DIMTFAC
 40
1.0
  9
$DIMGAP
 40
1.0
  9
$DIMJUST
 70
     0
  9
$DIMSD1
 70
     0
  9
$DIMSD2
 70
     0
  9
$DIMTOLJ
 70
     1
  9
$DIMTZIN
 70
     0
  9
$DIMALTZ
 70
     0
  9
$DIMALTTZ
 70
     0
  9
$DIMUPT
 70
     0
  9
$DIMDEC
 70
     3
  9
$DIMTDEC
 70
     4
  9
$DIMALTU
 70
     2
  9
$DIMALTTD
 70
     2
  9
$DIMTXSTY
  7
STANDARD
  9
$DIMAUNIT
 70
     0
  9
$DIMADEC
 70
     0
  9
$DIMALTRND
 40
0.0
  9
$DIMAZIN
 70
     0
  9
$DIMDSEP
 70
    46
  9
$DIMATFIT
 70
     3
  9
$DIMFRAC
 70
     0
  9
$DIMLDRBLK
  1

  9
$DIMLUNIT
 70
     2
  9
$DIMLWD
 70
    -2
  9
$DIMLWE
 70
    -2
  9
$DIMTMOVE
 70
     0
  9
$LUNITS
 70
     2
  9
$LUPREC
 70
     4
  9
$SKETCHINC
 40
0.1
  9
$FILLETRAD
 40
0.5
  9
$AUNITS
 70
     0
  9
$AUPREC
 70
     0
  9
$MENU
  1
.
  9
$ELEVATION
 40
0.0
  9
$PELEVATION
 40
0.0
  9
$THICKNESS
 40
0.0
  9
$LIMCHECK
 70
     0
  9
$CHAMFERA
 40
0.5
  9
$CHAMFERB
 40
0.5
  9
$CHAMFERC
 40
1.0
  9
$CHAMFERD
 40
0.0
  9
$SKPOLY
 70
     1
  9
$TDCREATE
 40
2452464.575009942
  9
$TDUCREATE
 40
2452464.200009942
  9
$TDUPDATE
 40
2455642.707613102
  9
$TDUUPDATE
 40
2455642.332613102
  9
$TDINDWG
 40
0.5238031713
  9
$TDUSRTIMER
 40
0.5238024769
  9
$USRTIMER
 70
     1
  9
$ANGBASE
 50
0.0
  9
$ANGDIR
 70
     0
  9
$PDMODE
 70
     0
  9
$PDSIZE
 40
0.0
  9
$PLINEWID
 40
0.5
  9
$SPLFRAME
 70
     0
  9
$SPLINETYPE
 70
     6
  9
$SPLINESEGS
 70
     8
  9
$HANDSEED
  5
4900
  9
$SURFTAB1
 70
     6
  9
$SURFTAB2
 70
     6
  9
$SURFTYPE
 70
     6
  9
$SURFU
 70
     6
  9
$SURFV
 70
     6
  9
$UCSBASE
  2

  9
$UCSNAME
  2

  9
$UCSORG
 10
0.0
 20
0.0
 30
0.0
  9
$UCSXDIR
 10
1.0
 20
0.0
 30
0.0
  9
$UCSYDIR
 10
0.0
 20
1.0
 30
0.0
  9
$UCSORTHOREF
  2

  9
$UCSORTHOVIEW
 70
     0
  9
$UCSORGTOP
 10
0.0
 20
0.0
 30
0.0
  9
$UCSORGBOTTOM
 10
0.0
 20
0.0
 30
0.0
  9
$UCSORGLEFT
 10
0.0
 20
0.0
 30
0.0
  9
$UCSORGRIGHT
 10
0.0
 20
0.0
 30
0.0
  9
$UCSORGFRONT
 10
0.0
 20
0.0
 30
0.0
  9
$UCSORGBACK
 10
0.0
 20
0.0
 30
0.0
  9
$PUCSBASE
  2

  9
$PUCSNAME
  2

  9
$PUCSORG
 10
0.0
 20
0.0
 30
0.0
  9
$PUCSXDIR
 10
1.0
 20
0.0
 30
0.0
  9
$PUCSYDIR
 10
0.0
 20
1.0
 30
0.0
  9
$PUCSORTHOREF
  2

  9
$PUCSORTHOVIEW
 70
     0
  9
$PUCSORGTOP
 10
0.0
 20
0.0
 30
0.0
  9
$PUCSORGBOTTOM
 10
0.0
 20
0.0
 30
0.0
  9
$PUCSORGLEFT
 10
0.0
 20
0.0
 30
0.0
  9
$PUCSORGRIGHT
 10
0.0
 20
0.0
 30
0.0
  9
$PUCSORGFRONT
 10
0.0
 20
0.0
 30
0.0
  9
$PUCSORGBACK
 10
0.0
 20
0.0
 30
0.0
  9
$USERI1
 70
     0
  9
$USERI2
 70
   452
  9
$USERI3
 70
     1
  9
$USERI4
 70
     0
  9
$USERI5
 70
     0
  9
$USERR1
 40
0.0
  9
$USERR2
 40
0.0
  9
$USERR3
 40
0.0
  9
$USERR4
 40
0.0
  9
$USERR5
 40
0.0
  9
$WORLDVIEW
 70
     1
  9
$SHADEDGE
 70
     3
  9
$SHADEDIF
 70
    70
  9
$TILEMODE
 70
     1
  9
$MAXACTVP
 70
    48
  9
$PINSBASE
 10
0.0
 20
0.0
 30
0.0
  9
$PLIMCHECK
 70
     0
  9
$PEXTMIN
 10
1.000000000000000E+20
 20
1.000000000000000E+20
 30
1.000000000000000E+20
  9
$PEXTMAX
 10
-1.000000000000000E+20
 20
-1.000000000000000E+20
 30
-1.000000000000000E+20
  9
$PLIMMIN
 10
0.0
 20
0.0
  9
$PLIMMAX
 10
12.0
 20
9.0
  9
$UNITMODE
 70
     0
  9
$VISRETAIN
 70
     1
  9
$PLINEGEN
 70
     0
  9
$PSLTSCALE
 70
     1
  9
$TREEDEPTH
 70
  3020
  9
$CMLSTYLE
  2
STANDARD
  9
$CMLJUST
 70
     0
  9
$CMLSCALE
 40
1.0
  9
$PROXYGRAPHICS
 70
     1
  9
$MEASUREMENT
 70
     0
  9
$CELWEIGHT
370
    -1
  9
$ENDCAPS
280
     0
  9
$JOINSTYLE
280
     0
  9
$LWDISPLAY
290
     0
  9
$INSUNITS
 70
     0
  9
$HYPERLINKBASE
  1

  9
$STYLESHEET
  1
1.CTB
  9
$XEDIT
290
     1
  9
$CEPSNTYPE
380
     0
  9
$PSTYLEMODE
290
     1
  9
$FINGERPRINTGUID
  2
{3172CC46-24FC-4775-9257-50F4EA4939B8}
  9
$VERSIONGUID
  2
{CAAF2209-7670-4361-91BB-F8FF0B621409}
  9
$EXTNAMES
290
     1
  9
$PSVPSCALE
 40
0.0
  9
$OLESTARTUP
290
     0
  0
ENDSEC
  0
SECTION
  2
CLASSES
  0
CLASS
  1
DICTIONARYVAR
  2
AcDbDictionaryVar
  3
ObjectDBX Classes
 90
        0
280
     0
281
     0
  0
CLASS
  1
ACDBDICTIONARYWDFLT
  2
AcDbDictionaryWithDefault
  3
ObjectDBX Classes
 90
        0
280
     0
281
     0
  0
CLASS
  1
ACDBPLACEHOLDER
  2
AcDbPlaceHolder
  3
ObjectDBX Classes
 90
        0
280
     0
281
     0
  0
CLASS
  1
LAYOUT
  2
AcDbLayout
  3
ObjectDBX Classes
 90
        0
280
     0
281
     0
  0
CLASS
  1
TABLESTYLE
  2
AcDbTableStyle
  3
ObjectDBX Classes
 90
     4095
280
     0
281
     0
  0
CLASS
  1
MATERIAL
  2
AcDbMaterial
  3
ObjectDBX Classes
 90
     1153
280
     0
281
     0
  0
CLASS
  1
VISUALSTYLE
  2
AcDbVisualStyle
  3
ObjectDBX Classes
 90
     4095
280
     0
281
     0
  0
CLASS
  1
SCALE
  2
AcDbScale
  3
ObjectDBX Classes
 90
     1153
280
     0
281
     0
  0
CLASS
  1
MLEADERSTYLE
  2
AcDbMLeaderStyle
  3
ACDB_MLEADERSTYLE_CLASS
 90
     4095
280
     0
281
     0
  0
CLASS
  1
CELLSTYLEMAP
  2
AcDbCellStyleMap
  3
ObjectDBX Classes
 90
     1152
280
     0
281
     0
  0
ENDSEC
  0
SECTION
  2
TABLES
  0
TABLE
  2
VPORT
  5
8
330
0
100
AcDbSymbolTable
 70
     1
  0
VPORT
  5
480A
330
8
100
AcDbSymbolTableRecord
100
AcDbViewportTableRecord
  2
*Active
 70
     0
 10
0.0
 20
0.0
 11
1.0
 21
1.0
 12
253.9688580767154
 22
124.5067980062884
 13
0.0
 23
0.0
 14
0.5
 24
0.5
 15
0.5
 25
0.5
 16
0.0
 26
0.0
 36
1.0
 17
0.0
 27
0.0
 37
0.0
 40
220.482470029611
 41
2.336349924585218
 42
50.0
 43
0.0
 44
0.0
 50
0.0
 51
0.0
 71
     0
 72
   100
 73
     1
 74
     1
 75
     0
 76
     0
 77
     0
 78
     0
281
     0
 65
     1
110
0.0
120
0.0
130
0.0
111
1.0
121
0.0
131
0.0
112
0.0
122
1.0
132
0.0
 79
     0
146
0.0
  0
ENDTAB
  0
TABLE
  2
LTYPE
  5
5
330
0
100
AcDbSymbolTable
 70
    10
  0
LTYPE
  5
13
330
5
100
AcDbSymbolTableRecord
100
AcDbLinetypeTableRecord
  2
BYBLOCK
 70
     0
  3

 72
    65
 73
     0
 40
0.0
  0
LTYPE
  5
14
330
5
100
AcDbSymbolTableRecord
100
AcDbLinetypeTableRecord
  2
BYLAYER
 70
     0
  3

 72
    65
 73
     0
 40
0.0
  0
LTYPE
  5
15
330
5
100
AcDbSymbolTableRecord
100
AcDbLinetypeTableRecord
  2
CONTINUOUS
 70
     0
  3
Solid line
 72
    65
 73
     0
 40
0.0
  0
LTYPE
  5
5D
330
5
100
AcDbSymbolTableRecord
100
AcDbLinetypeTableRecord
  2
CENTER
 70
     0
  3
Center ____ _ ____ _ ____ _ ____ _ ____ _ ____
 72
    65
 73
     4
 40
2.0
 49
1.25
 74
     0
 49
-0.25
 74
     0
 49
0.25
 74
     0
 49
-0.25
 74
     0
  0
LTYPE
  5
5E
330
5
100
AcDbSymbolTableRecord
100
AcDbLinetypeTableRecord
  2
HIDDEN
 70
     0
  3
Hidden __ __ __ __ __ __ __ __ __ __ __ __ __ _
 72
    65
 73
     2
 40
0.375
 49
0.25
 74
     0
 49
-0.125
 74
     0
  0
LTYPE
  5
2ACA
330
5
100
AcDbSymbolTableRecord
100
AcDbLinetypeTableRecord
  2
2
 70
     0
  3
MEDUSA PEN 2
 72
    65
 73
     4
 40
15.1
 49
9.5
 74
     0
 49
-1.6
 74
     0
 49
2.399999999999999
 74
     0
 49
-1.6
 74
     0
  0
ENDTAB
  0
TABLE
  2
LAYER
  5
2
330
0
100
AcDbSymbolTable
 70
    37
  0
LAYER
  5
F
102
{ACAD_XDICTIONARY
360
4897
102
}
330
2
100
AcDbSymbolTableRecord
100
AcDbLayerTableRecord
  2
0
 70
     0
 62
     7
  6
CONTINUOUS
370
    -3
390
4154
  0
LAYER
  5
55
102
{ACAD_XDICTIONARY
360
4899
102
}
330
2
100
AcDbSymbolTableRecord
100
AcDbLayerTableRecord
  2
9
 70
     0
 62
     3
  6
CONTINUOUS
370
    -3
390
4154
  0
LAYER
  5
61
102
{ACAD_XDICTIONARY
360
489B
102
}
330
2
100
AcDbSymbolTableRecord
100
AcDbLayerTableRecord
  2
1
 70
     0
 62
     1
  6
CENTER
370
    -3
390
4154
  0
LAYER
  5
62
102
{ACAD_XDICTIONARY
360
489D
102
}
330
2
100
AcDbSymbolTableRecord
100
AcDbLayerTableRecord
  2
2
 70
     0
 62
     2
  6
HIDDEN
370
    -3
390
4154
  0
LAYER
  5
24EF
330
2
100
AcDbSymbolTableRecord
100
AcDbLayerTableRecord
  2
DEFPOINTS
 70
     0
 62
     7
  6
CONTINUOUS
290
     0
370
    -3
390
4154
  0
LAYER
  5
2AD3
102
{ACAD_XDICTIONARY
360
48B9
102
}
330
2
100
AcDbSymbolTableRecord
100
AcDbLayerTableRecord
  2
SL2-11
 70
     0
 62
     1
  6
2
370
    -3
390
4154
  0
ENDTAB
  0
TABLE
  2
STYLE
  5
3
330
0
100
AcDbSymbolTable
 70
     7
  0
STYLE
  5
10
330
3
100
AcDbSymbolTableRecord
100
AcDbTextStyleTableRecord
  2
STANDARD
 70
     0
 40
0.0
 41
1.0
 50
0.0
 71
     0
 42
3.0
  3
romans.shx
  4

  0
STYLE
  5
167
330
3
100
AcDbSymbolTableRecord
100
AcDbTextStyleTableRecord
  2
STYLE1
 70
     0
 40
0.0
 41
1.0
 50
0.0
 71
     0
 42
3.149999999999999
  3
Gulim.ttf
  4

1001
ACAD
1000
Gulim
1071
    33074
  0
STYLE
  5
2AD7
330
3
100
AcDbSymbolTableRecord
100
AcDbTextStyleTableRecord
  2
T2
 70
     0
 40
0.0
 41
1.0
 50
0.1
 71
     0
 42
3.5
  3
monotxt
  4

  0
STYLE
  5
4807
330
3
100
AcDbSymbolTableRecord
100
AcDbTextStyleTableRecord
  2
H
 70
     0
 40
0.0
 41
1.0
 50
0.0
 71
     0
 42
3.149999999999999
  3
txt.shx
  4

  0
ENDTAB
  0
TABLE
  2
VIEW
  5
6
330
0
100
AcDbSymbolTable
 70
     0
  0
ENDTAB
  0
TABLE
  2
UCS
  5
7
330
0
100
AcDbSymbolTable
 70
     0
  0
ENDTAB
  0
TABLE
  2
APPID
  5
9
330
0
100
AcDbSymbolTable
 70
     5
  0
APPID
  5
11
330
9
100
AcDbSymbolTableRecord
100
AcDbRegAppTableRecord
  2
ACAD
 70
     0
  0
APPID
  5
2325
330
9
100
AcDbSymbolTableRecord
100
AcDbRegAppTableRecord
  2
MCLBOMATTRIB
 70
     0
  0
APPID
  5
2326
330
9
100
AcDbSymbolTableRecord
100
AcDbRegAppTableRecord
  2
MCLBOM
 70
     0
  0
APPID
  5
4863
330
9
100
AcDbSymbolTableRecord
100
AcDbRegAppTableRecord
  2
ACAD_MLEADERVER
 70
     0
  0
APPID
  5
4895
330
9
100
AcDbSymbolTableRecord
100
AcDbRegAppTableRecord
  2
ACAD_EXEMPT_FROM_CAD_STANDARDS
 70
     0
  0
ENDTAB
  0
TABLE
  2
DIMSTYLE
  5
A
330
0
100
AcDbSymbolTable
 70
     2
100
AcDbDimStyleTable
 71
     1
340
1D
  0
DIMSTYLE
105
1D
102
{ACAD_REACTORS
330
4621
330
475A
330
4767
330
4774
330
4781
330
478E
330
479B
330
47A8
330
47C7
330
47D6
330
47E3
102
}
330
A
100
AcDbSymbolTableRecord
100
AcDbDimStyleTableRecord
  2
STANDARD
 70
     0
 41
2.0
140
3.0
176
     2
177
     2
178
     4
340
10
  0
ENDTAB
  0
TABLE
  2
BLOCK_RECORD
  5
1
330
0
100
AcDbSymbolTable
 70
    40
  0
BLOCK_RECORD
  5
19
330
1
100
AcDbSymbolTableRecord
100
AcDbBlockTableRecord
  2
*MODEL_SPACE
340
4157
  0
BLOCK_RECORD
  5
16
330
1
100
AcDbSymbolTableRecord
100
AcDbBlockTableRecord
  2
*PAPER_SPACE
340
4158
  0
BLOCK_RECORD
  5
1B8B
330
1
100
AcDbSymbolTableRecord
100
AcDbBlockTableRecord
  2
MCLBOMATTRIB
340
0
102
{BLKREFS
331
247E
331
238D
102
}
  0
BLOCK_RECORD
  5
4622
330
1
100
AcDbSymbolTableRecord
100
AcDbBlockTableRecord
  2
*D29
340
0
  0
BLOCK_RECORD
  5
475B
330
1
100
AcDbSymbolTableRecord
100
AcDbBlockTableRecord
  2
*D30
340
0
  0
BLOCK_RECORD
  5
4768
330
1
100
AcDbSymbolTableRecord
100
AcDbBlockTableRecord
  2
*D31
340
0
  0
BLOCK_RECORD
  5
4775
330
1
100
AcDbSymbolTableRecord
100
AcDbBlockTableRecord
  2
*D32
340
0
  0
BLOCK_RECORD
  5
4782
330
1
100
AcDbSymbolTableRecord
100
AcDbBlockTableRecord
  2
*D33
340
0
  0
BLOCK_RECORD
  5
478F
330
1
100
AcDbSymbolTableRecord
100
AcDbBlockTableRecord
  2
*D34
340
0
  0
BLOCK_RECORD
  5
479C
330
1
100
AcDbSymbolTableRecord
100
AcDbBlockTableRecord
  2
*D35
340
0
  0
BLOCK_RECORD
  5
47A9
330
1
100
AcDbSymbolTableRecord
100
AcDbBlockTableRecord
  2
*D36
340
0
  0
BLOCK_RECORD
  5
47C8
330
1
100
AcDbSymbolTableRecord
100
AcDbBlockTableRecord
  2
*D37
340
0
  0
BLOCK_RECORD
  5
47D7
330
1
100
AcDbSymbolTableRecord
100
AcDbBlockTableRecord
  2
*D38
340
0
  0
BLOCK_RECORD
  5
47E4
330
1
100
AcDbSymbolTableRecord
100
AcDbBlockTableRecord
  2
*D39
340
0
  0
ENDTAB
  0
ENDSEC
  0
SECTION
  2
BLOCKS
  0
BLOCK
  5
1A
330
19
100
AcDbEntity
  8
0
100
AcDbBlockBegin
  2
*MODEL_SPACE
 70
     0
 10
0.0
 20
0.0
 30
0.0
  3
*MODEL_SPACE
  1

  0
ENDBLK
  5
1B
330
19
100
AcDbEntity
  8
0
100
AcDbBlockEnd
  0
BLOCK
  5
17
330
16
100
AcDbEntity
 67
     1
  8
0
100
AcDbBlockBegin
  2
*PAPER_SPACE
 70
     0
 10
0.0
 20
0.0
 30
0.0
  3
*PAPER_SPACE
  1

  0
ENDBLK
  5
18
330
16
100
AcDbEntity
 67
     1
  8
0
100
AcDbBlockEnd
  0
BLOCK
  5
1B8C
330
1B8B
100
AcDbEntity
  8
0
100
AcDbBlockBegin
  2
MCLBOMATTRIB
 70
     2
 10
0.0
 20
0.0
 30
0.0
  3
MCLBOMATTRIB
  1
MCLBOMATTRIB
  0
ENDBLK
  5
1B8D
330
1B8B
100
AcDbEntity
  8
0
100
AcDbBlockEnd
  0
BLOCK
  5
462C
330
4622
100
AcDbEntity
  8
0
100
AcDbBlockBegin
  2
*D29
 70
     1
 10
0.0
 20
0.0
 30
0.0
  3
*D29
  1

  0
LINE
  5
488C
330
4622
100
AcDbEntity
  8
0
 62
   115
370
    -2
100
AcDbLine
 10
376.260295123065
 20
128.9434262345636
 30
0.0
 11
390.5495417415558
 21
128.9434262345636
 31
0.0
  0
LINE
  5
488D
330
4622
100
AcDbEntity
  8
0
 62
   115
370
    -2
100
AcDbLine
 10
376.2602951230657
 20
160.9434262345637
 30
0.0
 11
390.5495417415558
 21
160.9434262345637
 31
0.0
  0
LINE
  5
488E
330
4622
100
AcDbEntity
  8
0
 62
   115
370
    -2
100
AcDbLine
 10
389.3495417415558
 20
132.6934262345636
 30
0.0
 11
389.3495417415558
 21
157.1934262345637
 31
0.0
  0
SOLID
  5
488F
330
4622
100
AcDbEntity
  8
0
 62
   115
100
AcDbTrace
 10
388.7245417415558
 20
132.6934262345636
 30
0.0
 11
389.9745417415558
 21
132.6934262345636
 31
0.0
 12
389.3495417415558
 22
128.9434262345636
 32
0.0
 13
389.3495417415558
 23
128.9434262345636
 33
0.0
  0
SOLID
  5
4890
330
4622
100
AcDbEntity
  8
0
 62
   115
100
AcDbTrace
 10
388.7245417415558
 20
157.1934262345637
 30
0.0
 11
389.9745417415558
 21
157.1934262345637
 31
0.0
 12
389.3495417415558
 22
160.9434262345637
 32
0.0
 13
389.3495417415558
 23
160.9434262345637
 33
0.0
  0
MTEXT
  5
4891
330
4622
100
AcDbEntity
  8
0
 62
     7
100
AcDbMText
 10
385.5995417415558
 20
144.9434262345637
 30
0.0
 40
4.5
 41
0.0
 71
     5
 72
     1
  1
\A1;%%c32
 11
0.0000000000000001
 21
1.0
 31
0.0
 73
     1
 44
1.0
1001
ACAD
1000
MTEXTBEGIN
1070
    73
1070
     1
1070
    44
1040
1.0
1070
    74
1070
     0
1000
MTEXTEND
  0
POINT
  5
4892
330
4622
100
AcDbEntity
  8
DEFPOINTS
 62
     0
100
AcDbPoint
 10
375.060295123065
 20
128.9434262345636
 30
0.0
  0
POINT
  5
4893
330
4622
100
AcDbEntity
  8
DEFPOINTS
 62
     0
100
AcDbPoint
 10
375.0602951230657
 20
160.9434262345637
 30
0.0
  0
POINT
  5
4894
330
4622
100
AcDbEntity
  8
DEFPOINTS
 62
     0
100
AcDbPoint
 10
389.3495417415558
 20
160.9434262345637
 30
0.0
  0
ENDBLK
  5
462D
330
4622
100
AcDbEntity
  8
0
100
AcDbBlockEnd
  0
BLOCK
  5
4765
330
475B
100
AcDbEntity
  8
0
100
AcDbBlockBegin
  2
*D30
 70
     1
 10
0.0
 20
0.0
 30
0.0
  3
*D30
  1

  0
LINE
  5
4871
330
475B
100
AcDbEntity
  8
0
 62
   115
370
    -2
100
AcDbLine
 10
340.3536983440528
 20
115.9434262345638
 30
0.0
 11
353.8860104290521
 21
115.9434262345637
 31
0.0
  0
LINE
  5
4872
330
475B
100
AcDbEntity
  8
0
 62
   115
370
    -2
100
AcDbLine
 10
340.3536983440525
 20
173.9434262345636
 30
0.0
 11
353.8860104290521
 21
173.9434262345636
 31
0.0
  0
LINE
  5
4873
330
475B
100
AcDbEntity
  8
0
 62
   115
370
    -2
100
AcDbLine
 10
352.6860104290521
 20
119.6934262345638
 30
0.0
 11
352.6860104290522
 21
170.1934262345637
 31
0.0
  0
SOLID
  5
4874
330
475B
100
AcDbEntity
  8
0
 62
   115
100
AcDbTrace
 10
352.0610104290521
 20
119.6934262345638
 30
0.0
 11
353.3110104290521
 21
119.6934262345638
 31
0.0
 12
352.6860104290521
 22
115.9434262345637
 32
0.0
 13
352.6860104290521
 23
115.9434262345637
 33
0.0
  0
SOLID
  5
4875
330
475B
100
AcDbEntity
  8
0
 62
   115
100
AcDbTrace
 10
352.0610104290522
 20
170.1934262345637
 30
0.0
 11
353.3110104290522
 21
170.1934262345637
 31
0.0
 12
352.6860104290522
 22
173.9434262345636
 32
0.0
 13
352.6860104290522
 23
173.9434262345636
 33
0.0
  0
MTEXT
  5
4876
330
475B
100
AcDbEntity
  8
0
 62
     7
100
AcDbMText
 10
348.9360104290521
 20
144.9434262345638
 30
0.0
 40
4.5
 41
0.0
 71
     5
 72
     1
  1
\A1;%%c58h7
 11
0.0000000000000001
 21
1.0
 31
0.0
 73
     1
 44
1.0
1001
ACAD
1000
MTEXTBEGIN
1070
    73
1070
     1
1070
    44
1040
1.0
1070
    74
1070
     0
1000
MTEXTEND
  0
POINT
  5
4877
330
475B
100
AcDbEntity
  8
DEFPOINTS
 62
     0
100
AcDbPoint
 10
339.1536983440528
 20
115.9434262345638
 30
0.0
  0
POINT
  5
4878
330
475B
100
AcDbEntity
  8
DEFPOINTS
 62
     0
100
AcDbPoint
 10
339.1536983440525
 20
173.9434262345636
 30
0.0
  0
POINT
  5
4879
330
475B
100
AcDbEntity
  8
DEFPOINTS
 62
     0
100
AcDbPoint
 10
352.6860104290522
 20
173.9434262345636
 30
0.0
  0
ENDBLK
  5
4766
330
475B
100
AcDbEntity
  8
0
100
AcDbBlockEnd
  0
BLOCK
  5
4772
330
4768
100
AcDbEntity
  8
0
100
AcDbBlockBegin
  2
*D31
 70
     1
 10
0.0
 20
0.0
 30
0.0
  3
*D31
  1

  0
LINE
  5
4769
330
4768
100
AcDbEntity
  8
0
 62
   115
370
    -2
100
AcDbLine
 10
256.9536983440531
 20
115.9434262345638
 30
0.0
 11
248.666079567398
 21
115.9434262345638
 31
0.0
  0
LINE
  5
476A
330
4768
100
AcDbEntity
  8
0
 62
   115
370
    -2
100
AcDbLine
 10
256.9536983440526
 20
173.9434262345638
 30
0.0
 11
248.666079567398
 21
173.9434262345638
 31
0.0
  0
LINE
  5
476B
330
4768
100
AcDbEntity
  8
0
 62
   115
370
    -2
100
AcDbLine
 10
249.866079567398
 20
119.6934262345638
 30
0.0
 11
249.866079567398
 21
170.1934262345638
 31
0.0
  0
SOLID
  5
476C
330
4768
100
AcDbEntity
  8
0
 62
   115
100
AcDbTrace
 10
249.241079567398
 20
119.6934262345638
 30
0.0
 11
250.4910795673979
 21
119.6934262345638
 31
0.0
 12
249.866079567398
 22
115.9434262345638
 32
0.0
 13
249.866079567398
 23
115.9434262345638
 33
0.0
  0
SOLID
  5
476D
330
4768
100
AcDbEntity
  8
0
 62
   115
100
AcDbTrace
 10
249.241079567398
 20
170.1934262345638
 30
0.0
 11
250.4910795673979
 21
170.1934262345638
 31
0.0
 12
249.866079567398
 22
173.9434262345638
 32
0.0
 13
249.866079567398
 23
173.9434262345638
 33
0.0
  0
MTEXT
  5
476E
330
4768
100
AcDbEntity
  8
0
 62
     7
100
AcDbMText
 10
246.1160795673979
 20
144.9434262345638
 30
0.0
 40
4.5
 41
0.0
 71
     5
 72
     1
  1
\A1;%%c58
 11
0.0000000000000001
 21
1.0
 31
0.0
 73
     1
 44
1.0
1001
ACAD
1000
MTEXTBEGIN
1070
    73
1070
     1
1070
    44
1040
1.0
1070
    74
1070
     0
1000
MTEXTEND
  0
POINT
  5
476F
330
4768
100
AcDbEntity
  8
DEFPOINTS
 62
     0
100
AcDbPoint
 10
258.1536983440531
 20
115.9434262345638
 30
0.0
  0
POINT
  5
4770
330
4768
100
AcDbEntity
  8
DEFPOINTS
 62
     0
100
AcDbPoint
 10
258.1536983440526
 20
173.9434262345638
 30
0.0
  0
POINT
  5
4771
330
4768
100
AcDbEntity
  8
DEFPOINTS
 62
     0
100
AcDbPoint
 10
249.866079567398
 20
173.9434262345638
 30
0.0
  0
ENDBLK
  5
4773
330
4768
100
AcDbEntity
  8
0
100
AcDbBlockEnd
  0
BLOCK
  5
477F
330
4775
100
AcDbEntity
  8
0
100
AcDbBlockBegin
  2
*D32
 70
     1
 10
0.0
 20
0.0
 30
0.0
  3
*D32
  1

  0
LINE
  5
4776
330
4775
100
AcDbEntity
  8
0
 62
   115
370
    -2
100
AcDbLine
 10
270.9536923440526
 20
98.94343223456417
 30
0.0
 11
240.0692270307425
 21
98.94343223456417
 31
0.0
  0
LINE
  5
4777
330
4775
100
AcDbEntity
  8
0
 62
   115
370
    -2
100
AcDbLine
 10
270.9536983440524
 20
190.9434262345637
 30
0.0
 11
240.0692270307425
 21
190.9434262345637
 31
0.0
  0
LINE
  5
4778
330
4775
100
AcDbEntity
  8
0
 62
   115
370
    -2
100
AcDbLine
 10
241.2692270307425
 20
102.6934322345641
 30
0.0
 11
241.2692270307425
 21
187.1934262345637
 31
0.0
  0
SOLID
  5
4779
330
4775
100
AcDbEntity
  8
0
 62
   115
100
AcDbTrace
 10
240.6442270307425
 20
102.6934322345641
 30
0.0
 11
241.8942270307425
 21
102.6934322345641
 31
0.0
 12
241.2692270307425
 22
98.94343223456417
 32
0.0
 13
241.2692270307425
 23
98.94343223456417
 33
0.0
  0
SOLID
  5
477A
330
4775
100
AcDbEntity
  8
0
 62
   115
100
AcDbTrace
 10
240.6442270307425
 20
187.1934262345637
 30
0.0
 11
241.8942270307425
 21
187.1934262345637
 31
0.0
 12
241.2692270307425
 22
190.9434262345637
 32
0.0
 13
241.2692270307425
 23
190.9434262345637
 33
0.0
  0
MTEXT
  5
477B
330
4775
100
AcDbEntity
  8
0
 62
     7
100
AcDbMText
 10
237.5192270307425
 20
144.943429234564
 30
0.0
 40
4.5
 41
0.0
 71
     5
 72
     1
  1
\A1;%%c92
 11
0.0000000000000001
 21
1.0
 31
0.0
 73
     1
 44
1.0
1001
ACAD
1000
MTEXTBEGIN
1070
    73
1070
     1
1070
    44
1040
1.0
1070
    74
1070
     0
1000
MTEXTEND
  0
POINT
  5
477C
330
4775
100
AcDbEntity
  8
DEFPOINTS
 62
     0
100
AcDbPoint
 10
272.1536923440526
 20
98.94343223456417
 30
0.0
  0
POINT
  5
477D
330
4775
100
AcDbEntity
  8
DEFPOINTS
 62
     0
100
AcDbPoint
 10
272.1536983440524
 20
190.9434262345637
 30
0.0
  0
POINT
  5
477E
330
4775
100
AcDbEntity
  8
DEFPOINTS
 62
     0
100
AcDbPoint
 10
241.2692270307425
 20
190.9434262345637
 30
0.0
  0
ENDBLK
  5
4780
330
4775
100
AcDbEntity
  8
0
100
AcDbBlockEnd
  0
BLOCK
  5
478C
330
4782
100
AcDbEntity
  8
0
100
AcDbBlockBegin
  2
*D33
 70
     1
 10
0.0
 20
0.0
 30
0.0
  3
*D33
  1

  0
LINE
  5
4783
330
4782
100
AcDbEntity
  8
0
 62
   115
370
    -2
100
AcDbLine
 10
257.6536983440529
 20
115.2434262345638
 30
0.0
 11
257.6536983440529
 21
86.83363969060691
 31
0.0
  0
LINE
  5
4784
330
4782
100
AcDbEntity
  8
0
 62
   115
370
    -2
100
AcDbLine
 10
271.653698344053
 20
98.24342623456377
 30
0.0
 11
271.653698344053
 21
86.83363969060691
 31
0.0
  0
LINE
  5
4785
330
4782
100
AcDbEntity
  8
0
 62
   115
370
    -2
100
AcDbLine
 10
261.4036983440529
 20
88.03363969060688
 30
0.0
 11
267.903698344053
 21
88.03363969060688
 31
0.0
  0
SOLID
  5
4786
330
4782
100
AcDbEntity
  8
0
 62
   115
100
AcDbTrace
 10
261.4036983440529
 20
88.65863969060688
 30
0.0
 11
261.4036983440529
 21
87.40863969060688
 31
0.0
 12
257.6536983440529
 22
88.03363969060688
 32
0.0
 13
257.6536983440529
 23
88.03363969060688
 33
0.0
  0
SOLID
  5
4787
330
4782
100
AcDbEntity
  8
0
 62
   115
100
AcDbTrace
 10
267.903698344053
 20
88.65863969060688
 30
0.0
 11
267.903698344053
 21
87.40863969060688
 31
0.0
 12
271.653698344053
 22
88.03363969060688
 32
0.0
 13
271.653698344053
 23
88.03363969060688
 33
0.0
  0
MTEXT
  5
4788
330
4782
100
AcDbEntity
  8
0
 62
     7
100
AcDbMText
 10
264.653698344053
 20
91.78363969060688
 30
0.0
 40
4.5
 41
0.0
 71
     5
 72
     1
  1
\A1;14
 73
     1
 44
1.0
1001
ACAD
1000
MTEXTBEGIN
1070
    73
1070
     1
1070
    44
1040
1.0
1070
    74
1070
     0
1000
MTEXTEND
  0
POINT
  5
4789
330
4782
100
AcDbEntity
  8
DEFPOINTS
 62
     0
100
AcDbPoint
 10
257.6536983440529
 20
116.4434262345638
 30
0.0
  0
POINT
  5
478A
330
4782
100
AcDbEntity
  8
DEFPOINTS
 62
     0
100
AcDbPoint
 10
271.653698344053
 20
99.44342623456378
 30
0.0
  0
POINT
  5
478B
330
4782
100
AcDbEntity
  8
DEFPOINTS
 62
     0
100
AcDbPoint
 10
271.653698344053
 20
88.03363969060688
 30
0.0
  0
ENDBLK
  5
478D
330
4782
100
AcDbEntity
  8
0
100
AcDbBlockEnd
  0
BLOCK
  5
4799
330
478F
100
AcDbEntity
  8
0
100
AcDbBlockBegin
  2
*D34
 70
     1
 10
0.0
 20
0.0
 30
0.0
  3
*D34
  1

  0
LINE
  5
4790
330
478F
100
AcDbEntity
  8
0
 62
   115
370
    -2
100
AcDbLine
 10
271.653698344053
 20
98.24342623456377
 30
0.0
 11
271.653698344053
 21
86.83363969060691
 31
0.0
  0
LINE
  5
4791
330
478F
100
AcDbEntity
  8
0
 62
   115
370
    -2
100
AcDbLine
 10
286.6536983440529
 20
98.24342623456379
 30
0.0
 11
286.6536983440529
 21
86.83363969060691
 31
0.0
  0
LINE
  5
4792
330
478F
100
AcDbEntity
  8
0
 62
   115
370
    -2
100
AcDbLine
 10
275.403698344053
 20
88.03363969060688
 30
0.0
 11
282.9036983440529
 21
88.03363969060688
 31
0.0
  0
SOLID
  5
4793
330
478F
100
AcDbEntity
  8
0
 62
   115
100
AcDbTrace
 10
275.403698344053
 20
88.65863969060688
 30
0.0
 11
275.403698344053
 21
87.40863969060688
 31
0.0
 12
271.653698344053
 22
88.03363969060688
 32
0.0
 13
271.653698344053
 23
88.03363969060688
 33
0.0
  0
SOLID
  5
4794
330
478F
100
AcDbEntity
  8
0
 62
   115
100
AcDbTrace
 10
282.9036983440529
 20
88.65863969060688
 30
0.0
 11
282.9036983440529
 21
87.40863969060688
 31
0.0
 12
286.6536983440529
 22
88.03363969060688
 32
0.0
 13
286.6536983440529
 23
88.03363969060688
 33
0.0
  0
MTEXT
  5
4795
330
478F
100
AcDbEntity
  8
0
 62
     7
100
AcDbMText
 10
279.1536983440529
 20
91.78363969060688
 30
0.0
 40
4.5
 41
0.0
 71
     5
 72
     1
  1
\A1;15
 73
     1
 44
1.0
1001
ACAD
1000
MTEXTBEGIN
1070
    73
1070
     1
1070
    44
1040
1.0
1070
    74
1070
     0
1000
MTEXTEND
  0
POINT
  5
4796
330
478F
100
AcDbEntity
  8
DEFPOINTS
 62
     0
100
AcDbPoint
 10
271.653698344053
 20
99.44342623456378
 30
0.0
  0
POINT
  5
4797
330
478F
100
AcDbEntity
  8
DEFPOINTS
 62
     0
100
AcDbPoint
 10
286.6536983440529
 20
99.44342623456378
 30
0.0
  0
POINT
  5
4798
330
478F
100
AcDbEntity
  8
DEFPOINTS
 62
     0
100
AcDbPoint
 10
286.6536983440529
 20
88.03363969060688
 30
0.0
  0
ENDBLK
  5
479A
330
478F
100
AcDbEntity
  8
0
100
AcDbBlockEnd
  0
BLOCK
  5
47A6
330
479C
100
AcDbEntity
  8
0
100
AcDbBlockBegin
  2
*D35
 70
     1
 10
0.0
 20
0.0
 30
0.0
  3
*D35
  1

  0
LINE
  5
487A
330
479C
100
AcDbEntity
  8
0
 62
   115
370
    -2
100
AcDbLine
 10
286.6536983440529
 20
98.24342623456379
 30
0.0
 11
286.6536983440529
 21
86.83363969060687
 31
0.0
  0
LINE
  5
487B
330
479C
100
AcDbEntity
  8
0
 62
   115
370
    -2
100
AcDbLine
 10
339.6536983440528
 20
115.2434262345638
 30
0.0
 11
339.6536983440528
 21
86.83363969060687
 31
0.0
  0
LINE
  5
487C
330
479C
100
AcDbEntity
  8
0
 62
   115
370
    -2
100
AcDbLine
 10
290.4036983440529
 20
88.03363969060688
 30
0.0
 11
335.9036983440528
 21
88.03363969060688
 31
0.0
  0
SOLID
  5
487D
330
479C
100
AcDbEntity
  8
0
 62
   115
100
AcDbTrace
 10
290.4036983440529
 20
88.65863969060688
 30
0.0
 11
290.4036983440529
 21
87.40863969060688
 31
0.0
 12
286.6536983440529
 22
88.03363969060688
 32
0.0
 13
286.6536983440529
 23
88.03363969060688
 33
0.0
  0
SOLID
  5
487E
330
479C
100
AcDbEntity
  8
0
 62
   115
100
AcDbTrace
 10
335.9036983440528
 20
88.65863969060688
 30
0.0
 11
335.9036983440528
 21
87.40863969060688
 31
0.0
 12
339.6536983440528
 22
88.03363969060688
 32
0.0
 13
339.6536983440528
 23
88.03363969060688
 33
0.0
  0
MTEXT
  5
487F
330
479C
100
AcDbEntity
  8
0
 62
     7
100
AcDbMText
 10
313.1536983440528
 20
91.78363969060688
 30
0.0
 40
4.5
 41
0.0
 71
     5
 72
     1
  1
\A1;53
 73
     1
 44
1.0
1001
ACAD
1000
MTEXTBEGIN
1070
    73
1070
     1
1070
    44
1040
1.0
1070
    74
1070
     0
1000
MTEXTEND
  0
POINT
  5
4880
330
479C
100
AcDbEntity
  8
DEFPOINTS
 62
     0
100
AcDbPoint
 10
286.6536983440529
 20
99.44342623456378
 30
0.0
  0
POINT
  5
4881
330
479C
100
AcDbEntity
  8
DEFPOINTS
 62
     0
100
AcDbPoint
 10
339.6536983440528
 20
116.4434262345638
 30
0.0
  0
POINT
  5
4882
330
479C
100
AcDbEntity
  8
DEFPOINTS
 62
     0
100
AcDbPoint
 10
339.6536983440528
 20
88.03363969060688
 30
0.0
  0
ENDBLK
  5
47A7
330
479C
100
AcDbEntity
  8
0
100
AcDbBlockEnd
  0
BLOCK
  5
47B3
330
47A9
100
AcDbEntity
  8
0
100
AcDbBlockBegin
  2
*D36
 70
     1
 10
0.0
 20
0.0
 30
0.0
  3
*D36
  1

  0
LINE
  5
4883
330
47A9
100
AcDbEntity
  8
0
 62
   115
370
    -2
100
AcDbLine
 10
257.6536983440529
 20
85.6336396906069
 30
0.0
 11
257.6536983440529
 21
77.60842270982845
 31
0.0
  0
LINE
  5
4884
330
47A9
100
AcDbEntity
  8
0
 62
   115
370
    -2
100
AcDbLine
 10
339.6536983440528
 20
85.6336396906069
 30
0.0
 11
339.6536983440528
 21
77.60842270982845
 31
0.0
  0
LINE
  5
4885
330
47A9
100
AcDbEntity
  8
0
 62
   115
370
    -2
100
AcDbLine
 10
261.4036983440529
 20
78.80842270982845
 30
0.0
 11
335.9036983440528
 21
78.80842270982845
 31
0.0
  0
SOLID
  5
4886
330
47A9
100
AcDbEntity
  8
0
 62
   115
100
AcDbTrace
 10
261.4036983440529
 20
79.43342270982845
 30
0.0
 11
261.4036983440529
 21
78.18342270982845
 31
0.0
 12
257.6536983440529
 22
78.80842270982845
 32
0.0
 13
257.6536983440529
 23
78.80842270982845
 33
0.0
  0
SOLID
  5
4887
330
47A9
100
AcDbEntity
  8
0
 62
   115
100
AcDbTrace
 10
335.9036983440528
 20
79.43342270982845
 30
0.0
 11
335.9036983440528
 21
78.18342270982845
 31
0.0
 12
339.6536983440528
 22
78.80842270982845
 32
0.0
 13
339.6536983440528
 23
78.80842270982845
 33
0.0
  0
MTEXT
  5
4888
330
47A9
100
AcDbEntity
  8
0
 62
     7
100
AcDbMText
 10
298.6536983440529
 20
82.55842270982844
 30
0.0
 40
4.5
 41
0.0
 71
     5
 72
     1
  1
\A1;82
 73
     1
 44
1.0
1001
ACAD
1000
MTEXTBEGIN
1070
    73
1070
     1
1070
    44
1040
1.0
1070
    74
1070
     0
1000
MTEXTEND
  0
POINT
  5
4889
330
47A9
100
AcDbEntity
  8
DEFPOINTS
 62
     0
100
AcDbPoint
 10
257.6536983440529
 20
86.83363969060691
 30
0.0
  0
POINT
  5
488A
330
47A9
100
AcDbEntity
  8
DEFPOINTS
 62
     0
100
AcDbPoint
 10
339.6536983440528
 20
86.83363969060691
 30
0.0
  0
POINT
  5
488B
330
47A9
100
AcDbEntity
  8
DEFPOINTS
 62
     0
100
AcDbPoint
 10
339.6536983440528
 20
78.80842270982845
 30
0.0
  0
ENDBLK
  5
47B4
330
47A9
100
AcDbEntity
  8
0
100
AcDbBlockEnd
  0
BLOCK
  5
47D4
330
47C8
100
AcDbEntity
  8
0
100
AcDbBlockBegin
  2
*D37
 70
     1
 10
0.0
 20
0.0
 30
0.0
  3
*D37
  1

  0
LINE
  5
47C9
330
47C8
100
AcDbEntity
  8
0
 62
   115
370
    -2
100
AcDbLine
 10
107.8637700114866
 20
106.2716763602281
 30
0.0
 11
100.345392912987
 21
93.24946724131351
 31
0.0
  0
LINE
  5
47CA
330
47C8
100
AcDbEntity
  8
0
 62
   115
370
    -2
100
AcDbLine
 10
152.5180637043842
 20
106.2716765751145
 30
0.0
 11
160.0364409260704
 21
93.24946704221922
 31
0.0
  0
ARC
  5
47CB
330
47C8
100
AcDbEntity
  8
0
 62
   115
370
    -2
100
AcDbCircle
 10
130.1909170919494
 20
144.9434235340397
 30
0.0
 40
58.49104146110462
100
AcDbArc
 50
243.6739945035427
 51
296.3260051142471
  0
SOLID
  5
47CC
330
47C8
100
AcDbEntity
  8
0
 62
   115
100
AcDbTrace
 10
103.9564359336182
 20
91.96776137791658
 30
0.0
 11
104.546412955033
 21
93.0697718652544
 31
0.0
 12
100.9453929823122
 22
94.28869768582993
 32
0.0
 13
100.9453929823122
 23
94.28869768582993
 33
0.0
  0
SOLID
  5
47CD
330
47C8
100
AcDbEntity
  8
0
 62
   115
100
AcDbTrace
 10
155.8354208828256
 20
93.06977169418438
 30
0.0
 11
156.4253978968892
 21
91.96776120291094
 31
0.0
 12
159.4364408636778
 22
94.28869749073813
 32
0.0
 13
159.4364408636778
 23
94.28869749073813
 33
0.0
  0
MTEXT
  5
47CE
102
{ACAD_XDICTIONARY
360
48FA
102
}
330
47C8
100
AcDbEntity
  8
0
 62
     7
100
AcDbMText
 10
130.1909169093654
 20
90.20238207293505
 30
0.0
 40
4.5
 41
0.0
 71
     5
 72
     1
  1
\A1;60\U+00B0
 11
1.0
 21
-0.0000000033354137
 31
0.0
 73
     1
 44
1.0
1001
ACAD
1000
MTEXTBEGIN
1070
    73
1070
     1
1070
    44
1040
1.0
1070
    74
1070
     0
1000
MTEXTEND
  0
POINT
  5
47CF
330
47C8
100
AcDbEntity
  8
DEFPOINTS
 62
     0
100
AcDbPoint
 10
120.0340529234512
 20
87.34099266981891
 30
0.0
  0
POINT
  5
47D0
330
47C8
100
AcDbEntity
  8
DEFPOINTS
 62
     0
100
AcDbPoint
 10
108.4637700808118
 20
107.3109068047445
 30
0.0
  0
POINT
  5
47D1
330
47C8
100
AcDbEntity
  8
DEFPOINTS
 62
     0
100
AcDbPoint
 10
151.9180636419915
 20
107.3109070236334
 30
0.0
  0
POINT
  5
47D2
330
47C8
100
AcDbEntity
  8
DEFPOINTS
 62
     0
100
AcDbPoint
 10
145.4637779028542
 20
118.4900563003935
 30
0.0
  0
POINT
  5
47D3
330
47C8
100
AcDbEntity
  8
DEFPOINTS
 62
     0
100
AcDbPoint
 10
114.9180558945232
 20
118.4900560384492
 30
0.0
  0
ENDBLK
  5
47D5
330
47C8
100
AcDbEntity
  8
0
100
AcDbBlockEnd
  0
BLOCK
  5
47E1
330
47D7
100
AcDbEntity
  8
0
100
AcDbBlockBegin
  2
*D38
 70
     1
 10
0.0
 20
0.0
 30
0.0
  3
*D38
  1

  0
LINE
  5
47D8
330
47D7
100
AcDbEntity
  8
0
 62
   115
370
    -2
100
AcDbLine
 10
96.19091667183839
 20
112.7595524649045
 30
0.0
 11
96.19091667183839
 21
75.27580356465453
 31
0.0
  0
LINE
  5
47D9
330
47D7
100
AcDbEntity
  8
0
 62
   115
370
    -2
100
AcDbLine
 10
164.1909163718384
 20
112.7595521357009
 30
0.0
 11
164.1909163718384
 21
75.27580356465453
 31
0.0
  0
LINE
  5
47DA
330
47D7
100
AcDbEntity
  8
0
 62
   115
370
    -2
100
AcDbLine
 10
99.94091667183839
 20
76.47580356465455
 30
0.0
 11
160.4409163718384
 21
76.47580356465455
 31
0.0
  0
SOLID
  5
47DB
330
47D7
100
AcDbEntity
  8
0
 62
   115
100
AcDbTrace
 10
99.94091667183839
 20
77.10080356465455
 30
0.0
 11
99.94091667183839
 21
75.85080356465455
 31
0.0
 12
96.19091667183839
 22
76.47580356465455
 32
0.0
 13
96.19091667183839
 23
76.47580356465455
 33
0.0
  0
SOLID
  5
47DC
330
47D7
100
AcDbEntity
  8
0
 62
   115
100
AcDbTrace
 10
160.4409163718384
 20
77.10080356465455
 30
0.0
 11
160.4409163718384
 21
75.85080356465455
 31
0.0
 12
164.1909163718384
 22
76.47580356465455
 32
0.0
 13
164.1909163718384
 23
76.47580356465455
 33
0.0
  0
MTEXT
  5
47DD
330
47D7
100
AcDbEntity
  8
0
 62
     7
100
AcDbMText
 10
130.1909165218384
 20
80.22580356465455
 30
0.0
 40
4.5
 41
0.0
 71
     5
 72
     1
  1
\A1;68
 73
     1
 44
1.0
1001
ACAD
1000
MTEXTBEGIN
1070
    73
1070
     1
1070
    44
1040
1.0
1070
    74
1070
     0
1000
MTEXTEND
  0
POINT
  5
47DE
330
47D7
100
AcDbEntity
  8
DEFPOINTS
 62
     0
100
AcDbPoint
 10
96.19091667183839
 20
113.9595524649045
 30
0.0
  0
POINT
  5
47DF
330
47D7
100
AcDbEntity
  8
DEFPOINTS
 62
     0
100
AcDbPoint
 10
164.1909163718384
 20
113.9595521357009
 30
0.0
  0
POINT
  5
47E0
330
47D7
100
AcDbEntity
  8
DEFPOINTS
 62
     0
100
AcDbPoint
 10
164.1909163718384
 20
76.47580356465455
 30
0.0
  0
ENDBLK
  5
47E2
330
47D7
100
AcDbEntity
  8
0
100
AcDbBlockEnd
  0
BLOCK
  5
47ED
330
47E4
100
AcDbEntity
  8
0
100
AcDbBlockBegin
  2
*D39
 70
     1
 10
0.0
 20
0.0
 30
0.0
  3
*D39
  1

  0
LINE
  5
47E5
330
47E4
100
AcDbEntity
  8
0
 62
   115
370
    -2
100
AcDbLine
 10
203.1999252731963
 20
120.25152248507
 30
0.0
 11
168.7929921186175
 21
131.8880651144654
 31
0.0
  0
LINE
  5
47E6
330
47E4
100
AcDbEntity
  8
0
 62
   115
370
    -2
100
AcDbLine
 10
91.58884122505929
 20
157.9987733546621
 30
0.0
 11
88.03650299376057
 21
159.2001863104995
 31
0.0
  0
MTEXT
  5
47E7
330
47E4
100
AcDbEntity
  8
0
 62
     7
100
AcDbMText
 10
189.1113451052035
 20
129.4274070652962
 30
0.0
 40
4.5
 41
0.0
 71
     5
 72
     1
  1
\A1;P,C,D 74
 11
0.9472901950129852
 21
-0.3203767882232739
 31
0.0
 73
     1
 44
1.0
1001
ACAD
1000
MTEXTBEGIN
1070
    73
1070
     1
1070
    44
1040
1.0
1070
    74
1070
     0
1000
MTEXTEND
  0
LINE
  5
47E8
330
47E4
100
AcDbEntity
  8
0
 62
   115
370
    -2
100
AcDbLine
 10
95.14117945635796
 20
156.7973603988249
 30
0.0
 11
165.2406538873188
 21
133.0894780703026
 31
0.0
  0
SOLID
  5
47E9
330
47E4
100
AcDbEntity
  8
0
 62
   115
100
AcDbTrace
 10
91.78907671769882
 20
158.5908297265453
 30
0.0
 11
91.38860573241974
 21
157.4067169827791
 31
0.0
 12
95.14117945635796
 22
156.7973603988249
 32
0.0
 13
95.14117945635796
 23
156.7973603988249
 33
0.0
  0
SOLID
  5
47EA
330
47E4
100
AcDbEntity
  8
0
 62
   115
100
AcDbTrace
 10
168.993227611257
 20
132.4801214863485
 30
0.0
 11
168.592756625978
 21
131.2960087425823
 31
0.0
 12
165.2406538873188
 22
133.0894780703026
 32
0.0
 13
165.2406538873188
 23
133.0894780703026
 33
0.0
  0
POINT
  5
47EB
330
47E4
100
AcDbEntity
  8
DEFPOINTS
 62
     0
100
AcDbPoint
 10
165.2406538873188
 20
133.0894780703026
 30
0.0
  0
POINT
  5
47EC
330
47E4
100
AcDbEntity
  8
DEFPOINTS
 62
     0
100
AcDbPoint
 10
95.14117945635796
 20
156.7973603988249
 30
0.0
  0
ENDBLK
  5
47EE
330
47E4
100
AcDbEntity
  8
0
100
AcDbBlockEnd
  0
ENDSEC
  0
SECTION
  2
ENTITIES
  0
INSERT
  5
247E
330
19
100
AcDbEntity
  8
0
100
AcDbBlockReference
  2
MCLBOMATTRIB
 10
0.0
 20
0.0
 30
0.0
1001
MCLBOMATTRIB
1002
{
1000
1
1005
0
1005
0
1000
강관 용접식 플렌지
1005
0
1000
Steel Welding Pipe Flange
1005
0
1000
SOP 5K 10A FF
1005
0
1000

1005
2480
1000
1
1005
0
1000

1005
2481
1000

1005
0
1000

1005
2482
1000

1005
0
1000

1005
0
1000

1005
0
1000

1005
0
1000

1005
0
1000

1005
0
1002
}
  0
TEXT
  5
2480
330
19
100
AcDbEntity
  8
0
 62
   111
100
AcDbText
 10
344.9746279359911
 20
60.9644544167441
 30
0.0
 40
2.5
  1

  7
STYLE1
100
AcDbText
  0
TEXT
  5
2481
330
19
100
AcDbEntity
  8
0
 62
   111
100
AcDbText
 10
379.9746279359911
 20
60.9644544167441
 30
0.0
 40
2.5
  1

  7
STYLE1
100
AcDbText
  0
TEXT
  5
2482
330
19
100
AcDbEntity
  8
0
 62
   111
100
AcDbText
 10
394.9746279359911
 20
60.9644544167441
 30
0.0
 40
2.5
  1

  7
STYLE1
100
AcDbText
  0
MTEXT
  5
24CA
330
19
100
AcDbEntity
  8
0
100
AcDbMText
 10
295.0
 20
25.00000000000007
 30
0.0
 40
2.5
 41
20.0
 71
     5
 72
     5
  1

  7
STYLE1
 73
     1
 44
1.0
1001
ACAD
1000
MTEXTBEGIN
1070
    73
1070
     1
1070
    44
1040
1.0
1070
    74
1070
     0
1000
MTEXTEND
  0
MTEXT
  5
24DF
330
19
100
AcDbEntity
  8
0
100
AcDbMText
 10
265.0
 20
292.0
 30
0.0
 40
1.8
 41
15.0
 71
     1
 72
     5
  1

  7
STYLE1
 73
     1
 44
1.0
1001
ACAD
1000
MTEXTBEGIN
1070
    73
1070
     1
1070
    44
1040
1.0
1070
    74
1070
     0
1000
MTEXTEND
  0
LINE
  5
2EC4
330
19
100
AcDbEntity
  8
1
100
AcDbLine
 10
211.4489087048997
 20
144.9434262345638
 30
0.0
 11
377.6112239250492
 21
144.9434262345638
 31
0.0
  0
LINE
  5
324C
330
19
100
AcDbEntity
  8
0
100
AcDbLine
 10
272.1536923440526
 20
98.94343223456418
 30
0.0
 11
272.1536923440526
 21
190.9434202345639
 31
0.0
  0
TEXT
  5
32A5
330
19
100
AcDbEntity
  8
0
100
AcDbText
 10
144.7007800264357
 20
53.22974029486261
 30
0.0
 40
10.5
  1
SLKN3232-3.6-R
  7
T2
 72
     4
 11
216.4507800264357
 21
58.47974029486262
 31
0.0
100
AcDbText
  0
LINE
  5
34B0
330
19
100
AcDbEntity
  8
SL2-11
100
AcDbLine
 10
108.4637771997153
 20
182.575935774484
 30
0.0
 11
114.9180622676859
 21
171.3967861102256
 31
0.0
  0
LINE
  5
34EB
330
19
100
AcDbEntity
  8
SL2-11
100
AcDbLine
 10
151.9180565230883
 20
182.575935555595
 30
0.0
 11
145.4637715296916
 21
171.3967858482814
 31
0.0
  0
LINE
  5
355D
330
19
100
AcDbEntity
  8
1
100
AcDbLine
 10
130.1909166718384
 20
193.5613125433625
 30
0.0
 11
130.1909166718384
 21
96.32553792576501
 31
0.0
  0
LINE
  5
375C
330
19
100
AcDbEntity
  8
SL2-11
100
AcDbLine
 10
151.9180636419915
 20
107.3109070236334
 30
0.0
 11
145.4637779028542
 21
118.4900563003935
 31
0.0
  0
LINE
  5
3784
330
19
100
AcDbEntity
  8
SL2-11
100
AcDbLine
 10
108.4637700808118
 20
107.3109068047445
 30
0.0
 11
114.9180558945232
 21
118.4900560384492
 31
0.0
  0
LINE
  5
3945
330
19
100
AcDbEntity
  8
0
100
AcDbLine
 10
271.653698344053
 20
99.44342623456378
 30
0.0
 11
271.6536983440524
 21
190.4434262345636
 31
0.0
  0
LINE
  5
394B
330
19
100
AcDbEntity
  8
0
100
AcDbLine
 10
213.5602951230653
 20
129.4434262345638
 30
0.0
 11
213.5602951230652
 21
160.4434262345638
 31
0.0
  0
MTEXT
  5
3954
330
19
100
AcDbEntity
  8
0
 62
   111
100
AcDbMText
 10
0.0
 20
0.0
 30
0.0
 40
3.0
 41
0.0
 71
     5
 72
     5
  1

 11
0.6658655619423123
 21
0.7460717481712123
 31
0.0
 73
     1
 44
1.0
1001
ACAD
1000
MTEXTBEGIN
1070
    73
1070
     1
1070
    44
1040
1.0
1070
    74
1070
     0
1000
MTEXTEND
  0
MTEXT
  5
3959
330
19
100
AcDbEntity
  8
0
 62
   111
100
AcDbMText
 10
0.0
 20
0.0
 30
0.0
 40
3.0
 41
0.0
 71
     5
 72
     5
  1

 11
0.9994246805919202
 21
0.0339161882253633
 31
0.0
 73
     1
 44
1.0
1001
ACAD
1000
MTEXTBEGIN
1070
    73
1070
     1
1070
    44
1040
1.0
1070
    74
1070
     0
1000
MTEXTEND
  0
LINE
  5
3B0B
330
19
100
AcDbEntity
  8
1
100
AcDbLine
 10
81.5730041324695
 20
144.9434252345638
 30
0.0
 11
178.8087787500801
 21
144.9434252345638
 31
0.0
  0
MTEXT
  5
3CA0
330
19
100
AcDbEntity
  8
0
 62
   111
100
AcDbMText
 10
0.0
 20
0.0
 30
0.0
 40
3.0
 41
0.0
 71
     5
 72
     5
  1

 11
0.8978290820304724
 21
-0.4403441148242126
 31
0.0
 73
     1
 44
1.0
1001
ACAD
1000
MTEXTBEGIN
1070
    73
1070
     1
1070
    44
1040
1.0
1070
    74
1070
     0
1000
MTEXTEND
  0
MTEXT
  5
3CA1
330
19
100
AcDbEntity
  8
0
 62
   111
100
AcDbMText
 10
0.0
 20
0.0
 30
0.0
 40
3.0
 41
0.0
 71
     5
 72
     5
  1

 11
0.8978290820304724
 21
-0.4403441148242126
 31
0.0
 73
     1
 44
1.0
1001
ACAD
1000
MTEXTBEGIN
1070
    73
1070
     1
1070
    44
1040
1.0
1070
    74
1070
     0
1000
MTEXTEND
  0
MTEXT
  5
3CA2
330
19
100
AcDbEntity
  8
0
 62
   111
100
AcDbMText
 10
0.0
 20
0.0
 30
0.0
 40
3.0
 41
0.0
 71
     5
 72
     5
  1

 11
0.8978290820304724
 21
-0.4403441148242126
 31
0.0
 73
     1
 44
1.0
1001
ACAD
1000
MTEXTBEGIN
1070
    73
1070
     1
1070
    44
1040
1.0
1070
    74
1070
     0
1000
MTEXTEND
  0
MTEXT
  5
3CA3
330
19
100
AcDbEntity
  8
0
 62
   111
100
AcDbMText
 10
0.0
 20
0.0
 30
0.0
 40
3.0
 41
0.0
 71
     5
 72
     5
  1

 11
0.8978290820304724
 21
-0.4403441148242126
 31
0.0
 73
     1
 44
1.0
1001
ACAD
1000
MTEXTBEGIN
1070
    73
1070
     1
1070
    44
1040
1.0
1070
    74
1070
     0
1000
MTEXTEND
  0
MTEXT
  5
3CA8
330
19
100
AcDbEntity
  8
0
 62
   111
100
AcDbMText
 10
0.0
 20
0.0
 30
0.0
 40
3.0
 41
0.0
 71
     5
 72
     5
  1

 11
0.3826834323650868
 21
-0.9238795325112882
 31
0.0
 73
     1
 44
1.0
1001
ACAD
1000
MTEXTBEGIN
1070
    73
1070
     1
1070
    44
1040
1.0
1070
    74
1070
     0
1000
MTEXTEND
  0
LINE
  5
418B
330
19
100
AcDbEntity
  8
2
100
AcDbLine
 10
127.6909166718383
 20
190.8754342132255
 30
0.0
 11
127.6909166718383
 21
163.7782274364011
 31
0.0
  0
LINE
  5
418C
330
19
100
AcDbEntity
  8
2
100
AcDbLine
 10
132.6909166718385
 20
190.8754342132255
 30
0.0
 11
132.6909166718384
 21
163.7782274364011
 31
0.0
  0
LINE
  5
418D
330
19
100
AcDbEntity
  8
2
100
AcDbLine
 10
127.1909166718384
 20
190.8454889046778
 30
0.0
 11
127.1909166718384
 21
184.9434192345638
 31
0.0
  0
LINE
  5
418E
330
19
100
AcDbEntity
  8
2
100
AcDbLine
 10
133.1909166718384
 20
190.8454889046778
 30
0.0
 11
133.1909166718384
 21
184.9434192345638
 31
0.0
  0
LINE
  5
4194
330
19
100
AcDbEntity
  8
2
100
AcDbLine
 10
127.1909166718384
 20
184.9434192345638
 30
0.0
 11
133.1909166718384
 21
184.9434192345638
 31
0.0
  0
LINE
  5
4195
330
19
100
AcDbEntity
  8
2
100
AcDbLine
 10
127.6909166718384
 20
184.4434192345638
 30
0.0
 11
132.6909166718384
 21
184.4434192345638
 31
0.0
  0
LINE
  5
4196
330
19
100
AcDbEntity
  8
2
100
AcDbLine
 10
127.6909166718384
 20
184.4434192345638
 30
0.0
 11
127.1909166718384
 21
184.9434192345638
 31
0.0
  0
LINE
  5
4197
330
19
100
AcDbEntity
  8
2
100
AcDbLine
 10
132.6909166718384
 20
184.4434192345638
 30
0.0
 11
133.1909166718384
 21
184.9434192345638
 31
0.0
  0
LINE
  5
419B
330
19
100
AcDbEntity
  8
0
100
AcDbLine
 10
214.0602951230652
 20
160.9434262345638
 30
0.0
 11
214.0602951230653
 21
128.9434262345638
 31
0.0
  0
LINE
  5
419C
330
19
100
AcDbEntity
  8
0
100
AcDbLine
 10
375.5602951230653
 20
129.4434262345638
 30
0.0
 11
375.5602951230657
 21
160.4434262345637
 31
0.0
  0
LINE
  5
419F
330
19
100
AcDbEntity
  8
0
100
AcDbLine
 10
375.0602951230657
 20
160.9434262345637
 30
0.0
 11
375.060295123065
 21
128.9434262345638
 31
0.0
  0
LINE
  5
41BD
330
19
100
AcDbEntity
  8
2
100
AcDbLine
 10
334.653698344053
 20
125.9434262345638
 30
0.0
 11
334.6536983440524
 21
163.9434262345637
 31
0.0
  0
LEADER
  5
422C
330
19
100
AcDbEntity
  8
0
100
AcDbLeader
  3
STANDARD
 73
     0
 74
     0
 75
     1
 40
4.5
 41
16.7142857142857
 76
     3
 10
152.7411089656601
 20
179.2410232485468
 30
0.0
 10
167.6216295105598
 20
191.0227401252597
 30
0.0
 10
171.3716295105598
 20
191.0227401252597
 30
0.0
340
422D
1001
ACAD
1000
DSTYLE
1002
{
1070
    40
1040
1.5
1070
    41
1040
2.5
1070
    42
1040
0.8
1070
    43
1040
0.8
1070
    44
1040
0.8
1070
    73
1070
     0
1070
    74
1070
     0
1070
    77
1070
     1
1070
    78
1070
     8
1070
   141
1040
-1.0
1070
   147
1040
1.0
1070
   172
1070
     1
1070
   176
1070
   115
1070
   177
1070
   115
1070
   178
1070
     7
1070
   271
1070
     3
1002
}
  0
MTEXT
  5
422D
102
{ACAD_REACTORS
330
422C
102
}
330
19
100
AcDbEntity
  8
0
 62
     7
100
AcDbMText
 10
172.8716295105598
 20
192.5227401252597
 30
0.0
 40
4.5
 41
0.0
 71
     7
 72
     1
  1
4-%%c9
 73
     1
 44
1.0
1001
ACAD
1000
MTEXTBEGIN
1070
    73
1070
     1
1070
    44
1040
1.0
1070
    74
1070
     0
1000
MTEXTEND
  0
LEADER
  5
422E
330
19
100
AcDbEntity
  8
0
100
AcDbLeader
  3
STANDARD
 73
     0
 75
     1
 40
4.5
 41
26.78571428571429
 76
     3
 10
130.1909166718384
 20
190.9434192345638
 30
0.0
 10
119.1014494463206
 20
208.8950951224971
 30
0.0
 10
115.3514494463206
 20
208.8950951224971
 30
0.0
340
422F
1001
ACAD
1000
DSTYLE
1002
{
1070
    40
1040
1.5
1070
    41
1040
2.5
1070
    42
1040
0.8
1070
    43
1040
0.8
1070
    44
1040
0.8
1070
    73
1070
     0
1070
    74
1070
     0
1070
    77
1070
     1
1070
    78
1070
     8
1070
   141
1040
-1.0
1070
   147
1040
1.0
1070
   172
1070
     1
1070
   176
1070
   115
1070
   177
1070
   115
1070
   178
1070
     7
1070
   271
1070
     3
1002
}
  0
MTEXT
  5
422F
102
{ACAD_REACTORS
330
422E
102
}
330
19
100
AcDbEntity
  8
0
 62
     7
100
AcDbMText
 10
113.8514494463206
 20
210.3950951224971
 30
0.0
 40
4.5
 41
0.0
 71
     9
 72
     1
  1
M6xP1.0
 73
     1
 44
1.0
1001
ACAD
1000
MTEXTBEGIN
1070
    73
1070
     1
1070
    44
1040
1.0
1070
    74
1070
     0
1000
MTEXTEND
  0
LINE
  5
4298
330
19
100
AcDbEntity
  8
0
100
AcDbLine
 10
339.1536983440528
 20
115.9434262345638
 30
0.0
 11
339.1536983440526
 21
173.9434262345636
 31
0.0
  0
LINE
  5
429F
330
19
100
AcDbEntity
  8
0
100
AcDbLine
 10
258.1536983440525
 20
173.9434262345638
 30
0.0
 11
258.1536983440531
 21
115.9434262345638
 31
0.0
  0
LINE
  5
4418
330
19
100
AcDbEntity
  8
2
100
AcDbLine
 10
262.653698344053
 20
125.9434262345638
 30
0.0
 11
262.6536983440526
 21
163.9434262345637
 31
0.0
  0
LINE
  5
45E7
330
19
100
AcDbEntity
  8
0
  6
Continuous
100
AcDbLine
 10
339.6536983440526
 20
160.9434262345638
 30
0.0
 11
375.0602951230657
 21
160.9434262345637
 31
0.0
  0
LINE
  5
45E8
330
19
100
AcDbEntity
  8
0
  6
Continuous
100
AcDbLine
 10
339.6536983440527
 20
128.9434262345638
 30
0.0
 11
375.0602951230653
 21
128.9434262345638
 31
0.0
  0
LINE
  5
45E9
330
19
100
AcDbEntity
  8
0
  6
Continuous
100
AcDbLine
 10
214.0602951230653
 20
160.9434262345638
 30
0.0
 11
257.6536983440527
 21
160.9434262345638
 31
0.0
  0
LINE
  5
45EA
330
19
100
AcDbEntity
  8
0
  6
Continuous
100
AcDbLine
 10
214.0602951230653
 20
128.9434262345638
 30
0.0
 11
257.6536983440528
 21
128.9434262345637
 31
0.0
  0
LINE
  5
45F9
330
19
100
AcDbEntity
  8
9
  6
Continuous
100
AcDbLine
 10
339.6536983440526
 20
158.9434262345638
 30
0.0
 11
375.5602951230653
 21
158.9434262345638
 31
0.0
  0
LINE
  5
45FA
330
19
100
AcDbEntity
  8
9
  6
Continuous
100
AcDbLine
 10
339.6536983440527
 20
130.9434262345637
 30
0.0
 11
375.5602951230653
 21
130.9434262345638
 31
0.0
  0
LINE
  5
45FB
330
19
100
AcDbEntity
  8
9
  6
Continuous
100
AcDbLine
 10
213.5602951230652
 20
158.9434262345638
 30
0.0
 11
257.6536983440527
 21
158.9434262345638
 31
0.0
  0
LINE
  5
45FC
330
19
100
AcDbEntity
  8
9
  6
Continuous
100
AcDbLine
 10
213.5602951230653
 20
130.9434262345638
 30
0.0
 11
257.6536983440528
 21
130.9434262345638
 31
0.0
  0
LINE
  5
45FD
330
19
100
AcDbEntity
  8
0
100
AcDbLine
 10
375.0602951230657
 20
160.9434262345637
 30
0.0
 11
375.5602951230657
 21
160.4434262345637
 31
0.0
  0
LINE
  5
45FE
330
19
100
AcDbEntity
  8
0
100
AcDbLine
 10
375.0602951230653
 20
128.9434262345638
 30
0.0
 11
375.5602951230653
 21
129.4434262345638
 31
0.0
  0
LINE
  5
45FF
330
19
100
AcDbEntity
  8
0
100
AcDbLine
 10
213.5602951230652
 20
160.4434262345638
 30
0.0
 11
214.0602951230653
 21
160.9434262345638
 31
0.0
  0
LINE
  5
4600
330
19
100
AcDbEntity
  8
0
100
AcDbLine
 10
213.5602951230653
 20
129.4434262345638
 30
0.0
 11
214.0602951230653
 21
128.9434262345638
 31
0.0
  0
LINE
  5
460F
330
19
100
AcDbEntity
  8
2
100
AcDbLine
 10
334.6536983440525
 20
163.9434262345637
 30
0.0
 11
339.6536983440526
 21
163.9434262345637
 31
0.0
  0
LINE
  5
4610
330
19
100
AcDbEntity
  8
2
100
AcDbLine
 10
334.6536983440527
 20
125.9434262345638
 30
0.0
 11
339.6536983440526
 21
125.9434262345638
 31
0.0
  0
LINE
  5
4611
330
19
100
AcDbEntity
  8
2
100
AcDbLine
 10
257.6536983440528
 20
125.9434262345638
 30
0.0
 11
262.6536983440528
 21
125.9434262345638
 31
0.0
  0
LINE
  5
4612
330
19
100
AcDbEntity
  8
2
100
AcDbLine
 10
257.6536983440528
 20
163.9434262345637
 30
0.0
 11
262.6536983440528
 21
163.9434262345637
 31
0.0
  0
DIMENSION
  5
4621
330
19
100
AcDbEntity
  8
0
100
AcDbDimension
  2
*D29
 10
389.3495417415558
 20
160.9434262345637
 30
0.0
 11
385.5995417415558
 21
144.9434262345637
 31
0.0
 70
    32
  1
%%c32
 71
     5
 42
32.00000000000012
  3
STANDARD
100
AcDbAlignedDimension
 13
375.060295123065
 23
128.9434262345636
 33
0.0
 14
375.0602951230657
 24
160.9434262345637
 34
0.0
 50
90.0
100
AcDbRotatedDimension
1001
ACAD
1000
DSTYLE
1002
{
1070
    40
1040
1.5
1070
    41
1040
2.5
1070
    42
1040
0.8
1070
    43
1040
0.8
1070
    44
1040
0.8
1070
    73
1070
     0
1070
    74
1070
     0
1070
    77
1070
     3
1070
    78
1070
     8
1070
   141
1040
-1.0
1070
   147
1040
1.0
1070
   172
1070
     1
1070
   176
1070
   115
1070
   177
1070
   115
1070
   178
1070
     7
1070
   271
1070
     3
1002
}
  0
LINE
  5
4689
330
19
100
AcDbEntity
  8
0
100
AcDbLine
 10
339.6536983440528
 20
116.4434262345638
 30
0.0
 11
339.6536983440526
 21
173.4434262345638
 31
0.0
  0
CIRCLE
  5
46F8
330
19
100
AcDbEntity
  8
0
100
AcDbCircle
 10
130.1909166718384
 20
144.9434192345638
 30
0.0
 40
16.0
  0
CIRCLE
  5
46F9
330
19
100
AcDbEntity
  8
0
100
AcDbCircle
 10
130.1909166718384
 20
144.9434192345638
 30
0.0
 40
19.0
  0
ARC
  5
4707
330
19
100
AcDbEntity
  8
9
100
AcDbCircle
 10
130.190891839677
 20
144.9434252345638
 30
0.0
 40
14.0
100
AcDbArc
 50
180.0
 51
89.99982542600712
  0
LINE
  5
4746
330
19
100
AcDbEntity
  8
0
100
AcDbLine
 10
286.6536983440525
 20
173.9434262345638
 30
0.0
 11
339.1536983440525
 21
173.9434262345636
 31
0.0
  0
LINE
  5
4747
330
19
100
AcDbEntity
  8
0
100
AcDbLine
 10
286.6536983440528
 20
115.9434262345638
 30
0.0
 11
339.1536983440528
 21
115.9434262345638
 31
0.0
  0
LINE
  5
4748
330
19
100
AcDbEntity
  8
0
100
AcDbLine
 10
271.6536983440526
 20
173.9434262345638
 30
0.0
 11
258.1536983440526
 21
173.9434262345638
 31
0.0
  0
LINE
  5
4749
330
19
100
AcDbEntity
  8
0
100
AcDbLine
 10
271.6536983440529
 20
115.9434262345638
 30
0.0
 11
258.1536983440529
 21
115.9434262345638
 31
0.0
  0
LINE
  5
474A
330
19
100
AcDbEntity
  8
0
100
AcDbLine
 10
272.1536983440524
 20
190.9434262345637
 30
0.0
 11
286.1536983440524
 21
190.9434262345638
 31
0.0
  0
LINE
  5
474B
330
19
100
AcDbEntity
  8
0
100
AcDbLine
 10
272.153698344053
 20
98.94342623456379
 30
0.0
 11
286.1536983440529
 21
98.94342623456379
 31
0.0
  0
LINE
  5
474C
330
19
100
AcDbEntity
  8
0
100
AcDbLine
 10
257.6536983440529
 20
116.4434262345638
 30
0.0
 11
257.6536983440526
 21
173.4434262345638
 31
0.0
  0
LINE
  5
474D
330
19
100
AcDbEntity
  8
0
100
AcDbLine
 10
257.6536983440526
 20
173.4434262345638
 30
0.0
 11
258.1536983440526
 21
173.9434262345638
 31
0.0
  0
LINE
  5
474E
330
19
100
AcDbEntity
  8
0
100
AcDbLine
 10
257.6536983440529
 20
116.4434262345638
 30
0.0
 11
258.1536983440529
 21
115.9434262345638
 31
0.0
  0
LINE
  5
474F
330
19
100
AcDbEntity
  8
0
100
AcDbLine
 10
271.653698344053
 20
99.44342623456378
 30
0.0
 11
272.153698344053
 21
98.94342623456379
 31
0.0
  0
LINE
  5
4751
330
19
100
AcDbEntity
  8
0
100
AcDbLine
 10
271.6536983440524
 20
190.4434262345636
 30
0.0
 11
272.1536983440524
 21
190.9434262345637
 31
0.0
  0
LINE
  5
4753
330
19
100
AcDbEntity
  8
0
100
AcDbLine
 10
286.6536983440529
 20
99.44342623456378
 30
0.0
 11
286.6536983440525
 21
190.4434262345638
 31
0.0
  0
LINE
  5
4754
330
19
100
AcDbEntity
  8
0
100
AcDbLine
 10
286.153698344053
 20
98.94342623456395
 30
0.0
 11
286.1536983440526
 21
190.9434262345637
 31
0.0
  0
LINE
  5
4755
330
19
100
AcDbEntity
  8
0
100
AcDbLine
 10
286.1536983440524
 20
190.9434262345638
 30
0.0
 11
286.6536983440525
 21
190.4434262345638
 31
0.0
  0
LINE
  5
4756
330
19
100
AcDbEntity
  8
0
100
AcDbLine
 10
286.1536983440529
 20
98.94342623456379
 30
0.0
 11
286.6536983440529
 21
99.44342623456378
 31
0.0
  0
LINE
  5
4758
330
19
100
AcDbEntity
  8
0
100
AcDbLine
 10
339.1536983440525
 20
173.9434262345636
 30
0.0
 11
339.6536983440526
 21
173.4434262345638
 31
0.0
  0
LINE
  5
4759
330
19
100
AcDbEntity
  8
0
100
AcDbLine
 10
339.1536983440528
 20
115.9434262345638
 30
0.0
 11
339.6536983440528
 21
116.4434262345638
 31
0.0
  0
DIMENSION
  5
475A
330
19
100
AcDbEntity
  8
0
100
AcDbDimension
  2
*D30
 10
352.6860104290522
 20
173.9434262345636
 30
0.0
 11
348.9360104290521
 21
144.9434262345638
 31
0.0
 70
    32
  1
%%c58h7
 71
     5
 42
57.9999999999999
  3
STANDARD
100
AcDbAlignedDimension
 13
339.1536983440528
 23
115.9434262345638
 33
0.0
 14
339.1536983440525
 24
173.9434262345636
 34
0.0
 50
90.0
100
AcDbRotatedDimension
1001
ACAD
1000
DSTYLE
1002
{
1070
    40
1040
1.5
1070
    41
1040
2.5
1070
    42
1040
0.8
1070
    43
1040
0.8
1070
    44
1040
0.8
1070
    73
1070
     0
1070
    74
1070
     0
1070
    77
1070
     3
1070
    78
1070
     8
1070
   141
1040
-1.0
1070
   147
1040
1.0
1070
   172
1070
     1
1070
   176
1070
   115
1070
   177
1070
   115
1070
   178
1070
     7
1070
   271
1070
     3
1002
}
  0
DIMENSION
  5
4767
330
19
100
AcDbEntity
  8
0
100
AcDbDimension
  2
*D31
 10
249.866079567398
 20
173.9434262345638
 30
0.0
 11
246.1160795673979
 21
144.9434262345638
 31
0.0
 70
    32
  1
%%c58
 71
     5
 42
58.0
  3
STANDARD
100
AcDbAlignedDimension
 13
258.1536983440531
 23
115.9434262345638
 33
0.0
 14
258.1536983440526
 24
173.9434262345638
 34
0.0
 50
90.0
100
AcDbRotatedDimension
1001
ACAD
1000
DSTYLE
1002
{
1070
    40
1040
1.5
1070
    41
1040
2.5
1070
    42
1040
0.8
1070
    43
1040
0.8
1070
    44
1040
0.8
1070
    73
1070
     0
1070
    74
1070
     0
1070
    77
1070
     3
1070
    78
1070
     8
1070
   141
1040
-1.0
1070
   147
1040
1.0
1070
   172
1070
     1
1070
   176
1070
   115
1070
   177
1070
   115
1070
   178
1070
     7
1070
   271
1070
     3
1002
}
  0
DIMENSION
  5
4774
330
19
100
AcDbEntity
  8
0
100
AcDbDimension
  2
*D32
 10
241.2692270307425
 20
190.9434262345637
 30
0.0
 11
237.5192270307425
 21
144.943429234564
 31
0.0
 70
    32
  1
%%c92
 71
     5
 42
91.9999939999996
  3
STANDARD
100
AcDbAlignedDimension
 13
272.1536923440526
 23
98.94343223456417
 33
0.0
 14
272.1536983440524
 24
190.9434262345637
 34
0.0
 50
90.0
100
AcDbRotatedDimension
1001
ACAD
1000
DSTYLE
1002
{
1070
    40
1040
1.5
1070
    41
1040
2.5
1070
    42
1040
0.8
1070
    43
1040
0.8
1070
    44
1040
0.8
1070
    73
1070
     0
1070
    74
1070
     0
1070
    77
1070
     3
1070
    78
1070
     8
1070
   141
1040
-1.0
1070
   147
1040
1.0
1070
   172
1070
     1
1070
   176
1070
   115
1070
   177
1070
   115
1070
   178
1070
     7
1070
   271
1070
     3
1002
}
  0
DIMENSION
  5
4781
330
19
100
AcDbEntity
  8
0
100
AcDbDimension
  2
*D33
 10
271.653698344053
 20
88.03363969060688
 30
0.0
 11
264.653698344053
 21
91.78363969060688
 31
0.0
 70
    32
 71
     5
 42
14.00000000000011
  3
STANDARD
100
AcDbAlignedDimension
 13
257.6536983440529
 23
116.4434262345638
 33
0.0
 14
271.653698344053
 24
99.44342623456378
 34
0.0
100
AcDbRotatedDimension
1001
ACAD
1000
DSTYLE
1002
{
1070
    40
1040
1.5
1070
    41
1040
2.5
1070
    42
1040
0.8
1070
    43
1040
0.8
1070
    44
1040
0.8
1070
    73
1070
     0
1070
    74
1070
     0
1070
    77
1070
     3
1070
    78
1070
     8
1070
   141
1040
-1.0
1070
   147
1040
1.0
1070
   172
1070
     1
1070
   176
1070
   115
1070
   177
1070
   115
1070
   178
1070
     7
1070
   271
1070
     3
1002
}
  0
DIMENSION
  5
478E
330
19
100
AcDbEntity
  8
0
100
AcDbDimension
  2
*D34
 10
286.6536983440529
 20
88.03363969060688
 30
0.0
 11
279.1536983440529
 21
91.78363969060688
 31
0.0
 70
    32
 71
     5
 42
14.99999999999994
  3
STANDARD
100
AcDbAlignedDimension
 13
271.653698344053
 23
99.44342623456378
 33
0.0
 14
286.6536983440529
 24
99.44342623456378
 34
0.0
100
AcDbRotatedDimension
1001
ACAD
1000
DSTYLE
1002
{
1070
    40
1040
1.5
1070
    41
1040
2.5
1070
    42
1040
0.8
1070
    43
1040
0.8
1070
    44
1040
0.8
1070
    73
1070
     0
1070
    74
1070
     0
1070
    77
1070
     3
1070
    78
1070
     8
1070
   141
1040
-1.0
1070
   147
1040
1.0
1070
   172
1070
     1
1070
   176
1070
   115
1070
   177
1070
   115
1070
   178
1070
     7
1070
   271
1070
     3
1002
}
  0
DIMENSION
  5
479B
330
19
100
AcDbEntity
  8
0
100
AcDbDimension
  2
*D35
 10
339.6536983440528
 20
88.03363969060688
 30
0.0
 11
313.1536983440528
 21
91.78363969060688
 31
0.0
 70
    32
 71
     5
 42
52.99999999999994
  3
STANDARD
100
AcDbAlignedDimension
 13
286.6536983440529
 23
99.44342623456378
 33
0.0
 14
339.6536983440528
 24
116.4434262345638
 34
0.0
100
AcDbRotatedDimension
1001
ACAD
1000
DSTYLE
1002
{
1070
    40
1040
1.5
1070
    41
1040
2.5
1070
    42
1040
0.8
1070
    43
1040
0.8
1070
    44
1040
0.8
1070
    73
1070
     0
1070
    74
1070
     0
1070
    77
1070
     3
1070
    78
1070
     8
1070
   141
1040
-1.0
1070
   147
1040
1.0
1070
   172
1070
     1
1070
   176
1070
   115
1070
   177
1070
   115
1070
   178
1070
     7
1070
   271
1070
     3
1002
}
  0
DIMENSION
  5
47A8
330
19
100
AcDbEntity
  8
0
100
AcDbDimension
  2
*D36
 10
339.6536983440528
 20
78.80842270982845
 30
0.0
 11
298.6536983440529
 21
82.55842270982844
 31
0.0
 70
    32
 71
     5
 42
81.99999999999988
  3
STANDARD
100
AcDbAlignedDimension
 13
257.6536983440529
 23
86.83363969060691
 33
0.0
 14
339.6536983440528
 24
86.83363969060691
 34
0.0
100
AcDbRotatedDimension
1001
ACAD
1000
DSTYLE
1002
{
1070
    40
1040
1.5
1070
    41
1040
2.5
1070
    42
1040
0.8
1070
    43
1040
0.8
1070
    44
1040
0.8
1070
    73
1070
     0
1070
    74
1070
     0
1070
    77
1070
     3
1070
    78
1070
     8
1070
   141
1040
-1.0
1070
   147
1040
1.0
1070
   172
1070
     1
1070
   176
1070
   115
1070
   177
1070
   115
1070
   178
1070
     7
1070
   271
1070
     3
1002
}
  0
CIRCLE
  5
47B5
330
19
100
AcDbEntity
  8
0
100
AcDbCircle
 10
130.1909166718384
 20
144.9434192345638
 30
0.0
 40
29.0
  0
CIRCLE
  5
47B6
330
19
100
AcDbEntity
  8
0
100
AcDbCircle
 10
130.1909166718384
 20
144.9434192345638
 30
0.0
 40
28.5
  0
CIRCLE
  5
47B7
330
19
100
AcDbEntity
  8
1
100
AcDbCircle
 10
130.1909166718384
 20
144.9434192345638
 30
0.0
 40
37.0
  0
ARC
  5
47B8
330
19
100
AcDbEntity
  8
0
100
AcDbCircle
 10
130.1909166718384
 20
144.9434192345638
 30
0.0
 40
46.0
100
AcDbArc
 50
222.3426054522072
 51
317.6573939930289
  0
ARC
  5
47B9
330
19
100
AcDbEntity
  8
0
100
AcDbCircle
 10
130.1909166718384
 20
144.9434192345638
 30
0.0
 40
45.49999999999999
100
AcDbArc
 50
221.6470405129318
 51
318.3529589185933
  0
ARC
  5
47BA
330
19
100
AcDbEntity
  8
0
100
AcDbCircle
 10
130.1909166718384
 20
144.9434192345638
 30
0.0
 40
46.0
100
AcDbArc
 50
42.34260600697099
 51
137.6573945477927
  0
ARC
  5
47BB
330
19
100
AcDbEntity
  8
0
100
AcDbCircle
 10
130.1909166718384
 20
144.9434192345638
 30
0.0
 40
45.49999999999999
100
AcDbArc
 50
41.64704108140663
 51
138.3529594870681
  0
LINE
  5
47BD
330
19
100
AcDbEntity
  8
0
100
AcDbLine
 10
96.19091667183845
 20
175.9272860042231
 30
0.0
 11
96.19091667183839
 21
113.9595524649044
 31
0.0
  0
LINE
  5
47BE
330
19
100
AcDbEntity
  8
0
100
AcDbLine
 10
164.1909163718385
 20
175.9272863334266
 30
0.0
 11
164.1909163718385
 21
113.9595521357009
 31
0.0
  0
CIRCLE
  5
47BF
330
19
100
AcDbEntity
  8
0
100
AcDbCircle
 10
111.6909197337006
 20
176.9863609423548
 30
0.0
 40
4.5
  0
CIRCLE
  5
47C0
330
19
100
AcDbEntity
  8
0
100
AcDbCircle
 10
148.69091402639
 20
176.9863607019381
 30
0.0
 40
4.5
  0
CIRCLE
  5
47C1
330
19
100
AcDbEntity
  8
0
100
AcDbCircle
 10
148.6909207724229
 20
112.9004816620134
 30
0.0
 40
4.5
  0
CIRCLE
  5
47C2
330
19
100
AcDbEntity
  8
0
100
AcDbCircle
 10
111.6909129876675
 20
112.9004814215969
 30
0.0
 40
4.5
  0
DIMENSION
  5
47C7
330
19
100
AcDbEntity
  8
0
100
AcDbDimension
  2
*D37
 10
114.9180558945232
 20
118.4900560384492
 30
0.0
 11
130.1909169093654
 21
90.20238207293505
 31
0.0
 70
    34
 71
     5
 42
1.047197677942142
  3
STANDARD
100
AcDb2LineAngularDimension
 13
151.9180636419915
 23
107.3109070236334
 33
0.0
 14
145.4637779028542
 24
118.4900563003935
 34
0.0
 15
108.4637700808118
 25
107.3109068047445
 35
0.0
 16
120.0340529234512
 26
87.34099266981891
 36
0.0
1001
ACAD
1000
DSTYLE
1002
{
1070
    40
1040
1.5
1070
    41
1040
2.5
1070
    42
1040
0.8
1070
    43
1040
0.8
1070
    44
1040
0.8
1070
    73
1070
     0
1070
    74
1070
     0
1070
    77
1070
     3
1070
    78
1070
     8
1070
   141
1040
-1.0
1070
   147
1040
1.0
1070
   172
1070
     1
1070
   176
1070
   115
1070
   177
1070
   115
1070
   178
1070
     7
1070
   271
1070
     3
1002
}
  0
DIMENSION
  5
47D6
330
19
100
AcDbEntity
  8
0
100
AcDbDimension
  2
*D38
 10
164.1909163718384
 20
76.47580356465455
 30
0.0
 11
130.1909165218384
 21
80.22580356465455
 31
0.0
 70
    32
 71
     5
 42
67.99999970000005
  3
STANDARD
100
AcDbAlignedDimension
 13
96.19091667183839
 23
113.9595524649045
 33
0.0
 14
164.1909163718384
 24
113.9595521357009
 34
0.0
100
AcDbRotatedDimension
1001
ACAD
1000
DSTYLE
1002
{
1070
    40
1040
1.5
1070
    41
1040
2.5
1070
    42
1040
0.8
1070
    43
1040
0.8
1070
    44
1040
0.8
1070
    73
1070
     0
1070
    74
1070
     0
1070
    77
1070
     3
1070
    78
1070
     8
1070
   141
1040
-1.0
1070
   147
1040
1.0
1070
   172
1070
     1
1070
   176
1070
   115
1070
   177
1070
   115
1070
   178
1070
     7
1070
   271
1070
     3
1002
}
  0
DIMENSION
  5
47E3
330
19
100
AcDbEntity
  8
0
100
AcDbDimension
  2
*D39
 10
95.14117945635796
 20
156.7973603988249
 30
0.0
 11
187.7726278115563
 21
125.4690873218491
 31
0.0
 70
    35
  1
P,C,D 74
 71
     5
 42
73.99999999999997
  3
STANDARD
100
AcDbDiametricDimension
 15
165.2406538873188
 25
133.0894780703026
 35
0.0
 40
0.0
1001
ACAD
1000
DSTYLE
1002
{
1070
    40
1040
1.5
1070
    41
1040
2.5
1070
    42
1040
0.8
1070
    43
1040
0.8
1070
    44
1040
0.8
1070
    73
1070
     0
1070
    74
1070
     0
1070
    77
1070
     3
1070
    78
1070
     8
1070
   141
1040
-1.0
1070
   147
1040
1.0
1070
   172
1070
     1
1070
   176
1070
   115
1070
   177
1070
   115
1070
   178
1070
     7
1070
   271
1070
     3
1070
   288
1070
     1
1002
}
  0
ENDSEC
  0
SECTION
  2
OBJECTS
  0
DICTIONARY
  5
C
330
0
100
AcDbDictionary
281
     1
  3
ACAD_COLOR
350
47F2
  3
ACAD_GROUP
350
D
  3
ACAD_LAYOUT
350
4155
  3
ACAD_MATERIAL
350
47F1
  3
ACAD_MLEADERSTYLE
350
4861
  3
ACAD_MLINESTYLE
350
E
  3
ACAD_PLOTSETTINGS
350
4156
  3
ACAD_PLOTSTYLENAME
350
4153
  3
ACAD_SCALELIST
350
483F
  3
ACAD_TABLESTYLE
350
47F3
  3
ACAD_VISUALSTYLE
350
482E
  3
ACDB_RECOMPOSE_DATA
350
48F3
  3
ACDBVARIABLEDICTIONARY
350
1BF
  3
DWGPROPS
350
48F4
  0
DICTIONARY
  5
4897
330
F
100
AcDbDictionary
280
     1
281
     1
  3
ADSK_XREC_LAYER_RECONCILED
360
4898
  0
DICTIONARY
  5
4899
330
55
100
AcDbDictionary
280
     1
281
     1
  3
ADSK_XREC_LAYER_RECONCILED
360
489A
  0
DICTIONARY
  5
489B
330
61
100
AcDbDictionary
280
     1
281
     1
  3
ADSK_XREC_LAYER_RECONCILED
360
489C
  0
DICTIONARY
  5
489D
330
62
100
AcDbDictionary
280
     1
281
     1
  3
ADSK_XREC_LAYER_RECONCILED
360
489E
  0
DICTIONARY
  5
48B9
330
2AD3
100
AcDbDictionary
280
     1
281
     1
  3
ADSK_XREC_LAYER_RECONCILED
360
48BA
  0
DICTIONARY
  5
48FA
330
47CE
100
AcDbDictionary
280
     1
281
     1
  3
ACAD_MTEXT_RT
360
48FB
  0
DICTIONARY
  5
47F2
102
{ACAD_REACTORS
330
C
102
}
330
C
100
AcDbDictionary
281
     1
  0
DICTIONARY
  5
D
102
{ACAD_REACTORS
330
C
102
}
330
C
100
AcDbDictionary
281
     1
  3
*A1
350
3315
  3
*A2
350
3935
  0
DICTIONARY
  5
4155
102
{ACAD_REACTORS
330
C
102
}
330
C
100
AcDbDictionary
281
     1
  3
Model
350
4157
  3
배치1
350
4158
  0
DICTIONARY
  5
47F1
102
{ACAD_REACTORS
330
C
102
}
330
C
100
AcDbDictionary
281
     1
  3
ByBlock
350
481E
  3
ByLayer
350
4816
  3
Global
350
4826
  0
DICTIONARY
  5
4861
102
{ACAD_REACTORS
330
C
102
}
330
C
100
AcDbDictionary
281
     1
  3
Standard
350
4862
  0
DICTIONARY
  5
E
102
{ACAD_REACTORS
330
C
102
}
330
C
100
AcDbDictionary
281
     1
  3
STANDARD
350
1C
  0
DICTIONARY
  5
4156
102
{ACAD_REACTORS
330
C
102
}
330
C
100
AcDbDictionary
281
     1
  0
ACDBDICTIONARYWDFLT
  5
4153
102
{ACAD_REACTORS
330
C
102
}
330
C
100
AcDbDictionary
281
     1
  3
Normal
350
4154
100
AcDbDictionaryWithDefault
340
4154
  0
DICTIONARY
  5
483F
102
{ACAD_REACTORS
330
C
102
}
330
C
100
AcDbDictionary
281
     1
  3
A0
350
4840
  3
A1
350
4841
  3
A2
350
4842
  3
A3
350
4843
  3
A4
350
4844
  3
A5
350
4845
  3
A6
350
4846
  3
A7
350
4847
  3
A8
350
4848
  3
A9
350
4849
  3
B0
350
484A
  3
B1
350
484B
  3
B2
350
484C
  3
B3
350
484D
  3
B4
350
484E
  3
B5
350
484F
  3
B6
350
4850
  3
B7
350
4851
  3
B8
350
4852
  3
B9
350
4853
  3
C0
350
4854
  3
C1
350
4855
  3
C2
350
4856
  3
C3
350
4857
  3
C4
350
4858
  3
C5
350
4859
  3
C6
350
485A
  3
C7
350
485B
  3
C8
350
485C
  3
C9
350
485D
  3
D0
350
485E
  3
D1
350
485F
  3
D2
350
4860
  0
DICTIONARY
  5
47F3
102
{ACAD_REACTORS
330
C
102
}
330
C
100
AcDbDictionary
281
     1
  3
Standard
350
47F4
  0
DICTIONARY
  5
482E
102
{ACAD_REACTORS
330
C
102
}
330
C
100
AcDbDictionary
281
     1
  3
2dWireframe
350
4834
  3
3D Hidden
350
4836
  3
3dWireframe
350
4835
  3
Basic
350
4833
  3
Brighten
350
483A
  3
ColorChange
350
483E
  3
Conceptual
350
4837
  3
Dim
350
4839
  3
Facepattern
350
483D
  3
Flat
350
482F
  3
FlatWithEdges
350
4830
  3
Gouraud
350
4831
  3
GouraudWithEdges
350
4832
  3
Linepattern
350
483C
  3
Realistic
350
4838
  3
Thicken
350
483B
  0
XRECORD
  5
48F3
102
{ACAD_REACTORS
330
C
102
}
330
C
100
AcDbXrecord
280
     1
 90
        1
330
47F4
  0
DICTIONARY
  5
1BF
102
{ACAD_REACTORS
330
C
102
}
330
C
100
AcDbDictionary
281
     1
  3
CANNOSCALE
350
48E0
  3
CMLEADERSTYLE
350
48DF
  3
CTABLESTYLE
350
4808
  3
DIMASSOC
350
4169
  3
INDEXCTL
350
48E1
  3
PROJECTNAME
350
4809
  3
SORTENTS
350
1C0
  0
XRECORD
  5
48F4
102
{ACAD_REACTORS
330
C
102
}
330
C
100
AcDbXrecord
280
     1
  1
DWGPROPS COOKIE
  2

  3

  4

  6

  7

  8
양순영
  9

300
=
301
=
302
=
303
=
304
=
305
=
306
=
307
=
308
=
309
=
 40
0.5238025925925926
 41
2452464.575009942
 42
2455642.707613102
  1

 90
        0
  0
XRECORD
  5
4898
102
{ACAD_REACTORS
330
4897
102
}
330
4897
100
AcDbXrecord
280
     1
290
     1
  0
XRECORD
  5
489A
102
{ACAD_REACTORS
330
4899
102
}
330
4899
100
AcDbXrecord
280
     1
290
     1
  0
XRECORD
  5
489C
102
{ACAD_REACTORS
330
489B
102
}
330
489B
100
AcDbXrecord
280
     1
290
     1
  0
XRECORD
  5
489E
102
{ACAD_REACTORS
330
489D
102
}
330
489D
100
AcDbXrecord
280
     1
290
     1
  0
XRECORD
  5
48BA
102
{ACAD_REACTORS
330
48B9
102
}
330
48B9
100
AcDbXrecord
280
     1
290
     1
  0
XRECORD
  5
48FB
102
{ACAD_REACTORS
330
48FA
102
}
330
48FA
100
AcDbXrecord
280
     1
 40
5298.0
  1
\A1;60°
  0
GROUP
  5
3315
102
{ACAD_REACTORS
330
D
102
}
330
D
100
AcDbGroup
300
Ball Screw  BNFN2010-1.5+300L
 70
     1
 71
     1
  0
GROUP
  5
3935
102
{ACAD_REACTORS
330
D
102
}
330
D
100
AcDbGroup
300
Ball Screw  BNFN2010-1.5+300L
 70
     1
 71
     1
  0
LAYOUT
  5
4157
102
{ACAD_XDICTIONARY
360
48F6
102
}
102
{ACAD_REACTORS
330
4155
102
}
330
4155
100
AcDbPlotSettings
  1

  2
SBC-SERVER에서 자동 HP LaserJet 4V
  4
A4
  6

 40
6.805083274841307
 41
5.069413185119628
 42
6.805084228515625
 43
5.027069091796875
 44
209.9733276367186
 45
296.9683227539062
 46
0.0
 47
0.0
 48
0.0
 49
0.0
140
0.0
141
0.0
142
1.0
143
1.0
 70
 11952
 72
     0
 73
     1
 74
     0
  7
1.ctb
 75
     0
147
1.0
148
-1105.008668280591
149
-2180.822690011071
100
AcDbLayout
  1
Model
 70
     1
 71
     0
 10
0.0
 20
0.0
 11
12.0
 21
9.0
 12
0.0
 22
0.0
 32
0.0
 14
0.0
 24
0.0
 34
0.0
 15
0.0
 25
0.0
 35
0.0
146
0.0
 13
0.0
 23
0.0
 33
0.0
 16
1.0
 26
0.0
 36
0.0
 17
0.0
 27
1.0
 37
0.0
 76
     0
330
19
331
480A
  0
LAYOUT
  5
4158
102
{ACAD_XDICTIONARY
360
48F8
102
}
102
{ACAD_REACTORS
330
4155
102
}
330
4155
100
AcDbPlotSettings
  1

  2
SBC-SERVER에서 자동 HP LaserJet 4V
  4

  6

 40
0.0
 41
0.0
 42
0.0
 43
0.0
 44
0.0
 45
0.0
 46
0.0
 47
0.0
 48
0.0
 49
0.0
140
0.0
141
0.0
142
1.0
143
1.0
 70
   688
 72
     0
 73
     0
 74
     5
  7
1.ctb
 75
    16
147
1.0
148
0.0
149
0.0
100
AcDbLayout
  1
배치1
 70
     1
 71
     1
 10
0.0
 20
0.0
 11
12.0
 21
9.0
 12
0.0
 22
0.0
 32
0.0
 14
1.000000000000000E+20
 24
1.000000000000000E+20
 34
1.000000000000000E+20
 15
-1.000000000000000E+20
 25
-1.000000000000000E+20
 35
-1.000000000000000E+20
146
0.0
 13
0.0
 23
0.0
 33
0.0
 16
1.0
 26
0.0
 36
0.0
 17
0.0
 27
1.0
 37
0.0
 76
     0
330
16
  0
MATERIAL
  5
481E
102
{ACAD_XDICTIONARY
360
481F
102
}
102
{ACAD_REACTORS
330
47F1
102
}
330
47F1
100
AcDbMaterial
  1
ByBlock
 72
     0
 43
0.0208333333333333
 43
0.0
 43
0.0
 43
0.0
 43
0.0
 43
0.0208333333333333
 43
0.0
 43
0.0
 43
0.0
 43
0.0
 43
1.0
 43
0.0
 43
0.0
 43
0.0
 43
0.0
 43
1.0
 77
     0
 47
0.0208333333333333
 47
0.0
 47
0.0
 47
0.0
 47
0.0
 47
0.0208333333333333
 47
0.0
 47
0.0
 47
0.0
 47
0.0
 47
1.0
 47
0.0
 47
0.0
 47
0.0
 47
0.0
 47
1.0
171
     0
 49
0.0208333333333333
 49
0.0
 49
0.0
 49
0.0
 49
0.0
 49
0.0208333333333333
 49
0.0
 49
0.0
 49
0.0
 49
0.0
 49
1.0
 49
0.0
 49
0.0
 49
0.0
 49
0.0
 49
1.0
175
     0
142
0.0208333333333333
142
0.0
142
0.0
142
0.0
142
0.0
142
0.0208333333333333
142
0.0
142
0.0
142
0.0
142
0.0
142
1.0
142
0.0
142
0.0
142
0.0
142
0.0
142
1.0
179
     0
144
0.0208333333333333
144
0.0
144
0.0
144
0.0
144
0.0
144
0.0208333333333333
144
0.0
144
0.0
144
0.0
144
0.0
144
1.0
144
0.0
144
0.0
144
0.0
144
0.0
144
1.0
147
0.0208333333333333
147
0.0
147
0.0
147
0.0
147
0.0
147
0.0208333333333333
147
0.0
147
0.0
147
0.0
147
0.0
147
1.0
147
0.0
147
0.0
147
0.0
147
0.0
147
1.0
  0
MATERIAL
  5
4816
102
{ACAD_XDICTIONARY
360
4817
102
}
102
{ACAD_REACTORS
330
47F1
102
}
330
47F1
100
AcDbMaterial
  1
ByLayer
 72
     0
 43
0.0208333333333333
 43
0.0
 43
0.0
 43
0.0
 43
0.0
 43
0.0208333333333333
 43
0.0
 43
0.0
 43
0.0
 43
0.0
 43
1.0
 43
0.0
 43
0.0
 43
0.0
 43
0.0
 43
1.0
 77
     0
 47
0.0208333333333333
 47
0.0
 47
0.0
 47
0.0
 47
0.0
 47
0.0208333333333333
 47
0.0
 47
0.0
 47
0.0
 47
0.0
 47
1.0
 47
0.0
 47
0.0
 47
0.0
 47
0.0
 47
1.0
171
     0
 49
0.0208333333333333
 49
0.0
 49
0.0
 49
0.0
 49
0.0
 49
0.0208333333333333
 49
0.0
 49
0.0
 49
0.0
 49
0.0
 49
1.0
 49
0.0
 49
0.0
 49
0.0
 49
0.0
 49
1.0
175
     0
142
0.0208333333333333
142
0.0
142
0.0
142
0.0
142
0.0
142
0.0208333333333333
142
0.0
142
0.0
142
0.0
142
0.0
142
1.0
142
0.0
142
0.0
142
0.0
142
0.0
142
1.0
179
     0
144
0.0208333333333333
144
0.0
144
0.0
144
0.0
144
0.0
144
0.0208333333333333
144
0.0
144
0.0
144
0.0
144
0.0
144
1.0
144
0.0
144
0.0
144
0.0
144
0.0
144
1.0
147
0.0208333333333333
147
0.0
147
0.0
147
0.0
147
0.0
147
0.0208333333333333
147
0.0
147
0.0
147
0.0
147
0.0
147
1.0
147
0.0
147
0.0
147
0.0
147
0.0
147
1.0
  0
MATERIAL
  5
4826
102
{ACAD_XDICTIONARY
360
4827
102
}
102
{ACAD_REACTORS
330
47F1
102
}
330
47F1
100
AcDbMaterial
  1
Global
 72
     0
 43
0.0208333333333333
 43
0.0
 43
0.0
 43
0.0
 43
0.0
 43
0.0208333333333333
 43
0.0
 43
0.0
 43
0.0
 43
0.0
 43
1.0
 43
0.0
 43
0.0
 43
0.0
 43
0.0
 43
1.0
 77
     0
 47
0.0208333333333333
 47
0.0
 47
0.0
 47
0.0
 47
0.0
 47
0.0208333333333333
 47
0.0
 47
0.0
 47
0.0
 47
0.0
 47
1.0
 47
0.0
 47
0.0
 47
0.0
 47
0.0
 47
1.0
171
     0
 49
0.0208333333333333
 49
0.0
 49
0.0
 49
0.0
 49
0.0
 49
0.0208333333333333
 49
0.0
 49
0.0
 49
0.0
 49
0.0
 49
1.0
 49
0.0
 49
0.0
 49
0.0
 49
0.0
 49
1.0
175
     0
142
0.0208333333333333
142
0.0
142
0.0
142
0.0
142
0.0
142
0.0208333333333333
142
0.0
142
0.0
142
0.0
142
0.0
142
1.0
142
0.0
142
0.0
142
0.0
142
0.0
142
1.0
179
     0
144
0.0208333333333333
144
0.0
144
0.0
144
0.0
144
0.0
144
0.0208333333333333
144
0.0
144
0.0
144
0.0
144
0.0
144
1.0
144
0.0
144
0.0
144
0.0
144
0.0
144
1.0
147
0.0208333333333333
147
0.0
147
0.0
147
0.0
147
0.0
147
0.0208333333333333
147
0.0
147
0.0
147
0.0
147
0.0
147
1.0
147
0.0
147
0.0
147
0.0
147
0.0
147
1.0
  0
MLEADERSTYLE
  5
4862
102
{ACAD_REACTORS
330
4861
102
}
330
4861
100
AcDbMLeaderStyle
170
     2
171
     1
172
     0
 90
        2
 40
0.0
 41
0.0
173
     1
 91
-1056964608
340
13
 92
       -2
290
     1
 42
0.09
291
     1
 43
0.36
  3
Standard
 44
0.18
300

342
10
174
     1
178
     6
175
     1
176
     0
 93
-1056964608
 45
0.18
292
     0
297
     0
 46
0.18
 94
-1056964608
 47
1.0
 49
1.0
140
1.0
293
     1
141
0.0
294
     1
177
     0
142
1.0
295
     0
296
     0
143
0.125
1001
ACAD_MLEADERVER
1070
     2
  0
MLINESTYLE
  5
1C
102
{ACAD_REACTORS
330
E
102
}
330
E
100
AcDbMlineStyle
  2
STANDARD
 70
     0
  3

 62
     0
 51
90.0
 52
90.0
 71
     2
 49
0.5
 62
   256
  6
BYLAYER
 49
-0.5
 62
   256
  6
BYLAYER
  0
ACDBPLACEHOLDER
  5
4154
102
{ACAD_REACTORS
330
4153
102
}
330
4153
  0
SCALE
  5
4840
102
{ACAD_REACTORS
330
483F
102
}
330
483F
100
AcDbScale
 70
     0
300
1:1
140
1.0
141
1.0
290
     1
  0
SCALE
  5
4841
102
{ACAD_REACTORS
330
483F
102
}
330
483F
100
AcDbScale
 70
     0
300
1:2
140
1.0
141
2.0
290
     0
  0
SCALE
  5
4842
102
{ACAD_REACTORS
330
483F
102
}
330
483F
100
AcDbScale
 70
     0
300
1:4
140
1.0
141
4.0
290
     0
  0
SCALE
  5
4843
102
{ACAD_REACTORS
330
483F
102
}
330
483F
100
AcDbScale
 70
     0
300
1:5
140
1.0
141
5.0
290
     0
  0
SCALE
  5
4844
102
{ACAD_REACTORS
330
483F
102
}
330
483F
100
AcDbScale
 70
     0
300
1:8
140
1.0
141
8.0
290
     0
  0
SCALE
  5
4845
102
{ACAD_REACTORS
330
483F
102
}
330
483F
100
AcDbScale
 70
     0
300
1:10
140
1.0
141
10.0
290
     0
  0
SCALE
  5
4846
102
{ACAD_REACTORS
330
483F
102
}
330
483F
100
AcDbScale
 70
     0
300
1:16
140
1.0
141
16.0
290
     0
  0
SCALE
  5
4847
102
{ACAD_REACTORS
330
483F
102
}
330
483F
100
AcDbScale
 70
     0
300
1:20
140
1.0
141
20.0
290
     0
  0
SCALE
  5
4848
102
{ACAD_REACTORS
330
483F
102
}
330
483F
100
AcDbScale
 70
     0
300
1:30
140
1.0
141
30.0
290
     0
  0
SCALE
  5
4849
102
{ACAD_REACTORS
330
483F
102
}
330
483F
100
AcDbScale
 70
     0
300
1:40
140
1.0
141
40.0
290
     0
  0
SCALE
  5
484A
102
{ACAD_REACTORS
330
483F
102
}
330
483F
100
AcDbScale
 70
     0
300
1:50
140
1.0
141
50.0
290
     0
  0
SCALE
  5
484B
102
{ACAD_REACTORS
330
483F
102
}
330
483F
100
AcDbScale
 70
     0
300
1:100
140
1.0
141
100.0
290
     0
  0
SCALE
  5
484C
102
{ACAD_REACTORS
330
483F
102
}
330
483F
100
AcDbScale
 70
     0
300
2:1
140
2.0
141
1.0
290
     0
  0
SCALE
  5
484D
102
{ACAD_REACTORS
330
483F
102
}
330
483F
100
AcDbScale
 70
     0
300
4:1
140
4.0
141
1.0
290
     0
  0
SCALE
  5
484E
102
{ACAD_REACTORS
330
483F
102
}
330
483F
100
AcDbScale
 70
     0
300
8:1
140
8.0
141
1.0
290
     0
  0
SCALE
  5
484F
102
{ACAD_REACTORS
330
483F
102
}
330
483F
100
AcDbScale
 70
     0
300
10:1
140
10.0
141
1.0
290
     0
  0
SCALE
  5
4850
102
{ACAD_REACTORS
330
483F
102
}
330
483F
100
AcDbScale
 70
     0
300
100:1
140
100.0
141
1.0
290
     0
  0
SCALE
  5
4851
102
{ACAD_REACTORS
330
483F
102
}
330
483F
100
AcDbScale
 70
     0
300
1/128" = 1'-0"
140
0.0078125
141
12.0
290
     0
  0
SCALE
  5
4852
102
{ACAD_REACTORS
330
483F
102
}
330
483F
100
AcDbScale
 70
     0
300
1/64" = 1'-0"
140
0.015625
141
12.0
290
     0
  0
SCALE
  5
4853
102
{ACAD_REACTORS
330
483F
102
}
330
483F
100
AcDbScale
 70
     0
300
1/32" = 1'-0"
140
0.03125
141
12.0
290
     0
  0
SCALE
  5
4854
102
{ACAD_REACTORS
330
483F
102
}
330
483F
100
AcDbScale
 70
     0
300
1/16" = 1'-0"
140
0.0625
141
12.0
290
     0
  0
SCALE
  5
4855
102
{ACAD_REACTORS
330
483F
102
}
330
483F
100
AcDbScale
 70
     0
300
3/32" = 1'-0"
140
0.09375
141
12.0
290
     0
  0
SCALE
  5
4856
102
{ACAD_REACTORS
330
483F
102
}
330
483F
100
AcDbScale
 70
     0
300
1/8" = 1'-0"
140
0.125
141
12.0
290
     0
  0
SCALE
  5
4857
102
{ACAD_REACTORS
330
483F
102
}
330
483F
100
AcDbScale
 70
     0
300
3/16" = 1'-0"
140
0.1875
141
12.0
290
     0
  0
SCALE
  5
4858
102
{ACAD_REACTORS
330
483F
102
}
330
483F
100
AcDbScale
 70
     0
300
1/4" = 1'-0"
140
0.25
141
12.0
290
     0
  0
SCALE
  5
4859
102
{ACAD_REACTORS
330
483F
102
}
330
483F
100
AcDbScale
 70
     0
300
3/8" = 1'-0"
140
0.375
141
12.0
290
     0
  0
SCALE
  5
485A
102
{ACAD_REACTORS
330
483F
102
}
330
483F
100
AcDbScale
 70
     0
300
1/2" = 1'-0"
140
0.5
141
12.0
290
     0
  0
SCALE
  5
485B
102
{ACAD_REACTORS
330
483F
102
}
330
483F
100
AcDbScale
 70
     0
300
3/4" = 1'-0"
140
0.75
141
12.0
290
     0
  0
SCALE
  5
485C
102
{ACAD_REACTORS
330
483F
102
}
330
483F
100
AcDbScale
 70
     0
300
1" = 1'-0"
140
1.0
141
12.0
290
     0
  0
SCALE
  5
485D
102
{ACAD_REACTORS
330
483F
102
}
330
483F
100
AcDbScale
 70
     0
300
1-1/2" = 1'-0"
140
1.5
141
12.0
290
     0
  0
SCALE
  5
485E
102
{ACAD_REACTORS
330
483F
102
}
330
483F
100
AcDbScale
 70
     0
300
3" = 1'-0"
140
3.0
141
12.0
290
     0
  0
SCALE
  5
485F
102
{ACAD_REACTORS
330
483F
102
}
330
483F
100
AcDbScale
 70
     0
300
6" = 1'-0"
140
6.0
141
12.0
290
     0
  0
SCALE
  5
4860
102
{ACAD_REACTORS
330
483F
102
}
330
483F
100
AcDbScale
 70
     0
300
1'-0" = 1'-0"
140
12.0
141
12.0
290
     0
  0
TABLESTYLE
  5
47F4
102
{ACAD_XDICTIONARY
360
48F1
102
}
102
{ACAD_REACTORS
330
47F3
102
}
330
47F3
100
AcDbTableStyle
  3
Standard
 70
     0
 71
     0
 40
0.06
 41
0.06
280
     0
281
     0
  7
STANDARD
140
0.18
170
     2
 62
     0
 63
     7
283
     0
274
    -2
284
     1
 64
     0
275
    -2
285
     1
 65
     0
276
    -2
286
     1
 66
     0
277
    -2
287
     1
 67
     0
278
    -2
288
     1
 68
     0
279
    -2
289
     1
 69
     0
  7
STANDARD
140
0.25
170
     5
 62
     0
 63
     7
283
     0
274
    -2
284
     1
 64
     0
275
    -2
285
     1
 65
     0
276
    -2
286
     1
 66
     0
277
    -2
287
     1
 67
     0
278
    -2
288
     1
 68
     0
279
    -2
289
     1
 69
     0
  7
STANDARD
140
0.18
170
     5
 62
     0
 63
     7
283
     0
274
    -2
284
     1
 64
     0
275
    -2
285
     1
 65
     0
276
    -2
286
     1
 66
     0
277
    -2
287
     1
 67
     0
278
    -2
288
     1
 68
     0
279
    -2
289
     1
 69
     0
  0
VISUALSTYLE
  5
4834
102
{ACAD_REACTORS
330
482E
102
}
330
482E
100
AcDbVisualStyle
  2
2dWireframe
 70
     4
 71
     0
 72
     2
 73
     0
 90
        0
 40
-0.6
 41
-30.0
 62
     5
 63
     7
 74
     1
 91
        4
 64
     7
 65
   257
 75
     1
175
     1
 42
1.0
 92
        0
 66
   257
 43
1.0
 76
     1
 77
     6
 78
     2
 67
     7
 79
     5
170
     0
171
     0
290
     0
174
     0
 93
        1
 44
0.0
173
     0
291
     0
 45
0.0
1001
ACAD
1000
AcDbSavedByObjectVersion
1070
     0
  0
VISUALSTYLE
  5
4836
102
{ACAD_REACTORS
330
482E
102
}
330
482E
100
AcDbVisualStyle
  2
3D Hidden
 70
     6
 71
     1
 72
     2
 73
     2
 90
        0
 40
-0.6
 41
-30.0
 62
     5
 63
     7
 74
     2
 91
        2
 64
     7
 65
   257
 75
     2
175
     1
 42
40.0
 92
        0
 66
   257
 43
1.0
 76
     1
 77
     6
 78
     2
 67
     7
 79
     3
170
     0
171
     0
290
     0
174
     0
 93
        1
 44
0.0
173
     0
291
     0
 45
0.0
1001
ACAD
1000
AcDbSavedByObjectVersion
1070
     0
  0
VISUALSTYLE
  5
4835
102
{ACAD_REACTORS
330
482E
102
}
330
482E
100
AcDbVisualStyle
  2
3dWireframe
 70
     5
 71
     0
 72
     2
 73
     0
 90
        0
 40
-0.6
 41
-30.0
 62
     5
 63
     7
 74
     1
 91
        4
 64
     7
 65
   257
 75
     1
175
     1
 42
1.0
 92
        0
 66
   257
 43
1.0
 76
     1
 77
     6
 78
     2
 67
     7
 79
     5
170
     0
171
     0
290
     0
174
     0
 93
        1
 44
0.0
173
     0
291
     0
 45
0.0
1001
ACAD
1000
AcDbSavedByObjectVersion
1070
     0
  0
VISUALSTYLE
  5
4833
102
{ACAD_REACTORS
330
482E
102
}
330
482E
100
AcDbVisualStyle
  2
Basic
 70
     7
 71
     1
 72
     0
 73
     1
 90
        0
 40
-0.6
 41
-30.0
 62
     5
 63
     7
 74
     0
 91
        4
 64
     7
 65
   257
 75
     1
175
     1
 42
1.0
 92
        8
 66
     7
 43
1.0
 76
     1
 77
     6
 78
     2
 67
     7
 79
     5
170
     0
171
     0
290
     0
174
     0
 93
        1
 44
0.0
173
     0
291
     1
 45
0.0
1001
ACAD
1000
AcDbSavedByObjectVersion
1070
     0
  0
VISUALSTYLE
  5
483A
102
{ACAD_REACTORS
330
482E
102
}
330
482E
100
AcDbVisualStyle
  2
Brighten
 70
    12
 71
     2
 72
     2
 73
     0
 90
        0
 40
-0.6
 41
-30.0
 62
     5
 63
     7
 74
     1
 91
        4
 64
     7
 65
   257
 75
     1
175
     1
 42
1.0
 92
        8
 66
     7
 43
1.0
 76
     1
 77
     6
 78
     2
 67
     7
 79
     5
170
     0
171
     0
290
     0
174
     0
 93
        1
 44
50.0
173
     0
291
     1
 45
0.0
1001
ACAD
1000
AcDbSavedByObjectVersion
1070
     0
  0
VISUALSTYLE
  5
483E
102
{ACAD_REACTORS
330
482E
102
}
330
482E
100
AcDbVisualStyle
  2
ColorChange
 70
    16
 71
     2
 72
     2
 73
     3
 90
        0
 40
-0.6
 41
-30.0
 62
     5
 63
     8
 74
     1
 91
        4
 64
     7
 65
   257
 75
     1
175
     1
 42
1.0
 92
        8
 66
     8
 43
1.0
 76
     1
 77
     6
 78
     2
 67
     7
 79
     5
170
     0
171
     0
290
     0
174
     0
 93
        1
 44
0.0
173
     0
291
     1
 45
0.0
1001
ACAD
1000
AcDbSavedByObjectVersion
1070
     0
  0
VISUALSTYLE
  5
4837
102
{ACAD_REACTORS
330
482E
102
}
330
482E
100
AcDbVisualStyle
  2
Conceptual
 70
     9
 71
     3
 72
     2
 73
     0
 90
        0
 40
-0.6
 41
-30.0
 62
     5
 63
     7
 74
     2
 91
        2
 64
     7
 65
   257
 75
     1
175
     1
 42
40.0
 92
        8
 66
     7
 43
1.0
 76
     1
 77
     6
 78
     2
 67
     7
 79
     3
170
     0
171
     0
290
     0
174
     0
 93
        1
 44
0.0
173
     0
291
     0
 45
0.0
1001
ACAD
1000
AcDbSavedByObjectVersion
1070
     0
  0
VISUALSTYLE
  5
4839
102
{ACAD_REACTORS
330
482E
102
}
330
482E
100
AcDbVisualStyle
  2
Dim
 70
    11
 71
     2
 72
     2
 73
     0
 90
        0
 40
-0.6
 41
-30.0
 62
     5
 63
     7
 74
     1
 91
        4
 64
     7
 65
   257
 75
     1
175
     1
 42
1.0
 92
        8
 66
     7
 43
1.0
 76
     1
 77
     6
 78
     2
 67
     7
 79
     5
170
     0
171
     0
290
     0
174
     0
 93
        1
 44
-50.0
173
     0
291
     1
 45
0.0
1001
ACAD
1000
AcDbSavedByObjectVersion
1070
     0
  0
VISUALSTYLE
  5
483D
102
{ACAD_REACTORS
330
482E
102
}
330
482E
100
AcDbVisualStyle
  2
Facepattern
 70
    15
 71
     2
 72
     2
 73
     0
 90
        0
 40
-0.6
 41
-30.0
 62
     5
 63
     7
 74
     1
 91
        4
 64
     7
 65
   257
 75
     1
175
     1
 42
1.0
 92
        8
 66
     7
 43
1.0
 76
     1
 77
     6
 78
     2
 67
     7
 79
     5
170
     0
171
     0
290
     0
174
     0
 93
        1
 44
0.0
173
     0
291
     1
 45
0.0
1001
ACAD
1000
AcDbSavedByObjectVersion
1070
     0
  0
VISUALSTYLE
  5
482F
102
{ACAD_REACTORS
330
482E
102
}
330
482E
100
AcDbVisualStyle
  2
Flat
 70
     0
 71
     2
 72
     1
 73
     1
 90
        2
 40
-0.6
 41
30.0
 62
     5
 63
     7
 74
     0
 91
        4
 64
     7
 65
   257
 75
     1
175
     1
 42
1.0
 92
        8
 66
     7
 43
1.0
 76
     1
 77
     6
 78
     2
 67
     7
 79
     5
170
     0
171
     0
290
     0
174
     0
 93
       13
 44
0.0
173
     0
291
     1
 45
0.0
1001
ACAD
1000
AcDbSavedByObjectVersion
1070
     0
  0
VISUALSTYLE
  5
4830
102
{ACAD_REACTORS
330
482E
102
}
330
482E
100
AcDbVisualStyle
  2
FlatWithEdges
 70
     1
 71
     2
 72
     1
 73
     1
 90
        2
 40
-0.6
 41
30.0
 62
     5
 63
     7
 74
     1
 91
        4
 64
     7
 65
   257
 75
     1
175
     1
 42
1.0
 92
        0
 66
   257
 43
1.0
 76
     1
 77
     6
 78
     2
 67
     7
 79
     5
170
     0
171
     0
290
     0
174
     0
 93
       13
 44
0.0
173
     0
291
     1
 45
0.0
1001
ACAD
1000
AcDbSavedByObjectVersion
1070
     0
  0
VISUALSTYLE
  5
4831
102
{ACAD_REACTORS
330
482E
102
}
330
482E
100
AcDbVisualStyle
  2
Gouraud
 70
     2
 71
     2
 72
     2
 73
     1
 90
        2
 40
-0.6
 41
30.0
 62
     5
 63
     7
 74
     0
 91
        4
 64
     7
 65
   257
 75
     1
175
     1
 42
1.0
 92
        0
 66
     7
 43
1.0
 76
     1
 77
     6
 78
     2
 67
     7
 79
     5
170
     0
171
     0
290
     0
174
     0
 93
       13
 44
0.0
173
     0
291
     1
 45
0.0
1001
ACAD
1000
AcDbSavedByObjectVersion
1070
     0
  0
VISUALSTYLE
  5
4832
102
{ACAD_REACTORS
330
482E
102
}
330
482E
100
AcDbVisualStyle
  2
GouraudWithEdges
 70
     3
 71
     2
 72
     2
 73
     1
 90
        2
 40
-0.6
 41
30.0
 62
     5
 63
     7
 74
     1
 91
        4
 64
     7
 65
   257
 75
     1
175
     1
 42
1.0
 92
        0
 66
   257
 43
1.0
 76
     1
 77
     6
 78
     2
 67
     7
 79
     5
170
     0
171
     0
290
     0
174
     0
 93
       13
 44
0.0
173
     0
291
     1
 45
0.0
1001
ACAD
1000
AcDbSavedByObjectVersion
1070
     0
  0
VISUALSTYLE
  5
483C
102
{ACAD_REACTORS
330
482E
102
}
330
482E
100
AcDbVisualStyle
  2
Linepattern
 70
    14
 71
     2
 72
     2
 73
     0
 90
        0
 40
-0.6
 41
-30.0
 62
     5
 63
     7
 74
     1
 91
        4
 64
     7
 65
   257
 75
     7
175
     7
 42
1.0
 92
        8
 66
     7
 43
1.0
 76
     1
 77
     6
 78
     2
 67
     7
 79
     5
170
     0
171
     0
290
     0
174
     0
 93
        1
 44
0.0
173
     0
291
     1
 45
0.0
1001
ACAD
1000
AcDbSavedByObjectVersion
1070
     0
  0
VISUALSTYLE
  5
4838
102
{ACAD_REACTORS
330
482E
102
}
330
482E
100
AcDbVisualStyle
  2
Realistic
 70
     8
 71
     2
 72
     2
 73
     0
 90
        0
 40
-0.6
 41
-30.0
 62
     5
 63
     7
 74
     1
 91
        0
 64
     7
 65
   257
 75
     1
175
     1
 42
1.0
 92
        8
 66
     8
 43
1.0
 76
     1
 77
     6
 78
     2
 67
     7
 79
     5
170
     0
171
     0
290
     0
174
     0
 93
       13
 44
0.0
173
     0
291
     0
 45
0.0
1001
ACAD
1000
AcDbSavedByObjectVersion
1070
     0
  0
VISUALSTYLE
  5
483B
102
{ACAD_REACTORS
330
482E
102
}
330
482E
100
AcDbVisualStyle
  2
Thicken
 70
    13
 71
     2
 72
     2
 73
     0
 90
        0
 40
-0.6
 41
-30.0
 62
     5
 63
     7
 74
     1
 91
        4
 64
     7
 65
   257
 75
     1
175
     1
 42
1.0
 92
       12
 66
     7
 43
1.0
 76
     1
 77
     6
 78
     2
 67
     7
 79
     5
170
     0
171
     0
290
     0
174
     0
 93
        1
 44
0.0
173
     0
291
     1
 45
0.0
1001
ACAD
1000
AcDbSavedByObjectVersion
1070
     0
  0
DICTIONARYVAR
  5
48E0
102
{ACAD_REACTORS
330
1BF
102
}
330
1BF
100
DictionaryVariables
280
     0
  1
1:1
  0
DICTIONARYVAR
  5
48DF
102
{ACAD_REACTORS
330
1BF
102
}
330
1BF
100
DictionaryVariables
280
     0
  1
STANDARD
  0
DICTIONARYVAR
  5
4808
102
{ACAD_REACTORS
330
1BF
102
}
330
1BF
100
DictionaryVariables
280
     0
  1
STANDARD
  0
DICTIONARYVAR
  5
4169
102
{ACAD_REACTORS
330
1BF
102
}
330
1BF
100
DictionaryVariables
280
     0
  1
1
  0
DICTIONARYVAR
  5
48E1
102
{ACAD_REACTORS
330
1BF
102
}
330
1BF
100
DictionaryVariables
280
     0
  1
0
  0
DICTIONARYVAR
  5
4809
102
{ACAD_REACTORS
330
1BF
102
}
330
1BF
100
DictionaryVariables
280
     0
  1

  0
DICTIONARYVAR
  5
1C0
102
{ACAD_REACTORS
330
1BF
102
}
330
1BF
100
DictionaryVariables
280
     0
  1
96
  0
DICTIONARY
  5
48F6
330
4157
100
AcDbDictionary
280
     1
281
     1
  3
ACAD_XREC_ROUNDTRIP
360
48F7
  0
DICTIONARY
  5
48F8
330
4158
100
AcDbDictionary
280
     1
281
     1
  3
ACAD_XREC_ROUNDTRIP
360
48F9
  0
DICTIONARY
  5
481F
330
481E
100
AcDbDictionary
280
     1
281
     1
  3
ACAD_XREC_ROUNDTRIP
360
48FE
  3
BUMPTILE
360
4821
  3
DIFFUSETILE
360
4820
  3
OPACITYTILE
360
4824
  3
REFLECTIONTILE
360
4823
  3
REFRACTIONTILE
360
4825
  3
SPECULARTILE
360
4822
  0
DICTIONARY
  5
4817
330
4816
100
AcDbDictionary
280
     1
281
     1
  3
ACAD_XREC_ROUNDTRIP
360
48FD
  3
BUMPTILE
360
4819
  3
DIFFUSETILE
360
4818
  3
OPACITYTILE
360
481C
  3
REFLECTIONTILE
360
481B
  3
REFRACTIONTILE
360
481D
  3
SPECULARTILE
360
481A
  0
DICTIONARY
  5
4827
330
4826
100
AcDbDictionary
280
     1
281
     1
  3
ACAD_XREC_ROUNDTRIP
360
48FF
  3
BUMPTILE
360
4829
  3
DIFFUSETILE
360
4828
  3
OPACITYTILE
360
482C
  3
REFLECTIONTILE
360
482B
  3
REFRACTIONTILE
360
482D
  3
SPECULARTILE
360
482A
  0
DICTIONARY
  5
48F1
330
47F4
100
AcDbDictionary
280
     1
281
     1
  3
ACAD_ROUNDTRIP_2008_TABLESTYLE_CELLSTYLEMAP
360
48F2
  3
ACAD_XREC_ROUNDTRIP
360
48FC
  0
XRECORD
  5
48F7
102
{ACAD_REACTORS
330
48F6
102
}
330
48F6
100
AcDbXrecord
280
     1
102
SHADEPLOT
 70
     0
102
SHADEPLOTRESLEVEL
 70
     2
102
SHADEPLOTCUSTOMDPI
 70
   300
  0
XRECORD
  5
48F9
102
{ACAD_REACTORS
330
48F8
102
}
330
48F8
100
AcDbXrecord
280
     1
102
SHADEPLOT
 70
     0
102
SHADEPLOTRESLEVEL
 70
     2
102
SHADEPLOTCUSTOMDPI
 70
   300
  0
XRECORD
  5
48FE
102
{ACAD_REACTORS
330
481F
102
}
330
481F
100
AcDbXrecord
280
     1
102
MATERIAL
148
0.0
149
0.0
149
0.0
 93
        0
 94
      127
282
     0
 72
     0
 77
     0
171
     0
175
     0
179
     0
273
     0
  0
XRECORD
  5
4821
102
{ACAD_REACTORS
330
481F
102
}
330
481F
100
AcDbXrecord
280
     1
270
     1
271
     1
  0
XRECORD
  5
4820
102
{ACAD_REACTORS
330
481F
102
}
330
481F
100
AcDbXrecord
280
     1
270
     1
271
     1
  0
XRECORD
  5
4824
102
{ACAD_REACTORS
330
481F
102
}
330
481F
100
AcDbXrecord
280
     1
270
     1
271
     1
  0
XRECORD
  5
4823
102
{ACAD_REACTORS
330
481F
102
}
330
481F
100
AcDbXrecord
280
     1
270
     1
271
     1
  0
XRECORD
  5
4825
102
{ACAD_REACTORS
330
481F
102
}
330
481F
100
AcDbXrecord
280
     1
270
     1
271
     1
  0
XRECORD
  5
4822
102
{ACAD_REACTORS
330
481F
102
}
330
481F
100
AcDbXrecord
280
     1
270
     1
271
     1
  0
XRECORD
  5
48FD
102
{ACAD_REACTORS
330
4817
102
}
330
4817
100
AcDbXrecord
280
     1
102
MATERIAL
148
0.0
149
0.0
149
0.0
 93
        0
 94
      127
282
     0
 72
     0
 77
     0
171
     0
175
     0
179
     0
273
     0
  0
XRECORD
  5
4819
102
{ACAD_REACTORS
330
4817
102
}
330
4817
100
AcDbXrecord
280
     1
270
     1
271
     1
  0
XRECORD
  5
4818
102
{ACAD_REACTORS
330
4817
102
}
330
4817
100
AcDbXrecord
280
     1
270
     1
271
     1
  0
XRECORD
  5
481C
102
{ACAD_REACTORS
330
4817
102
}
330
4817
100
AcDbXrecord
280
     1
270
     1
271
     1
  0
XRECORD
  5
481B
102
{ACAD_REACTORS
330
4817
102
}
330
4817
100
AcDbXrecord
280
     1
270
     1
271
     1
  0
XRECORD
  5
481D
102
{ACAD_REACTORS
330
4817
102
}
330
4817
100
AcDbXrecord
280
     1
270
     1
271
     1
  0
XRECORD
  5
481A
102
{ACAD_REACTORS
330
4817
102
}
330
4817
100
AcDbXrecord
280
     1
270
     1
271
     1
  0
XRECORD
  5
48FF
102
{ACAD_REACTORS
330
4827
102
}
330
4827
100
AcDbXrecord
280
     1
102
MATERIAL
148
0.0
149
0.0
149
0.0
 93
        0
 94
      127
282
     0
 72
     0
 77
     0
171
     0
175
     0
179
     0
273
     0
  0
XRECORD
  5
4829
102
{ACAD_REACTORS
330
4827
102
}
330
4827
100
AcDbXrecord
280
     1
270
     1
271
     1
  0
XRECORD
  5
4828
102
{ACAD_REACTORS
330
4827
102
}
330
4827
100
AcDbXrecord
280
     1
270
     1
271
     1
  0
XRECORD
  5
482C
102
{ACAD_REACTORS
330
4827
102
}
330
4827
100
AcDbXrecord
280
     1
270
     1
271
     1
  0
XRECORD
  5
482B
102
{ACAD_REACTORS
330
4827
102
}
330
4827
100
AcDbXrecord
280
     1
270
     1
271
     1
  0
XRECORD
  5
482D
102
{ACAD_REACTORS
330
4827
102
}
330
4827
100
AcDbXrecord
280
     1
270
     1
271
     1
  0
XRECORD
  5
482A
102
{ACAD_REACTORS
330
4827
102
}
330
4827
100
AcDbXrecord
280
     1
270
     1
271
     1
  0
CELLSTYLEMAP
  5
48F2
102
{ACAD_REACTORS
330
48F1
102
}
330
48F1
100
AcDbCellStyleMap
 90
        3
300
CELLSTYLE
  1
TABLEFORMAT_BEGIN
 90
        5
170
     1
 91
        0
 92
    32768
 62
   257
 93
        1
300
CONTENTFORMAT
  1
CONTENTFORMAT_BEGIN
 90
        0
 91
        0
 92
        4
 93
        0
300

 40
0.0
140
1.0
 94
        5
 62
     0
340
10
144
0.25
309
CONTENTFORMAT_END
171
     0
 94
        6
 95
        1
302
GRIDFORMAT
  1
GRIDFORMAT_BEGIN
 90
        0
 91
        1
 62
     0
 92
       -2
340
0
 93
        0
 40
0.045
309
GRIDFORMAT_END
 95
        2
302
GRIDFORMAT
  1
GRIDFORMAT_BEGIN
 90
        0
 91
        1
 62
     0
 92
       -2
340
0
 93
        0
 40
0.045
309
GRIDFORMAT_END
 95
        4
302
GRIDFORMAT
  1
GRIDFORMAT_BEGIN
 90
        0
 91
        1
 62
     0
 92
       -2
340
0
 93
        0
 40
0.045
309
GRIDFORMAT_END
 95
        8
302
GRIDFORMAT
  1
GRIDFORMAT_BEGIN
 90
        0
 91
        1
 62
     0
 92
       -2
340
0
 93
        0
 40
0.045
309
GRIDFORMAT_END
 95
       16
302
GRIDFORMAT
  1
GRIDFORMAT_BEGIN
 90
        0
 91
        1
 62
     0
 92
       -2
340
0
 93
        0
 40
0.045
309
GRIDFORMAT_END
 95
       32
302
GRIDFORMAT
  1
GRIDFORMAT_BEGIN
 90
        0
 91
        1
 62
     0
 92
       -2
340
0
 93
        0
 40
0.045
309
GRIDFORMAT_END
309
TABLEFORMAT_END
  1
CELLSTYLE_BEGIN
 90
        1
 91
        1
300
_TITLE
309
CELLSTYLE_END
300
CELLSTYLE
  1
TABLEFORMAT_BEGIN
 90
        5
170
     1
 91
        0
 92
        0
 62
   257
 93
        1
300
CONTENTFORMAT
  1
CONTENTFORMAT_BEGIN
 90
        0
 91
        0
 92
        4
 93
        0
300

 40
0.0
140
1.0
 94
        5
 62
     0
340
10
144
0.18
309
CONTENTFORMAT_END
171
     0
 94
        6
 95
        1
302
GRIDFORMAT
  1
GRIDFORMAT_BEGIN
 90
        0
 91
        1
 62
     0
 92
       -2
340
0
 93
        0
 40
0.045
309
GRIDFORMAT_END
 95
        2
302
GRIDFORMAT
  1
GRIDFORMAT_BEGIN
 90
        0
 91
        1
 62
     0
 92
       -2
340
0
 93
        0
 40
0.045
309
GRIDFORMAT_END
 95
        4
302
GRIDFORMAT
  1
GRIDFORMAT_BEGIN
 90
        0
 91
        1
 62
     0
 92
       -2
340
0
 93
        0
 40
0.045
309
GRIDFORMAT_END
 95
        8
302
GRIDFORMAT
  1
GRIDFORMAT_BEGIN
 90
        0
 91
        1
 62
     0
 92
       -2
340
0
 93
        0
 40
0.045
309
GRIDFORMAT_END
 95
       16
302
GRIDFORMAT
  1
GRIDFORMAT_BEGIN
 90
        0
 91
        1
 62
     0
 92
       -2
340
0
 93
        0
 40
0.045
309
GRIDFORMAT_END
 95
       32
302
GRIDFORMAT
  1
GRIDFORMAT_BEGIN
 90
        0
 91
        1
 62
     0
 92
       -2
340
0
 93
        0
 40
0.045
309
GRIDFORMAT_END
309
TABLEFORMAT_END
  1
CELLSTYLE_BEGIN
 90
        2
 91
        1
300
_HEADER
309
CELLSTYLE_END
300
CELLSTYLE
  1
TABLEFORMAT_BEGIN
 90
        5
170
     1
 91
        0
 92
        0
 62
   257
 93
        1
300
CONTENTFORMAT
  1
CONTENTFORMAT_BEGIN
 90
        0
 91
        0
 92
        4
 93
        0
300

 40
0.0
140
1.0
 94
        2
 62
     0
340
10
144
0.18
309
CONTENTFORMAT_END
171
     0
 94
        6
 95
        1
302
GRIDFORMAT
  1
GRIDFORMAT_BEGIN
 90
        0
 91
        1
 62
     0
 92
       -2
340
0
 93
        0
 40
0.045
309
GRIDFORMAT_END
 95
        2
302
GRIDFORMAT
  1
GRIDFORMAT_BEGIN
 90
        0
 91
        1
 62
     0
 92
       -2
340
0
 93
        0
 40
0.045
309
GRIDFORMAT_END
 95
        4
302
GRIDFORMAT
  1
GRIDFORMAT_BEGIN
 90
        0
 91
        1
 62
     0
 92
       -2
340
0
 93
        0
 40
0.045
309
GRIDFORMAT_END
 95
        8
302
GRIDFORMAT
  1
GRIDFORMAT_BEGIN
 90
        0
 91
        1
 62
     0
 92
       -2
340
0
 93
        0
 40
0.045
309
GRIDFORMAT_END
 95
       16
302
GRIDFORMAT
  1
GRIDFORMAT_BEGIN
 90
        0
 91
        1
 62
     0
 92
       -2
340
0
 93
        0
 40
0.045
309
GRIDFORMAT_END
 95
       32
302
GRIDFORMAT
  1
GRIDFORMAT_BEGIN
 90
        0
 91
        1
 62
     0
 92
       -2
340
0
 93
        0
 40
0.045
309
GRIDFORMAT_END
309
TABLEFORMAT_END
  1
CELLSTYLE_BEGIN
 90
        3
 91
        2
300
_DATA
309
CELLSTYLE_END
  0
XRECORD
  5
48FC
102
{ACAD_REACTORS
330
48F1
102
}
330
48F1
100
AcDbXrecord
280
     1
102
ACAD_ROUNDTRIP_PRE2007_TABLESTYLE
 90
        4
 91
        0
  1

 92
        4
 93
        0
  2

 94
        4
 95
        0
  3

  0
ENDSEC
  0
EOF
