  0
SECTION
  2
HEADER
  9
$ACADVER
  1
AC1015
  9
$ACADMAINTVER
 70
    20
  9
$DWGCODEPAGE
  3
ANSI_949
  9
$INSBASE
 10
0.0
 20
0.0
 30
0.0
  9
$EXTMIN
 10
7.130967561973105
 20
1.123780227351931
 30
0.0
  9
$EXTMAX
 10
389.2367212818487
 20
199.8950951224971
 30
0.0
  9
$LIMMIN
 10
0.0
 20
0.0
  9
$LIMMAX
 10
420.0
 20
297.0
  9
$ORTHOMODE
 70
     0
  9
$REGENMODE
 70
     1
  9
$FILLMODE
 70
     1
  9
$QTEXTMODE
 70
     0
  9
$MIRRTEXT
 70
     1
  9
$LTSCALE
 40
10.0
  9
$ATTMODE
 70
     1
  9
$TEXTSIZE
 40
3.149999999999999
  9
$TRACEWID
 40
0.05
  9
$TEXTSTYLE
  7
H
  9
$CLAYER
  8
0
  9
$CELTYPE
  6
BYLAYER
  9
$CECOLOR
 62
   256
  9
$CELTSCALE
 40
1.0
  9
$DISPSILH
 70
     0
  9
$DIMSCALE
 40
1.5
  9
$DIMASZ
 40
2.5
  9
$DIMEXO
 40
0.8
  9
$DIMDLI
 40
0.8
  9
$DIMRND
 40
0.0
  9
$DIMDLE
 40
0.0
  9
$DIMEXE
 40
0.8
  9
$DIMTP
 40
0.0
  9
$DIMTM
 40
0.0
  9
$DIMTXT
 40
3.0
  9
$DIMCEN
 40
-1.0
  9
$DIMTSZ
 40
0.0
  9
$DIMTOL
 70
     0
  9
$DIMLIM
 70
     0
  9
$DIMTIH
 70
     0
  9
$DIMTOH
 70
     0
  9
$DIMSE1
 70
     0
  9
$DIMSE2
 70
     0
  9
$DIMTAD
 70
     3
  9
$DIMZIN
 70
     8
  9
$DIMBLK
  1

  9
$DIMASO
 70
     1
  9
$DIMSHO
 70
     1
  9
$DIMPOST
  1

  9
$DIMAPOST
  1

  9
$DIMALT
 70
     0
  9
$DIMALTD
 70
     2
  9
$DIMALTF
 40
25.4
  9
$DIMLFAC
 40
1.0
  9
$DIMTOFL
 70
     1
  9
$DIMTVP
 40
0.0
  9
$DIMTIX
 70
     0
  9
$DIMSOXD
 70
     0
  9
$DIMSAH
 70
     0
  9
$DIMBLK1
  1

  9
$DIMBLK2
  1

  9
$DIMSTYLE
  2
STANDARD
  9
$DIMCLRD
 70
   115
  9
$DIMCLRE
 70
   115
  9
$DIMCLRT
 70
     7
  9
$DIMTFAC
 40
1.0
  9
$DIMGAP
 40
1.0
  9
$DIMJUST
 70
     0
  9
$DIMSD1
 70
     0
  9
$DIMSD2
 70
     0
  9
$DIMTOLJ
 70
     1
  9
$DIMTZIN
 70
     0
  9
$DIMALTZ
 70
     0
  9
$DIMALTTZ
 70
     0
  9
$DIMUPT
 70
     0
  9
$DIMDEC
 70
     3
  9
$DIMTDEC
 70
     4
  9
$DIMALTU
 70
     2
  9
$DIMALTTD
 70
     2
  9
$DIMTXSTY
  7
STANDARD
  9
$DIMAUNIT
 70
     0
  9
$DIMADEC
 70
     0
  9
$DIMALTRND
 40
0.0
  9
$DIMAZIN
 70
     0
  9
$DIMDSEP
 70
    46
  9
$DIMATFIT
 70
     3
  9
$DIMFRAC
 70
     0
  9
$DIMLDRBLK
  1

  9
$DIMLUNIT
 70
     2
  9
$DIMLWD
 70
    -2
  9
$DIMLWE
 70
    -2
  9
$DIMTMOVE
 70
     0
  9
$LUNITS
 70
     2
  9
$LUPREC
 70
     4
  9
$SKETCHINC
 40
0.1
  9
$FILLETRAD
 40
0.5
  9
$AUNITS
 70
     0
  9
$AUPREC
 70
     0
  9
$MENU
  1
.
  9
$ELEVATION
 40
0.0
  9
$PELEVATION
 40
0.0
  9
$THICKNESS
 40
0.0
  9
$LIMCHECK
 70
     0
  9
$CHAMFERA
 40
0.5
  9
$CHAMFERB
 40
0.5
  9
$CHAMFERC
 40
1.0
  9
$CHAMFERD
 40
0.0
  9
$SKPOLY
 70
     1
  9
$TDCREATE
 40
2452464.575009942
  9
$TDUCREATE
 40
2452464.200009942
  9
$TDUPDATE
 40
2455642.710458831
  9
$TDUUPDATE
 40
2455642.335458831
  9
$TDINDWG
 40
0.4750457176
  9
$TDUSRTIMER
 40
0.4750456019
  9
$USRTIMER
 70
     1
  9
$ANGBASE
 50
0.0
  9
$ANGDIR
 70
     0
  9
$PDMODE
 70
     0
  9
$PDSIZE
 40
0.0
  9
$PLINEWID
 40
0.5
  9
$SPLFRAME
 70
     0
  9
$SPLINETYPE
 70
     6
  9
$SPLINESEGS
 70
     8
  9
$HANDSEED
  5
45B7
  9
$SURFTAB1
 70
     6
  9
$SURFTAB2
 70
     6
  9
$SURFTYPE
 70
     6
  9
$SURFU
 70
     6
  9
$SURFV
 70
     6
  9
$UCSBASE
  2

  9
$UCSNAME
  2

  9
$UCSORG
 10
0.0
 20
0.0
 30
0.0
  9
$UCSXDIR
 10
1.0
 20
0.0
 30
0.0
  9
$UCSYDIR
 10
0.0
 20
1.0
 30
0.0
  9
$UCSORTHOREF
  2

  9
$UCSORTHOVIEW
 70
     0
  9
$UCSORGTOP
 10
0.0
 20
0.0
 30
0.0
  9
$UCSORGBOTTOM
 10
0.0
 20
0.0
 30
0.0
  9
$UCSORGLEFT
 10
0.0
 20
0.0
 30
0.0
  9
$UCSORGRIGHT
 10
0.0
 20
0.0
 30
0.0
  9
$UCSORGFRONT
 10
0.0
 20
0.0
 30
0.0
  9
$UCSORGBACK
 10
0.0
 20
0.0
 30
0.0
  9
$PUCSBASE
  2

  9
$PUCSNAME
  2

  9
$PUCSORG
 10
0.0
 20
0.0
 30
0.0
  9
$PUCSXDIR
 10
1.0
 20
0.0
 30
0.0
  9
$PUCSYDIR
 10
0.0
 20
1.0
 30
0.0
  9
$PUCSORTHOREF
  2

  9
$PUCSORTHOVIEW
 70
     0
  9
$PUCSORGTOP
 10
0.0
 20
0.0
 30
0.0
  9
$PUCSORGBOTTOM
 10
0.0
 20
0.0
 30
0.0
  9
$PUCSORGLEFT
 10
0.0
 20
0.0
 30
0.0
  9
$PUCSORGRIGHT
 10
0.0
 20
0.0
 30
0.0
  9
$PUCSORGFRONT
 10
0.0
 20
0.0
 30
0.0
  9
$PUCSORGBACK
 10
0.0
 20
0.0
 30
0.0
  9
$USERI1
 70
     0
  9
$USERI2
 70
   452
  9
$USERI3
 70
     1
  9
$USERI4
 70
     0
  9
$USERI5
 70
     0
  9
$USERR1
 40
0.0
  9
$USERR2
 40
0.0
  9
$USERR3
 40
0.0
  9
$USERR4
 40
0.0
  9
$USERR5
 40
0.0
  9
$WORLDVIEW
 70
     1
  9
$SHADEDGE
 70
     3
  9
$SHADEDIF
 70
    70
  9
$TILEMODE
 70
     1
  9
$MAXACTVP
 70
    48
  9
$PINSBASE
 10
0.0
 20
0.0
 30
0.0
  9
$PLIMCHECK
 70
     0
  9
$PEXTMIN
 10
1.000000000000000E+20
 20
1.000000000000000E+20
 30
1.000000000000000E+20
  9
$PEXTMAX
 10
-1.000000000000000E+20
 20
-1.000000000000000E+20
 30
-1.000000000000000E+20
  9
$PLIMMIN
 10
0.0
 20
0.0
  9
$PLIMMAX
 10
12.0
 20
9.0
  9
$UNITMODE
 70
     0
  9
$VISRETAIN
 70
     1
  9
$PLINEGEN
 70
     0
  9
$PSLTSCALE
 70
     1
  9
$TREEDEPTH
 70
  3020
  9
$CMLSTYLE
  2
STANDARD
  9
$CMLJUST
 70
     0
  9
$CMLSCALE
 40
1.0
  9
$PROXYGRAPHICS
 70
     1
  9
$MEASUREMENT
 70
     0
  9
$CELWEIGHT
370
    -1
  9
$ENDCAPS
280
     0
  9
$JOINSTYLE
280
     0
  9
$LWDISPLAY
290
     0
  9
$INSUNITS
 70
     0
  9
$HYPERLINKBASE
  1

  9
$STYLESHEET
  1
1.CTB
  9
$XEDIT
290
     1
  9
$CEPSNTYPE
380
     0
  9
$PSTYLEMODE
290
     1
  9
$FINGERPRINTGUID
  2
{3172CC46-24FC-4775-9257-50F4EA4939B8}
  9
$VERSIONGUID
  2
{E9CE67F9-5378-4FFC-AB7E-B55AAA1D6014}
  9
$EXTNAMES
290
     1
  9
$PSVPSCALE
 40
0.0
  9
$OLESTARTUP
290
     0
  0
ENDSEC
  0
SECTION
  2
CLASSES
  0
CLASS
  1
DICTIONARYVAR
  2
AcDbDictionaryVar
  3
ObjectDBX Classes
 90
        0
280
     0
281
     0
  0
CLASS
  1
ACDBDICTIONARYWDFLT
  2
AcDbDictionaryWithDefault
  3
ObjectDBX Classes
 90
        0
280
     0
281
     0
  0
CLASS
  1
ACDBPLACEHOLDER
  2
AcDbPlaceHolder
  3
ObjectDBX Classes
 90
        0
280
     0
281
     0
  0
CLASS
  1
LAYOUT
  2
AcDbLayout
  3
ObjectDBX Classes
 90
        0
280
     0
281
     0
  0
CLASS
  1
TABLESTYLE
  2
AcDbTableStyle
  3
ObjectDBX Classes
 90
     4095
280
     0
281
     0
  0
CLASS
  1
MATERIAL
  2
AcDbMaterial
  3
ObjectDBX Classes
 90
     1153
280
     0
281
     0
  0
CLASS
  1
VISUALSTYLE
  2
AcDbVisualStyle
  3
ObjectDBX Classes
 90
     4095
280
     0
281
     0
  0
CLASS
  1
SCALE
  2
AcDbScale
  3
ObjectDBX Classes
 90
     1153
280
     0
281
     0
  0
CLASS
  1
MLEADERSTYLE
  2
AcDbMLeaderStyle
  3
ACDB_MLEADERSTYLE_CLASS
 90
     4095
280
     0
281
     0
  0
CLASS
  1
CELLSTYLEMAP
  2
AcDbCellStyleMap
  3
ObjectDBX Classes
 90
     1152
280
     0
281
     0
  0
ENDSEC
  0
SECTION
  2
TABLES
  0
TABLE
  2
VPORT
  5
8
330
0
100
AcDbSymbolTable
 70
     1
  0
VPORT
  5
4534
330
8
100
AcDbSymbolTableRecord
100
AcDbViewportTableRecord
  2
*Active
 70
     0
 10
0.0
 20
0.0
 11
1.0
 21
1.0
 12
237.8381603766732
 22
137.6578843977433
 13
0.0
 23
0.0
 14
0.5
 24
0.5
 15
0.5
 25
0.5
 16
0.0
 26
0.0
 36
1.0
 17
0.0
 27
0.0
 37
0.0
 40
161.5070430141533
 41
2.336349924585218
 42
50.0
 43
0.0
 44
0.0
 50
0.0
 51
0.0
 71
     0
 72
   100
 73
     1
 74
     1
 75
     0
 76
     0
 77
     0
 78
     0
281
     0
 65
     1
110
0.0
120
0.0
130
0.0
111
1.0
121
0.0
131
0.0
112
0.0
122
1.0
132
0.0
 79
     0
146
0.0
  0
ENDTAB
  0
TABLE
  2
LTYPE
  5
5
330
0
100
AcDbSymbolTable
 70
     9
  0
LTYPE
  5
13
330
5
100
AcDbSymbolTableRecord
100
AcDbLinetypeTableRecord
  2
BYBLOCK
 70
     0
  3

 72
    65
 73
     0
 40
0.0
  0
LTYPE
  5
14
330
5
100
AcDbSymbolTableRecord
100
AcDbLinetypeTableRecord
  2
BYLAYER
 70
     0
  3

 72
    65
 73
     0
 40
0.0
  0
LTYPE
  5
15
330
5
100
AcDbSymbolTableRecord
100
AcDbLinetypeTableRecord
  2
CONTINUOUS
 70
     0
  3
Solid line
 72
    65
 73
     0
 40
0.0
  0
LTYPE
  5
5D
330
5
100
AcDbSymbolTableRecord
100
AcDbLinetypeTableRecord
  2
CENTER
 70
     0
  3
Center ____ _ ____ _ ____ _ ____ _ ____ _ ____
 72
    65
 73
     4
 40
2.0
 49
1.25
 74
     0
 49
-0.25
 74
     0
 49
0.25
 74
     0
 49
-0.25
 74
     0
  0
LTYPE
  5
5E
330
5
100
AcDbSymbolTableRecord
100
AcDbLinetypeTableRecord
  2
HIDDEN
 70
     0
  3
Hidden __ __ __ __ __ __ __ __ __ __ __ __ __ _
 72
    65
 73
     2
 40
0.375
 49
0.25
 74
     0
 49
-0.125
 74
     0
  0
LTYPE
  5
2ACA
330
5
100
AcDbSymbolTableRecord
100
AcDbLinetypeTableRecord
  2
2
 70
     0
  3
MEDUSA PEN 2
 72
    65
 73
     4
 40
15.1
 49
9.5
 74
     0
 49
-1.6
 74
     0
 49
2.399999999999999
 74
     0
 49
-1.6
 74
     0
  0
ENDTAB
  0
TABLE
  2
LAYER
  5
2
330
0
100
AcDbSymbolTable
 70
    37
  0
LAYER
  5
F
102
{ACAD_XDICTIONARY
360
459A
102
}
330
2
100
AcDbSymbolTableRecord
100
AcDbLayerTableRecord
  2
0
 70
     0
 62
     7
  6
CONTINUOUS
370
    -3
390
4154
  0
LAYER
  5
55
102
{ACAD_XDICTIONARY
360
459C
102
}
330
2
100
AcDbSymbolTableRecord
100
AcDbLayerTableRecord
  2
9
 70
     0
 62
     3
  6
CONTINUOUS
370
    -3
390
4154
  0
LAYER
  5
61
102
{ACAD_XDICTIONARY
360
459E
102
}
330
2
100
AcDbSymbolTableRecord
100
AcDbLayerTableRecord
  2
1
 70
     0
 62
     1
  6
CENTER
370
    -3
390
4154
  0
LAYER
  5
62
102
{ACAD_XDICTIONARY
360
45A0
102
}
330
2
100
AcDbSymbolTableRecord
100
AcDbLayerTableRecord
  2
2
 70
     0
 62
     2
  6
HIDDEN
370
    -3
390
4154
  0
LAYER
  5
24EF
330
2
100
AcDbSymbolTableRecord
100
AcDbLayerTableRecord
  2
DEFPOINTS
 70
     0
 62
     7
  6
CONTINUOUS
290
     0
370
    -3
390
4154
  0
LAYER
  5
2AD3
102
{ACAD_XDICTIONARY
360
45A2
102
}
330
2
100
AcDbSymbolTableRecord
100
AcDbLayerTableRecord
  2
SL2-11
 70
     0
 62
     1
  6
2
370
    -3
390
4154
  0
ENDTAB
  0
TABLE
  2
STYLE
  5
3
330
0
100
AcDbSymbolTable
 70
     7
  0
STYLE
  5
10
330
3
100
AcDbSymbolTableRecord
100
AcDbTextStyleTableRecord
  2
STANDARD
 70
     0
 40
0.0
 41
1.0
 50
0.0
 71
     0
 42
3.0
  3
romans.shx
  4

  0
STYLE
  5
167
330
3
100
AcDbSymbolTableRecord
100
AcDbTextStyleTableRecord
  2
STYLE1
 70
     0
 40
0.0
 41
1.0
 50
0.0
 71
     0
 42
3.149999999999999
  3
Gulim.ttf
  4

1001
ACAD
1000
Gulim
1071
    33074
  0
STYLE
  5
2AD7
330
3
100
AcDbSymbolTableRecord
100
AcDbTextStyleTableRecord
  2
T2
 70
     0
 40
0.0
 41
1.0
 50
0.1
 71
     0
 42
3.5
  3
monotxt
  4

  0
STYLE
  5
4531
330
3
100
AcDbSymbolTableRecord
100
AcDbTextStyleTableRecord
  2
H
 70
     0
 40
0.0
 41
1.0
 50
0.0
 71
     0
 42
3.149999999999999
  3
txt.shx
  4

  0
ENDTAB
  0
TABLE
  2
VIEW
  5
6
330
0
100
AcDbSymbolTable
 70
     0
  0
ENDTAB
  0
TABLE
  2
UCS
  5
7
330
0
100
AcDbSymbolTable
 70
     0
  0
ENDTAB
  0
TABLE
  2
APPID
  5
9
330
0
100
AcDbSymbolTable
 70
     4
  0
APPID
  5
11
330
9
100
AcDbSymbolTableRecord
100
AcDbRegAppTableRecord
  2
ACAD
 70
     0
  0
APPID
  5
2325
330
9
100
AcDbSymbolTableRecord
100
AcDbRegAppTableRecord
  2
MCLBOMATTRIB
 70
     0
  0
APPID
  5
2326
330
9
100
AcDbSymbolTableRecord
100
AcDbRegAppTableRecord
  2
MCLBOM
 70
     0
  0
APPID
  5
458D
330
9
100
AcDbSymbolTableRecord
100
AcDbRegAppTableRecord
  2
ACAD_MLEADERVER
 70
     0
  0
ENDTAB
  0
TABLE
  2
DIMSTYLE
  5
A
330
0
100
AcDbSymbolTable
 70
     2
100
AcDbDimStyleTable
 71
     1
340
1D
  0
DIMSTYLE
105
1D
102
{ACAD_REACTORS
330
444E
330
445C
330
4469
330
4476
330
4483
330
4491
330
44A0
330
44AD
330
44F0
330
44FF
330
450C
102
}
330
A
100
AcDbSymbolTableRecord
100
AcDbDimStyleTableRecord
  2
STANDARD
 70
     0
 41
2.0
140
3.0
176
     2
177
     2
178
     4
340
10
  0
ENDTAB
  0
TABLE
  2
BLOCK_RECORD
  5
1
330
0
100
AcDbSymbolTable
 70
    40
  0
BLOCK_RECORD
  5
19
330
1
100
AcDbSymbolTableRecord
100
AcDbBlockTableRecord
  2
*MODEL_SPACE
340
4157
  0
BLOCK_RECORD
  5
16
330
1
100
AcDbSymbolTableRecord
100
AcDbBlockTableRecord
  2
*PAPER_SPACE
340
4158
  0
BLOCK_RECORD
  5
1B8B
330
1
100
AcDbSymbolTableRecord
100
AcDbBlockTableRecord
  2
MCLBOMATTRIB
340
0
102
{BLKREFS
331
247E
331
238D
102
}
  0
BLOCK_RECORD
  5
444F
330
1
100
AcDbSymbolTableRecord
100
AcDbBlockTableRecord
  2
*D29
340
0
  0
BLOCK_RECORD
  5
445D
330
1
100
AcDbSymbolTableRecord
100
AcDbBlockTableRecord
  2
*D30
340
0
  0
BLOCK_RECORD
  5
446A
330
1
100
AcDbSymbolTableRecord
100
AcDbBlockTableRecord
  2
*D31
340
0
  0
BLOCK_RECORD
  5
4477
330
1
100
AcDbSymbolTableRecord
100
AcDbBlockTableRecord
  2
*D32
340
0
  0
BLOCK_RECORD
  5
4484
330
1
100
AcDbSymbolTableRecord
100
AcDbBlockTableRecord
  2
*D33
340
0
  0
BLOCK_RECORD
  5
4492
330
1
100
AcDbSymbolTableRecord
100
AcDbBlockTableRecord
  2
*D34
340
0
  0
BLOCK_RECORD
  5
44A1
330
1
100
AcDbSymbolTableRecord
100
AcDbBlockTableRecord
  2
*D35
340
0
  0
BLOCK_RECORD
  5
44AE
330
1
100
AcDbSymbolTableRecord
100
AcDbBlockTableRecord
  2
*D36
340
0
  0
BLOCK_RECORD
  5
44F1
330
1
100
AcDbSymbolTableRecord
100
AcDbBlockTableRecord
  2
*D37
340
0
  0
BLOCK_RECORD
  5
4500
330
1
100
AcDbSymbolTableRecord
100
AcDbBlockTableRecord
  2
*D38
340
0
  0
BLOCK_RECORD
  5
450D
330
1
100
AcDbSymbolTableRecord
100
AcDbBlockTableRecord
  2
*D39
340
0
  0
ENDTAB
  0
ENDSEC
  0
SECTION
  2
BLOCKS
  0
BLOCK
  5
1A
330
19
100
AcDbEntity
  8
0
100
AcDbBlockBegin
  2
*MODEL_SPACE
 70
     0
 10
0.0
 20
0.0
 30
0.0
  3
*MODEL_SPACE
  1

  0
ENDBLK
  5
1B
330
19
100
AcDbEntity
  8
0
100
AcDbBlockEnd
  0
BLOCK
  5
17
330
16
100
AcDbEntity
 67
     1
  8
0
100
AcDbBlockBegin
  2
*PAPER_SPACE
 70
     0
 10
0.0
 20
0.0
 30
0.0
  3
*PAPER_SPACE
  1

  0
ENDBLK
  5
18
330
16
100
AcDbEntity
 67
     1
  8
0
100
AcDbBlockEnd
  0
BLOCK
  5
1B8C
330
1B8B
100
AcDbEntity
  8
0
100
AcDbBlockBegin
  2
MCLBOMATTRIB
 70
     2
 10
0.0
 20
0.0
 30
0.0
  3
MCLBOMATTRIB
  1
MCLBOMATTRIB
  0
ENDBLK
  5
1B8D
330
1B8B
100
AcDbEntity
  8
0
100
AcDbBlockEnd
  0
BLOCK
  5
445A
330
444F
100
AcDbEntity
  8
0
100
AcDbBlockBegin
  2
*D29
 70
     1
 10
0.0
 20
0.0
 30
0.0
  3
*D29
  1

  0
LINE
  5
4450
330
444F
100
AcDbEntity
  8
0
 62
   115
370
    -2
100
AcDbLine
 10
374.2602951230651
 20
135.1434262345637
 30
0.0
 11
389.2367212818487
 21
135.1434262345637
 31
0.0
  0
LINE
  5
4451
330
444F
100
AcDbEntity
  8
0
 62
   115
370
    -2
100
AcDbLine
 10
374.2602951230654
 20
154.7434262345637
 30
0.0
 11
389.2367212818487
 21
154.7434262345637
 31
0.0
  0
LINE
  5
4452
330
444F
100
AcDbEntity
  8
0
 62
   115
370
    -2
100
AcDbLine
 10
388.0367212818486
 20
138.8934262345637
 30
0.0
 11
388.0367212818486
 21
150.9934262345637
 31
0.0
  0
LINE
  5
4453
330
444F
100
AcDbEntity
  8
0
 62
   115
370
    -2
100
AcDbLine
 10
388.0367212818486
 20
154.7434262345637
 30
0.0
 11
388.0367212818486
 21
179.279140520278
 31
0.0
  0
SOLID
  5
4454
330
444F
100
AcDbEntity
  8
0
 62
   115
100
AcDbTrace
 10
387.4117212818487
 20
138.8934262345637
 30
0.0
 11
388.6617212818487
 21
138.8934262345637
 31
0.0
 12
388.0367212818486
 22
135.1434262345637
 32
0.0
 13
388.0367212818486
 23
135.1434262345637
 33
0.0
  0
SOLID
  5
4455
330
444F
100
AcDbEntity
  8
0
 62
   115
100
AcDbTrace
 10
387.4117212818487
 20
150.9934262345637
 30
0.0
 11
388.6617212818487
 21
150.9934262345637
 31
0.0
 12
388.0367212818486
 22
154.7434262345637
 32
0.0
 13
388.0367212818486
 23
154.7434262345637
 33
0.0
  0
MTEXT
  5
4456
330
444F
100
AcDbEntity
  8
0
 62
     7
100
AcDbMText
 10
383.8581498532772
 20
168.8862833774209
 30
0.0
 40
4.5
 41
0.0
 71
     5
 72
     1
  1
\A1;%%c19,6
 11
0.0000000000000001
 21
1.0
 31
0.0
 73
     1
 44
1.0
1001
ACAD
1000
MTEXTBEGIN
1070
    73
1070
     1
1070
    44
1040
1.0
1070
    74
1070
     0
1000
MTEXTEND
  0
POINT
  5
4457
330
444F
100
AcDbEntity
  8
DEFPOINTS
 62
     0
100
AcDbPoint
 10
373.0602951230651
 20
135.1434262345637
 30
0.0
  0
POINT
  5
4458
330
444F
100
AcDbEntity
  8
DEFPOINTS
 62
     0
100
AcDbPoint
 10
373.0602951230653
 20
154.7434262345637
 30
0.0
  0
POINT
  5
4459
330
444F
100
AcDbEntity
  8
DEFPOINTS
 62
     0
100
AcDbPoint
 10
388.0367212818486
 20
154.7434262345637
 30
0.0
  0
ENDBLK
  5
445B
330
444F
100
AcDbEntity
  8
0
100
AcDbBlockEnd
  0
BLOCK
  5
4467
330
445D
100
AcDbEntity
  8
0
100
AcDbBlockBegin
  2
*D30
 70
     1
 10
0.0
 20
0.0
 30
0.0
  3
*D30
  1

  0
LINE
  5
445E
330
445D
100
AcDbEntity
  8
0
 62
   115
370
    -2
100
AcDbLine
 10
319.331416930341
 20
125.4434262345637
 30
0.0
 11
333.3631258356653
 21
125.4434262345637
 31
0.0
  0
LINE
  5
445F
330
445D
100
AcDbEntity
  8
0
 62
   115
370
    -2
100
AcDbLine
 10
319.3314169303409
 20
164.4434262345638
 30
0.0
 11
333.3631258356654
 21
164.4434262345638
 31
0.0
  0
LINE
  5
4460
330
445D
100
AcDbEntity
  8
0
 62
   115
370
    -2
100
AcDbLine
 10
332.1631258356654
 20
129.1934262345637
 30
0.0
 11
332.1631258356654
 21
160.6934262345638
 31
0.0
  0
SOLID
  5
4461
330
445D
100
AcDbEntity
  8
0
 62
   115
100
AcDbTrace
 10
331.5381258356654
 20
129.1934262345637
 30
0.0
 11
332.7881258356654
 21
129.1934262345637
 31
0.0
 12
332.1631258356653
 22
125.4434262345637
 32
0.0
 13
332.1631258356653
 23
125.4434262345637
 33
0.0
  0
SOLID
  5
4462
330
445D
100
AcDbEntity
  8
0
 62
   115
100
AcDbTrace
 10
331.5381258356654
 20
160.6934262345638
 30
0.0
 11
332.7881258356654
 21
160.6934262345638
 31
0.0
 12
332.1631258356654
 22
164.4434262345638
 32
0.0
 13
332.1631258356654
 23
164.4434262345638
 33
0.0
  0
MTEXT
  5
4463
330
445D
100
AcDbEntity
  8
0
 62
     7
100
AcDbMText
 10
328.4131258356653
 20
144.9434262345638
 30
0.0
 40
4.5
 41
0.0
 71
     5
 72
     1
  1
\A1;%%c39h7
 11
0.0000000000000001
 21
1.0
 31
0.0
 73
     1
 44
1.0
1001
ACAD
1000
MTEXTBEGIN
1070
    73
1070
     1
1070
    44
1040
1.0
1070
    74
1070
     0
1000
MTEXTEND
  0
POINT
  5
4464
330
445D
100
AcDbEntity
  8
DEFPOINTS
 62
     0
100
AcDbPoint
 10
318.131416930341
 20
125.4434262345637
 30
0.0
  0
POINT
  5
4465
330
445D
100
AcDbEntity
  8
DEFPOINTS
 62
     0
100
AcDbPoint
 10
318.1314169303409
 20
164.4434262345638
 30
0.0
  0
POINT
  5
4466
330
445D
100
AcDbEntity
  8
DEFPOINTS
 62
     0
100
AcDbPoint
 10
332.1631258356654
 20
164.4434262345638
 30
0.0
  0
ENDBLK
  5
4468
330
445D
100
AcDbEntity
  8
0
100
AcDbBlockEnd
  0
BLOCK
  5
4474
330
446A
100
AcDbEntity
  8
0
100
AcDbBlockBegin
  2
*D31
 70
     1
 10
0.0
 20
0.0
 30
0.0
  3
*D31
  1

  0
LINE
  5
446B
330
446A
100
AcDbEntity
  8
0
 62
   115
370
    -2
100
AcDbLine
 10
265.9314169303411
 20
125.4434262345637
 30
0.0
 11
257.9833041050778
 21
125.4434262345637
 31
0.0
  0
LINE
  5
446C
330
446A
100
AcDbEntity
  8
0
 62
   115
370
    -2
100
AcDbLine
 10
265.9314169303409
 20
164.4434262345638
 30
0.0
 11
257.9833041050778
 21
164.4434262345638
 31
0.0
  0
LINE
  5
446D
330
446A
100
AcDbEntity
  8
0
 62
   115
370
    -2
100
AcDbLine
 10
259.1833041050778
 20
129.1934262345638
 30
0.0
 11
259.1833041050778
 21
160.6934262345638
 31
0.0
  0
SOLID
  5
446E
330
446A
100
AcDbEntity
  8
0
 62
   115
100
AcDbTrace
 10
258.5583041050778
 20
129.1934262345638
 30
0.0
 11
259.8083041050778
 21
129.1934262345638
 31
0.0
 12
259.1833041050778
 22
125.4434262345637
 32
0.0
 13
259.1833041050778
 23
125.4434262345637
 33
0.0
  0
SOLID
  5
446F
330
446A
100
AcDbEntity
  8
0
 62
   115
100
AcDbTrace
 10
258.5583041050778
 20
160.6934262345638
 30
0.0
 11
259.8083041050778
 21
160.6934262345638
 31
0.0
 12
259.1833041050778
 22
164.4434262345638
 32
0.0
 13
259.1833041050778
 23
164.4434262345638
 33
0.0
  0
MTEXT
  5
4470
330
446A
100
AcDbEntity
  8
0
 62
     7
100
AcDbMText
 10
255.4333041050778
 20
144.9434262345638
 30
0.0
 40
4.5
 41
0.0
 71
     5
 72
     1
  1
\A1;%%c39
 11
0.0000000000000001
 21
1.0
 31
0.0
 73
     1
 44
1.0
1001
ACAD
1000
MTEXTBEGIN
1070
    73
1070
     1
1070
    44
1040
1.0
1070
    74
1070
     0
1000
MTEXTEND
  0
POINT
  5
4471
330
446A
100
AcDbEntity
  8
DEFPOINTS
 62
     0
100
AcDbPoint
 10
267.1314169303411
 20
125.4434262345637
 30
0.0
  0
POINT
  5
4472
330
446A
100
AcDbEntity
  8
DEFPOINTS
 62
     0
100
AcDbPoint
 10
267.131416930341
 20
164.4434262345638
 30
0.0
  0
POINT
  5
4473
330
446A
100
AcDbEntity
  8
DEFPOINTS
 62
     0
100
AcDbPoint
 10
259.1833041050778
 20
164.4434262345638
 30
0.0
  0
ENDBLK
  5
4475
330
446A
100
AcDbEntity
  8
0
100
AcDbBlockEnd
  0
BLOCK
  5
4481
330
4477
100
AcDbEntity
  8
0
100
AcDbBlockBegin
  2
*D32
 70
     1
 10
0.0
 20
0.0
 30
0.0
  3
*D32
  1

  0
LINE
  5
4478
330
4477
100
AcDbEntity
  8
0
 62
   115
370
    -2
100
AcDbLine
 10
276.7314169303408
 20
175.9434262345638
 30
0.0
 11
249.7975853723224
 21
175.9434262345638
 31
0.0
  0
LINE
  5
4479
330
4477
100
AcDbEntity
  8
0
 62
   115
370
    -2
100
AcDbLine
 10
276.7314169303412
 20
113.9434262345638
 30
0.0
 11
249.7975853723224
 21
113.9434262345638
 31
0.0
  0
LINE
  5
447A
330
4477
100
AcDbEntity
  8
0
 62
   115
370
    -2
100
AcDbLine
 10
250.9975853723224
 20
172.1934262345638
 30
0.0
 11
250.9975853723224
 21
117.6934262345638
 31
0.0
  0
SOLID
  5
447B
330
4477
100
AcDbEntity
  8
0
 62
   115
100
AcDbTrace
 10
250.3725853723224
 20
172.1934262345638
 30
0.0
 11
251.6225853723224
 21
172.1934262345638
 31
0.0
 12
250.9975853723224
 22
175.9434262345638
 32
0.0
 13
250.9975853723224
 23
175.9434262345638
 33
0.0
  0
SOLID
  5
447C
330
4477
100
AcDbEntity
  8
0
 62
   115
100
AcDbTrace
 10
250.3725853723224
 20
117.6934262345638
 30
0.0
 11
251.6225853723224
 21
117.6934262345638
 31
0.0
 12
250.9975853723224
 22
113.9434262345638
 32
0.0
 13
250.9975853723224
 23
113.9434262345638
 33
0.0
  0
MTEXT
  5
447D
330
4477
100
AcDbEntity
  8
0
 62
     7
100
AcDbMText
 10
247.2475853723224
 20
144.9434262345638
 30
0.0
 40
4.5
 41
0.0
 71
     5
 72
     1
  1
\A1;%%c62
 11
0.0000000000000001
 21
1.0
 31
0.0
 73
     1
 44
1.0
1001
ACAD
1000
MTEXTBEGIN
1070
    73
1070
     1
1070
    44
1040
1.0
1070
    74
1070
     0
1000
MTEXTEND
  0
POINT
  5
447E
330
4477
100
AcDbEntity
  8
DEFPOINTS
 62
     0
100
AcDbPoint
 10
277.9314169303408
 20
175.9434262345638
 30
0.0
  0
POINT
  5
447F
330
4477
100
AcDbEntity
  8
DEFPOINTS
 62
     0
100
AcDbPoint
 10
277.9314169303412
 20
113.9434262345638
 30
0.0
  0
POINT
  5
4480
330
4477
100
AcDbEntity
  8
DEFPOINTS
 62
     0
100
AcDbPoint
 10
250.9975853723224
 20
113.9434262345638
 30
0.0
  0
ENDBLK
  5
4482
330
4477
100
AcDbEntity
  8
0
100
AcDbBlockEnd
  0
BLOCK
  5
448F
330
4484
100
AcDbEntity
  8
0
100
AcDbBlockBegin
  2
*D33
 70
     1
 10
0.0
 20
0.0
 30
0.0
  3
*D33
  1

  0
LINE
  5
4485
330
4484
100
AcDbEntity
  8
0
 62
   115
370
    -2
100
AcDbLine
 10
277.4314169303412
 20
113.2434262345638
 30
0.0
 11
277.4314169303412
 21
100.5810958746438
 31
0.0
  0
LINE
  5
4486
330
4484
100
AcDbEntity
  8
0
 62
   115
370
    -2
100
AcDbLine
 10
266.6314169303411
 20
124.7434262345638
 30
0.0
 11
266.6314169303411
 21
100.5810958746438
 31
0.0
  0
LINE
  5
4487
330
4484
100
AcDbEntity
  8
0
 62
   115
370
    -2
100
AcDbLine
 10
273.6814169303412
 20
101.7810958746439
 30
0.0
 11
270.3814169303411
 21
101.7810958746439
 31
0.0
  0
LINE
  5
4488
330
4484
100
AcDbEntity
  8
0
 62
   115
370
    -2
100
AcDbLine
 10
266.6314169303411
 20
101.7810958746439
 30
0.0
 11
246.8099883589125
 21
101.7810958746439
 31
0.0
  0
SOLID
  5
4489
330
4484
100
AcDbEntity
  8
0
 62
   115
100
AcDbTrace
 10
273.6814169303412
 20
102.4060958746439
 30
0.0
 11
273.6814169303412
 21
101.1560958746439
 31
0.0
 12
277.4314169303412
 22
101.7810958746439
 32
0.0
 13
277.4314169303412
 23
101.7810958746439
 33
0.0
  0
SOLID
  5
448A
330
4484
100
AcDbEntity
  8
0
 62
   115
100
AcDbTrace
 10
270.3814169303411
 20
102.4060958746439
 30
0.0
 11
270.3814169303411
 21
101.1560958746439
 31
0.0
 12
266.6314169303411
 22
101.7810958746439
 32
0.0
 13
266.6314169303411
 23
101.7810958746439
 33
0.0
  0
MTEXT
  5
448B
330
4484
100
AcDbEntity
  8
0
 62
     7
100
AcDbMText
 10
254.8457026446268
 20
105.5310958746439
 30
0.0
 40
4.5
 41
0.0
 71
     5
 72
     1
  1
\A1;10.8
 73
     1
 44
1.0
1001
ACAD
1000
MTEXTBEGIN
1070
    73
1070
     1
1070
    44
1040
1.0
1070
    74
1070
     0
1000
MTEXTEND
  0
POINT
  5
448C
330
4484
100
AcDbEntity
  8
DEFPOINTS
 62
     0
100
AcDbPoint
 10
277.4314169303412
 20
114.4434262345638
 30
0.0
  0
POINT
  5
448D
330
4484
100
AcDbEntity
  8
DEFPOINTS
 62
     0
100
AcDbPoint
 10
266.6314169303411
 20
125.9434262345638
 30
0.0
  0
POINT
  5
448E
330
4484
100
AcDbEntity
  8
DEFPOINTS
 62
     0
100
AcDbPoint
 10
266.6314169303411
 20
101.7810958746439
 30
0.0
  0
ENDBLK
  5
4490
330
4484
100
AcDbEntity
  8
0
100
AcDbBlockEnd
  0
BLOCK
  5
449E
330
4492
100
AcDbEntity
  8
0
100
AcDbBlockBegin
  2
*D34
 70
     1
 10
0.0
 20
0.0
 30
0.0
  3
*D34
  1

  0
LINE
  5
4493
330
4492
100
AcDbEntity
  8
0
 62
   115
370
    -2
100
AcDbLine
 10
277.4314169303412
 20
113.2434262345638
 30
0.0
 11
277.4314169303412
 21
100.5810958746438
 31
0.0
  0
LINE
  5
4494
330
4492
100
AcDbEntity
  8
0
 62
   115
370
    -2
100
AcDbLine
 10
287.431416930341
 20
113.2434262345638
 30
0.0
 11
287.431416930341
 21
100.5810958746438
 31
0.0
  0
LINE
  5
4495
330
4492
100
AcDbEntity
  8
0
 62
   115
370
    -2
100
AcDbLine
 10
273.6814169303412
 20
101.7810958746439
 30
0.0
 11
269.9314169303412
 21
101.7810958746439
 31
0.0
  0
LINE
  5
4496
330
4492
100
AcDbEntity
  8
0
 62
   115
370
    -2
100
AcDbLine
 10
291.181416930341
 20
101.7810958746439
 30
0.0
 11
294.931416930341
 21
101.7810958746439
 31
0.0
  0
LINE
  5
4497
330
4492
100
AcDbEntity
  8
0
 62
   115
370
    -2
100
AcDbLine
 10
277.4314169303412
 20
101.7810958746439
 30
0.0
 11
287.431416930341
 21
101.7810958746439
 31
0.0
  0
SOLID
  5
4498
330
4492
100
AcDbEntity
  8
0
 62
   115
100
AcDbTrace
 10
273.6814169303412
 20
102.4060958746439
 30
0.0
 11
273.6814169303412
 21
101.1560958746439
 31
0.0
 12
277.4314169303412
 22
101.7810958746439
 32
0.0
 13
277.4314169303412
 23
101.7810958746439
 33
0.0
  0
SOLID
  5
4499
330
4492
100
AcDbEntity
  8
0
 62
   115
100
AcDbTrace
 10
291.181416930341
 20
102.4060958746439
 30
0.0
 11
291.181416930341
 21
101.1560958746439
 31
0.0
 12
287.431416930341
 22
101.7810958746439
 32
0.0
 13
287.431416930341
 23
101.7810958746439
 33
0.0
  0
MTEXT
  5
449A
330
4492
100
AcDbEntity
  8
0
 62
     7
100
AcDbMText
 10
282.4314169303411
 20
105.5310958746439
 30
0.0
 40
4.5
 41
0.0
 71
     5
 72
     1
  1
\A1;10
 73
     1
 44
1.0
1001
ACAD
1000
MTEXTBEGIN
1070
    73
1070
     1
1070
    44
1040
1.0
1070
    74
1070
     0
1000
MTEXTEND
  0
POINT
  5
449B
330
4492
100
AcDbEntity
  8
DEFPOINTS
 62
     0
100
AcDbPoint
 10
277.4314169303412
 20
114.4434262345638
 30
0.0
  0
POINT
  5
449C
330
4492
100
AcDbEntity
  8
DEFPOINTS
 62
     0
100
AcDbPoint
 10
287.431416930341
 20
114.4434262345638
 30
0.0
  0
POINT
  5
449D
330
4492
100
AcDbEntity
  8
DEFPOINTS
 62
     0
100
AcDbPoint
 10
287.431416930341
 20
101.7810958746439
 30
0.0
  0
ENDBLK
  5
449F
330
4492
100
AcDbEntity
  8
0
100
AcDbBlockEnd
  0
BLOCK
  5
44AB
330
44A1
100
AcDbEntity
  8
0
100
AcDbBlockBegin
  2
*D35
 70
     1
 10
0.0
 20
0.0
 30
0.0
  3
*D35
  1

  0
LINE
  5
44A2
330
44A1
100
AcDbEntity
  8
0
 62
   115
370
    -2
100
AcDbLine
 10
287.431416930341
 20
113.2434262345638
 30
0.0
 11
287.431416930341
 21
100.5810958746438
 31
0.0
  0
LINE
  5
44A3
330
44A1
100
AcDbEntity
  8
0
 62
   115
370
    -2
100
AcDbLine
 10
318.6314169303411
 20
124.7434262345638
 30
0.0
 11
318.6314169303411
 21
100.5810958746438
 31
0.0
  0
LINE
  5
44A4
330
44A1
100
AcDbEntity
  8
0
 62
   115
370
    -2
100
AcDbLine
 10
291.181416930341
 20
101.7810958746439
 30
0.0
 11
314.8814169303411
 21
101.7810958746439
 31
0.0
  0
SOLID
  5
44A5
330
44A1
100
AcDbEntity
  8
0
 62
   115
100
AcDbTrace
 10
291.181416930341
 20
102.4060958746439
 30
0.0
 11
291.181416930341
 21
101.1560958746439
 31
0.0
 12
287.431416930341
 22
101.7810958746439
 32
0.0
 13
287.431416930341
 23
101.7810958746439
 33
0.0
  0
SOLID
  5
44A6
330
44A1
100
AcDbEntity
  8
0
 62
   115
100
AcDbTrace
 10
314.8814169303411
 20
102.4060958746439
 30
0.0
 11
314.8814169303411
 21
101.1560958746439
 31
0.0
 12
318.6314169303411
 22
101.7810958746439
 32
0.0
 13
318.6314169303411
 23
101.7810958746439
 33
0.0
  0
MTEXT
  5
44A7
330
44A1
100
AcDbEntity
  8
0
 62
     7
100
AcDbMText
 10
303.0314169303411
 20
105.5310958746439
 30
0.0
 40
4.5
 41
0.0
 71
     5
 72
     1
  1
\A1;31.2
 73
     1
 44
1.0
1001
ACAD
1000
MTEXTBEGIN
1070
    73
1070
     1
1070
    44
1040
1.0
1070
    74
1070
     0
1000
MTEXTEND
  0
POINT
  5
44A8
330
44A1
100
AcDbEntity
  8
DEFPOINTS
 62
     0
100
AcDbPoint
 10
287.431416930341
 20
114.4434262345638
 30
0.0
  0
POINT
  5
44A9
330
44A1
100
AcDbEntity
  8
DEFPOINTS
 62
     0
100
AcDbPoint
 10
318.6314169303411
 20
125.9434262345638
 30
0.0
  0
POINT
  5
44AA
330
44A1
100
AcDbEntity
  8
DEFPOINTS
 62
     0
100
AcDbPoint
 10
318.6314169303411
 20
101.7810958746439
 30
0.0
  0
ENDBLK
  5
44AC
330
44A1
100
AcDbEntity
  8
0
100
AcDbBlockEnd
  0
BLOCK
  5
44B8
330
44AE
100
AcDbEntity
  8
0
100
AcDbBlockBegin
  2
*D36
 70
     1
 10
0.0
 20
0.0
 30
0.0
  3
*D36
  1

  0
LINE
  5
44AF
330
44AE
100
AcDbEntity
  8
0
 62
   115
370
    -2
100
AcDbLine
 10
266.6314169303411
 20
99.38109587464388
 30
0.0
 11
266.6314169303411
 21
89.69697724444356
 31
0.0
  0
LINE
  5
44B0
330
44AE
100
AcDbEntity
  8
0
 62
   115
370
    -2
100
AcDbLine
 10
318.6314169303411
 20
99.38109587464388
 30
0.0
 11
318.6314169303411
 21
89.69697724444356
 31
0.0
  0
LINE
  5
44B1
330
44AE
100
AcDbEntity
  8
0
 62
   115
370
    -2
100
AcDbLine
 10
270.3814169303411
 20
90.89697724444357
 30
0.0
 11
314.8814169303411
 21
90.89697724444357
 31
0.0
  0
SOLID
  5
44B2
330
44AE
100
AcDbEntity
  8
0
 62
   115
100
AcDbTrace
 10
270.3814169303411
 20
91.52197724444357
 30
0.0
 11
270.3814169303411
 21
90.27197724444357
 31
0.0
 12
266.6314169303411
 22
90.89697724444357
 32
0.0
 13
266.6314169303411
 23
90.89697724444357
 33
0.0
  0
SOLID
  5
44B3
330
44AE
100
AcDbEntity
  8
0
 62
   115
100
AcDbTrace
 10
314.8814169303411
 20
91.52197724444357
 30
0.0
 11
314.8814169303411
 21
90.27197724444357
 31
0.0
 12
318.6314169303411
 22
90.89697724444357
 32
0.0
 13
318.6314169303411
 23
90.89697724444357
 33
0.0
  0
MTEXT
  5
44B4
330
44AE
100
AcDbEntity
  8
0
 62
     7
100
AcDbMText
 10
292.631416930341
 20
94.64697724444357
 30
0.0
 40
4.5
 41
0.0
 71
     5
 72
     1
  1
\A1;52
 73
     1
 44
1.0
1001
ACAD
1000
MTEXTBEGIN
1070
    73
1070
     1
1070
    44
1040
1.0
1070
    74
1070
     0
1000
MTEXTEND
  0
POINT
  5
44B5
330
44AE
100
AcDbEntity
  8
DEFPOINTS
 62
     0
100
AcDbPoint
 10
266.6314169303411
 20
100.5810958746438
 30
0.0
  0
POINT
  5
44B6
330
44AE
100
AcDbEntity
  8
DEFPOINTS
 62
     0
100
AcDbPoint
 10
318.6314169303411
 20
100.5810958746438
 30
0.0
  0
POINT
  5
44B7
330
44AE
100
AcDbEntity
  8
DEFPOINTS
 62
     0
100
AcDbPoint
 10
318.6314169303411
 20
90.89697724444357
 30
0.0
  0
ENDBLK
  5
44B9
330
44AE
100
AcDbEntity
  8
0
100
AcDbBlockEnd
  0
BLOCK
  5
44FD
330
44F1
100
AcDbEntity
  8
0
100
AcDbBlockBegin
  2
*D37
 70
     1
 10
0.0
 20
0.0
 30
0.0
  3
*D37
  1

  0
LINE
  5
44F2
330
44F1
100
AcDbEntity
  8
0
 62
   115
370
    -2
100
AcDbLine
 10
115.016962985607
 20
118.6613681190435
 30
0.0
 11
109.1632613581131
 21
108.5224610498345
 31
0.0
  0
LINE
  5
44F3
330
44F1
100
AcDbEntity
  8
0
 62
   115
370
    -2
100
AcDbLine
 10
145.3648708129133
 20
118.6613683816476
 30
0.0
 11
151.2185725828278
 21
108.5224609095628
 31
0.0
  0
ARC
  5
44F4
330
44F1
100
AcDbEntity
  8
0
 62
   115
370
    -2
100
AcDbCircle
 10
130.1909170919493
 20
144.9434235340394
 30
0.0
 40
40.85530660851964
100
AcDbArc
 50
245.2608713582508
 51
294.7391282595393
  0
SOLID
  5
44F5
330
44F1
100
AcDbEntity
  8
0
 62
   115
100
AcDbTrace
 10
112.8061552300824
 20
107.2826736563711
 30
0.0
 11
113.3808154044194
 21
108.3927482863086
 31
0.0
 12
109.7632614274383
 22
109.5616914943509
 32
0.0
 13
109.7632614274383
 23
109.5616914943509
 33
0.0
  0
SOLID
  5
44F6
330
44F1
100
AcDbEntity
  8
0
 62
   115
100
AcDbTrace
 10
147.0010185356563
 20
108.3927481741715
 30
0.0
 11
147.5756787025882
 21
107.2826735404005
 31
0.0
 12
150.6185725204352
 22
109.5616913580817
 32
0.0
 13
150.6185725204352
 23
109.5616913580817
 33
0.0
  0
MTEXT
  5
44F7
102
{ACAD_XDICTIONARY
360
45B1
102
}
330
44F1
100
AcDbEntity
  8
0
 62
     7
100
AcDbMText
 10
130.1909169681879
 20
107.8381169255198
 30
0.0
 40
4.5
 41
0.0
 71
     5
 72
     1
  1
\A1;60\U+00B0
 11
1.0
 21
-0.0000000033354111
 31
0.0
 73
     1
 44
1.0
1001
ACAD
1000
MTEXTBEGIN
1070
    73
1070
     1
1070
    44
1040
1.0
1070
    74
1070
     0
1000
MTEXTEND
  0
POINT
  5
44F8
330
44F1
100
AcDbEntity
  8
DEFPOINTS
 62
     0
100
AcDbPoint
 10
123.0964665672307
 20
104.7088010078063
 30
0.0
  0
POINT
  5
44F9
330
44F1
100
AcDbEntity
  8
DEFPOINTS
 62
     0
100
AcDbPoint
 10
115.6169630549322
 20
119.7005985635599
 30
0.0
  0
POINT
  5
44FA
330
44F1
100
AcDbEntity
  8
DEFPOINTS
 62
     0
100
AcDbPoint
 10
144.7648707505206
 20
119.7005988301665
 30
0.0
  0
POINT
  5
44FB
330
44F1
100
AcDbEntity
  8
DEFPOINTS
 62
     0
100
AcDbPoint
 10
140.616969546472
 20
126.8849734642387
 30
0.0
  0
POINT
  5
44FC
330
44F1
100
AcDbEntity
  8
DEFPOINTS
 62
     0
100
AcDbPoint
 10
119.7648643069065
 20
126.8849731699622
 30
0.0
  0
ENDBLK
  5
44FE
330
44F1
100
AcDbEntity
  8
0
100
AcDbBlockEnd
  0
BLOCK
  5
450A
330
4500
100
AcDbEntity
  8
0
100
AcDbBlockBegin
  2
*D38
 70
     1
 10
0.0
 20
0.0
 30
0.0
  3
*D38
  1

  0
LINE
  5
4501
330
4500
100
AcDbEntity
  8
0
 62
   115
370
    -2
100
AcDbLine
 10
107.1909166718384
 20
122.9588095437373
 30
0.0
 11
107.1909166718384
 21
93.92809828628919
 31
0.0
  0
LINE
  5
4502
330
4500
100
AcDbEntity
  8
0
 62
   115
370
    -2
100
AcDbLine
 10
153.1909163718385
 20
122.9588092117609
 30
0.0
 11
153.1909163718385
 21
93.92809828628919
 31
0.0
  0
LINE
  5
4503
330
4500
100
AcDbEntity
  8
0
 62
   115
370
    -2
100
AcDbLine
 10
110.9409166718384
 20
95.12809828628915
 30
0.0
 11
149.4409163718385
 21
95.12809828628915
 31
0.0
  0
SOLID
  5
4504
330
4500
100
AcDbEntity
  8
0
 62
   115
100
AcDbTrace
 10
110.9409166718384
 20
95.75309828628915
 30
0.0
 11
110.9409166718384
 21
94.50309828628915
 31
0.0
 12
107.1909166718384
 22
95.12809828628915
 32
0.0
 13
107.1909166718384
 23
95.12809828628915
 33
0.0
  0
SOLID
  5
4505
330
4500
100
AcDbEntity
  8
0
 62
   115
100
AcDbTrace
 10
149.4409163718385
 20
95.75309828628915
 30
0.0
 11
149.4409163718385
 21
94.50309828628915
 31
0.0
 12
153.1909163718385
 22
95.12809828628915
 32
0.0
 13
153.1909163718385
 23
95.12809828628915
 33
0.0
  0
MTEXT
  5
4506
330
4500
100
AcDbEntity
  8
0
 62
     7
100
AcDbMText
 10
130.1909165218384
 20
98.87809828628917
 30
0.0
 40
4.5
 41
0.0
 71
     5
 72
     1
  1
\A1;46
 73
     1
 44
1.0
1001
ACAD
1000
MTEXTBEGIN
1070
    73
1070
     1
1070
    44
1040
1.0
1070
    74
1070
     0
1000
MTEXTEND
  0
POINT
  5
4507
330
4500
100
AcDbEntity
  8
DEFPOINTS
 62
     0
100
AcDbPoint
 10
107.1909166718384
 20
124.1588095437373
 30
0.0
  0
POINT
  5
4508
330
4500
100
AcDbEntity
  8
DEFPOINTS
 62
     0
100
AcDbPoint
 10
153.1909163718385
 20
124.1588092117609
 30
0.0
  0
POINT
  5
4509
330
4500
100
AcDbEntity
  8
DEFPOINTS
 62
     0
100
AcDbPoint
 10
153.1909163718385
 20
95.12809828628915
 30
0.0
  0
ENDBLK
  5
450B
330
4500
100
AcDbEntity
  8
0
100
AcDbBlockEnd
  0
BLOCK
  5
4516
330
450D
100
AcDbEntity
  8
0
100
AcDbBlockBegin
  2
*D39
 70
     1
 10
0.0
 20
0.0
 30
0.0
  3
*D39
  1

  0
LINE
  5
450E
330
450D
100
AcDbEntity
  8
0
 62
   115
370
    -2
100
AcDbLine
 10
191.7331366182635
 20
124.4738285288933
 30
0.0
 11
157.4714712185742
 21
135.8696193898145
 31
0.0
  0
LINE
  5
450F
330
450D
100
AcDbEntity
  8
0
 62
   115
370
    -2
100
AcDbLine
 10
102.9103621251026
 20
154.0172190793131
 30
0.0
 11
99.35202892335444
 21
155.2007581894978
 31
0.0
  0
MTEXT
  5
4510
330
450D
100
AcDbEntity
  8
0
 62
     7
100
AcDbMText
 10
177.7002712420702
 20
133.544954257638
 30
0.0
 40
4.5
 41
0.0
 71
     5
 72
     1
  1
\A1;P,C,D 50
 11
0.9488888537995062
 21
-0.3156104293825844
 31
0.0
 73
     1
 44
1.0
1001
ACAD
1000
MTEXTBEGIN
1070
    73
1070
     1
1070
    44
1040
1.0
1070
    74
1070
     0
1000
MTEXTEND
  0
LINE
  5
4511
330
450D
100
AcDbEntity
  8
0
 62
   115
370
    -2
100
AcDbLine
 10
106.4686953268507
 20
152.8336799691284
 30
0.0
 11
153.9131380168261
 21
137.0531584999992
 31
0.0
  0
SOLID
  5
4512
330
450D
100
AcDbEntity
  8
0
 62
   115
100
AcDbTrace
 10
103.1076186434667
 20
154.6102746129378
 30
0.0
 11
102.7131056067384
 21
153.4241635456884
 31
0.0
 12
106.4686953268507
 22
152.8336799691284
 32
0.0
 13
106.4686953268507
 23
152.8336799691284
 33
0.0
  0
SOLID
  5
4513
330
450D
100
AcDbEntity
  8
0
 62
   115
100
AcDbTrace
 10
157.6687277369383
 20
136.4626749234391
 30
0.0
 11
157.2742147002101
 21
135.2765638561898
 31
0.0
 12
153.9131380168261
 22
137.0531584999992
 32
0.0
 13
153.9131380168261
 23
137.0531584999992
 33
0.0
  0
POINT
  5
4514
330
450D
100
AcDbEntity
  8
DEFPOINTS
 62
     0
100
AcDbPoint
 10
153.9131380168261
 20
137.0531584999992
 30
0.0
  0
POINT
  5
4515
330
450D
100
AcDbEntity
  8
DEFPOINTS
 62
     0
100
AcDbPoint
 10
106.4686953268507
 20
152.8336799691284
 30
0.0
  0
ENDBLK
  5
4517
330
450D
100
AcDbEntity
  8
0
100
AcDbBlockEnd
  0
ENDSEC
  0
SECTION
  2
ENTITIES
  0
INSERT
  5
247E
330
19
100
AcDbEntity
  8
0
100
AcDbBlockReference
  2
MCLBOMATTRIB
 10
0.0
 20
0.0
 30
0.0
1001
MCLBOMATTRIB
1002
{
1000
1
1005
0
1005
0
1000
강관 용접식 플렌지
1005
0
1000
Steel Welding Pipe Flange
1005
0
1000
SOP 5K 10A FF
1005
0
1000

1005
2480
1000
1
1005
0
1000

1005
2481
1000

1005
0
1000

1005
2482
1000

1005
0
1000

1005
0
1000

1005
0
1000

1005
0
1000

1005
0
1000

1005
0
1002
}
  0
TEXT
  5
2480
330
19
100
AcDbEntity
  8
0
 62
   111
100
AcDbText
 10
344.9746279359911
 20
60.9644544167441
 30
0.0
 40
2.5
  1

  7
STYLE1
100
AcDbText
  0
TEXT
  5
2481
330
19
100
AcDbEntity
  8
0
 62
   111
100
AcDbText
 10
379.9746279359911
 20
60.9644544167441
 30
0.0
 40
2.5
  1

  7
STYLE1
100
AcDbText
  0
TEXT
  5
2482
330
19
100
AcDbEntity
  8
0
 62
   111
100
AcDbText
 10
394.9746279359911
 20
60.9644544167441
 30
0.0
 40
2.5
  1

  7
STYLE1
100
AcDbText
  0
MTEXT
  5
24CA
330
19
100
AcDbEntity
  8
0
100
AcDbMText
 10
295.0
 20
25.00000000000007
 30
0.0
 40
2.5
 41
20.0
 71
     5
 72
     5
  1

  7
STYLE1
 73
     1
 44
1.0
1001
ACAD
1000
MTEXTBEGIN
1070
    73
1070
     1
1070
    44
1040
1.0
1070
    74
1070
     0
1000
MTEXTEND
  0
MTEXT
  5
24DF
330
19
100
AcDbEntity
  8
0
100
AcDbMText
 10
265.0
 20
292.0
 30
0.0
 40
1.8
 41
15.0
 71
     1
 72
     5
  1

  7
STYLE1
 73
     1
 44
1.0
1001
ACAD
1000
MTEXTBEGIN
1070
    73
1070
     1
1070
    44
1040
1.0
1070
    74
1070
     0
1000
MTEXTEND
  0
LINE
  5
2EC4
330
19
100
AcDbEntity
  8
1
100
AcDbLine
 10
211.4489087048997
 20
144.9434262345638
 30
0.0
 11
375.6112239250492
 21
144.9434262345638
 31
0.0
  0
LINE
  5
324C
330
19
100
AcDbEntity
  8
0
100
AcDbLine
 10
277.9314109303408
 20
113.9434322345642
 30
0.0
 11
277.9314109303408
 21
175.9434202345639
 31
0.0
  0
TEXT
  5
32A5
330
19
100
AcDbEntity
  8
0
100
AcDbText
 10
149.9507800264357
 20
62.0960919011581
 30
0.0
 40
10.5
  1
SLK2020-3.6-R
  7
T2
 72
     4
 11
216.4507800264357
 21
67.3460919011581
 31
0.0
100
AcDbText
  0
LINE
  5
34B0
330
19
100
AcDbEntity
  8
SL2-11
100
AcDbLine
 10
115.6169693473418
 20
170.1862435384921
 30
0.0
 11
119.7648701200595
 21
163.0018686553908
 31
0.0
  0
LINE
  5
34EB
330
19
100
AcDbEntity
  8
SL2-11
100
AcDbLine
 10
144.7648644581111
 20
170.1862432718856
 30
0.0
 11
140.6169637333191
 21
163.0018683611144
 31
0.0
  0
LINE
  5
355D
330
19
100
AcDbEntity
  8
1
100
AcDbLine
 10
130.1909166718384
 20
177.7219600464155
 30
0.0
 11
130.1909166718384
 21
112.1648784227121
 31
0.0
  0
LINE
  5
375C
330
19
100
AcDbEntity
  8
SL2-11
100
AcDbLine
 10
144.7648707505206
 20
119.7005988301665
 30
0.0
 11
140.616969546472
 21
126.8849734642387
 31
0.0
  0
LINE
  5
3784
330
19
100
AcDbEntity
  8
SL2-11
100
AcDbLine
 10
115.6169630549322
 20
119.7005985635599
 30
0.0
 11
119.7648643069065
 21
126.8849731699622
 31
0.0
  0
LINE
  5
3945
330
19
100
AcDbEntity
  8
0
100
AcDbLine
 10
277.4314169303412
 20
114.4434262345638
 30
0.0
 11
277.4314169303407
 21
175.4434262345638
 31
0.0
  0
LINE
  5
394B
330
19
100
AcDbEntity
  8
0
100
AcDbLine
 10
213.5602951230652
 20
135.6434262345638
 30
0.0
 11
213.5602951230652
 21
154.2434262345638
 31
0.0
  0
MTEXT
  5
3954
330
19
100
AcDbEntity
  8
0
 62
   111
100
AcDbMText
 10
0.0
 20
0.0
 30
0.0
 40
3.0
 41
0.0
 71
     5
 72
     5
  1

 11
0.6658655619423123
 21
0.7460717481712123
 31
0.0
 73
     1
 44
1.0
1001
ACAD
1000
MTEXTBEGIN
1070
    73
1070
     1
1070
    44
1040
1.0
1070
    74
1070
     0
1000
MTEXTEND
  0
MTEXT
  5
3959
330
19
100
AcDbEntity
  8
0
 62
   111
100
AcDbMText
 10
0.0
 20
0.0
 30
0.0
 40
3.0
 41
0.0
 71
     5
 72
     5
  1

 11
0.9994246805919202
 21
0.0339161882253633
 31
0.0
 73
     1
 44
1.0
1001
ACAD
1000
MTEXTBEGIN
1070
    73
1070
     1
1070
    44
1040
1.0
1070
    74
1070
     0
1000
MTEXTEND
  0
LINE
  5
3B0B
330
19
100
AcDbEntity
  8
1
100
AcDbLine
 10
97.41237585998725
 20
144.9434252345638
 30
0.0
 11
162.9694574836896
 21
144.9434252345638
 31
0.0
  0
MTEXT
  5
3CA0
330
19
100
AcDbEntity
  8
0
 62
   111
100
AcDbMText
 10
0.0
 20
0.0
 30
0.0
 40
3.0
 41
0.0
 71
     5
 72
     5
  1

 11
0.8978290820304724
 21
-0.4403441148242126
 31
0.0
 73
     1
 44
1.0
1001
ACAD
1000
MTEXTBEGIN
1070
    73
1070
     1
1070
    44
1040
1.0
1070
    74
1070
     0
1000
MTEXTEND
  0
MTEXT
  5
3CA1
330
19
100
AcDbEntity
  8
0
 62
   111
100
AcDbMText
 10
0.0
 20
0.0
 30
0.0
 40
3.0
 41
0.0
 71
     5
 72
     5
  1

 11
0.8978290820304724
 21
-0.4403441148242126
 31
0.0
 73
     1
 44
1.0
1001
ACAD
1000
MTEXTBEGIN
1070
    73
1070
     1
1070
    44
1040
1.0
1070
    74
1070
     0
1000
MTEXTEND
  0
MTEXT
  5
3CA2
330
19
100
AcDbEntity
  8
0
 62
   111
100
AcDbMText
 10
0.0
 20
0.0
 30
0.0
 40
3.0
 41
0.0
 71
     5
 72
     5
  1

 11
0.8978290820304724
 21
-0.4403441148242126
 31
0.0
 73
     1
 44
1.0
1001
ACAD
1000
MTEXTBEGIN
1070
    73
1070
     1
1070
    44
1040
1.0
1070
    74
1070
     0
1000
MTEXTEND
  0
MTEXT
  5
3CA3
330
19
100
AcDbEntity
  8
0
 62
   111
100
AcDbMText
 10
0.0
 20
0.0
 30
0.0
 40
3.0
 41
0.0
 71
     5
 72
     5
  1

 11
0.8978290820304724
 21
-0.4403441148242126
 31
0.0
 73
     1
 44
1.0
1001
ACAD
1000
MTEXTBEGIN
1070
    73
1070
     1
1070
    44
1040
1.0
1070
    74
1070
     0
1000
MTEXTEND
  0
MTEXT
  5
3CA8
330
19
100
AcDbEntity
  8
0
 62
   111
100
AcDbMText
 10
0.0
 20
0.0
 30
0.0
 40
3.0
 41
0.0
 71
     5
 72
     5
  1

 11
0.3826834323650867
 21
-0.923879532511288
 31
0.0
 73
     1
 44
1.0
1001
ACAD
1000
MTEXTBEGIN
1070
    73
1070
     1
1070
    44
1040
1.0
1070
    74
1070
     0
1000
MTEXTEND
  0
LINE
  5
418B
330
19
100
AcDbEntity
  8
2
100
AcDbLine
 10
127.6909166718384
 20
175.8424483455244
 30
0.0
 11
127.6909166718384
 21
157.7007700567369
 31
0.0
  0
LINE
  5
418C
330
19
100
AcDbEntity
  8
2
100
AcDbLine
 10
132.6909166718384
 20
175.8424483455244
 30
0.0
 11
132.6909166718384
 21
157.7007700567369
 31
0.0
  0
LINE
  5
418D
330
19
100
AcDbEntity
  8
2
100
AcDbLine
 10
127.1909166718384
 20
175.7979164756468
 30
0.0
 11
127.1909166718384
 21
169.9434192345638
 31
0.0
  0
LINE
  5
418E
330
19
100
AcDbEntity
  8
2
100
AcDbLine
 10
133.1909166718384
 20
175.7979164756468
 30
0.0
 11
133.1909166718384
 21
169.9434192345638
 31
0.0
  0
LINE
  5
4194
330
19
100
AcDbEntity
  8
2
100
AcDbLine
 10
127.1909166718384
 20
169.9434192345638
 30
0.0
 11
133.1909166718384
 21
169.9434192345638
 31
0.0
  0
LINE
  5
4195
330
19
100
AcDbEntity
  8
2
100
AcDbLine
 10
127.6909166718384
 20
169.4434192345638
 30
0.0
 11
132.6909166718384
 21
169.4434192345638
 31
0.0
  0
LINE
  5
4196
330
19
100
AcDbEntity
  8
2
100
AcDbLine
 10
127.6909166718384
 20
169.4434192345638
 30
0.0
 11
127.1909166718384
 21
169.9434192345638
 31
0.0
  0
LINE
  5
4197
330
19
100
AcDbEntity
  8
2
100
AcDbLine
 10
132.6909166718384
 20
169.4434192345638
 30
0.0
 11
133.1909166718384
 21
169.9434192345638
 31
0.0
  0
LINE
  5
419B
330
19
100
AcDbEntity
  8
0
100
AcDbLine
 10
214.0602951230652
 20
154.7434262345638
 30
0.0
 11
214.0602951230653
 21
135.1434262345637
 31
0.0
  0
LINE
  5
419C
330
19
100
AcDbEntity
  8
0
100
AcDbLine
 10
373.5602951230653
 20
135.6434262345638
 30
0.0
 11
373.5602951230653
 21
154.2434262345637
 31
0.0
  0
LINE
  5
419F
330
19
100
AcDbEntity
  8
0
100
AcDbLine
 10
373.0602951230653
 20
154.7434262345638
 30
0.0
 11
373.0602951230651
 21
135.1434262345637
 31
0.0
  0
LINE
  5
41B1
330
19
100
AcDbEntity
  8
0
100
AcDbLine
 10
287.431416930341
 20
114.4434262345638
 30
0.0
 11
287.4314169303409
 21
175.4434262345638
 31
0.0
  0
LINE
  5
41B2
330
19
100
AcDbEntity
  8
0
100
AcDbLine
 10
286.9314169303411
 20
113.9434262345637
 30
0.0
 11
286.9314169303408
 21
175.9434262345636
 31
0.0
  0
LINE
  5
41BD
330
19
100
AcDbEntity
  8
2
100
AcDbLine
 10
313.6314169303411
 20
131.9434262345638
 30
0.0
 11
313.6314169303408
 21
157.9434262345637
 31
0.0
  0
LEADER
  5
422C
330
19
100
AcDbEntity
  8
0
100
AcDbLeader
  3
STANDARD
 73
     0
 74
     0
 75
     1
 40
4.5
 41
23.35714285714285
 76
     3
 10
145.2250602747193
 20
167.6616179006636
 30
0.0
 10
160.105580819619
 20
179.4433347773765
 30
0.0
 10
163.855580819619
 20
179.4433347773765
 30
0.0
340
422D
1001
ACAD
1000
DSTYLE
1002
{
1070
    40
1040
1.5
1070
    41
1040
2.5
1070
    42
1040
0.8
1070
    43
1040
0.8
1070
    44
1040
0.8
1070
    73
1070
     0
1070
    74
1070
     0
1070
    77
1070
     1
1070
    78
1070
     8
1070
   141
1040
-1.0
1070
   147
1040
1.0
1070
   172
1070
     1
1070
   176
1070
   115
1070
   177
1070
   115
1070
   178
1070
     7
1070
   271
1070
     3
1002
}
  0
MTEXT
  5
422D
102
{ACAD_REACTORS
330
422C
102
}
330
19
100
AcDbEntity
  8
0
 62
     7
100
AcDbMText
 10
165.355580819619
 20
180.9433347773765
 30
0.0
 40
4.5
 41
0.0
 71
     7
 72
     1
  1
4-%%c5.5
 73
     1
 44
1.0
1001
ACAD
1000
MTEXTBEGIN
1070
    73
1070
     1
1070
    44
1040
1.0
1070
    74
1070
     0
1000
MTEXTEND
  0
LEADER
  5
422E
330
19
100
AcDbEntity
  8
0
100
AcDbLeader
  3
STANDARD
 73
     0
 75
     1
 40
4.5
 41
26.78571428571429
 76
     3
 10
130.1909166718384
 20
175.9434192345638
 30
0.0
 10
119.1014494463206
 20
193.8950951224971
 30
0.0
 10
115.3514494463206
 20
193.8950951224971
 30
0.0
340
422F
1001
ACAD
1000
DSTYLE
1002
{
1070
    40
1040
1.5
1070
    41
1040
2.5
1070
    42
1040
0.8
1070
    43
1040
0.8
1070
    44
1040
0.8
1070
    73
1070
     0
1070
    74
1070
     0
1070
    77
1070
     1
1070
    78
1070
     8
1070
   141
1040
-1.0
1070
   147
1040
1.0
1070
   172
1070
     1
1070
   176
1070
   115
1070
   177
1070
   115
1070
   178
1070
     7
1070
   271
1070
     3
1002
}
  0
MTEXT
  5
422F
102
{ACAD_REACTORS
330
422E
102
}
330
19
100
AcDbEntity
  8
0
 62
     7
100
AcDbMText
 10
113.8514494463206
 20
195.3950951224971
 30
0.0
 40
4.5
 41
0.0
 71
     9
 72
     1
  1
M6xP1.0
 73
     1
 44
1.0
1001
ACAD
1000
MTEXTBEGIN
1070
    73
1070
     1
1070
    44
1040
1.0
1070
    74
1070
     0
1000
MTEXTEND
  0
LINE
  5
4298
330
19
100
AcDbEntity
  8
0
100
AcDbLine
 10
318.131416930341
 20
125.4434262345638
 30
0.0
 11
318.1314169303409
 21
164.4434262345638
 31
0.0
  0
LINE
  5
429F
330
19
100
AcDbEntity
  8
0
100
AcDbLine
 10
267.1314169303408
 20
164.4434262345638
 30
0.0
 11
267.1314169303411
 21
125.4434262345637
 31
0.0
  0
LINE
  5
4411
330
19
100
AcDbEntity
  8
0
100
AcDbLine
 10
287.4314169303409
 20
164.4434262345638
 30
0.0
 11
318.1314169303409
 21
164.4434262345638
 31
0.0
  0
LINE
  5
4412
330
19
100
AcDbEntity
  8
0
100
AcDbLine
 10
287.4314169303411
 20
125.4434262345638
 30
0.0
 11
318.131416930341
 21
125.4434262345638
 31
0.0
  0
LINE
  5
4413
330
19
100
AcDbEntity
  8
0
100
AcDbLine
 10
277.4314169303409
 20
164.4434262345638
 30
0.0
 11
267.131416930341
 21
164.4434262345638
 31
0.0
  0
LINE
  5
4414
330
19
100
AcDbEntity
  8
0
100
AcDbLine
 10
277.4314169303411
 20
125.4434262345638
 30
0.0
 11
267.1314169303411
 21
125.4434262345637
 31
0.0
  0
LINE
  5
4415
330
19
100
AcDbEntity
  8
0
100
AcDbLine
 10
277.9314169303408
 20
175.9434262345638
 30
0.0
 11
286.9314169303408
 21
175.9434262345638
 31
0.0
  0
LINE
  5
4416
330
19
100
AcDbEntity
  8
0
100
AcDbLine
 10
277.9314169303412
 20
113.9434262345638
 30
0.0
 11
286.931416930341
 21
113.9434262345637
 31
0.0
  0
LINE
  5
4417
330
19
100
AcDbEntity
  8
0
100
AcDbLine
 10
266.6314169303411
 20
125.9434262345638
 30
0.0
 11
266.6314169303409
 21
163.9434262345638
 31
0.0
  0
LINE
  5
4418
330
19
100
AcDbEntity
  8
2
100
AcDbLine
 10
271.631416930341
 20
131.9434262345638
 30
0.0
 11
271.631416930341
 21
157.9434262345637
 31
0.0
  0
LINE
  5
441B
330
19
100
AcDbEntity
  8
0
100
AcDbLine
 10
266.6314169303409
 20
163.9434262345638
 30
0.0
 11
267.131416930341
 21
164.4434262345638
 31
0.0
  0
LINE
  5
441C
330
19
100
AcDbEntity
  8
0
100
AcDbLine
 10
266.6314169303411
 20
125.9434262345638
 30
0.0
 11
267.1314169303411
 21
125.4434262345637
 31
0.0
  0
LINE
  5
441D
330
19
100
AcDbEntity
  8
2
100
AcDbLine
 10
266.6314169303409
 20
157.9434262345637
 30
0.0
 11
271.631416930341
 21
157.9434262345637
 31
0.0
  0
LINE
  5
441E
330
19
100
AcDbEntity
  8
2
100
AcDbLine
 10
266.631416930341
 20
131.9434262345638
 30
0.0
 11
271.631416930341
 21
131.9434262345638
 31
0.0
  0
LINE
  5
441F
330
19
100
AcDbEntity
  8
2
100
AcDbLine
 10
313.631416930341
 20
131.9434262345638
 30
0.0
 11
318.6314169303409
 21
131.9434262345638
 31
0.0
  0
LINE
  5
4420
330
19
100
AcDbEntity
  8
2
100
AcDbLine
 10
313.6314169303408
 20
157.9434262345637
 30
0.0
 11
318.6314169303409
 21
157.9434262345637
 31
0.0
  0
LINE
  5
4421
330
19
100
AcDbEntity
  8
0
100
AcDbLine
 10
277.4314169303407
 20
175.4434262345638
 30
0.0
 11
277.9314169303408
 21
175.9434262345638
 31
0.0
  0
LINE
  5
4422
330
19
100
AcDbEntity
  8
0
100
AcDbLine
 10
286.9314169303408
 20
175.9434262345638
 30
0.0
 11
287.4314169303409
 21
175.4434262345638
 31
0.0
  0
LINE
  5
4423
330
19
100
AcDbEntity
  8
0
100
AcDbLine
 10
277.4314169303412
 20
114.4434262345638
 30
0.0
 11
277.9314169303412
 21
113.9434262345638
 31
0.0
  0
LINE
  5
4424
330
19
100
AcDbEntity
  8
0
100
AcDbLine
 10
286.931416930341
 20
113.9434262345637
 30
0.0
 11
287.431416930341
 21
114.4434262345638
 31
0.0
  0
LINE
  5
4425
330
19
100
AcDbEntity
  8
0
100
AcDbLine
 10
318.1314169303409
 20
164.4434262345638
 30
0.0
 11
318.6314169303409
 21
163.9434262345638
 31
0.0
  0
LINE
  5
4426
330
19
100
AcDbEntity
  8
0
100
AcDbLine
 10
318.6314169303411
 20
125.9434262345638
 30
0.0
 11
318.1314169303411
 21
125.4434262345638
 31
0.0
  0
LINE
  5
4434
330
19
100
AcDbEntity
  8
0
100
AcDbLine
 10
318.6314169303411
 20
125.9434262345638
 30
0.0
 11
318.6314169303409
 21
163.9434262345638
 31
0.0
  0
LINE
  5
4442
330
19
100
AcDbEntity
  8
0
  6
Continuous
100
AcDbLine
 10
318.6314169303409
 20
154.7434262345637
 30
0.0
 11
373.0602951230653
 21
154.7434262345637
 31
0.0
  0
LINE
  5
4443
330
19
100
AcDbEntity
  8
9
  6
Continuous
100
AcDbLine
 10
318.6314169303409
 20
153.0934262345638
 30
0.0
 11
373.5602951230653
 21
153.0934262345638
 31
0.0
  0
LINE
  5
4444
330
19
100
AcDbEntity
  8
9
  6
Continuous
100
AcDbLine
 10
318.6314169303411
 20
136.7934262345638
 30
0.0
 11
373.5602951230653
 21
136.7934262345638
 31
0.0
  0
LINE
  5
4445
330
19
100
AcDbEntity
  8
0
  6
Continuous
100
AcDbLine
 10
318.631416930341
 20
135.1434262345637
 30
0.0
 11
373.0602951230653
 21
135.1434262345637
 31
0.0
  0
LINE
  5
4446
330
19
100
AcDbEntity
  8
0
  6
Continuous
100
AcDbLine
 10
214.0602951230653
 20
154.7434262345638
 30
0.0
 11
266.6314169303409
 21
154.7434262345638
 31
0.0
  0
LINE
  5
4447
330
19
100
AcDbEntity
  8
9
  6
Continuous
100
AcDbLine
 10
213.5602951230652
 20
153.0934262345638
 30
0.0
 11
266.6314169303409
 21
153.0934262345638
 31
0.0
  0
LINE
  5
4448
330
19
100
AcDbEntity
  8
9
  6
Continuous
100
AcDbLine
 10
213.5602951230653
 20
136.7934262345638
 30
0.0
 11
266.631416930341
 21
136.7934262345638
 31
0.0
  0
LINE
  5
4449
330
19
100
AcDbEntity
  8
0
  6
Continuous
100
AcDbLine
 10
214.0602951230653
 20
135.1434262345637
 30
0.0
 11
266.631416930341
 21
135.1434262345637
 31
0.0
  0
LINE
  5
444A
330
19
100
AcDbEntity
  8
0
100
AcDbLine
 10
213.5602951230652
 20
154.2434262345638
 30
0.0
 11
214.0602951230653
 21
154.7434262345638
 31
0.0
  0
LINE
  5
444B
330
19
100
AcDbEntity
  8
0
100
AcDbLine
 10
213.5602951230652
 20
135.6434262345638
 30
0.0
 11
214.0602951230653
 21
135.1434262345637
 31
0.0
  0
LINE
  5
444C
330
19
100
AcDbEntity
  8
0
100
AcDbLine
 10
373.0602951230653
 20
154.7434262345637
 30
0.0
 11
373.5602951230653
 21
154.2434262345637
 31
0.0
  0
LINE
  5
444D
330
19
100
AcDbEntity
  8
0
100
AcDbLine
 10
373.0602951230653
 20
135.1434262345637
 30
0.0
 11
373.5602951230653
 21
135.6434262345638
 31
0.0
  0
DIMENSION
  5
444E
330
19
100
AcDbEntity
  8
0
100
AcDbDimension
  2
*D29
 10
388.0367212818486
 20
154.7434262345637
 30
0.0
 11
383.8581498532772
 21
168.8862833774209
 31
0.0
 70
    32
  1
%%c19,6
 71
     5
 42
19.60000000000008
  3
STANDARD
100
AcDbAlignedDimension
 13
373.0602951230651
 23
135.1434262345637
 33
0.0
 14
373.0602951230653
 24
154.7434262345637
 34
0.0
 50
90.0
100
AcDbRotatedDimension
1001
ACAD
1000
DSTYLE
1002
{
1070
    40
1040
1.5
1070
    41
1040
2.5
1070
    42
1040
0.8
1070
    43
1040
0.8
1070
    44
1040
0.8
1070
    73
1070
     0
1070
    74
1070
     0
1070
    77
1070
     3
1070
    78
1070
     8
1070
   141
1040
-1.0
1070
   147
1040
1.0
1070
   172
1070
     1
1070
   176
1070
   115
1070
   177
1070
   115
1070
   178
1070
     7
1070
   271
1070
     3
1002
}
  0
DIMENSION
  5
445C
330
19
100
AcDbEntity
  8
0
100
AcDbDimension
  2
*D30
 10
332.1631258356654
 20
164.4434262345638
 30
0.0
 11
328.4131258356653
 21
144.9434262345638
 31
0.0
 70
    32
  1
%%c39h7
 71
     5
 42
39.00000000000007
  3
STANDARD
100
AcDbAlignedDimension
 13
318.131416930341
 23
125.4434262345637
 33
0.0
 14
318.1314169303409
 24
164.4434262345638
 34
0.0
 50
90.0
100
AcDbRotatedDimension
1001
ACAD
1000
DSTYLE
1002
{
1070
    40
1040
1.5
1070
    41
1040
2.5
1070
    42
1040
0.8
1070
    43
1040
0.8
1070
    44
1040
0.8
1070
    73
1070
     0
1070
    74
1070
     0
1070
    77
1070
     3
1070
    78
1070
     8
1070
   141
1040
-1.0
1070
   147
1040
1.0
1070
   172
1070
     1
1070
   176
1070
   115
1070
   177
1070
   115
1070
   178
1070
     7
1070
   271
1070
     3
1002
}
  0
DIMENSION
  5
4469
330
19
100
AcDbEntity
  8
0
100
AcDbDimension
  2
*D31
 10
259.1833041050778
 20
164.4434262345638
 30
0.0
 11
255.4333041050778
 21
144.9434262345638
 31
0.0
 70
    32
  1
%%c39
 71
     5
 42
39.00000000000007
  3
STANDARD
100
AcDbAlignedDimension
 13
267.1314169303411
 23
125.4434262345637
 33
0.0
 14
267.131416930341
 24
164.4434262345638
 34
0.0
 50
90.0
100
AcDbRotatedDimension
1001
ACAD
1000
DSTYLE
1002
{
1070
    40
1040
1.5
1070
    41
1040
2.5
1070
    42
1040
0.8
1070
    43
1040
0.8
1070
    44
1040
0.8
1070
    73
1070
     0
1070
    74
1070
     0
1070
    77
1070
     3
1070
    78
1070
     8
1070
   141
1040
-1.0
1070
   147
1040
1.0
1070
   172
1070
     1
1070
   176
1070
   115
1070
   177
1070
   115
1070
   178
1070
     7
1070
   271
1070
     3
1002
}
  0
DIMENSION
  5
4476
330
19
100
AcDbEntity
  8
0
100
AcDbDimension
  2
*D32
 10
250.9975853723224
 20
113.9434262345638
 30
0.0
 11
247.2475853723224
 21
144.9434262345638
 31
0.0
 70
    32
  1
%%c62
 71
     5
 42
62.0
  3
STANDARD
100
AcDbAlignedDimension
 13
277.9314169303408
 23
175.9434262345638
 33
0.0
 14
277.9314169303412
 24
113.9434262345638
 34
0.0
 50
90.0
100
AcDbRotatedDimension
1001
ACAD
1000
DSTYLE
1002
{
1070
    40
1040
1.5
1070
    41
1040
2.5
1070
    42
1040
0.8
1070
    43
1040
0.8
1070
    44
1040
0.8
1070
    73
1070
     0
1070
    74
1070
     0
1070
    77
1070
     3
1070
    78
1070
     8
1070
   141
1040
-1.0
1070
   147
1040
1.0
1070
   172
1070
     1
1070
   176
1070
   115
1070
   177
1070
   115
1070
   178
1070
     7
1070
   271
1070
     3
1002
}
  0
DIMENSION
  5
4483
330
19
100
AcDbEntity
  8
0
100
AcDbDimension
  2
*D33
 10
266.6314169303411
 20
101.7810958746439
 30
0.0
 11
254.8457026446268
 21
105.5310958746439
 31
0.0
 70
    32
 71
     5
 42
10.80000000000012
  3
STANDARD
100
AcDbAlignedDimension
 13
277.4314169303412
 23
114.4434262345638
 33
0.0
 14
266.6314169303411
 24
125.9434262345638
 34
0.0
100
AcDbRotatedDimension
1001
ACAD
1000
DSTYLE
1002
{
1070
    40
1040
1.5
1070
    41
1040
2.5
1070
    42
1040
0.8
1070
    43
1040
0.8
1070
    44
1040
0.8
1070
    73
1070
     0
1070
    74
1070
     0
1070
    77
1070
     3
1070
    78
1070
     8
1070
   141
1040
-1.0
1070
   147
1040
1.0
1070
   172
1070
     1
1070
   176
1070
   115
1070
   177
1070
   115
1070
   178
1070
     7
1070
   271
1070
     3
1002
}
  0
DIMENSION
  5
4491
330
19
100
AcDbEntity
  8
0
100
AcDbDimension
  2
*D34
 10
287.431416930341
 20
101.7810958746439
 30
0.0
 11
282.4314169303411
 21
105.5310958746439
 31
0.0
 70
    32
 71
     5
 42
9.999999999999827
  3
STANDARD
100
AcDbAlignedDimension
 13
277.4314169303412
 23
114.4434262345638
 33
0.0
 14
287.431416930341
 24
114.4434262345638
 34
0.0
100
AcDbRotatedDimension
1001
ACAD
1000
DSTYLE
1002
{
1070
    40
1040
1.5
1070
    41
1040
2.5
1070
    42
1040
0.8
1070
    43
1040
0.8
1070
    44
1040
0.8
1070
    73
1070
     0
1070
    74
1070
     0
1070
    77
1070
     3
1070
    78
1070
     8
1070
   141
1040
-1.0
1070
   147
1040
1.0
1070
   172
1070
     1
1070
   176
1070
   115
1070
   177
1070
   115
1070
   178
1070
     7
1070
   271
1070
     3
1002
}
  0
DIMENSION
  5
44A0
330
19
100
AcDbEntity
  8
0
100
AcDbDimension
  2
*D35
 10
318.6314169303411
 20
101.7810958746439
 30
0.0
 11
303.0314169303411
 21
105.5310958746439
 31
0.0
 70
    32
 71
     5
 42
31.20000000000004
  3
STANDARD
100
AcDbAlignedDimension
 13
287.431416930341
 23
114.4434262345638
 33
0.0
 14
318.6314169303411
 24
125.9434262345638
 34
0.0
100
AcDbRotatedDimension
1001
ACAD
1000
DSTYLE
1002
{
1070
    40
1040
1.5
1070
    41
1040
2.5
1070
    42
1040
0.8
1070
    43
1040
0.8
1070
    44
1040
0.8
1070
    73
1070
     0
1070
    74
1070
     0
1070
    77
1070
     3
1070
    78
1070
     8
1070
   141
1040
-1.0
1070
   147
1040
1.0
1070
   172
1070
     1
1070
   176
1070
   115
1070
   177
1070
   115
1070
   178
1070
     7
1070
   271
1070
     3
1002
}
  0
DIMENSION
  5
44AD
330
19
100
AcDbEntity
  8
0
100
AcDbDimension
  2
*D36
 10
318.6314169303411
 20
90.89697724444357
 30
0.0
 11
292.631416930341
 21
94.64697724444357
 31
0.0
 70
    32
 71
     5
 42
52.0
  3
STANDARD
100
AcDbAlignedDimension
 13
266.6314169303411
 23
100.5810958746438
 33
0.0
 14
318.6314169303411
 24
100.5810958746438
 34
0.0
100
AcDbRotatedDimension
1001
ACAD
1000
DSTYLE
1002
{
1070
    40
1040
1.5
1070
    41
1040
2.5
1070
    42
1040
0.8
1070
    43
1040
0.8
1070
    44
1040
0.8
1070
    73
1070
     0
1070
    74
1070
     0
1070
    77
1070
     3
1070
    78
1070
     8
1070
   141
1040
-1.0
1070
   147
1040
1.0
1070
   172
1070
     1
1070
   176
1070
   115
1070
   177
1070
   115
1070
   178
1070
     7
1070
   271
1070
     3
1002
}
  0
CIRCLE
  5
44DA
330
19
100
AcDbEntity
  8
0
100
AcDbCircle
 10
130.1909166718384
 20
144.9434192345638
 30
0.0
 40
9.8
  0
ARC
  5
44DB
330
19
100
AcDbEntity
  8
9
100
AcDbCircle
 10
130.190891839677
 20
144.9434252345638
 30
0.0
 40
8.15
100
AcDbArc
 50
180.0
 51
89.99982542600712
  0
CIRCLE
  5
44DC
330
19
100
AcDbEntity
  8
0
100
AcDbCircle
 10
130.1909166718384
 20
144.9434192345638
 30
0.0
 40
13.0
  0
CIRCLE
  5
44DD
330
19
100
AcDbEntity
  8
0
100
AcDbCircle
 10
130.1909166718384
 20
144.9434192345638
 30
0.0
 40
19.5
  0
CIRCLE
  5
44DE
330
19
100
AcDbEntity
  8
0
100
AcDbCircle
 10
130.1909166718384
 20
144.9434192345638
 30
0.0
 40
19.0
  0
CIRCLE
  5
44DF
330
19
100
AcDbEntity
  8
1
100
AcDbCircle
 10
130.1909166718384
 20
144.9434192345638
 30
0.0
 40
25.0
  0
ARC
  5
44E0
330
19
100
AcDbEntity
  8
0
100
AcDbCircle
 10
130.1909166718384
 20
144.9434192345638
 30
0.0
 40
31.0
100
AcDbArc
 50
42.10344969773887
 51
137.8965511292541
  0
ARC
  5
44E1
330
19
100
AcDbEntity
  8
0
100
AcDbCircle
 10
130.1909166718384
 20
144.9434192345638
 30
0.0
 40
30.5
100
AcDbArc
 50
41.05335209439036
 51
138.9466487637062
  0
ARC
  5
44E2
330
19
100
AcDbEntity
  8
0
100
AcDbCircle
 10
130.1909166718384
 20
144.9434192345638
 30
0.0
 40
31.0
100
AcDbArc
 50
222.1034488707458
 51
317.896550302261
  0
ARC
  5
44E3
330
19
100
AcDbEntity
  8
0
100
AcDbCircle
 10
130.1909166718384
 20
144.9434192345638
 30
0.0
 40
30.5
100
AcDbArc
 50
221.0533512362936
 51
318.9466479056095
  0
LINE
  5
44E4
330
19
100
AcDbEntity
  8
0
100
AcDbLine
 10
107.1909166718384
 20
165.7280289253903
 30
0.0
 11
107.1909166718384
 21
124.1588095437373
 31
0.0
  0
LINE
  5
44E5
330
19
100
AcDbEntity
  8
0
100
AcDbLine
 10
153.1909163718385
 20
165.7280292573666
 30
0.0
 11
153.1909163718385
 21
124.1588092117609
 31
0.0
  0
CIRCLE
  5
44E8
330
19
100
AcDbEntity
  8
0
100
AcDbCircle
 10
117.6909197337007
 20
166.5940560969415
 30
0.0
 40
2.75
  0
CIRCLE
  5
44E9
330
19
100
AcDbEntity
  8
0
100
AcDbCircle
 10
142.6909140957151
 20
166.5940558165
 30
0.0
 40
2.75
  0
CIRCLE
  5
44EA
330
19
100
AcDbEntity
  8
0
100
AcDbCircle
 10
142.6909201484963
 20
123.2927861472026
 30
0.0
 40
2.75
  0
CIRCLE
  5
44EB
330
19
100
AcDbEntity
  8
0
100
AcDbCircle
 10
117.6909136809193
 20
123.292785866761
 30
0.0
 40
2.75
  0
DIMENSION
  5
44F0
330
19
100
AcDbEntity
  8
0
100
AcDbDimension
  2
*D37
 10
119.7648643069065
 20
126.8849731699622
 30
0.0
 11
130.1909169681879
 21
107.8381169255198
 31
0.0
 70
    34
 71
     5
 42
1.047197677942149
  3
STANDARD
100
AcDb2LineAngularDimension
 13
144.7648707505206
 23
119.7005988301665
 33
0.0
 14
140.616969546472
 24
126.8849734642387
 34
0.0
 15
115.6169630549322
 25
119.7005985635599
 35
0.0
 16
123.0964665672307
 26
104.7088010078063
 36
0.0
1001
ACAD
1000
DSTYLE
1002
{
1070
    40
1040
1.5
1070
    41
1040
2.5
1070
    42
1040
0.8
1070
    43
1040
0.8
1070
    44
1040
0.8
1070
    73
1070
     0
1070
    74
1070
     0
1070
    77
1070
     3
1070
    78
1070
     8
1070
   141
1040
-1.0
1070
   147
1040
1.0
1070
   172
1070
     1
1070
   176
1070
   115
1070
   177
1070
   115
1070
   178
1070
     7
1070
   271
1070
     3
1002
}
  0
DIMENSION
  5
44FF
330
19
100
AcDbEntity
  8
0
100
AcDbDimension
  2
*D38
 10
153.1909163718385
 20
95.12809828628915
 30
0.0
 11
130.1909165218384
 21
98.87809828628917
 31
0.0
 70
    32
 71
     5
 42
45.99999970000006
  3
STANDARD
100
AcDbAlignedDimension
 13
107.1909166718384
 23
124.1588095437373
 33
0.0
 14
153.1909163718385
 24
124.1588092117609
 34
0.0
100
AcDbRotatedDimension
1001
ACAD
1000
DSTYLE
1002
{
1070
    40
1040
1.5
1070
    41
1040
2.5
1070
    42
1040
0.8
1070
    43
1040
0.8
1070
    44
1040
0.8
1070
    73
1070
     0
1070
    74
1070
     0
1070
    77
1070
     3
1070
    78
1070
     8
1070
   141
1040
-1.0
1070
   147
1040
1.0
1070
   172
1070
     1
1070
   176
1070
   115
1070
   177
1070
   115
1070
   178
1070
     7
1070
   271
1070
     3
1002
}
  0
DIMENSION
  5
450C
330
19
100
AcDbEntity
  8
0
100
AcDbDimension
  2
*D39
 10
106.4686953268507
 20
152.8336799691284
 30
0.0
 11
176.3814705192929
 21
129.5799544042615
 31
0.0
 70
    35
  1
P,C,D 50
 71
     5
 42
50.00000000000003
  3
STANDARD
100
AcDbDiametricDimension
 15
153.9131380168261
 25
137.0531584999992
 35
0.0
 40
0.0
1001
ACAD
1000
DSTYLE
1002
{
1070
    40
1040
1.5
1070
    41
1040
2.5
1070
    42
1040
0.8
1070
    43
1040
0.8
1070
    44
1040
0.8
1070
    73
1070
     0
1070
    74
1070
     0
1070
    77
1070
     3
1070
    78
1070
     8
1070
   141
1040
-1.0
1070
   147
1040
1.0
1070
   172
1070
     1
1070
   176
1070
   115
1070
   177
1070
   115
1070
   178
1070
     7
1070
   271
1070
     3
1070
   288
1070
     1
1002
}
  0
ENDSEC
  0
SECTION
  2
OBJECTS
  0
DICTIONARY
  5
C
330
0
100
AcDbDictionary
281
     1
  3
ACAD_COLOR
350
451C
  3
ACAD_GROUP
350
D
  3
ACAD_LAYOUT
350
4155
  3
ACAD_MATERIAL
350
451B
  3
ACAD_MLEADERSTYLE
350
458B
  3
ACAD_MLINESTYLE
350
E
  3
ACAD_PLOTSETTINGS
350
4156
  3
ACAD_PLOTSTYLENAME
350
4153
  3
ACAD_SCALELIST
350
4569
  3
ACAD_TABLESTYLE
350
451D
  3
ACAD_VISUALSTYLE
350
4558
  3
ACDB_RECOMPOSE_DATA
350
45A9
  3
ACDBVARIABLEDICTIONARY
350
1BF
  3
DWGPROPS
350
45AA
  0
DICTIONARY
  5
459A
330
F
100
AcDbDictionary
280
     1
281
     1
  3
ADSK_XREC_LAYER_RECONCILED
360
459B
  0
DICTIONARY
  5
459C
330
55
100
AcDbDictionary
280
     1
281
     1
  3
ADSK_XREC_LAYER_RECONCILED
360
459D
  0
DICTIONARY
  5
459E
330
61
100
AcDbDictionary
280
     1
281
     1
  3
ADSK_XREC_LAYER_RECONCILED
360
459F
  0
DICTIONARY
  5
45A0
330
62
100
AcDbDictionary
280
     1
281
     1
  3
ADSK_XREC_LAYER_RECONCILED
360
45A1
  0
DICTIONARY
  5
45A2
330
2AD3
100
AcDbDictionary
280
     1
281
     1
  3
ADSK_XREC_LAYER_RECONCILED
360
45A3
  0
DICTIONARY
  5
45B1
330
44F7
100
AcDbDictionary
280
     1
281
     1
  3
ACAD_MTEXT_RT
360
45B2
  0
DICTIONARY
  5
451C
102
{ACAD_REACTORS
330
C
102
}
330
C
100
AcDbDictionary
281
     1
  0
DICTIONARY
  5
D
102
{ACAD_REACTORS
330
C
102
}
330
C
100
AcDbDictionary
281
     1
  3
*A1
350
3315
  3
*A2
350
3935
  0
DICTIONARY
  5
4155
102
{ACAD_REACTORS
330
C
102
}
330
C
100
AcDbDictionary
281
     1
  3
Model
350
4157
  3
배치1
350
4158
  0
DICTIONARY
  5
451B
102
{ACAD_REACTORS
330
C
102
}
330
C
100
AcDbDictionary
281
     1
  3
ByBlock
350
4548
  3
ByLayer
350
4540
  3
Global
350
4550
  0
DICTIONARY
  5
458B
102
{ACAD_REACTORS
330
C
102
}
330
C
100
AcDbDictionary
281
     1
  3
Standard
350
458C
  0
DICTIONARY
  5
E
102
{ACAD_REACTORS
330
C
102
}
330
C
100
AcDbDictionary
281
     1
  3
STANDARD
350
1C
  0
DICTIONARY
  5
4156
102
{ACAD_REACTORS
330
C
102
}
330
C
100
AcDbDictionary
281
     1
  0
ACDBDICTIONARYWDFLT
  5
4153
102
{ACAD_REACTORS
330
C
102
}
330
C
100
AcDbDictionary
281
     1
  3
Normal
350
4154
100
AcDbDictionaryWithDefault
340
4154
  0
DICTIONARY
  5
4569
102
{ACAD_REACTORS
330
C
102
}
330
C
100
AcDbDictionary
281
     1
  3
A0
350
456A
  3
A1
350
456B
  3
A2
350
456C
  3
A3
350
456D
  3
A4
350
456E
  3
A5
350
456F
  3
A6
350
4570
  3
A7
350
4571
  3
A8
350
4572
  3
A9
350
4573
  3
B0
350
4574
  3
B1
350
4575
  3
B2
350
4576
  3
B3
350
4577
  3
B4
350
4578
  3
B5
350
4579
  3
B6
350
457A
  3
B7
350
457B
  3
B8
350
457C
  3
B9
350
457D
  3
C0
350
457E
  3
C1
350
457F
  3
C2
350
4580
  3
C3
350
4581
  3
C4
350
4582
  3
C5
350
4583
  3
C6
350
4584
  3
C7
350
4585
  3
C8
350
4586
  3
C9
350
4587
  3
D0
350
4588
  3
D1
350
4589
  3
D2
350
458A
  0
DICTIONARY
  5
451D
102
{ACAD_REACTORS
330
C
102
}
330
C
100
AcDbDictionary
281
     1
  3
Standard
350
451E
  0
DICTIONARY
  5
4558
102
{ACAD_REACTORS
330
C
102
}
330
C
100
AcDbDictionary
281
     1
  3
2dWireframe
350
455E
  3
3D Hidden
350
4560
  3
3dWireframe
350
455F
  3
Basic
350
455D
  3
Brighten
350
4564
  3
ColorChange
350
4568
  3
Conceptual
350
4561
  3
Dim
350
4563
  3
Facepattern
350
4567
  3
Flat
350
4559
  3
FlatWithEdges
350
455A
  3
Gouraud
350
455B
  3
GouraudWithEdges
350
455C
  3
Linepattern
350
4566
  3
Realistic
350
4562
  3
Thicken
350
4565
  0
XRECORD
  5
45A9
102
{ACAD_REACTORS
330
C
102
}
330
C
100
AcDbXrecord
280
     1
 90
        1
330
451E
  0
DICTIONARY
  5
1BF
102
{ACAD_REACTORS
330
C
102
}
330
C
100
AcDbDictionary
281
     1
  3
CANNOSCALE
350
45A5
  3
CMLEADERSTYLE
350
45A4
  3
CTABLESTYLE
350
4532
  3
DIMASSOC
350
4169
  3
INDEXCTL
350
45A6
  3
PROJECTNAME
350
4533
  3
SORTENTS
350
1C0
  0
XRECORD
  5
45AA
102
{ACAD_REACTORS
330
C
102
}
330
C
100
AcDbXrecord
280
     1
  1
DWGPROPS COOKIE
  2

  3

  4

  6

  7

  8
양순영
  9

300
=
301
=
302
=
303
=
304
=
305
=
306
=
307
=
308
=
309
=
 40
0.4750451388888889
 41
2452464.575009942
 42
2455642.710458831
  1

 90
        0
  0
XRECORD
  5
459B
102
{ACAD_REACTORS
330
459A
102
}
330
459A
100
AcDbXrecord
280
     1
290
     1
  0
XRECORD
  5
459D
102
{ACAD_REACTORS
330
459C
102
}
330
459C
100
AcDbXrecord
280
     1
290
     1
  0
XRECORD
  5
459F
102
{ACAD_REACTORS
330
459E
102
}
330
459E
100
AcDbXrecord
280
     1
290
     1
  0
XRECORD
  5
45A1
102
{ACAD_REACTORS
330
45A0
102
}
330
45A0
100
AcDbXrecord
280
     1
290
     1
  0
XRECORD
  5
45A3
102
{ACAD_REACTORS
330
45A2
102
}
330
45A2
100
AcDbXrecord
280
     1
290
     1
  0
XRECORD
  5
45B2
102
{ACAD_REACTORS
330
45B1
102
}
330
45B1
100
AcDbXrecord
280
     1
 40
5298.0
  1
\A1;60°
  0
GROUP
  5
3315
102
{ACAD_REACTORS
330
D
102
}
330
D
100
AcDbGroup
300
Ball Screw  BNFN2010-1.5+300L
 70
     1
 71
     1
  0
GROUP
  5
3935
102
{ACAD_REACTORS
330
D
102
}
330
D
100
AcDbGroup
300
Ball Screw  BNFN2010-1.5+300L
 70
     1
 71
     1
  0
LAYOUT
  5
4157
102
{ACAD_XDICTIONARY
360
45AD
102
}
102
{ACAD_REACTORS
330
4155
102
}
330
4155
100
AcDbPlotSettings
  1

  2
SBC-SERVER에서 자동 HP LaserJet 4V
  4
A4
  6

 40
6.805083274841307
 41
5.069413185119628
 42
6.805084228515625
 43
5.027069091796875
 44
209.9733276367186
 45
296.9683227539062
 46
0.0
 47
0.0
 48
0.0
 49
0.0
140
0.0
141
0.0
142
1.0
143
1.0
 70
 11952
 72
     0
 73
     1
 74
     0
  7
1.ctb
 75
     0
147
1.0
148
-1105.008668280591
149
-2180.822690011071
100
AcDbLayout
  1
Model
 70
     1
 71
     0
 10
0.0
 20
0.0
 11
12.0
 21
9.0
 12
0.0
 22
0.0
 32
0.0
 14
0.0
 24
0.0
 34
0.0
 15
0.0
 25
0.0
 35
0.0
146
0.0
 13
0.0
 23
0.0
 33
0.0
 16
1.0
 26
0.0
 36
0.0
 17
0.0
 27
1.0
 37
0.0
 76
     0
330
19
331
4534
  0
LAYOUT
  5
4158
102
{ACAD_XDICTIONARY
360
45AF
102
}
102
{ACAD_REACTORS
330
4155
102
}
330
4155
100
AcDbPlotSettings
  1

  2
SBC-SERVER에서 자동 HP LaserJet 4V
  4

  6

 40
0.0
 41
0.0
 42
0.0
 43
0.0
 44
0.0
 45
0.0
 46
0.0
 47
0.0
 48
0.0
 49
0.0
140
0.0
141
0.0
142
1.0
143
1.0
 70
   688
 72
     0
 73
     0
 74
     5
  7
1.ctb
 75
    16
147
1.0
148
0.0
149
0.0
100
AcDbLayout
  1
배치1
 70
     1
 71
     1
 10
0.0
 20
0.0
 11
12.0
 21
9.0
 12
0.0
 22
0.0
 32
0.0
 14
1.000000000000000E+20
 24
1.000000000000000E+20
 34
1.000000000000000E+20
 15
-1.000000000000000E+20
 25
-1.000000000000000E+20
 35
-1.000000000000000E+20
146
0.0
 13
0.0
 23
0.0
 33
0.0
 16
1.0
 26
0.0
 36
0.0
 17
0.0
 27
1.0
 37
0.0
 76
     0
330
16
  0
MATERIAL
  5
4548
102
{ACAD_XDICTIONARY
360
4549
102
}
102
{ACAD_REACTORS
330
451B
102
}
330
451B
100
AcDbMaterial
  1
ByBlock
 72
     0
 43
0.0208333333333333
 43
0.0
 43
0.0
 43
0.0
 43
0.0
 43
0.0208333333333333
 43
0.0
 43
0.0
 43
0.0
 43
0.0
 43
1.0
 43
0.0
 43
0.0
 43
0.0
 43
0.0
 43
1.0
 77
     0
 47
0.0208333333333333
 47
0.0
 47
0.0
 47
0.0
 47
0.0
 47
0.0208333333333333
 47
0.0
 47
0.0
 47
0.0
 47
0.0
 47
1.0
 47
0.0
 47
0.0
 47
0.0
 47
0.0
 47
1.0
171
     0
 49
0.0208333333333333
 49
0.0
 49
0.0
 49
0.0
 49
0.0
 49
0.0208333333333333
 49
0.0
 49
0.0
 49
0.0
 49
0.0
 49
1.0
 49
0.0
 49
0.0
 49
0.0
 49
0.0
 49
1.0
175
     0
142
0.0208333333333333
142
0.0
142
0.0
142
0.0
142
0.0
142
0.0208333333333333
142
0.0
142
0.0
142
0.0
142
0.0
142
1.0
142
0.0
142
0.0
142
0.0
142
0.0
142
1.0
179
     0
144
0.0208333333333333
144
0.0
144
0.0
144
0.0
144
0.0
144
0.0208333333333333
144
0.0
144
0.0
144
0.0
144
0.0
144
1.0
144
0.0
144
0.0
144
0.0
144
0.0
144
1.0
147
0.0208333333333333
147
0.0
147
0.0
147
0.0
147
0.0
147
0.0208333333333333
147
0.0
147
0.0
147
0.0
147
0.0
147
1.0
147
0.0
147
0.0
147
0.0
147
0.0
147
1.0
  0
MATERIAL
  5
4540
102
{ACAD_XDICTIONARY
360
4541
102
}
102
{ACAD_REACTORS
330
451B
102
}
330
451B
100
AcDbMaterial
  1
ByLayer
 72
     0
 43
0.0208333333333333
 43
0.0
 43
0.0
 43
0.0
 43
0.0
 43
0.0208333333333333
 43
0.0
 43
0.0
 43
0.0
 43
0.0
 43
1.0
 43
0.0
 43
0.0
 43
0.0
 43
0.0
 43
1.0
 77
     0
 47
0.0208333333333333
 47
0.0
 47
0.0
 47
0.0
 47
0.0
 47
0.0208333333333333
 47
0.0
 47
0.0
 47
0.0
 47
0.0
 47
1.0
 47
0.0
 47
0.0
 47
0.0
 47
0.0
 47
1.0
171
     0
 49
0.0208333333333333
 49
0.0
 49
0.0
 49
0.0
 49
0.0
 49
0.0208333333333333
 49
0.0
 49
0.0
 49
0.0
 49
0.0
 49
1.0
 49
0.0
 49
0.0
 49
0.0
 49
0.0
 49
1.0
175
     0
142
0.0208333333333333
142
0.0
142
0.0
142
0.0
142
0.0
142
0.0208333333333333
142
0.0
142
0.0
142
0.0
142
0.0
142
1.0
142
0.0
142
0.0
142
0.0
142
0.0
142
1.0
179
     0
144
0.0208333333333333
144
0.0
144
0.0
144
0.0
144
0.0
144
0.0208333333333333
144
0.0
144
0.0
144
0.0
144
0.0
144
1.0
144
0.0
144
0.0
144
0.0
144
0.0
144
1.0
147
0.0208333333333333
147
0.0
147
0.0
147
0.0
147
0.0
147
0.0208333333333333
147
0.0
147
0.0
147
0.0
147
0.0
147
1.0
147
0.0
147
0.0
147
0.0
147
0.0
147
1.0
  0
MATERIAL
  5
4550
102
{ACAD_XDICTIONARY
360
4551
102
}
102
{ACAD_REACTORS
330
451B
102
}
330
451B
100
AcDbMaterial
  1
Global
 72
     0
 43
0.0208333333333333
 43
0.0
 43
0.0
 43
0.0
 43
0.0
 43
0.0208333333333333
 43
0.0
 43
0.0
 43
0.0
 43
0.0
 43
1.0
 43
0.0
 43
0.0
 43
0.0
 43
0.0
 43
1.0
 77
     0
 47
0.0208333333333333
 47
0.0
 47
0.0
 47
0.0
 47
0.0
 47
0.0208333333333333
 47
0.0
 47
0.0
 47
0.0
 47
0.0
 47
1.0
 47
0.0
 47
0.0
 47
0.0
 47
0.0
 47
1.0
171
     0
 49
0.0208333333333333
 49
0.0
 49
0.0
 49
0.0
 49
0.0
 49
0.0208333333333333
 49
0.0
 49
0.0
 49
0.0
 49
0.0
 49
1.0
 49
0.0
 49
0.0
 49
0.0
 49
0.0
 49
1.0
175
     0
142
0.0208333333333333
142
0.0
142
0.0
142
0.0
142
0.0
142
0.0208333333333333
142
0.0
142
0.0
142
0.0
142
0.0
142
1.0
142
0.0
142
0.0
142
0.0
142
0.0
142
1.0
179
     0
144
0.0208333333333333
144
0.0
144
0.0
144
0.0
144
0.0
144
0.0208333333333333
144
0.0
144
0.0
144
0.0
144
0.0
144
1.0
144
0.0
144
0.0
144
0.0
144
0.0
144
1.0
147
0.0208333333333333
147
0.0
147
0.0
147
0.0
147
0.0
147
0.0208333333333333
147
0.0
147
0.0
147
0.0
147
0.0
147
1.0
147
0.0
147
0.0
147
0.0
147
0.0
147
1.0
  0
MLEADERSTYLE
  5
458C
102
{ACAD_REACTORS
330
458B
102
}
330
458B
100
AcDbMLeaderStyle
170
     2
171
     1
172
     0
 90
        2
 40
0.0
 41
0.0
173
     1
 91
-1056964608
340
13
 92
       -2
290
     1
 42
0.09
291
     1
 43
0.36
  3
Standard
 44
0.18
300

342
10
174
     1
178
     6
175
     1
176
     0
 93
-1056964608
 45
0.18
292
     0
297
     0
 46
0.18
 94
-1056964608
 47
1.0
 49
1.0
140
1.0
293
     1
141
0.0
294
     1
177
     0
142
1.0
295
     0
296
     0
143
0.125
1001
ACAD_MLEADERVER
1070
     2
  0
MLINESTYLE
  5
1C
102
{ACAD_REACTORS
330
E
102
}
330
E
100
AcDbMlineStyle
  2
STANDARD
 70
     0
  3

 62
     0
 51
90.0
 52
90.0
 71
     2
 49
0.5
 62
   256
  6
BYLAYER
 49
-0.5
 62
   256
  6
BYLAYER
  0
ACDBPLACEHOLDER
  5
4154
102
{ACAD_REACTORS
330
4153
102
}
330
4153
  0
SCALE
  5
456A
102
{ACAD_REACTORS
330
4569
102
}
330
4569
100
AcDbScale
 70
     0
300
1:1
140
1.0
141
1.0
290
     1
  0
SCALE
  5
456B
102
{ACAD_REACTORS
330
4569
102
}
330
4569
100
AcDbScale
 70
     0
300
1:2
140
1.0
141
2.0
290
     0
  0
SCALE
  5
456C
102
{ACAD_REACTORS
330
4569
102
}
330
4569
100
AcDbScale
 70
     0
300
1:4
140
1.0
141
4.0
290
     0
  0
SCALE
  5
456D
102
{ACAD_REACTORS
330
4569
102
}
330
4569
100
AcDbScale
 70
     0
300
1:5
140
1.0
141
5.0
290
     0
  0
SCALE
  5
456E
102
{ACAD_REACTORS
330
4569
102
}
330
4569
100
AcDbScale
 70
     0
300
1:8
140
1.0
141
8.0
290
     0
  0
SCALE
  5
456F
102
{ACAD_REACTORS
330
4569
102
}
330
4569
100
AcDbScale
 70
     0
300
1:10
140
1.0
141
10.0
290
     0
  0
SCALE
  5
4570
102
{ACAD_REACTORS
330
4569
102
}
330
4569
100
AcDbScale
 70
     0
300
1:16
140
1.0
141
16.0
290
     0
  0
SCALE
  5
4571
102
{ACAD_REACTORS
330
4569
102
}
330
4569
100
AcDbScale
 70
     0
300
1:20
140
1.0
141
20.0
290
     0
  0
SCALE
  5
4572
102
{ACAD_REACTORS
330
4569
102
}
330
4569
100
AcDbScale
 70
     0
300
1:30
140
1.0
141
30.0
290
     0
  0
SCALE
  5
4573
102
{ACAD_REACTORS
330
4569
102
}
330
4569
100
AcDbScale
 70
     0
300
1:40
140
1.0
141
40.0
290
     0
  0
SCALE
  5
4574
102
{ACAD_REACTORS
330
4569
102
}
330
4569
100
AcDbScale
 70
     0
300
1:50
140
1.0
141
50.0
290
     0
  0
SCALE
  5
4575
102
{ACAD_REACTORS
330
4569
102
}
330
4569
100
AcDbScale
 70
     0
300
1:100
140
1.0
141
100.0
290
     0
  0
SCALE
  5
4576
102
{ACAD_REACTORS
330
4569
102
}
330
4569
100
AcDbScale
 70
     0
300
2:1
140
2.0
141
1.0
290
     0
  0
SCALE
  5
4577
102
{ACAD_REACTORS
330
4569
102
}
330
4569
100
AcDbScale
 70
     0
300
4:1
140
4.0
141
1.0
290
     0
  0
SCALE
  5
4578
102
{ACAD_REACTORS
330
4569
102
}
330
4569
100
AcDbScale
 70
     0
300
8:1
140
8.0
141
1.0
290
     0
  0
SCALE
  5
4579
102
{ACAD_REACTORS
330
4569
102
}
330
4569
100
AcDbScale
 70
     0
300
10:1
140
10.0
141
1.0
290
     0
  0
SCALE
  5
457A
102
{ACAD_REACTORS
330
4569
102
}
330
4569
100
AcDbScale
 70
     0
300
100:1
140
100.0
141
1.0
290
     0
  0
SCALE
  5
457B
102
{ACAD_REACTORS
330
4569
102
}
330
4569
100
AcDbScale
 70
     0
300
1/128" = 1'-0"
140
0.0078125
141
12.0
290
     0
  0
SCALE
  5
457C
102
{ACAD_REACTORS
330
4569
102
}
330
4569
100
AcDbScale
 70
     0
300
1/64" = 1'-0"
140
0.015625
141
12.0
290
     0
  0
SCALE
  5
457D
102
{ACAD_REACTORS
330
4569
102
}
330
4569
100
AcDbScale
 70
     0
300
1/32" = 1'-0"
140
0.03125
141
12.0
290
     0
  0
SCALE
  5
457E
102
{ACAD_REACTORS
330
4569
102
}
330
4569
100
AcDbScale
 70
     0
300
1/16" = 1'-0"
140
0.0625
141
12.0
290
     0
  0
SCALE
  5
457F
102
{ACAD_REACTORS
330
4569
102
}
330
4569
100
AcDbScale
 70
     0
300
3/32" = 1'-0"
140
0.09375
141
12.0
290
     0
  0
SCALE
  5
4580
102
{ACAD_REACTORS
330
4569
102
}
330
4569
100
AcDbScale
 70
     0
300
1/8" = 1'-0"
140
0.125
141
12.0
290
     0
  0
SCALE
  5
4581
102
{ACAD_REACTORS
330
4569
102
}
330
4569
100
AcDbScale
 70
     0
300
3/16" = 1'-0"
140
0.1875
141
12.0
290
     0
  0
SCALE
  5
4582
102
{ACAD_REACTORS
330
4569
102
}
330
4569
100
AcDbScale
 70
     0
300
1/4" = 1'-0"
140
0.25
141
12.0
290
     0
  0
SCALE
  5
4583
102
{ACAD_REACTORS
330
4569
102
}
330
4569
100
AcDbScale
 70
     0
300
3/8" = 1'-0"
140
0.375
141
12.0
290
     0
  0
SCALE
  5
4584
102
{ACAD_REACTORS
330
4569
102
}
330
4569
100
AcDbScale
 70
     0
300
1/2" = 1'-0"
140
0.5
141
12.0
290
     0
  0
SCALE
  5
4585
102
{ACAD_REACTORS
330
4569
102
}
330
4569
100
AcDbScale
 70
     0
300
3/4" = 1'-0"
140
0.75
141
12.0
290
     0
  0
SCALE
  5
4586
102
{ACAD_REACTORS
330
4569
102
}
330
4569
100
AcDbScale
 70
     0
300
1" = 1'-0"
140
1.0
141
12.0
290
     0
  0
SCALE
  5
4587
102
{ACAD_REACTORS
330
4569
102
}
330
4569
100
AcDbScale
 70
     0
300
1-1/2" = 1'-0"
140
1.5
141
12.0
290
     0
  0
SCALE
  5
4588
102
{ACAD_REACTORS
330
4569
102
}
330
4569
100
AcDbScale
 70
     0
300
3" = 1'-0"
140
3.0
141
12.0
290
     0
  0
SCALE
  5
4589
102
{ACAD_REACTORS
330
4569
102
}
330
4569
100
AcDbScale
 70
     0
300
6" = 1'-0"
140
6.0
141
12.0
290
     0
  0
SCALE
  5
458A
102
{ACAD_REACTORS
330
4569
102
}
330
4569
100
AcDbScale
 70
     0
300
1'-0" = 1'-0"
140
12.0
141
12.0
290
     0
  0
TABLESTYLE
  5
451E
102
{ACAD_XDICTIONARY
360
45A7
102
}
102
{ACAD_REACTORS
330
451D
102
}
330
451D
100
AcDbTableStyle
  3
Standard
 70
     0
 71
     0
 40
0.06
 41
0.06
280
     0
281
     0
  7
STANDARD
140
0.18
170
     2
 62
     0
 63
     7
283
     0
274
    -2
284
     1
 64
     0
275
    -2
285
     1
 65
     0
276
    -2
286
     1
 66
     0
277
    -2
287
     1
 67
     0
278
    -2
288
     1
 68
     0
279
    -2
289
     1
 69
     0
  7
STANDARD
140
0.25
170
     5
 62
     0
 63
     7
283
     0
274
    -2
284
     1
 64
     0
275
    -2
285
     1
 65
     0
276
    -2
286
     1
 66
     0
277
    -2
287
     1
 67
     0
278
    -2
288
     1
 68
     0
279
    -2
289
     1
 69
     0
  7
STANDARD
140
0.18
170
     5
 62
     0
 63
     7
283
     0
274
    -2
284
     1
 64
     0
275
    -2
285
     1
 65
     0
276
    -2
286
     1
 66
     0
277
    -2
287
     1
 67
     0
278
    -2
288
     1
 68
     0
279
    -2
289
     1
 69
     0
  0
VISUALSTYLE
  5
455E
102
{ACAD_REACTORS
330
4558
102
}
330
4558
100
AcDbVisualStyle
  2
2dWireframe
 70
     4
 71
     0
 72
     2
 73
     0
 90
        0
 40
-0.6
 41
-30.0
 62
     5
 63
     7
 74
     1
 91
        4
 64
     7
 65
   257
 75
     1
175
     1
 42
1.0
 92
        0
 66
   257
 43
1.0
 76
     1
 77
     6
 78
     2
 67
     7
 79
     5
170
     0
171
     0
290
     0
174
     0
 93
        1
 44
0.0
173
     0
291
     0
 45
0.0
1001
ACAD
1000
AcDbSavedByObjectVersion
1070
     0
  0
VISUALSTYLE
  5
4560
102
{ACAD_REACTORS
330
4558
102
}
330
4558
100
AcDbVisualStyle
  2
3D Hidden
 70
     6
 71
     1
 72
     2
 73
     2
 90
        0
 40
-0.6
 41
-30.0
 62
     5
 63
     7
 74
     2
 91
        2
 64
     7
 65
   257
 75
     2
175
     1
 42
40.0
 92
        0
 66
   257
 43
1.0
 76
     1
 77
     6
 78
     2
 67
     7
 79
     3
170
     0
171
     0
290
     0
174
     0
 93
        1
 44
0.0
173
     0
291
     0
 45
0.0
1001
ACAD
1000
AcDbSavedByObjectVersion
1070
     0
  0
VISUALSTYLE
  5
455F
102
{ACAD_REACTORS
330
4558
102
}
330
4558
100
AcDbVisualStyle
  2
3dWireframe
 70
     5
 71
     0
 72
     2
 73
     0
 90
        0
 40
-0.6
 41
-30.0
 62
     5
 63
     7
 74
     1
 91
        4
 64
     7
 65
   257
 75
     1
175
     1
 42
1.0
 92
        0
 66
   257
 43
1.0
 76
     1
 77
     6
 78
     2
 67
     7
 79
     5
170
     0
171
     0
290
     0
174
     0
 93
        1
 44
0.0
173
     0
291
     0
 45
0.0
1001
ACAD
1000
AcDbSavedByObjectVersion
1070
     0
  0
VISUALSTYLE
  5
455D
102
{ACAD_REACTORS
330
4558
102
}
330
4558
100
AcDbVisualStyle
  2
Basic
 70
     7
 71
     1
 72
     0
 73
     1
 90
        0
 40
-0.6
 41
-30.0
 62
     5
 63
     7
 74
     0
 91
        4
 64
     7
 65
   257
 75
     1
175
     1
 42
1.0
 92
        8
 66
     7
 43
1.0
 76
     1
 77
     6
 78
     2
 67
     7
 79
     5
170
     0
171
     0
290
     0
174
     0
 93
        1
 44
0.0
173
     0
291
     1
 45
0.0
1001
ACAD
1000
AcDbSavedByObjectVersion
1070
     0
  0
VISUALSTYLE
  5
4564
102
{ACAD_REACTORS
330
4558
102
}
330
4558
100
AcDbVisualStyle
  2
Brighten
 70
    12
 71
     2
 72
     2
 73
     0
 90
        0
 40
-0.6
 41
-30.0
 62
     5
 63
     7
 74
     1
 91
        4
 64
     7
 65
   257
 75
     1
175
     1
 42
1.0
 92
        8
 66
     7
 43
1.0
 76
     1
 77
     6
 78
     2
 67
     7
 79
     5
170
     0
171
     0
290
     0
174
     0
 93
        1
 44
50.0
173
     0
291
     1
 45
0.0
1001
ACAD
1000
AcDbSavedByObjectVersion
1070
     0
  0
VISUALSTYLE
  5
4568
102
{ACAD_REACTORS
330
4558
102
}
330
4558
100
AcDbVisualStyle
  2
ColorChange
 70
    16
 71
     2
 72
     2
 73
     3
 90
        0
 40
-0.6
 41
-30.0
 62
     5
 63
     8
 74
     1
 91
        4
 64
     7
 65
   257
 75
     1
175
     1
 42
1.0
 92
        8
 66
     8
 43
1.0
 76
     1
 77
     6
 78
     2
 67
     7
 79
     5
170
     0
171
     0
290
     0
174
     0
 93
        1
 44
0.0
173
     0
291
     1
 45
0.0
1001
ACAD
1000
AcDbSavedByObjectVersion
1070
     0
  0
VISUALSTYLE
  5
4561
102
{ACAD_REACTORS
330
4558
102
}
330
4558
100
AcDbVisualStyle
  2
Conceptual
 70
     9
 71
     3
 72
     2
 73
     0
 90
        0
 40
-0.6
 41
-30.0
 62
     5
 63
     7
 74
     2
 91
        2
 64
     7
 65
   257
 75
     1
175
     1
 42
40.0
 92
        8
 66
     7
 43
1.0
 76
     1
 77
     6
 78
     2
 67
     7
 79
     3
170
     0
171
     0
290
     0
174
     0
 93
        1
 44
0.0
173
     0
291
     0
 45
0.0
1001
ACAD
1000
AcDbSavedByObjectVersion
1070
     0
  0
VISUALSTYLE
  5
4563
102
{ACAD_REACTORS
330
4558
102
}
330
4558
100
AcDbVisualStyle
  2
Dim
 70
    11
 71
     2
 72
     2
 73
     0
 90
        0
 40
-0.6
 41
-30.0
 62
     5
 63
     7
 74
     1
 91
        4
 64
     7
 65
   257
 75
     1
175
     1
 42
1.0
 92
        8
 66
     7
 43
1.0
 76
     1
 77
     6
 78
     2
 67
     7
 79
     5
170
     0
171
     0
290
     0
174
     0
 93
        1
 44
-50.0
173
     0
291
     1
 45
0.0
1001
ACAD
1000
AcDbSavedByObjectVersion
1070
     0
  0
VISUALSTYLE
  5
4567
102
{ACAD_REACTORS
330
4558
102
}
330
4558
100
AcDbVisualStyle
  2
Facepattern
 70
    15
 71
     2
 72
     2
 73
     0
 90
        0
 40
-0.6
 41
-30.0
 62
     5
 63
     7
 74
     1
 91
        4
 64
     7
 65
   257
 75
     1
175
     1
 42
1.0
 92
        8
 66
     7
 43
1.0
 76
     1
 77
     6
 78
     2
 67
     7
 79
     5
170
     0
171
     0
290
     0
174
     0
 93
        1
 44
0.0
173
     0
291
     1
 45
0.0
1001
ACAD
1000
AcDbSavedByObjectVersion
1070
     0
  0
VISUALSTYLE
  5
4559
102
{ACAD_REACTORS
330
4558
102
}
330
4558
100
AcDbVisualStyle
  2
Flat
 70
     0
 71
     2
 72
     1
 73
     1
 90
        2
 40
-0.6
 41
30.0
 62
     5
 63
     7
 74
     0
 91
        4
 64
     7
 65
   257
 75
     1
175
     1
 42
1.0
 92
        8
 66
     7
 43
1.0
 76
     1
 77
     6
 78
     2
 67
     7
 79
     5
170
     0
171
     0
290
     0
174
     0
 93
       13
 44
0.0
173
     0
291
     1
 45
0.0
1001
ACAD
1000
AcDbSavedByObjectVersion
1070
     0
  0
VISUALSTYLE
  5
455A
102
{ACAD_REACTORS
330
4558
102
}
330
4558
100
AcDbVisualStyle
  2
FlatWithEdges
 70
     1
 71
     2
 72
     1
 73
     1
 90
        2
 40
-0.6
 41
30.0
 62
     5
 63
     7
 74
     1
 91
        4
 64
     7
 65
   257
 75
     1
175
     1
 42
1.0
 92
        0
 66
   257
 43
1.0
 76
     1
 77
     6
 78
     2
 67
     7
 79
     5
170
     0
171
     0
290
     0
174
     0
 93
       13
 44
0.0
173
     0
291
     1
 45
0.0
1001
ACAD
1000
AcDbSavedByObjectVersion
1070
     0
  0
VISUALSTYLE
  5
455B
102
{ACAD_REACTORS
330
4558
102
}
330
4558
100
AcDbVisualStyle
  2
Gouraud
 70
     2
 71
     2
 72
     2
 73
     1
 90
        2
 40
-0.6
 41
30.0
 62
     5
 63
     7
 74
     0
 91
        4
 64
     7
 65
   257
 75
     1
175
     1
 42
1.0
 92
        0
 66
     7
 43
1.0
 76
     1
 77
     6
 78
     2
 67
     7
 79
     5
170
     0
171
     0
290
     0
174
     0
 93
       13
 44
0.0
173
     0
291
     1
 45
0.0
1001
ACAD
1000
AcDbSavedByObjectVersion
1070
     0
  0
VISUALSTYLE
  5
455C
102
{ACAD_REACTORS
330
4558
102
}
330
4558
100
AcDbVisualStyle
  2
GouraudWithEdges
 70
     3
 71
     2
 72
     2
 73
     1
 90
        2
 40
-0.6
 41
30.0
 62
     5
 63
     7
 74
     1
 91
        4
 64
     7
 65
   257
 75
     1
175
     1
 42
1.0
 92
        0
 66
   257
 43
1.0
 76
     1
 77
     6
 78
     2
 67
     7
 79
     5
170
     0
171
     0
290
     0
174
     0
 93
       13
 44
0.0
173
     0
291
     1
 45
0.0
1001
ACAD
1000
AcDbSavedByObjectVersion
1070
     0
  0
VISUALSTYLE
  5
4566
102
{ACAD_REACTORS
330
4558
102
}
330
4558
100
AcDbVisualStyle
  2
Linepattern
 70
    14
 71
     2
 72
     2
 73
     0
 90
        0
 40
-0.6
 41
-30.0
 62
     5
 63
     7
 74
     1
 91
        4
 64
     7
 65
   257
 75
     7
175
     7
 42
1.0
 92
        8
 66
     7
 43
1.0
 76
     1
 77
     6
 78
     2
 67
     7
 79
     5
170
     0
171
     0
290
     0
174
     0
 93
        1
 44
0.0
173
     0
291
     1
 45
0.0
1001
ACAD
1000
AcDbSavedByObjectVersion
1070
     0
  0
VISUALSTYLE
  5
4562
102
{ACAD_REACTORS
330
4558
102
}
330
4558
100
AcDbVisualStyle
  2
Realistic
 70
     8
 71
     2
 72
     2
 73
     0
 90
        0
 40
-0.6
 41
-30.0
 62
     5
 63
     7
 74
     1
 91
        0
 64
     7
 65
   257
 75
     1
175
     1
 42
1.0
 92
        8
 66
     8
 43
1.0
 76
     1
 77
     6
 78
     2
 67
     7
 79
     5
170
     0
171
     0
290
     0
174
     0
 93
       13
 44
0.0
173
     0
291
     0
 45
0.0
1001
ACAD
1000
AcDbSavedByObjectVersion
1070
     0
  0
VISUALSTYLE
  5
4565
102
{ACAD_REACTORS
330
4558
102
}
330
4558
100
AcDbVisualStyle
  2
Thicken
 70
    13
 71
     2
 72
     2
 73
     0
 90
        0
 40
-0.6
 41
-30.0
 62
     5
 63
     7
 74
     1
 91
        4
 64
     7
 65
   257
 75
     1
175
     1
 42
1.0
 92
       12
 66
     7
 43
1.0
 76
     1
 77
     6
 78
     2
 67
     7
 79
     5
170
     0
171
     0
290
     0
174
     0
 93
        1
 44
0.0
173
     0
291
     1
 45
0.0
1001
ACAD
1000
AcDbSavedByObjectVersion
1070
     0
  0
DICTIONARYVAR
  5
45A5
102
{ACAD_REACTORS
330
1BF
102
}
330
1BF
100
DictionaryVariables
280
     0
  1
1:1
  0
DICTIONARYVAR
  5
45A4
102
{ACAD_REACTORS
330
1BF
102
}
330
1BF
100
DictionaryVariables
280
     0
  1
STANDARD
  0
DICTIONARYVAR
  5
4532
102
{ACAD_REACTORS
330
1BF
102
}
330
1BF
100
DictionaryVariables
280
     0
  1
STANDARD
  0
DICTIONARYVAR
  5
4169
102
{ACAD_REACTORS
330
1BF
102
}
330
1BF
100
DictionaryVariables
280
     0
  1
1
  0
DICTIONARYVAR
  5
45A6
102
{ACAD_REACTORS
330
1BF
102
}
330
1BF
100
DictionaryVariables
280
     0
  1
0
  0
DICTIONARYVAR
  5
4533
102
{ACAD_REACTORS
330
1BF
102
}
330
1BF
100
DictionaryVariables
280
     0
  1

  0
DICTIONARYVAR
  5
1C0
102
{ACAD_REACTORS
330
1BF
102
}
330
1BF
100
DictionaryVariables
280
     0
  1
96
  0
DICTIONARY
  5
45AD
330
4157
100
AcDbDictionary
280
     1
281
     1
  3
ACAD_XREC_ROUNDTRIP
360
45AE
  0
DICTIONARY
  5
45AF
330
4158
100
AcDbDictionary
280
     1
281
     1
  3
ACAD_XREC_ROUNDTRIP
360
45B0
  0
DICTIONARY
  5
4549
330
4548
100
AcDbDictionary
280
     1
281
     1
  3
ACAD_XREC_ROUNDTRIP
360
45B5
  3
BUMPTILE
360
454B
  3
DIFFUSETILE
360
454A
  3
OPACITYTILE
360
454E
  3
REFLECTIONTILE
360
454D
  3
REFRACTIONTILE
360
454F
  3
SPECULARTILE
360
454C
  0
DICTIONARY
  5
4541
330
4540
100
AcDbDictionary
280
     1
281
     1
  3
ACAD_XREC_ROUNDTRIP
360
45B4
  3
BUMPTILE
360
4543
  3
DIFFUSETILE
360
4542
  3
OPACITYTILE
360
4546
  3
REFLECTIONTILE
360
4545
  3
REFRACTIONTILE
360
4547
  3
SPECULARTILE
360
4544
  0
DICTIONARY
  5
4551
330
4550
100
AcDbDictionary
280
     1
281
     1
  3
ACAD_XREC_ROUNDTRIP
360
45B6
  3
BUMPTILE
360
4553
  3
DIFFUSETILE
360
4552
  3
OPACITYTILE
360
4556
  3
REFLECTIONTILE
360
4555
  3
REFRACTIONTILE
360
4557
  3
SPECULARTILE
360
4554
  0
DICTIONARY
  5
45A7
330
451E
100
AcDbDictionary
280
     1
281
     1
  3
ACAD_ROUNDTRIP_2008_TABLESTYLE_CELLSTYLEMAP
360
45A8
  3
ACAD_XREC_ROUNDTRIP
360
45B3
  0
XRECORD
  5
45AE
102
{ACAD_REACTORS
330
45AD
102
}
330
45AD
100
AcDbXrecord
280
     1
102
SHADEPLOT
 70
     0
102
SHADEPLOTRESLEVEL
 70
     2
102
SHADEPLOTCUSTOMDPI
 70
   300
  0
XRECORD
  5
45B0
102
{ACAD_REACTORS
330
45AF
102
}
330
45AF
100
AcDbXrecord
280
     1
102
SHADEPLOT
 70
     0
102
SHADEPLOTRESLEVEL
 70
     2
102
SHADEPLOTCUSTOMDPI
 70
   300
  0
XRECORD
  5
45B5
102
{ACAD_REACTORS
330
4549
102
}
330
4549
100
AcDbXrecord
280
     1
102
MATERIAL
148
0.0
149
0.0
149
0.0
 93
        0
 94
      127
282
     0
 72
     0
 77
     0
171
     0
175
     0
179
     0
273
     0
  0
XRECORD
  5
454B
102
{ACAD_REACTORS
330
4549
102
}
330
4549
100
AcDbXrecord
280
     1
270
     1
271
     1
  0
XRECORD
  5
454A
102
{ACAD_REACTORS
330
4549
102
}
330
4549
100
AcDbXrecord
280
     1
270
     1
271
     1
  0
XRECORD
  5
454E
102
{ACAD_REACTORS
330
4549
102
}
330
4549
100
AcDbXrecord
280
     1
270
     1
271
     1
  0
XRECORD
  5
454D
102
{ACAD_REACTORS
330
4549
102
}
330
4549
100
AcDbXrecord
280
     1
270
     1
271
     1
  0
XRECORD
  5
454F
102
{ACAD_REACTORS
330
4549
102
}
330
4549
100
AcDbXrecord
280
     1
270
     1
271
     1
  0
XRECORD
  5
454C
102
{ACAD_REACTORS
330
4549
102
}
330
4549
100
AcDbXrecord
280
     1
270
     1
271
     1
  0
XRECORD
  5
45B4
102
{ACAD_REACTORS
330
4541
102
}
330
4541
100
AcDbXrecord
280
     1
102
MATERIAL
148
0.0
149
0.0
149
0.0
 93
        0
 94
      127
282
     0
 72
     0
 77
     0
171
     0
175
     0
179
     0
273
     0
  0
XRECORD
  5
4543
102
{ACAD_REACTORS
330
4541
102
}
330
4541
100
AcDbXrecord
280
     1
270
     1
271
     1
  0
XRECORD
  5
4542
102
{ACAD_REACTORS
330
4541
102
}
330
4541
100
AcDbXrecord
280
     1
270
     1
271
     1
  0
XRECORD
  5
4546
102
{ACAD_REACTORS
330
4541
102
}
330
4541
100
AcDbXrecord
280
     1
270
     1
271
     1
  0
XRECORD
  5
4545
102
{ACAD_REACTORS
330
4541
102
}
330
4541
100
AcDbXrecord
280
     1
270
     1
271
     1
  0
XRECORD
  5
4547
102
{ACAD_REACTORS
330
4541
102
}
330
4541
100
AcDbXrecord
280
     1
270
     1
271
     1
  0
XRECORD
  5
4544
102
{ACAD_REACTORS
330
4541
102
}
330
4541
100
AcDbXrecord
280
     1
270
     1
271
     1
  0
XRECORD
  5
45B6
102
{ACAD_REACTORS
330
4551
102
}
330
4551
100
AcDbXrecord
280
     1
102
MATERIAL
148
0.0
149
0.0
149
0.0
 93
        0
 94
      127
282
     0
 72
     0
 77
     0
171
     0
175
     0
179
     0
273
     0
  0
XRECORD
  5
4553
102
{ACAD_REACTORS
330
4551
102
}
330
4551
100
AcDbXrecord
280
     1
270
     1
271
     1
  0
XRECORD
  5
4552
102
{ACAD_REACTORS
330
4551
102
}
330
4551
100
AcDbXrecord
280
     1
270
     1
271
     1
  0
XRECORD
  5
4556
102
{ACAD_REACTORS
330
4551
102
}
330
4551
100
AcDbXrecord
280
     1
270
     1
271
     1
  0
XRECORD
  5
4555
102
{ACAD_REACTORS
330
4551
102
}
330
4551
100
AcDbXrecord
280
     1
270
     1
271
     1
  0
XRECORD
  5
4557
102
{ACAD_REACTORS
330
4551
102
}
330
4551
100
AcDbXrecord
280
     1
270
     1
271
     1
  0
XRECORD
  5
4554
102
{ACAD_REACTORS
330
4551
102
}
330
4551
100
AcDbXrecord
280
     1
270
     1
271
     1
  0
CELLSTYLEMAP
  5
45A8
102
{ACAD_REACTORS
330
45A7
102
}
330
45A7
100
AcDbCellStyleMap
 90
        3
300
CELLSTYLE
  1
TABLEFORMAT_BEGIN
 90
        5
170
     1
 91
        0
 92
    32768
 62
   257
 93
        1
300
CONTENTFORMAT
  1
CONTENTFORMAT_BEGIN
 90
        0
 91
        0
 92
        4
 93
        0
300

 40
0.0
140
1.0
 94
        5
 62
     0
340
10
144
0.25
309
CONTENTFORMAT_END
171
     0
 94
        6
 95
        1
302
GRIDFORMAT
  1
GRIDFORMAT_BEGIN
 90
        0
 91
        1
 62
     0
 92
       -2
340
0
 93
        0
 40
0.045
309
GRIDFORMAT_END
 95
        2
302
GRIDFORMAT
  1
GRIDFORMAT_BEGIN
 90
        0
 91
        1
 62
     0
 92
       -2
340
0
 93
        0
 40
0.045
309
GRIDFORMAT_END
 95
        4
302
GRIDFORMAT
  1
GRIDFORMAT_BEGIN
 90
        0
 91
        1
 62
     0
 92
       -2
340
0
 93
        0
 40
0.045
309
GRIDFORMAT_END
 95
        8
302
GRIDFORMAT
  1
GRIDFORMAT_BEGIN
 90
        0
 91
        1
 62
     0
 92
       -2
340
0
 93
        0
 40
0.045
309
GRIDFORMAT_END
 95
       16
302
GRIDFORMAT
  1
GRIDFORMAT_BEGIN
 90
        0
 91
        1
 62
     0
 92
       -2
340
0
 93
        0
 40
0.045
309
GRIDFORMAT_END
 95
       32
302
GRIDFORMAT
  1
GRIDFORMAT_BEGIN
 90
        0
 91
        1
 62
     0
 92
       -2
340
0
 93
        0
 40
0.045
309
GRIDFORMAT_END
309
TABLEFORMAT_END
  1
CELLSTYLE_BEGIN
 90
        1
 91
        1
300
_TITLE
309
CELLSTYLE_END
300
CELLSTYLE
  1
TABLEFORMAT_BEGIN
 90
        5
170
     1
 91
        0
 92
        0
 62
   257
 93
        1
300
CONTENTFORMAT
  1
CONTENTFORMAT_BEGIN
 90
        0
 91
        0
 92
        4
 93
        0
300

 40
0.0
140
1.0
 94
        5
 62
     0
340
10
144
0.18
309
CONTENTFORMAT_END
171
     0
 94
        6
 95
        1
302
GRIDFORMAT
  1
GRIDFORMAT_BEGIN
 90
        0
 91
        1
 62
     0
 92
       -2
340
0
 93
        0
 40
0.045
309
GRIDFORMAT_END
 95
        2
302
GRIDFORMAT
  1
GRIDFORMAT_BEGIN
 90
        0
 91
        1
 62
     0
 92
       -2
340
0
 93
        0
 40
0.045
309
GRIDFORMAT_END
 95
        4
302
GRIDFORMAT
  1
GRIDFORMAT_BEGIN
 90
        0
 91
        1
 62
     0
 92
       -2
340
0
 93
        0
 40
0.045
309
GRIDFORMAT_END
 95
        8
302
GRIDFORMAT
  1
GRIDFORMAT_BEGIN
 90
        0
 91
        1
 62
     0
 92
       -2
340
0
 93
        0
 40
0.045
309
GRIDFORMAT_END
 95
       16
302
GRIDFORMAT
  1
GRIDFORMAT_BEGIN
 90
        0
 91
        1
 62
     0
 92
       -2
340
0
 93
        0
 40
0.045
309
GRIDFORMAT_END
 95
       32
302
GRIDFORMAT
  1
GRIDFORMAT_BEGIN
 90
        0
 91
        1
 62
     0
 92
       -2
340
0
 93
        0
 40
0.045
309
GRIDFORMAT_END
309
TABLEFORMAT_END
  1
CELLSTYLE_BEGIN
 90
        2
 91
        1
300
_HEADER
309
CELLSTYLE_END
300
CELLSTYLE
  1
TABLEFORMAT_BEGIN
 90
        5
170
     1
 91
        0
 92
        0
 62
   257
 93
        1
300
CONTENTFORMAT
  1
CONTENTFORMAT_BEGIN
 90
        0
 91
        0
 92
        4
 93
        0
300

 40
0.0
140
1.0
 94
        2
 62
     0
340
10
144
0.18
309
CONTENTFORMAT_END
171
     0
 94
        6
 95
        1
302
GRIDFORMAT
  1
GRIDFORMAT_BEGIN
 90
        0
 91
        1
 62
     0
 92
       -2
340
0
 93
        0
 40
0.045
309
GRIDFORMAT_END
 95
        2
302
GRIDFORMAT
  1
GRIDFORMAT_BEGIN
 90
        0
 91
        1
 62
     0
 92
       -2
340
0
 93
        0
 40
0.045
309
GRIDFORMAT_END
 95
        4
302
GRIDFORMAT
  1
GRIDFORMAT_BEGIN
 90
        0
 91
        1
 62
     0
 92
       -2
340
0
 93
        0
 40
0.045
309
GRIDFORMAT_END
 95
        8
302
GRIDFORMAT
  1
GRIDFORMAT_BEGIN
 90
        0
 91
        1
 62
     0
 92
       -2
340
0
 93
        0
 40
0.045
309
GRIDFORMAT_END
 95
       16
302
GRIDFORMAT
  1
GRIDFORMAT_BEGIN
 90
        0
 91
        1
 62
     0
 92
       -2
340
0
 93
        0
 40
0.045
309
GRIDFORMAT_END
 95
       32
302
GRIDFORMAT
  1
GRIDFORMAT_BEGIN
 90
        0
 91
        1
 62
     0
 92
       -2
340
0
 93
        0
 40
0.045
309
GRIDFORMAT_END
309
TABLEFORMAT_END
  1
CELLSTYLE_BEGIN
 90
        3
 91
        2
300
_DATA
309
CELLSTYLE_END
  0
XRECORD
  5
45B3
102
{ACAD_REACTORS
330
45A7
102
}
330
45A7
100
AcDbXrecord
280
     1
102
ACAD_ROUNDTRIP_PRE2007_TABLESTYLE
 90
        4
 91
        0
  1

 92
        4
 93
        0
  2

 94
        4
 95
        0
  3

  0
ENDSEC
  0
EOF
