  0
SECTION
  2
HEADER
  9
$ACADVER
  1
AC1015
  9
$ACADMAINTVER
 70
    20
  9
$DWGCODEPAGE
  3
ANSI_949
  9
$INSBASE
 10
0.0
 20
0.0
 30
0.0
  9
$EXTMIN
 10
0.0000010127153249
 20
0.0000005186543603
 30
0.0
  9
$EXTMAX
 10
445.0000010127146
 20
155.4852924123231
 30
0.0
  9
$LIMMIN
 10
0.0
 20
0.0
  9
$LIMMAX
 10
420.0
 20
297.0
  9
$ORTHOMODE
 70
     1
  9
$REGENMODE
 70
     1
  9
$FILLMODE
 70
     1
  9
$QTEXTMODE
 70
     0
  9
$MIRRTEXT
 70
     1
  9
$LTSCALE
 40
10.0
  9
$ATTMODE
 70
     1
  9
$TEXTSIZE
 40
3.149999999999999
  9
$TRACEWID
 40
0.05
  9
$TEXTSTYLE
  7
H
  9
$CLAYER
  8
0
  9
$CELTYPE
  6
BYLAYER
  9
$CECOLOR
 62
   256
  9
$CELTSCALE
 40
1.0
  9
$DISPSILH
 70
     0
  9
$DIMSCALE
 40
2.0
  9
$DIMASZ
 40
2.5
  9
$DIMEXO
 40
0.8
  9
$DIMDLI
 40
0.8
  9
$DIMRND
 40
0.0
  9
$DIMDLE
 40
0.0
  9
$DIMEXE
 40
0.8
  9
$DIMTP
 40
0.0
  9
$DIMTM
 40
0.0
  9
$DIMTXT
 40
3.0
  9
$DIMCEN
 40
-1.0
  9
$DIMTSZ
 40
0.0
  9
$DIMTOL
 70
     0
  9
$DIMLIM
 70
     0
  9
$DIMTIH
 70
     0
  9
$DIMTOH
 70
     0
  9
$DIMSE1
 70
     0
  9
$DIMSE2
 70
     0
  9
$DIMTAD
 70
     3
  9
$DIMZIN
 70
     8
  9
$DIMBLK
  1

  9
$DIMASO
 70
     1
  9
$DIMSHO
 70
     1
  9
$DIMPOST
  1

  9
$DIMAPOST
  1

  9
$DIMALT
 70
     0
  9
$DIMALTD
 70
     2
  9
$DIMALTF
 40
25.4
  9
$DIMLFAC
 40
1.0
  9
$DIMTOFL
 70
     1
  9
$DIMTVP
 40
0.0
  9
$DIMTIX
 70
     0
  9
$DIMSOXD
 70
     0
  9
$DIMSAH
 70
     0
  9
$DIMBLK1
  1

  9
$DIMBLK2
  1

  9
$DIMSTYLE
  2
STANDARD
  9
$DIMCLRD
 70
   115
  9
$DIMCLRE
 70
   115
  9
$DIMCLRT
 70
     7
  9
$DIMTFAC
 40
1.0
  9
$DIMGAP
 40
1.0
  9
$DIMJUST
 70
     0
  9
$DIMSD1
 70
     0
  9
$DIMSD2
 70
     0
  9
$DIMTOLJ
 70
     1
  9
$DIMTZIN
 70
     0
  9
$DIMALTZ
 70
     0
  9
$DIMALTTZ
 70
     0
  9
$DIMUPT
 70
     0
  9
$DIMDEC
 70
     3
  9
$DIMTDEC
 70
     4
  9
$DIMALTU
 70
     2
  9
$DIMALTTD
 70
     2
  9
$DIMTXSTY
  7
STANDARD
  9
$DIMAUNIT
 70
     0
  9
$DIMADEC
 70
     0
  9
$DIMALTRND
 40
0.0
  9
$DIMAZIN
 70
     0
  9
$DIMDSEP
 70
    46
  9
$DIMATFIT
 70
     3
  9
$DIMFRAC
 70
     0
  9
$DIMLDRBLK
  1

  9
$DIMLUNIT
 70
     2
  9
$DIMLWD
 70
    -2
  9
$DIMLWE
 70
    -2
  9
$DIMTMOVE
 70
     0
  9
$LUNITS
 70
     2
  9
$LUPREC
 70
     4
  9
$SKETCHINC
 40
0.1
  9
$FILLETRAD
 40
0.0
  9
$AUNITS
 70
     0
  9
$AUPREC
 70
     0
  9
$MENU
  1
.
  9
$ELEVATION
 40
0.0
  9
$PELEVATION
 40
0.0
  9
$THICKNESS
 40
0.0
  9
$LIMCHECK
 70
     0
  9
$CHAMFERA
 40
1.0
  9
$CHAMFERB
 40
1.0
  9
$CHAMFERC
 40
1.0
  9
$CHAMFERD
 40
0.0
  9
$SKPOLY
 70
     1
  9
$TDCREATE
 40
2452464.575009942
  9
$TDUCREATE
 40
2452464.200009942
  9
$TDUPDATE
 40
2456846.807086424
  9
$TDUUPDATE
 40
2456846.432086424
  9
$TDINDWG
 40
0.3790629167
  9
$TDUSRTIMER
 40
0.3790628704
  9
$USRTIMER
 70
     1
  9
$ANGBASE
 50
0.0
  9
$ANGDIR
 70
     0
  9
$PDMODE
 70
     0
  9
$PDSIZE
 40
0.0
  9
$PLINEWID
 40
0.5
  9
$SPLFRAME
 70
     0
  9
$SPLINETYPE
 70
     6
  9
$SPLINESEGS
 70
     8
  9
$HANDSEED
  5
B373
  9
$SURFTAB1
 70
     6
  9
$SURFTAB2
 70
     6
  9
$SURFTYPE
 70
     6
  9
$SURFU
 70
     6
  9
$SURFV
 70
     6
  9
$UCSBASE
  2

  9
$UCSNAME
  2

  9
$UCSORG
 10
0.0
 20
0.0
 30
0.0
  9
$UCSXDIR
 10
1.0
 20
0.0
 30
0.0
  9
$UCSYDIR
 10
0.0
 20
1.0
 30
0.0
  9
$UCSORTHOREF
  2

  9
$UCSORTHOVIEW
 70
     0
  9
$UCSORGTOP
 10
0.0
 20
0.0
 30
0.0
  9
$UCSORGBOTTOM
 10
0.0
 20
0.0
 30
0.0
  9
$UCSORGLEFT
 10
0.0
 20
0.0
 30
0.0
  9
$UCSORGRIGHT
 10
0.0
 20
0.0
 30
0.0
  9
$UCSORGFRONT
 10
0.0
 20
0.0
 30
0.0
  9
$UCSORGBACK
 10
0.0
 20
0.0
 30
0.0
  9
$PUCSBASE
  2

  9
$PUCSNAME
  2

  9
$PUCSORG
 10
0.0
 20
0.0
 30
0.0
  9
$PUCSXDIR
 10
1.0
 20
0.0
 30
0.0
  9
$PUCSYDIR
 10
0.0
 20
1.0
 30
0.0
  9
$PUCSORTHOREF
  2

  9
$PUCSORTHOVIEW
 70
     0
  9
$PUCSORGTOP
 10
0.0
 20
0.0
 30
0.0
  9
$PUCSORGBOTTOM
 10
0.0
 20
0.0
 30
0.0
  9
$PUCSORGLEFT
 10
0.0
 20
0.0
 30
0.0
  9
$PUCSORGRIGHT
 10
0.0
 20
0.0
 30
0.0
  9
$PUCSORGFRONT
 10
0.0
 20
0.0
 30
0.0
  9
$PUCSORGBACK
 10
0.0
 20
0.0
 30
0.0
  9
$USERI1
 70
     0
  9
$USERI2
 70
   452
  9
$USERI3
 70
     1
  9
$USERI4
 70
     0
  9
$USERI5
 70
     0
  9
$USERR1
 40
0.0
  9
$USERR2
 40
0.0
  9
$USERR3
 40
0.0
  9
$USERR4
 40
0.0
  9
$USERR5
 40
0.0
  9
$WORLDVIEW
 70
     1
  9
$SHADEDGE
 70
     3
  9
$SHADEDIF
 70
    70
  9
$TILEMODE
 70
     1
  9
$MAXACTVP
 70
    48
  9
$PINSBASE
 10
0.0
 20
0.0
 30
0.0
  9
$PLIMCHECK
 70
     0
  9
$PEXTMIN
 10
1.000000000000000E+20
 20
1.000000000000000E+20
 30
1.000000000000000E+20
  9
$PEXTMAX
 10
-1.000000000000000E+20
 20
-1.000000000000000E+20
 30
-1.000000000000000E+20
  9
$PLIMMIN
 10
0.0
 20
0.0
  9
$PLIMMAX
 10
12.0
 20
9.0
  9
$UNITMODE
 70
     0
  9
$VISRETAIN
 70
     1
  9
$PLINEGEN
 70
     0
  9
$PSLTSCALE
 70
     1
  9
$TREEDEPTH
 70
  3020
  9
$CMLSTYLE
  2
STANDARD
  9
$CMLJUST
 70
     0
  9
$CMLSCALE
 40
1.0
  9
$PROXYGRAPHICS
 70
     1
  9
$MEASUREMENT
 70
     0
  9
$CELWEIGHT
370
    -1
  9
$ENDCAPS
280
     0
  9
$JOINSTYLE
280
     0
  9
$LWDISPLAY
290
     0
  9
$INSUNITS
 70
     0
  9
$HYPERLINKBASE
  1

  9
$STYLESHEET
  1

  9
$XEDIT
290
     1
  9
$CEPSNTYPE
380
     0
  9
$PSTYLEMODE
290
     1
  9
$FINGERPRINTGUID
  2
{AD1F1F1F-5B17-4D9D-BF37-7FD891161AAE}
  9
$VERSIONGUID
  2
{28892811-3483-4FA5-8A5E-AA83C0242A96}
  9
$EXTNAMES
290
     1
  9
$PSVPSCALE
 40
0.0
  9
$OLESTARTUP
290
     0
  0
ENDSEC
  0
SECTION
  2
CLASSES
  0
CLASS
  1
DICTIONARYVAR
  2
AcDbDictionaryVar
  3
ObjectDBX Classes
 90
        0
280
     0
281
     0
  0
CLASS
  1
ACDBDICTIONARYWDFLT
  2
AcDbDictionaryWithDefault
  3
ObjectDBX Classes
 90
        0
280
     0
281
     0
  0
CLASS
  1
TABLESTYLE
  2
AcDbTableStyle
  3
ObjectDBX Classes
 90
     4095
280
     0
281
     0
  0
CLASS
  1
ACDBPLACEHOLDER
  2
AcDbPlaceHolder
  3
ObjectDBX Classes
 90
        0
280
     0
281
     0
  0
CLASS
  1
LAYOUT
  2
AcDbLayout
  3
ObjectDBX Classes
 90
        0
280
     0
281
     0
  0
CLASS
  1
MATERIAL
  2
AcDbMaterial
  3
ObjectDBX Classes
 90
     1153
280
     0
281
     0
  0
CLASS
  1
VISUALSTYLE
  2
AcDbVisualStyle
  3
ObjectDBX Classes
 90
     4095
280
     0
281
     0
  0
CLASS
  1
SCALE
  2
AcDbScale
  3
ObjectDBX Classes
 90
     1153
280
     0
281
     0
  0
CLASS
  1
MLEADERSTYLE
  2
AcDbMLeaderStyle
  3
ACDB_MLEADERSTYLE_CLASS
 90
     4095
280
     0
281
     0
  0
CLASS
  1
CELLSTYLEMAP
  2
AcDbCellStyleMap
  3
ObjectDBX Classes
 90
     1152
280
     0
281
     0
  0
CLASS
  1
SORTENTSTABLE
  2
AcDbSortentsTable
  3
ObjectDBX Classes
 90
        0
280
     0
281
     0
  0
CLASS
  1
ACAD_EVALUATION_GRAPH
  2
AcDbEvalGraph
  3
ObjectDBX Classes
 90
    33921
280
     0
281
     0
  0
CLASS
  1
ACAECUSTOBJ
  2
AcAeEditorObj
  3
AcAeEditorObj
 90
    33792
280
     0
281
     0
  0
CLASS
  1
ACDB_DYNAMICBLOCKPURGEPREVENTER_VERSION
  2
AcDbDynamicBlockPurgePreventer
  3
ObjectDBX Classes
 90
    33921
280
     0
281
     0
  0
ENDSEC
  0
SECTION
  2
TABLES
  0
TABLE
  2
VPORT
  5
8
102
{ACAD_XDICTIONARY
360
AE9A
102
}
330
0
100
AcDbSymbolTable
 70
     1
  0
VPORT
  5
9F9F
330
8
100
AcDbSymbolTableRecord
100
AcDbViewportTableRecord
  2
*Active
 70
     0
 10
0.0
 20
0.0
 11
1.0
 21
1.0
 12
222.4969492346246
 22
77.73999103160999
 13
0.0
 23
0.0
 14
0.5
 24
0.5
 15
0.5
 25
0.5
 16
0.0
 26
0.0
 36
1.0
 17
0.0
 27
0.0
 37
0.0
 40
197.832216766951
 41
2.257287705956907
 42
50.0
 43
0.0
 44
0.0
 50
0.0
 51
0.0
 71
     0
 72
   100
 73
     1
 74
     1
 75
     0
 76
     0
 77
     0
 78
     0
281
     0
 65
     1
110
0.0
120
0.0
130
0.0
111
1.0
121
0.0
131
0.0
112
0.0
122
1.0
132
0.0
 79
     0
146
0.0
1001
ACAD_NAV_VCDISPLAY
1070
     3
  0
ENDTAB
  0
TABLE
  2
LTYPE
  5
5
330
0
100
AcDbSymbolTable
 70
     3
  0
LTYPE
  5
13
330
5
100
AcDbSymbolTableRecord
100
AcDbLinetypeTableRecord
  2
BYBLOCK
 70
     0
  3

 72
    65
 73
     0
 40
0.0
  0
LTYPE
  5
14
330
5
100
AcDbSymbolTableRecord
100
AcDbLinetypeTableRecord
  2
BYLAYER
 70
     0
  3

 72
    65
 73
     0
 40
0.0
  0
LTYPE
  5
15
330
5
100
AcDbSymbolTableRecord
100
AcDbLinetypeTableRecord
  2
CONTINUOUS
 70
     0
  3
Solid line
 72
    65
 73
     0
 40
0.0
  0
LTYPE
  5
AB7D
330
5
100
AcDbSymbolTableRecord
100
AcDbLinetypeTableRecord
  2
CENTER
 70
     0
  3
Center ____ _ ____ _ ____ _ ____ _ ____ _ ____
 72
    65
 73
     4
 40
2.0
 49
1.25
 74
     0
 49
-0.25
 74
     0
 49
0.25
 74
     0
 49
-0.25
 74
     0
  0
LTYPE
  5
AB7E
330
5
100
AcDbSymbolTableRecord
100
AcDbLinetypeTableRecord
  2
HIDDEN
 70
     0
  3
Hidden __ __ __ __ __ __ __ __ __ __ __ __ __ _
 72
    65
 73
     2
 40
0.375
 49
0.25
 74
     0
 49
-0.125
 74
     0
  0
ENDTAB
  0
TABLE
  2
LAYER
  5
2
330
0
100
AcDbSymbolTable
 70
     5
  0
LAYER
  5
F
102
{ACAD_XDICTIONARY
360
A045
102
}
330
2
100
AcDbSymbolTableRecord
100
AcDbLayerTableRecord
  2
0
 70
     0
 62
     7
  6
CONTINUOUS
370
    -3
390
9ECB
  0
LAYER
  5
24EF
330
2
100
AcDbSymbolTableRecord
100
AcDbLayerTableRecord
  2
DEFPOINTS
 70
     0
 62
     7
  6
CONTINUOUS
290
     0
370
    -3
390
9ECB
  0
LAYER
  5
AB7F
102
{ACAD_XDICTIONARY
360
AB80
102
}
330
2
100
AcDbSymbolTableRecord
100
AcDbLayerTableRecord
  2
9
 70
     0
 62
     3
  6
CONTINUOUS
370
    -3
390
9ECB
  0
LAYER
  5
AB81
102
{ACAD_XDICTIONARY
360
AB82
102
}
330
2
100
AcDbSymbolTableRecord
100
AcDbLayerTableRecord
  2
1
 70
     0
 62
     1
  6
CENTER
370
    -3
390
9ECB
  0
LAYER
  5
AB83
102
{ACAD_XDICTIONARY
360
AB84
102
}
330
2
100
AcDbSymbolTableRecord
100
AcDbLayerTableRecord
  2
2
 70
     0
 62
     2
  6
HIDDEN
370
    -3
390
9ECB
  0
ENDTAB
  0
TABLE
  2
STYLE
  5
3
330
0
100
AcDbSymbolTable
 70
     2
  0
STYLE
  5
10
330
3
100
AcDbSymbolTableRecord
100
AcDbTextStyleTableRecord
  2
STANDARD
 70
     0
 40
0.0
 41
1.0
 50
0.0
 71
     0
 42
3.0
  3
romans.shx
  4

  0
STYLE
  5
9EDF
330
3
100
AcDbSymbolTableRecord
100
AcDbTextStyleTableRecord
  2
H
 70
     0
 40
0.0
 41
1.0
 50
0.0
 71
     0
 42
3.149999999999999
  3
txt.shx
  4

  0
ENDTAB
  0
TABLE
  2
VIEW
  5
6
330
0
100
AcDbSymbolTable
 70
     0
  0
ENDTAB
  0
TABLE
  2
UCS
  5
7
330
0
100
AcDbSymbolTable
 70
     0
  0
ENDTAB
  0
TABLE
  2
APPID
  5
9
330
0
100
AcDbSymbolTable
 70
     9
  0
APPID
  5
11
330
9
100
AcDbSymbolTableRecord
100
AcDbRegAppTableRecord
  2
ACAD
 70
     0
  0
APPID
  5
2325
330
9
100
AcDbSymbolTableRecord
100
AcDbRegAppTableRecord
  2
MCLBOMATTRIB
 70
     0
  0
APPID
  5
2326
330
9
100
AcDbSymbolTableRecord
100
AcDbRegAppTableRecord
  2
MCLBOM
 70
     0
  0
APPID
  5
9FF9
330
9
100
AcDbSymbolTableRecord
100
AcDbRegAppTableRecord
  2
ACAD_MLEADERVER
 70
     0
  0
APPID
  5
A1D0
330
9
100
AcDbSymbolTableRecord
100
AcDbRegAppTableRecord
  2
ACAD_NAV_VCDISPLAY
 70
     0
  0
APPID
  5
A452
330
9
100
AcDbSymbolTableRecord
100
AcDbRegAppTableRecord
  2
ACAD_EXEMPT_FROM_CAD_STANDARDS
 70
     0
  0
APPID
  5
B10B
330
9
100
AcDbSymbolTableRecord
100
AcDbRegAppTableRecord
  2
ACAUTHENVIRON
 70
     0
  0
APPID
  5
B110
330
9
100
AcDbSymbolTableRecord
100
AcDbRegAppTableRecord
  2
AcDbDynamicBlockTrueName
 70
     0
  0
APPID
  5
B111
330
9
100
AcDbSymbolTableRecord
100
AcDbRegAppTableRecord
  2
AcDbDynamicBlockGUID
 70
     0
  0
ENDTAB
  0
TABLE
  2
DIMSTYLE
  5
A
330
0
100
AcDbSymbolTable
 70
     1
100
AcDbDimStyleTable
 71
     1
340
1D
  0
DIMSTYLE
105
1D
102
{ACAD_REACTORS
330
ABB4
330
ABB5
330
ABB6
330
ABB7
330
ABB8
330
ABB9
330
ABBA
330
ABBB
330
ABBD
330
ABBE
330
ABBF
330
ABC0
330
ABC1
330
ABC3
330
ABD2
330
ABD3
330
ABD4
330
ABD5
330
ABD6
330
ABD7
330
ABD8
102
}
330
A
100
AcDbSymbolTableRecord
100
AcDbDimStyleTableRecord
  2
STANDARD
 70
     0
 41
2.0
140
3.0
176
     2
177
     2
178
     4
340
10
  0
ENDTAB
  0
TABLE
  2
BLOCK_RECORD
  5
1
330
0
100
AcDbSymbolTable
 70
    24
  0
BLOCK_RECORD
  5
19
102
{ACAD_XDICTIONARY
360
A44F
102
}
330
1
100
AcDbSymbolTableRecord
100
AcDbBlockTableRecord
  2
*MODEL_SPACE
340
9ED2
  0
BLOCK_RECORD
  5
16
330
1
100
AcDbSymbolTableRecord
100
AcDbBlockTableRecord
  2
*PAPER_SPACE
340
9ED3
  0
BLOCK_RECORD
  5
AAD4
102
{ACAD_XDICTIONARY
360
AAD5
102
}
330
1
100
AcDbSymbolTableRecord
100
AcDbBlockTableRecord
  2
A$C114A6ADA
340
0
102
{BLKREFS
331
ABC4
102
}
  0
BLOCK_RECORD
  5
AB09
102
{ACAD_XDICTIONARY
360
AB0A
102
}
330
1
100
AcDbSymbolTableRecord
100
AcDbBlockTableRecord
  2
A$C7CDE718E
340
0
102
{BLKREFS
331
ABC6
102
}
  0
BLOCK_RECORD
  5
ABDB
330
1
100
AcDbSymbolTableRecord
100
AcDbBlockTableRecord
  2
*D2
340
0
  0
BLOCK_RECORD
  5
ABE7
330
1
100
AcDbSymbolTableRecord
100
AcDbBlockTableRecord
  2
*D3
340
0
  0
BLOCK_RECORD
  5
ABF3
330
1
100
AcDbSymbolTableRecord
100
AcDbBlockTableRecord
  2
*D4
340
0
  0
BLOCK_RECORD
  5
ABFF
330
1
100
AcDbSymbolTableRecord
100
AcDbBlockTableRecord
  2
*D5
340
0
  0
BLOCK_RECORD
  5
AC0B
330
1
100
AcDbSymbolTableRecord
100
AcDbBlockTableRecord
  2
*D6
340
0
  0
BLOCK_RECORD
  5
AC17
330
1
100
AcDbSymbolTableRecord
100
AcDbBlockTableRecord
  2
*D7
340
0
  0
BLOCK_RECORD
  5
AC23
330
1
100
AcDbSymbolTableRecord
100
AcDbBlockTableRecord
  2
*D8
340
0
  0
BLOCK_RECORD
  5
AC2F
330
1
100
AcDbSymbolTableRecord
100
AcDbBlockTableRecord
  2
*D9
340
0
  0
BLOCK_RECORD
  5
AC47
330
1
100
AcDbSymbolTableRecord
100
AcDbBlockTableRecord
  2
*D10
340
0
  0
BLOCK_RECORD
  5
AC55
330
1
100
AcDbSymbolTableRecord
100
AcDbBlockTableRecord
  2
*D11
340
0
  0
BLOCK_RECORD
  5
AC61
330
1
100
AcDbSymbolTableRecord
100
AcDbBlockTableRecord
  2
*D12
340
0
  0
BLOCK_RECORD
  5
AC6D
330
1
100
AcDbSymbolTableRecord
100
AcDbBlockTableRecord
  2
*D13
340
0
  0
BLOCK_RECORD
  5
AC7B
330
1
100
AcDbSymbolTableRecord
100
AcDbBlockTableRecord
  2
*D14
340
0
  0
BLOCK_RECORD
  5
AC89
330
1
100
AcDbSymbolTableRecord
100
AcDbBlockTableRecord
  2
*D15
340
0
  0
BLOCK_RECORD
  5
AC95
330
1
100
AcDbSymbolTableRecord
100
AcDbBlockTableRecord
  2
*D16
340
0
  0
BLOCK_RECORD
  5
ACA1
330
1
100
AcDbSymbolTableRecord
100
AcDbBlockTableRecord
  2
*D17
340
0
  0
BLOCK_RECORD
  5
ACAF
330
1
100
AcDbSymbolTableRecord
100
AcDbBlockTableRecord
  2
*D18
340
0
  0
BLOCK_RECORD
  5
ACBB
330
1
100
AcDbSymbolTableRecord
100
AcDbBlockTableRecord
  2
*D19
340
0
  0
BLOCK_RECORD
  5
ACC7
330
1
100
AcDbSymbolTableRecord
100
AcDbBlockTableRecord
  2
*D20
340
0
  0
BLOCK_RECORD
  5
ACD4
330
1
100
AcDbSymbolTableRecord
100
AcDbBlockTableRecord
  2
*D21
340
0
  0
BLOCK_RECORD
  5
ACE0
330
1
100
AcDbSymbolTableRecord
100
AcDbBlockTableRecord
  2
*D22
340
0
  0
BLOCK_RECORD
  5
AF07
102
{ACAD_XDICTIONARY
360
B281
102
}
330
1
100
AcDbSymbolTableRecord
100
AcDbBlockTableRecord
  2
4010SDK
340
0
310
2800000020000000200000000100080000000000000400000000000000000000000000000000000000000000000080000080000000808000800000008000800080800000C0C0C000C0DCC000F0CAA6000020400000206000002080000020A0000020C0000020E00000400000004020000040400000406000004080000040A0
310
000040C0000040E00000600000006020000060400000606000006080000060A0000060C0000060E00000800000008020000080400000806000008080000080A0000080C0000080E00000A0000000A0200000A0400000A0600000A0800000A0A00000A0C00000A0E00000C0000000C0200000C0400000C0600000C0800000C0
310
A00000C0C00000C0E00000E0000000E0200000E0400000E0600000E0800000E0A00000E0C00000E0E00040000000400020004000400040006000400080004000A0004000C0004000E00040200000402020004020400040206000402080004020A0004020C0004020E000404000004040200040404000404060004040800040
310
40A0004040C0004040E00040600000406020004060400040606000406080004060A0004060C0004060E00040800000408020004080400040806000408080004080A0004080C0004080E00040A0000040A0200040A0400040A0600040A0800040A0A00040A0C00040A0E00040C0000040C0200040C0400040C0600040C08000
310
40C0A00040C0C00040C0E00040E0000040E0200040E0400040E0600040E0800040E0A00040E0C00040E0E00080000000800020008000400080006000800080008000A0008000C0008000E00080200000802020008020400080206000802080008020A0008020C0008020E00080400000804020008040400080406000804080
310
008040A0008040C0008040E00080600000806020008060400080606000806080008060A0008060C0008060E00080800000808020008080400080806000808080008080A0008080C0008080E00080A0000080A0200080A0400080A0600080A0800080A0A00080A0C00080A0E00080C0000080C0200080C0400080C0600080C0
310
800080C0A00080C0C00080C0E00080E0000080E0200080E0400080E0600080E0800080E0A00080E0C00080E0E000C0000000C0002000C0004000C0006000C0008000C000A000C000C000C000E000C0200000C0202000C0204000C0206000C0208000C020A000C020C000C020E000C0400000C0402000C0404000C0406000C0
310
408000C040A000C040C000C040E000C0600000C0602000C0604000C0606000C0608000C060A000C060C000C060E000C0800000C0802000C0804000C0806000C0808000C080A000C080C000C080E000C0A00000C0A02000C0A04000C0A06000C0A08000C0A0A000C0A0C000C0A0E000C0C00000C0C02000C0C04000C0C06000
310
C0C08000C0C0A000F0FBFF00A4A0A000808080000000FF0000FF000000FFFF00FF000000FF00FF00FFFF0000FFFFFF0049494949494949494949494949494949494949494949494949494949494949494949494949494949494949494949494949494949494949FFFFFFFF4949494949494949494949494949494949494949
310
4949494949494949FF4949FFFF494949494949494949494949494949494949494949494949494949FF4949FFFF494949494949494949494949494949494949494949494949494949FF4949FFFF494949494949494949494949494949494949494949494949494949FF4949FFFF494949494949FFFFFFFFFFFFFFFFFFFFFFFF
310
FFFFFFFFFFFFFFFFFFFFFFFFFFFFFFFF49494949FF4949494949494949494949494949494949494949FA494949FA49FF49494949FF4949494949494949494949494949494949494949FA494949FA49FF49494949FFFBFBFBFBFBFBFBFBFBFBFBFBFBFBFBFBFBFBFBFBFBFAFBFAFBFBFF49494949FF49494949494949494949
310
49494949494949494949FFFA49FAFF49FF49494949FF4949494949494949494949494949494949494949FFFA49FAFF49FF49494949FF4949494949494949494949494949494949494949FFFA49FAFF49FF49494949FF4949494949494949494949494949494949494949FFFA49FAFF49FF49494949FF494949494949494949
310
4949494949494949494949FF49FA49FF49FF49494949FF494949494949FFFFFFFFFFFFFFFFFF4949494949FF49FA49FF49FF49494949FF49494949494949FFFFFFFFFFFFFFFF4949494949FF49FA49FF49FF49494949FF4949494949494949494949494949494949494949FF49FA49FF49FF49494949FF4949494949494949
310
494949494949494949494949FFFA49FAFF49FF49494949FF4949494949494949494949494949494949494949FFFA49FAFF49FF49494949FF4949494949494949494949494949494949494949FFFA49FAFF49FF49494949FF4949494949494949494949494949494949494949FFFA49FAFF49FF49494949FFFBFBFBFBFBFBFB
310
FBFBFBFBFBFBFBFBFBFBFBFBFBFBFAFBFAFBFBFF49494949FF4949494949494949494949494949494949494949FA494949FA49FF49494949FF4949494949494949494949494949494949494949FA494949FA49FF49494949FFFFFFFFFFFFFFFFFFFFFFFFFFFFFFFFFFFFFFFFFFFFFFFFFFFFFFFF4949494949494949494949
310
4949494949494949494949494949FF4949FFFF494949494949494949494949494949494949494949494949494949FFFFFFFAFF494949494949494949494949494949494949494949494949494949FFFFFFFAFF494949494949494949494949494949494949494949494949494949FF4949FFFF494949494949494949494949
310
494949494949494949494949494949FFFFFFFF49494949494949494949494949494949494949494949494949494949494949494949494949
102
{BLKREFS
331
AF2B
102
}
1001
AcDbDynamicBlockGUID
1000
{9941372B-641B-479C-B232-A1C4C3F06589}
  0
ENDTAB
  0
ENDSEC
  0
SECTION
  2
BLOCKS
  0
BLOCK
  5
1A
330
19
100
AcDbEntity
  8
0
100
AcDbBlockBegin
  2
*MODEL_SPACE
 70
     0
 10
0.0
 20
0.0
 30
0.0
  3
*MODEL_SPACE
  1

  0
ENDBLK
  5
1B
330
19
100
AcDbEntity
  8
0
100
AcDbBlockEnd
  0
BLOCK
  5
17
330
16
100
AcDbEntity
 67
     1
  8
0
100
AcDbBlockBegin
  2
*PAPER_SPACE
 70
     0
 10
0.0
 20
0.0
 30
0.0
  3
*PAPER_SPACE
  1

  0
ENDBLK
  5
18
330
16
100
AcDbEntity
 67
     1
  8
0
100
AcDbBlockEnd
  0
BLOCK
  5
AAD7
330
AAD4
100
AcDbEntity
  8
0
100
AcDbBlockBegin
  2
A$C114A6ADA
 70
     0
 10
0.0
 20
0.0
 30
0.0
  3
A$C114A6ADA
  1

  0
LINE
  5
AAD8
330
AAD4
100
AcDbEntity
  8
0
  6
Continuous
100
AcDbLine
 10
299.9999985290054
 20
39.60000009968883
 30
0.0
 11
-0.000001470994448
 21
39.60000009968883
 31
0.0
  0
LINE
  5
AAD9
330
AAD4
100
AcDbEntity
  8
9
  6
Continuous
100
AcDbLine
 10
299.9999985290056
 20
36.80000009968899
 30
0.0
 11
-0.000001470994448
 21
36.80000009968888
 31
0.0
  0
LINE
  5
AADA
330
AAD4
100
AcDbEntity
  8
0
  6
Continuous
100
AcDbLine
 10
299.9999985290054
 20
0.0000000996886911
 30
0.0
 11
-0.000001470994448
 21
0.0000000996888048
 31
0.0
  0
LINE
  5
AADB
330
AAD4
100
AcDbEntity
  8
9
  6
Continuous
100
AcDbLine
 10
299.9999985290054
 20
2.800000099688872
 30
0.0
 11
-0.000001470994448
 21
2.800000099688872
 31
0.0
  0
LINE
  5
AADC
330
AAD4
100
AcDbEntity
  8
0
100
AcDbLine
 10
-0.000001470994448
 20
0.0000000996888048
 30
0.0
 11
-0.000001470994448
 21
39.60000009968883
 31
0.0
  0
LINE
  5
AADD
330
AAD4
100
AcDbEntity
  8
0
100
AcDbLine
 10
299.9999985290056
 20
0.0000000996888048
 30
0.0
 11
299.9999985290056
 21
39.60000009968883
 31
0.0
  0
TEXT
  5
AADE
330
AAD4
100
AcDbEntity
  8
0
100
AcDbText
 10
32.25000152900554
 20
17.80000009968876
 30
0.0
 40
4.0
  1
RM4010
 72
     4
 11
44.25000152900554
 21
19.80000009968876
 31
0.0
100
AcDbText
  0
ENDBLK
  5
AADF
330
AAD4
100
AcDbEntity
  8
0
100
AcDbBlockEnd
  0
BLOCK
  5
AB0C
330
AB09
100
AcDbEntity
  8
0
100
AcDbBlockBegin
  2
A$C7CDE718E
 70
     0
 10
0.0
 20
0.0
 30
0.0
  3
A$C7CDE718E
  1

  0
CIRCLE
  5
AB0D
330
AB09
100
AcDbEntity
  8
0
100
AcDbCircle
 10
7.422836421732426
 20
18.92283574555574
 30
0.0
 40
4.5
  0
CIRCLE
  5
AB0E
330
AB09
100
AcDbEntity
  8
0
100
AcDbCircle
 10
62.57716572173245
 20
18.92283574555574
 30
0.0
 40
4.5
  0
CIRCLE
  5
AB0F
330
AB09
100
AcDbEntity
  8
0
100
AcDbCircle
 10
35.00000142173246
 20
46.50000064555564
 30
0.0
 40
31.5
  0
CIRCLE
  5
AB10
330
AB09
100
AcDbEntity
  8
0
100
AcDbCircle
 10
24.90605842173244
 20
8.828892945555708
 30
0.0
 40
4.5
  0
CIRCLE
  5
AB11
330
AB09
100
AcDbEntity
  8
0
100
AcDbCircle
 10
45.09394402173245
 20
8.828892945555708
 30
0.0
 40
4.5
  0
CIRCLE
  5
AB12
330
AB09
100
AcDbEntity
  8
0
100
AcDbCircle
 10
62.57716572173245
 20
74.07716464555568
 30
0.0
 40
4.5
  0
CIRCLE
  5
AB13
330
AB09
100
AcDbEntity
  8
0
100
AcDbCircle
 10
24.90605842173244
 20
84.17110764555564
 30
0.0
 40
4.5
  0
LWPOLYLINE
  5
AB14
330
AB09
100
AcDbEntity
  8
2
100
AcDbPolyline
 90
        4
 70
     0
 43
0.0
 10
8.785899421732494
 20
83.90415564555571
 10
13.78589942173249
 20
75.24390164555569
 10
20.71410242173243
 20
79.24390164555569
 10
15.71410242173243
 20
87.90415564555571
  0
CIRCLE
  5
AB15
330
AB09
100
AcDbEntity
  8
0
100
AcDbCircle
 10
45.09394402173251
 20
84.17110764555564
 30
0.0
 40
4.5
  0
LWPOLYLINE
  5
AB16
330
AB09
100
AcDbEntity
  8
2
100
AcDbPolyline
 90
        2
 70
     0
 43
0.0
 10
22.17887045136433
 20
61.5883604185949
 10
9.381198421732449
 20
84.24785164555567
  0
LWPOLYLINE
  5
AB17
330
AB09
100
AcDbEntity
  8
2
100
AcDbPolyline
 90
        2
 70
     0
 43
0.0
 10
15.28109042173247
 20
87.65415564555571
 10
28.28698972750288
 20
65.12727833160363
  0
CIRCLE
  5
AB18
330
AB09
100
AcDbEntity
  8
0
100
AcDbCircle
 10
7.422836421732483
 20
74.07716464555568
 30
0.0
 40
4.5
  0
ARC
  5
AB19
330
AB09
100
AcDbEntity
  8
0
100
AcDbCircle
 10
35.00000142173246
 20
46.50000064555564
 30
0.0
 40
46.5
100
AcDbArc
 50
221.1762247037559
 51
318.8237752962442
  0
ARC
  5
AB1A
330
AB09
100
AcDbEntity
  8
0
100
AcDbCircle
 10
35.00000142173246
 20
46.50000064555564
 30
0.0
 40
45.49999999999999
100
AcDbArc
 50
219.7151372318256
 51
320.2848627681744
  0
LINE
  5
AB1B
330
AB09
100
AcDbEntity
  8
0
100
AcDbLine
 10
0.0000014217324633
 20
77.11453967523898
 30
0.0
 11
0.0000014217324065
 21
15.88546161587243
 31
0.0
  0
LINE
  5
AB1C
330
AB09
100
AcDbEntity
  8
0
100
AcDbLine
 10
70.00000142173246
 20
77.11453967523886
 30
0.0
 11
70.00000142173246
 21
15.88546161587237
 31
0.0
  0
ARC
  5
AB1D
330
AB09
100
AcDbEntity
  8
0
100
AcDbCircle
 10
35.00000142173246
 20
46.50000064555564
 30
0.0
 40
46.5
100
AcDbArc
 50
41.17622470375586
 51
108.096010195889
  0
ARC
  5
AB1E
330
AB09
100
AcDbEntity
  8
0
100
AcDbCircle
 10
35.00000142173246
 20
46.50000064555564
 30
0.0
 40
45.49999999999999
100
AcDbArc
 50
39.71513723182561
 51
140.2848627681744
  0
LINE
  5
AB1F
330
AB09
100
AcDbEntity
  8
0
100
AcDbLine
 10
20.55662528465047
 20
90.69998804106035
 30
0.0
 11
3.943377558814461
 21
81.10832499443494
 31
0.0
  0
ARC
  5
AB20
330
AB09
100
AcDbEntity
  8
0
100
AcDbCircle
 10
35.00000142173246
 20
46.50000064555564
 30
0.0
 40
46.5
100
AcDbArc
 50
131.9039898041076
 51
138.8237752962441
  0
ARC
  5
AB21
330
AB09
100
AcDbEntity
  8
9
100
AcDbCircle
 10
35.00000142173246
 20
46.50000064555564
 30
0.0
 40
17.00000000000023
100
AcDbArc
 50
180.0
 51
90.0
  0
CIRCLE
  5
AB22
330
AB09
100
AcDbEntity
  8
0
100
AcDbCircle
 10
35.00000142173246
 20
46.50000064555564
 30
0.0
 40
19.80000000000007
  0
ENDBLK
  5
AB23
330
AB09
100
AcDbEntity
  8
0
100
AcDbBlockEnd
  0
BLOCK
  5
ABDC
330
ABDB
100
AcDbEntity
  8
0
100
AcDbBlockBegin
  2
*D2
 70
     1
 10
0.0
 20
0.0
 30
0.0
  3
*D2
  1

  0
LINE
  5
ACEE
330
ABDB
100
AcDbEntity
  8
0
 62
   115
370
    -2
100
AcDbLine
 10
21.00000101271553
 20
72.50000051865447
 30
0.0
 11
11.00000101271535
 21
72.50000051865447
 31
0.0
  0
LINE
  5
ACEF
330
ABDB
100
AcDbEntity
  8
0
 62
   115
370
    -2
100
AcDbLine
 10
21.00000101271553
 20
106.5000005186544
 30
0.0
 11
11.00000101271536
 21
106.5000005186544
 31
0.0
  0
LINE
  5
ACF0
330
ABDB
100
AcDbEntity
  8
0
 62
   115
370
    -2
100
AcDbLine
 10
12.00000101271535
 20
75.50000051865447
 30
0.0
 11
12.00000101271536
 21
103.5000005186544
 31
0.0
  0
SOLID
  5
ACF1
330
ABDB
100
AcDbEntity
  8
0
 62
   115
100
AcDbTrace
 10
11.50000101271535
 20
75.50000051865447
 30
0.0
 11
12.50000101271535
 21
75.50000051865447
 31
0.0
 12
12.00000101271535
 22
72.50000051865447
 32
0.0
 13
12.00000101271535
 23
72.50000051865447
 33
0.0
  0
SOLID
  5
ACF2
330
ABDB
100
AcDbEntity
  8
0
 62
   115
100
AcDbTrace
 10
11.50000101271536
 20
103.5000005186544
 30
0.0
 11
12.50000101271536
 21
103.5000005186544
 31
0.0
 12
12.00000101271536
 22
106.5000005186544
 32
0.0
 13
12.00000101271536
 23
106.5000005186544
 33
0.0
  0
MTEXT
  5
ACF3
330
ABDB
100
AcDbEntity
  8
0
 62
     7
100
AcDbMText
 10
9.50000101271534
 20
89.50000051865448
 30
0.0
 40
3.0
 41
0.0
 71
     5
 72
     1
  1
\A1;%%C34
 11
0.0000000000000001
 21
1.0
 31
0.0
 73
     1
 44
1.0
1001
ACAD
1000
MTEXTBEGIN
1070
    73
1070
     1
1070
    44
1040
1.0
1070
    74
1070
     0
1000
MTEXTEND
  0
POINT
  5
ACF4
330
ABDB
100
AcDbEntity
  8
DEFPOINTS
 62
     0
100
AcDbPoint
 10
22.00000101271553
 20
72.50000051865447
 30
0.0
  0
POINT
  5
ACF5
330
ABDB
100
AcDbEntity
  8
DEFPOINTS
 62
     0
100
AcDbPoint
 10
22.00000101271553
 20
106.5000005186544
 30
0.0
  0
POINT
  5
ACF6
330
ABDB
100
AcDbEntity
  8
DEFPOINTS
 62
     0
100
AcDbPoint
 10
12.00000101271536
 20
106.5000005186544
 30
0.0
  0
ENDBLK
  5
ABDD
330
ABDB
100
AcDbEntity
  8
0
100
AcDbBlockEnd
  0
BLOCK
  5
ABE8
330
ABE7
100
AcDbEntity
  8
0
100
AcDbBlockBegin
  2
*D3
 70
     1
 10
0.0
 20
0.0
 30
0.0
  3
*D3
  1

  0
LINE
  5
ACF7
330
ABE7
100
AcDbEntity
  8
0
 62
   115
370
    -2
100
AcDbLine
 10
21.00000101271553
 20
69.7000005186544
 30
0.0
 11
3.000001012715335
 21
69.7000005186544
 31
0.0
  0
LINE
  5
ACF8
330
ABE7
100
AcDbEntity
  8
0
 62
   115
370
    -2
100
AcDbLine
 10
21.00000101271553
 20
109.3000005186543
 30
0.0
 11
3.000001012715344
 21
109.3000005186543
 31
0.0
  0
LINE
  5
ACF9
330
ABE7
100
AcDbEntity
  8
0
 62
   115
370
    -2
100
AcDbLine
 10
4.000001012715336
 20
72.70000051865441
 30
0.0
 11
4.000001012715344
 21
106.3000005186543
 31
0.0
  0
SOLID
  5
ACFA
330
ABE7
100
AcDbEntity
  8
0
 62
   115
100
AcDbTrace
 10
3.500001012715336
 20
72.70000051865441
 30
0.0
 11
4.500001012715336
 21
72.70000051865441
 31
0.0
 12
4.000001012715335
 22
69.7000005186544
 32
0.0
 13
4.000001012715335
 23
69.7000005186544
 33
0.0
  0
SOLID
  5
ACFB
330
ABE7
100
AcDbEntity
  8
0
 62
   115
100
AcDbTrace
 10
3.500001012715344
 20
106.3000005186543
 30
0.0
 11
4.500001012715344
 21
106.3000005186543
 31
0.0
 12
4.000001012715344
 22
109.3000005186543
 32
0.0
 13
4.000001012715344
 23
109.3000005186543
 33
0.0
  0
MTEXT
  5
ACFC
330
ABE7
100
AcDbEntity
  8
0
 62
     7
100
AcDbMText
 10
1.500001012715325
 20
89.50000051865435
 30
0.0
 40
3.0
 41
0.0
 71
     5
 72
     1
  1
\A1;%%C39.6
 11
0.0000000000000001
 21
1.0
 31
0.0
 73
     1
 44
1.0
1001
ACAD
1000
MTEXTBEGIN
1070
    73
1070
     1
1070
    44
1040
1.0
1070
    74
1070
     0
1000
MTEXTEND
  0
POINT
  5
ACFD
330
ABE7
100
AcDbEntity
  8
DEFPOINTS
 62
     0
100
AcDbPoint
 10
22.00000101271553
 20
69.7000005186544
 30
0.0
  0
POINT
  5
ACFE
330
ABE7
100
AcDbEntity
  8
DEFPOINTS
 62
     0
100
AcDbPoint
 10
22.00000101271553
 20
109.3000005186543
 30
0.0
  0
POINT
  5
ACFF
330
ABE7
100
AcDbEntity
  8
DEFPOINTS
 62
     0
100
AcDbPoint
 10
4.000001012715344
 20
109.3000005186543
 30
0.0
  0
ENDBLK
  5
ABE9
330
ABE7
100
AcDbEntity
  8
0
100
AcDbBlockEnd
  0
BLOCK
  5
ABF4
330
ABF3
100
AcDbEntity
  8
0
100
AcDbBlockBegin
  2
*D4
 70
     1
 10
0.0
 20
0.0
 30
0.0
  3
*D4
  1

  0
LINE
  5
B043
330
ABF3
100
AcDbEntity
  8
0
 62
   115
370
    -2
100
AcDbLine
 10
127.7500008627154
 20
58.00001196865423
 30
0.0
 11
116.7500008627152
 21
58.00001196865423
 31
0.0
  0
LINE
  5
B044
330
ABF3
100
AcDbEntity
  8
0
 62
   115
370
    -2
100
AcDbLine
 10
127.7500008627154
 20
121.0000041686544
 30
0.0
 11
116.7500008627153
 21
121.0000041686544
 31
0.0
  0
LINE
  5
B045
330
ABF3
100
AcDbEntity
  8
0
 62
   115
370
    -2
100
AcDbLine
 10
117.7500008627152
 20
61.00001196865424
 30
0.0
 11
117.7500008627153
 21
118.0000041686544
 31
0.0
  0
SOLID
  5
B046
330
ABF3
100
AcDbEntity
  8
0
 62
   115
100
AcDbTrace
 10
117.2500008627153
 20
61.00001196865424
 30
0.0
 11
118.2500008627153
 21
61.00001196865424
 31
0.0
 12
117.7500008627152
 22
58.00001196865423
 32
0.0
 13
117.7500008627152
 23
58.00001196865423
 33
0.0
  0
SOLID
  5
B047
330
ABF3
100
AcDbEntity
  8
0
 62
   115
100
AcDbTrace
 10
117.2500008627153
 20
118.0000041686544
 30
0.0
 11
118.2500008627153
 21
118.0000041686544
 31
0.0
 12
117.7500008627153
 22
121.0000041686544
 32
0.0
 13
117.7500008627153
 23
121.0000041686544
 33
0.0
  0
MTEXT
  5
B048
330
ABF3
100
AcDbEntity
  8
0
 62
     7
100
AcDbMText
 10
114.464286577001
 20
89.50000806865435
 30
0.0
 40
3.0
 41
0.0
 71
     5
 72
     1
  1
\A1;%%C63 g6 ({\H0.5x;\S-0.010^ -0.029;})
 11
0.0000000000000001
 21
1.0
 31
0.0
 73
     1
 44
1.0
1001
ACAD
1000
MTEXTBEGIN
1070
    73
1070
     1
1070
    44
1040
1.0
1070
    74
1070
     0
1000
MTEXTEND
  0
POINT
  5
B049
330
ABF3
100
AcDbEntity
  8
DEFPOINTS
 62
     0
100
AcDbPoint
 10
128.7500008627154
 20
58.00001196865423
 30
0.0
  0
POINT
  5
B04A
330
ABF3
100
AcDbEntity
  8
DEFPOINTS
 62
     0
100
AcDbPoint
 10
128.7500008627154
 20
121.0000041686544
 30
0.0
  0
POINT
  5
B04B
330
ABF3
100
AcDbEntity
  8
DEFPOINTS
 62
     0
100
AcDbPoint
 10
117.7500008627153
 20
121.0000041686544
 30
0.0
  0
ENDBLK
  5
ABF5
330
ABF3
100
AcDbEntity
  8
0
100
AcDbBlockEnd
  0
BLOCK
  5
AC00
330
ABFF
100
AcDbEntity
  8
0
100
AcDbBlockBegin
  2
*D5
 70
     1
 10
0.0
 20
0.0
 30
0.0
  3
*D5
  1

  0
LINE
  5
AFDF
330
ABFF
100
AcDbEntity
  8
0
 62
   115
370
    -2
100
AcDbLine
 10
195.2500071627155
 20
43.00000051865438
 30
0.0
 11
195.2500071627155
 21
32.00000051865436
 31
0.0
  0
LINE
  5
AFE0
330
ABFF
100
AcDbEntity
  8
0
 62
   115
370
    -2
100
AcDbLine
 10
127.7500008627154
 20
58.00001196865423
 30
0.0
 11
127.7500008627154
 21
32.00000051865436
 31
0.0
  0
LINE
  5
AFE1
330
ABFF
100
AcDbEntity
  8
0
 62
   115
370
    -2
100
AcDbLine
 10
192.2500071627155
 20
33.00000051865436
 30
0.0
 11
130.7500008627154
 21
33.00000051865436
 31
0.0
  0
SOLID
  5
AFE2
330
ABFF
100
AcDbEntity
  8
0
 62
   115
100
AcDbTrace
 10
192.2500071627155
 20
33.50000051865436
 30
0.0
 11
192.2500071627155
 21
32.50000051865436
 31
0.0
 12
195.2500071627155
 22
33.00000051865436
 32
0.0
 13
195.2500071627155
 23
33.00000051865436
 33
0.0
  0
SOLID
  5
AFE3
330
ABFF
100
AcDbEntity
  8
0
 62
   115
100
AcDbTrace
 10
130.7500008627154
 20
33.50000051865436
 30
0.0
 11
130.7500008627154
 21
32.50000051865436
 31
0.0
 12
127.7500008627154
 22
33.00000051865436
 32
0.0
 13
127.7500008627154
 23
33.00000051865436
 33
0.0
  0
MTEXT
  5
AFE4
330
ABFF
100
AcDbEntity
  8
0
 62
     7
100
AcDbMText
 10
161.5000040127154
 20
35.50000051865436
 30
0.0
 40
3.0
 41
0.0
 71
     5
 72
     1
  1
\A1;67.5
 73
     1
 44
1.0
1001
ACAD
1000
MTEXTBEGIN
1070
    73
1070
     1
1070
    44
1040
1.0
1070
    74
1070
     0
1000
MTEXTEND
  0
POINT
  5
AFE5
330
ABFF
100
AcDbEntity
  8
DEFPOINTS
 62
     0
100
AcDbPoint
 10
195.2500071627155
 20
44.00000051865439
 30
0.0
  0
POINT
  5
AFE6
330
ABFF
100
AcDbEntity
  8
DEFPOINTS
 62
     0
100
AcDbPoint
 10
127.7500008627154
 20
59.00001196865424
 30
0.0
  0
POINT
  5
AFE7
330
ABFF
100
AcDbEntity
  8
DEFPOINTS
 62
     0
100
AcDbPoint
 10
127.7500008627154
 20
33.00000051865436
 30
0.0
  0
ENDBLK
  5
AC01
330
ABFF
100
AcDbEntity
  8
0
100
AcDbBlockEnd
  0
BLOCK
  5
AC0C
330
AC0B
100
AcDbEntity
  8
0
100
AcDbBlockBegin
  2
*D6
 70
     1
 10
0.0
 20
0.0
 30
0.0
  3
*D6
  1

  0
LINE
  5
AFD6
330
AC0B
100
AcDbEntity
  8
0
 62
   115
370
    -2
100
AcDbLine
 10
195.2500071627155
 20
43.00000051865438
 30
0.0
 11
195.2500071627155
 21
32.25000051865436
 31
0.0
  0
LINE
  5
AFD7
330
AC0B
100
AcDbEntity
  8
0
 62
   115
370
    -2
100
AcDbLine
 10
209.2500071627155
 20
43.00000051865436
 30
0.0
 11
209.2500071627155
 21
32.25000051865436
 31
0.0
  0
LINE
  5
AFD8
330
AC0B
100
AcDbEntity
  8
0
 62
   115
370
    -2
100
AcDbLine
 10
198.2500071627155
 20
33.25000051865436
 30
0.0
 11
206.2500071627155
 21
33.25000051865436
 31
0.0
  0
SOLID
  5
AFD9
330
AC0B
100
AcDbEntity
  8
0
 62
   115
100
AcDbTrace
 10
198.2500071627155
 20
33.75000051865436
 30
0.0
 11
198.2500071627155
 21
32.75000051865436
 31
0.0
 12
195.2500071627155
 22
33.25000051865436
 32
0.0
 13
195.2500071627155
 23
33.25000051865436
 33
0.0
  0
SOLID
  5
AFDA
330
AC0B
100
AcDbEntity
  8
0
 62
   115
100
AcDbTrace
 10
206.2500071627155
 20
33.75000051865436
 30
0.0
 11
206.2500071627155
 21
32.75000051865436
 31
0.0
 12
209.2500071627155
 22
33.25000051865436
 32
0.0
 13
209.2500071627155
 23
33.25000051865436
 33
0.0
  0
MTEXT
  5
AFDB
330
AC0B
100
AcDbEntity
  8
0
 62
     7
100
AcDbMText
 10
202.2500071627155
 20
35.75000051865436
 30
0.0
 40
3.0
 41
0.0
 71
     5
 72
     1
  1
\A1;14
 73
     1
 44
1.0
1001
ACAD
1000
MTEXTBEGIN
1070
    73
1070
     1
1070
    44
1040
1.0
1070
    74
1070
     0
1000
MTEXTEND
  0
POINT
  5
AFDC
330
AC0B
100
AcDbEntity
  8
DEFPOINTS
 62
     0
100
AcDbPoint
 10
195.2500071627155
 20
44.00000051865439
 30
0.0
  0
POINT
  5
AFDD
330
AC0B
100
AcDbEntity
  8
DEFPOINTS
 62
     0
100
AcDbPoint
 10
209.2500071627155
 20
44.00000051865435
 30
0.0
  0
POINT
  5
AFDE
330
AC0B
100
AcDbEntity
  8
DEFPOINTS
 62
     0
100
AcDbPoint
 10
209.2500071627155
 20
33.25000051865436
 30
0.0
  0
ENDBLK
  5
AC0D
330
AC0B
100
AcDbEntity
  8
0
100
AcDbBlockEnd
  0
BLOCK
  5
AC18
330
AC17
100
AcDbEntity
  8
0
100
AcDbBlockBegin
  2
*D7
 70
     1
 10
0.0
 20
0.0
 30
0.0
  3
*D7
  1

  0
LINE
  5
AFE8
330
AC17
100
AcDbEntity
  8
0
 62
   115
370
    -2
100
AcDbLine
 10
127.7500008627154
 20
58.00001196865423
 30
0.0
 11
127.7500008627154
 21
24.00000051865436
 31
0.0
  0
LINE
  5
AFE9
330
AC17
100
AcDbEntity
  8
0
 62
   115
370
    -2
100
AcDbLine
 10
216.2500011627154
 20
58.00001196865423
 30
0.0
 11
216.2500011627154
 21
24.00000051865436
 31
0.0
  0
LINE
  5
AFEA
330
AC17
100
AcDbEntity
  8
0
 62
   115
370
    -2
100
AcDbLine
 10
130.7500008627154
 20
25.00000051865436
 30
0.0
 11
213.2500011627155
 21
25.00000051865436
 31
0.0
  0
SOLID
  5
AFEB
330
AC17
100
AcDbEntity
  8
0
 62
   115
100
AcDbTrace
 10
130.7500008627154
 20
25.50000051865436
 30
0.0
 11
130.7500008627154
 21
24.50000051865436
 31
0.0
 12
127.7500008627154
 22
25.00000051865436
 32
0.0
 13
127.7500008627154
 23
25.00000051865436
 33
0.0
  0
SOLID
  5
AFEC
330
AC17
100
AcDbEntity
  8
0
 62
   115
100
AcDbTrace
 10
213.2500011627155
 20
25.50000051865436
 30
0.0
 11
213.2500011627155
 21
24.50000051865436
 31
0.0
 12
216.2500011627154
 22
25.00000051865436
 32
0.0
 13
216.2500011627154
 23
25.00000051865436
 33
0.0
  0
MTEXT
  5
AFED
330
AC17
100
AcDbEntity
  8
0
 62
     7
100
AcDbMText
 10
172.0000010127154
 20
27.50000051865436
 30
0.0
 40
3.0
 41
0.0
 71
     5
 72
     1
  1
\A1;88.5
 73
     1
 44
1.0
1001
ACAD
1000
MTEXTBEGIN
1070
    73
1070
     1
1070
    44
1040
1.0
1070
    74
1070
     0
1000
MTEXTEND
  0
POINT
  5
AFEE
330
AC17
100
AcDbEntity
  8
DEFPOINTS
 62
     0
100
AcDbPoint
 10
127.7500008627154
 20
59.00001196865424
 30
0.0
  0
POINT
  5
AFEF
330
AC17
100
AcDbEntity
  8
DEFPOINTS
 62
     0
100
AcDbPoint
 10
216.2500011627154
 20
59.00001196865424
 30
0.0
  0
POINT
  5
AFF0
330
AC17
100
AcDbEntity
  8
DEFPOINTS
 62
     0
100
AcDbPoint
 10
216.2500011627154
 20
25.00000051865436
 30
0.0
  0
ENDBLK
  5
AC19
330
AC17
100
AcDbEntity
  8
0
100
AcDbBlockEnd
  0
BLOCK
  5
AC24
330
AC23
100
AcDbEntity
  8
0
100
AcDbBlockBegin
  2
*D8
 70
     1
 10
0.0
 20
0.0
 30
0.0
  3
*D8
  1

  0
LINE
  5
AD24
330
AC23
100
AcDbEntity
  8
0
 62
   115
370
    -2
100
AcDbLine
 10
362.4228360127154
 20
61.92283561865441
 30
0.0
 11
345.0000010127153
 21
61.92283561865441
 31
0.0
  0
LINE
  5
AD25
330
AC23
100
AcDbEntity
  8
0
 62
   115
370
    -2
100
AcDbLine
 10
362.4228360127155
 20
117.0771645186544
 30
0.0
 11
345.0000010127153
 21
117.0771645186544
 31
0.0
  0
LINE
  5
AD26
330
AC23
100
AcDbEntity
  8
0
 62
   115
370
    -2
100
AcDbLine
 10
346.0000010127153
 20
64.92283561865441
 30
0.0
 11
346.0000010127153
 21
114.0771645186544
 31
0.0
  0
SOLID
  5
AD27
330
AC23
100
AcDbEntity
  8
0
 62
   115
100
AcDbTrace
 10
345.5000010127153
 20
64.92283561865441
 30
0.0
 11
346.5000010127153
 21
64.92283561865441
 31
0.0
 12
346.0000010127153
 22
61.92283561865441
 32
0.0
 13
346.0000010127153
 23
61.92283561865441
 33
0.0
  0
SOLID
  5
AD28
330
AC23
100
AcDbEntity
  8
0
 62
   115
100
AcDbTrace
 10
345.5000010127153
 20
114.0771645186544
 30
0.0
 11
346.5000010127153
 21
114.0771645186544
 31
0.0
 12
346.0000010127153
 22
117.0771645186544
 32
0.0
 13
346.0000010127153
 23
117.0771645186544
 33
0.0
  0
MTEXT
  5
AD29
330
AC23
100
AcDbEntity
  8
0
 62
     7
100
AcDbMText
 10
342.714286727001
 20
89.50000006865447
 30
0.0
 40
3.0
 41
0.0
 71
     5
 72
     1
  1
\A1;(55.15)
 11
0.0000000000000001
 21
1.0
 31
0.0
 73
     1
 44
1.0
1001
ACAD
1000
MTEXTBEGIN
1070
    73
1070
     1
1070
    44
1040
1.0
1070
    74
1070
     0
1000
MTEXTEND
  0
POINT
  5
AD2A
330
AC23
100
AcDbEntity
  8
DEFPOINTS
 62
     0
100
AcDbPoint
 10
363.4228360127154
 20
61.92283561865441
 30
0.0
  0
POINT
  5
AD2B
330
AC23
100
AcDbEntity
  8
DEFPOINTS
 62
     0
100
AcDbPoint
 10
363.4228360127155
 20
117.0771645186544
 30
0.0
  0
POINT
  5
AD2C
330
AC23
100
AcDbEntity
  8
DEFPOINTS
 62
     0
100
AcDbPoint
 10
346.0000010127153
 20
117.0771645186544
 30
0.0
  0
ENDBLK
  5
AC25
330
AC23
100
AcDbEntity
  8
0
100
AcDbBlockEnd
  0
BLOCK
  5
AC30
330
AC2F
100
AcDbEntity
  8
0
100
AcDbBlockBegin
  2
*D9
 70
     1
 10
0.0
 20
0.0
 30
0.0
  3
*D9
  1

  0
LINE
  5
B04C
330
AC2F
100
AcDbEntity
  8
0
 62
   115
370
    -2
100
AcDbLine
 10
216.2500011627154
 20
58.00001196865423
 30
0.0
 11
227.2500011627153
 21
58.00001196865423
 31
0.0
  0
LINE
  5
B04D
330
AC2F
100
AcDbEntity
  8
0
 62
   115
370
    -2
100
AcDbLine
 10
216.2500011627155
 20
121.0000041686544
 30
0.0
 11
227.2500011627154
 21
121.0000041686544
 31
0.0
  0
LINE
  5
B04E
330
AC2F
100
AcDbEntity
  8
0
 62
   115
370
    -2
100
AcDbLine
 10
226.2500011627153
 20
61.00001196865424
 30
0.0
 11
226.2500011627154
 21
118.0000041686544
 31
0.0
  0
SOLID
  5
B04F
330
AC2F
100
AcDbEntity
  8
0
 62
   115
100
AcDbTrace
 10
225.7500011627153
 20
61.00001196865424
 30
0.0
 11
226.7500011627153
 21
61.00001196865424
 31
0.0
 12
226.2500011627153
 22
58.00001196865423
 32
0.0
 13
226.2500011627153
 23
58.00001196865423
 33
0.0
  0
SOLID
  5
B050
330
AC2F
100
AcDbEntity
  8
0
 62
   115
100
AcDbTrace
 10
225.7500011627154
 20
118.0000041686544
 30
0.0
 11
226.7500011627153
 21
118.0000041686544
 31
0.0
 12
226.2500011627154
 22
121.0000041686544
 32
0.0
 13
226.2500011627154
 23
121.0000041686544
 33
0.0
  0
MTEXT
  5
B051
330
AC2F
100
AcDbEntity
  8
0
 62
     7
100
AcDbMText
 10
222.9642868770011
 20
89.50000806865435
 30
0.0
 40
3.0
 41
0.0
 71
     5
 72
     1
  1
\A1;%%C63 g6 ({\H0.5x;\S-0.010^ -0.029;})
 11
0.0000000000000001
 21
1.0
 31
0.0
 73
     1
 44
1.0
1001
ACAD
1000
MTEXTBEGIN
1070
    73
1070
     1
1070
    44
1040
1.0
1070
    74
1070
     0
1000
MTEXTEND
  0
POINT
  5
B052
330
AC2F
100
AcDbEntity
  8
DEFPOINTS
 62
     0
100
AcDbPoint
 10
215.2500011627155
 20
58.00001196865423
 30
0.0
  0
POINT
  5
B053
330
AC2F
100
AcDbEntity
  8
DEFPOINTS
 62
     0
100
AcDbPoint
 10
215.2500011627155
 20
121.0000041686544
 30
0.0
  0
POINT
  5
B054
330
AC2F
100
AcDbEntity
  8
DEFPOINTS
 62
     0
100
AcDbPoint
 10
226.2500011627154
 20
121.0000041686544
 30
0.0
  0
ENDBLK
  5
AC31
330
AC2F
100
AcDbEntity
  8
0
100
AcDbBlockEnd
  0
BLOCK
  5
AC48
330
AC47
100
AcDbEntity
  8
0
100
AcDbBlockBegin
  2
*D10
 70
     1
 10
0.0
 20
0.0
 30
0.0
  3
*D10
  1

  0
LINE
  5
AFB9
330
AC47
100
AcDbEntity
  8
0
 62
   115
370
    -2
100
AcDbLine
 10
209.2500071627155
 20
43.00000051865436
 30
0.0
 11
209.2500071627155
 21
32.25000051865436
 31
0.0
  0
LINE
  5
AFBA
330
AC47
100
AcDbEntity
  8
0
 62
   115
370
    -2
100
AcDbLine
 10
216.2500011627154
 20
58.00001196865423
 30
0.0
 11
216.2500011627154
 21
32.25000051865436
 31
0.0
  0
LINE
  5
AFBB
330
AC47
100
AcDbEntity
  8
0
 62
   115
370
    -2
100
AcDbLine
 10
206.2500071627155
 20
33.25000051865436
 30
0.0
 11
203.2500071627155
 21
33.25000051865436
 31
0.0
  0
LINE
  5
AFBC
330
AC47
100
AcDbEntity
  8
0
 62
   115
370
    -2
100
AcDbLine
 10
219.2500011627155
 20
33.25000051865436
 30
0.0
 11
222.2500011627154
 21
33.25000051865436
 31
0.0
  0
LINE
  5
AFBD
330
AC47
100
AcDbEntity
  8
0
 62
   115
370
    -2
100
AcDbLine
 10
209.2500071627155
 20
33.25000051865436
 30
0.0
 11
216.2500011627154
 21
33.25000051865436
 31
0.0
  0
SOLID
  5
AFBE
330
AC47
100
AcDbEntity
  8
0
 62
   115
100
AcDbTrace
 10
206.2500071627155
 20
33.75000051865436
 30
0.0
 11
206.2500071627155
 21
32.75000051865436
 31
0.0
 12
209.2500071627155
 22
33.25000051865436
 32
0.0
 13
209.2500071627155
 23
33.25000051865436
 33
0.0
  0
SOLID
  5
AFBF
330
AC47
100
AcDbEntity
  8
0
 62
   115
100
AcDbTrace
 10
219.2500011627155
 20
33.75000051865436
 30
0.0
 11
219.2500011627155
 21
32.75000051865436
 31
0.0
 12
216.2500011627154
 22
33.25000051865436
 32
0.0
 13
216.2500011627154
 23
33.25000051865436
 33
0.0
  0
MTEXT
  5
AFC0
330
AC47
100
AcDbEntity
  8
0
 62
     7
100
AcDbMText
 10
212.7500041627155
 20
35.75000051865436
 30
0.0
 40
3.0
 41
0.0
 71
     5
 72
     1
  1
\A1;7
 73
     1
 44
1.0
1001
ACAD
1000
MTEXTBEGIN
1070
    73
1070
     1
1070
    44
1040
1.0
1070
    74
1070
     0
1000
MTEXTEND
  0
POINT
  5
AFC1
330
AC47
100
AcDbEntity
  8
DEFPOINTS
 62
     0
100
AcDbPoint
 10
209.2500071627155
 20
44.00000051865435
 30
0.0
  0
POINT
  5
AFC2
330
AC47
100
AcDbEntity
  8
DEFPOINTS
 62
     0
100
AcDbPoint
 10
216.2500011627154
 20
59.00001196865424
 30
0.0
  0
POINT
  5
AFC3
330
AC47
100
AcDbEntity
  8
DEFPOINTS
 62
     0
100
AcDbPoint
 10
216.2500011627154
 20
33.25000051865436
 30
0.0
  0
ENDBLK
  5
AC49
330
AC47
100
AcDbEntity
  8
0
100
AcDbBlockEnd
  0
BLOCK
  5
AC56
330
AC55
100
AcDbEntity
  8
0
100
AcDbBlockBegin
  2
*D11
 70
     1
 10
0.0
 20
0.0
 30
0.0
  3
*D11
  1

  0
LINE
  5
AFC4
330
AC55
100
AcDbEntity
  8
0
 62
   115
370
    -2
100
AcDbLine
 10
209.2500071627155
 20
43.00000051865436
 30
0.0
 11
235.2500011627153
 21
43.00000051865436
 31
0.0
  0
LINE
  5
AFC5
330
AC55
100
AcDbEntity
  8
0
 62
   115
370
    -2
100
AcDbLine
 10
209.2500071627155
 20
136.0000005186543
 30
0.0
 11
235.2500011627153
 21
136.0000005186543
 31
0.0
  0
LINE
  5
AFC6
330
AC55
100
AcDbEntity
  8
0
 62
   115
370
    -2
100
AcDbLine
 10
234.2500011627153
 20
46.00000051865436
 30
0.0
 11
234.2500011627154
 21
133.0000005186543
 31
0.0
  0
SOLID
  5
AFC7
330
AC55
100
AcDbEntity
  8
0
 62
   115
100
AcDbTrace
 10
233.7500011627153
 20
46.00000051865436
 30
0.0
 11
234.7500011627154
 21
46.00000051865436
 31
0.0
 12
234.2500011627153
 22
43.00000051865436
 32
0.0
 13
234.2500011627153
 23
43.00000051865436
 33
0.0
  0
SOLID
  5
AFC8
330
AC55
100
AcDbEntity
  8
0
 62
   115
100
AcDbTrace
 10
233.7500011627154
 20
133.0000005186543
 30
0.0
 11
234.7500011627154
 21
133.0000005186543
 31
0.0
 12
234.2500011627154
 22
136.0000005186543
 32
0.0
 13
234.2500011627154
 23
136.0000005186543
 33
0.0
  0
MTEXT
  5
AFC9
330
AC55
100
AcDbEntity
  8
0
 62
     7
100
AcDbMText
 10
231.7500011627153
 20
89.50000051865441
 30
0.0
 40
3.0
 41
0.0
 71
     5
 72
     1
  1
\A1;%%C93
 11
0.0000000000000001
 21
1.0
 31
0.0
 73
     1
 44
1.0
1001
ACAD
1000
MTEXTBEGIN
1070
    73
1070
     1
1070
    44
1040
1.0
1070
    74
1070
     0
1000
MTEXTEND
  0
POINT
  5
AFCA
330
AC55
100
AcDbEntity
  8
DEFPOINTS
 62
     0
100
AcDbPoint
 10
208.2500071627155
 20
43.00000051865436
 30
0.0
  0
POINT
  5
AFCB
330
AC55
100
AcDbEntity
  8
DEFPOINTS
 62
     0
100
AcDbPoint
 10
208.2500071627155
 20
136.0000005186543
 30
0.0
  0
POINT
  5
AFCC
330
AC55
100
AcDbEntity
  8
DEFPOINTS
 62
     0
100
AcDbPoint
 10
234.2500011627154
 20
136.0000005186543
 30
0.0
  0
ENDBLK
  5
AC57
330
AC55
100
AcDbEntity
  8
0
100
AcDbBlockEnd
  0
BLOCK
  5
AC62
330
AC61
100
AcDbEntity
  8
0
100
AcDbBlockBegin
  2
*D12
 70
     1
 10
0.0
 20
0.0
 30
0.0
  3
*D12
  1

  0
LINE
  5
AD53
330
AC61
100
AcDbEntity
  8
0
 62
   115
370
    -2
100
AcDbLine
 10
377.5801274079073
 20
122.7439015335375
 30
0.0
 11
407.2968446484093
 21
139.9008569127015
 31
0.0
  0
LINE
  5
AD54
330
AC61
100
AcDbEntity
  8
0
 62
   115
370
    -2
100
AcDbLine
 10
377.4226502708252
 20
134.199987929042
 30
0.0
 11
402.2968443401278
 21
148.5611111407956
 31
0.0
  0
LINE
  5
AD55
330
AC61
100
AcDbEntity
  8
0
 62
   115
370
    -2
100
AcDbLine
 10
404.9308192085684
 20
141.9989330833935
 30
0.0
 11
402.9308189895852
 21
145.4630349403374
 31
0.0
  0
SOLID
  5
AD56
330
AC61
100
AcDbEntity
  8
0
 62
   115
100
AcDbTrace
 10
405.3638319061643
 20
142.248933090835
 30
0.0
 11
404.4978065109726
 21
141.7489330759519
 31
0.0
 12
406.4308192532176
 22
139.4008568978184
 32
0.0
 13
406.4308192532176
 23
139.4008568978184
 33
0.0
  0
SOLID
  5
AD57
330
AC61
100
AcDbEntity
  8
0
 62
   115
100
AcDbTrace
 10
403.3638316871811
 20
145.7130349477789
 30
0.0
 11
402.4978062919894
 21
145.2130349328959
 31
0.0
 12
401.430818944936
 22
148.0611111259125
 32
0.0
 13
401.430818944936
 23
148.0611111259125
 33
0.0
  0
MTEXT
  5
AD58
330
AC61
100
AcDbEntity
  8
0
 62
     7
100
AcDbMText
 10
406.0958825870561
 20
144.9809840490731
 30
0.0
 40
3.0
 41
0.0
 71
     5
 72
     1
  1
\A1;10
 11
0.5000000148830638
 21
-0.8660253951916976
 31
0.0
 73
     1
 44
1.0
1001
ACAD
1000
MTEXTBEGIN
1070
    73
1070
     1
1070
    44
1040
1.0
1070
    74
1070
     0
1000
MTEXTEND
  0
POINT
  5
AD59
330
AC61
100
AcDbEntity
  8
DEFPOINTS
 62
     0
100
AcDbPoint
 10
376.7141020127156
 20
122.2439015186544
 30
0.0
  0
POINT
  5
AD5A
330
AC61
100
AcDbEntity
  8
DEFPOINTS
 62
     0
100
AcDbPoint
 10
376.5566248756335
 20
133.699987914159
 30
0.0
  0
POINT
  5
AD5B
330
AC61
100
AcDbEntity
  8
DEFPOINTS
 62
     0
100
AcDbPoint
 10
401.430818944936
 20
148.0611111259125
 30
0.0
  0
ENDBLK
  5
AC63
330
AC61
100
AcDbEntity
  8
0
100
AcDbBlockEnd
  0
BLOCK
  5
AC6E
330
AC6D
100
AcDbEntity
  8
0
100
AcDbBlockBegin
  2
*D13
 70
     1
 10
0.0
 20
0.0
 30
0.0
  3
*D13
  1

  0
LINE
  5
AD5C
330
AC6D
100
AcDbEntity
  8
0
 62
   115
370
    -2
100
AcDbLine
 10
371.2141019978325
 20
131.770180913846
 30
0.0
 11
366.2141015907453
 21
140.430435313076
 31
0.0
  0
LINE
  5
AD5D
330
AC6D
100
AcDbEntity
  8
0
 62
   115
370
    -2
100
AcDbLine
 10
364.2858989978324
 20
127.7701809138459
 30
0.0
 11
359.2858986019184
 21
136.4304352937235
 31
0.0
  0
LINE
  5
AD5E
330
AC6D
100
AcDbEntity
  8
0
 62
   115
370
    -2
100
AcDbLine
 10
369.3121777912034
 20
141.0644099625336
 30
0.0
 11
371.9102539767785
 21
142.5644100071828
 31
0.0
  0
LINE
  5
AD5F
330
AC6D
100
AcDbEntity
  8
0
 62
   115
370
    -2
100
AcDbLine
 10
357.1878224312264
 20
134.0644098538826
 30
0.0
 11
344.4448773305487
 21
126.7072667777457
 31
0.0
  0
LINE
  5
AD60
330
AC6D
100
AcDbEntity
  8
0
 62
   115
370
    -2
100
AcDbLine
 10
366.7141016056283
 20
139.5644099178843
 30
0.0
 11
359.7858986168014
 21
135.5644098985318
 31
0.0
  0
SOLID
  5
AD61
330
AC6D
100
AcDbEntity
  8
0
 62
   115
100
AcDbTrace
 10
369.0621777837618
 20
141.4974226601294
 30
0.0
 11
369.5621777986449
 21
140.6313972649377
 31
0.0
 12
366.7141016056283
 22
139.5644099178843
 32
0.0
 13
366.7141016056283
 23
139.5644099178843
 33
0.0
  0
SOLID
  5
AD62
330
AC6D
100
AcDbEntity
  8
0
 62
   115
100
AcDbTrace
 10
356.9378224237848
 20
134.4974225514784
 30
0.0
 11
357.4378224386679
 21
133.6313971562868
 31
0.0
 12
359.7858986168014
 22
135.5644098985318
 32
0.0
 13
359.7858986168014
 23
135.5644098985318
 33
0.0
  0
MTEXT
  5
AD63
330
AC6D
100
AcDbEntity
  8
0
 62
     7
100
AcDbMText
 10
348.2673117508923
 20
131.8009017814687
 30
0.0
 40
3.0
 41
0.0
 71
     5
 72
     1
  1
\A1;M8x1
 11
0.8660253951916851
 21
0.5000000148830852
 31
0.0
 73
     1
 44
1.0
1001
ACAD
1000
MTEXTBEGIN
1070
    73
1070
     1
1070
    44
1040
1.0
1070
    74
1070
     0
1000
MTEXTEND
  0
POINT
  5
AD64
330
AC6D
100
AcDbEntity
  8
DEFPOINTS
 62
     0
100
AcDbPoint
 10
371.7141020127156
 20
130.9041555186543
 30
0.0
  0
POINT
  5
AD65
330
AC6D
100
AcDbEntity
  8
DEFPOINTS
 62
     0
100
AcDbPoint
 10
364.7858990127155
 20
126.9041555186543
 30
0.0
  0
POINT
  5
AD66
330
AC6D
100
AcDbEntity
  8
DEFPOINTS
 62
     0
100
AcDbPoint
 10
359.7858986168014
 20
135.5644098985318
 30
0.0
  0
ENDBLK
  5
AC6F
330
AC6D
100
AcDbEntity
  8
0
100
AcDbBlockEnd
  0
BLOCK
  5
AC7C
330
AC7B
100
AcDbEntity
  8
0
100
AcDbBlockBegin
  2
*D14
 70
     1
 10
0.0
 20
0.0
 30
0.0
  3
*D14
  1

  0
LINE
  5
AD67
330
AC7B
100
AcDbEntity
  8
0
 62
   115
370
    -2
100
AcDbLine
 10
391.0000010127155
 20
140.0000005186543
 30
0.0
 11
391.0000010127155
 21
154.009153876661
 31
0.0
  0
LINE
  5
AD68
330
AC7B
100
AcDbEntity
  8
0
 62
   115
370
    -2
100
AcDbLine
 10
365.8976382284376
 20
132.9785682936464
 30
0.0
 11
358.7454243806416
 21
145.3665661941392
 31
0.0
  0
ARC
  5
AD69
330
AC7B
100
AcDbEntity
  8
0
 62
   115
370
    -2
100
AcDbCircle
 10
391.0000010127156
 20
89.50000010669654
 30
0.0
 40
63.50915376996453
100
AcDbArc
 50
92.70674876446296
 51
117.2932509761586
  0
SOLID
  5
AD6A
330
AC7B
100
AcDbEntity
  8
0
 62
   115
100
AcDbTrace
 10
387.9890285685921
 20
153.4381584695609
 30
0.0
 11
388.0126472111178
 21
152.4384374286073
 31
0.0
 12
391.0000010127155
 22
153.0091538766611
 32
0.0
 13
391.0000010127155
 23
153.0091538766611
 33
0.0
  0
SOLID
  5
AD6B
330
AC7B
100
AcDbEntity
  8
0
 62
   115
100
AcDbTrace
 10
362.1179068875481
 20
145.4999627335142
 30
0.0
 11
361.6385007154744
 21
146.3775558751109
 31
0.0
 12
359.2454243767211
 22
144.5005407880913
 32
0.0
 13
359.2454243767211
 23
144.5005407880913
 33
0.0
  0
MTEXT
  5
AD6C
102
{ACAD_XDICTIONARY
360
B36D
102
}
330
AC7B
100
AcDbEntity
  8
0
 62
     7
100
AcDbMText
 10
373.9155750102688
 20
153.2599465432623
 30
0.0
 40
3.0
 41
0.0
 71
     5
 72
     1
  1
\A1;30\U+00B0
 11
0.9659258268749065
 21
0.258819042916143
 31
0.0
 73
     1
 44
1.0
1001
ACAD
1000
MTEXTBEGIN
1070
    73
1070
     1
1070
    44
1040
1.0
1070
    74
1070
     0
1000
MTEXTEND
  0
POINT
  5
AD6D
330
AC7B
100
AcDbEntity
  8
DEFPOINTS
 62
     0
100
AcDbPoint
 10
379.9717522897719
 20
152.0443071432437
 30
0.0
  0
POINT
  5
AD6E
330
AC7B
100
AcDbEntity
  8
DEFPOINTS
 62
     0
100
AcDbPoint
 10
366.3976382245171
 20
132.1125428875984
 30
0.0
  0
POINT
  5
AD6F
330
AC7B
100
AcDbEntity
  8
DEFPOINTS
 62
     0
100
AcDbPoint
 10
391.0000010127155
 20
40.00000051865436
 30
0.0
  0
POINT
  5
AD70
330
AC7B
100
AcDbEntity
  8
DEFPOINTS
 62
     0
100
AcDbPoint
 10
391.0000010127156
 20
139.0000005186543
 30
0.0
  0
POINT
  5
AD71
330
AC7B
100
AcDbEntity
  8
DEFPOINTS
 62
     0
100
AcDbPoint
 10
381.1984952474777
 20
106.4767062602536
 30
0.0
  0
ENDBLK
  5
AC7D
330
AC7B
100
AcDbEntity
  8
0
100
AcDbBlockEnd
  0
BLOCK
  5
AC8A
330
AC89
100
AcDbEntity
  8
0
100
AcDbBlockBegin
  2
*D15
 70
     1
 10
0.0
 20
0.0
 30
0.0
  3
*D15
  1

  0
LINE
  5
AD72
330
AC89
100
AcDbEntity
  8
0
 62
   115
370
    -2
100
AcDbLine
 10
379.9060580127155
 20
51.82889281865437
 30
0.0
 11
337.0000010127153
 21
51.82889281865437
 31
0.0
  0
LINE
  5
AD73
330
AC89
100
AcDbEntity
  8
0
 62
   115
370
    -2
100
AcDbLine
 10
379.9060580127155
 20
127.1711075186542
 30
0.0
 11
337.0000010127153
 21
127.1711075186543
 31
0.0
  0
LINE
  5
AD74
330
AC89
100
AcDbEntity
  8
0
 62
   115
370
    -2
100
AcDbLine
 10
338.0000010127153
 20
54.82889281865437
 30
0.0
 11
338.0000010127153
 21
124.1711075186543
 31
0.0
  0
SOLID
  5
AD75
330
AC89
100
AcDbEntity
  8
0
 62
   115
100
AcDbTrace
 10
337.5000010127153
 20
54.82889281865437
 30
0.0
 11
338.5000010127153
 21
54.82889281865437
 31
0.0
 12
338.0000010127153
 22
51.82889281865437
 32
0.0
 13
338.0000010127153
 23
51.82889281865437
 33
0.0
  0
SOLID
  5
AD76
330
AC89
100
AcDbEntity
  8
0
 62
   115
100
AcDbTrace
 10
337.5000010127153
 20
124.1711075186543
 30
0.0
 11
338.5000010127153
 21
124.1711075186543
 31
0.0
 12
338.0000010127153
 22
127.1711075186543
 32
0.0
 13
338.0000010127153
 23
127.1711075186543
 33
0.0
  0
MTEXT
  5
AD77
330
AC89
100
AcDbEntity
  8
0
 62
     7
100
AcDbMText
 10
334.714286727001
 20
89.50000016865438
 30
0.0
 40
3.0
 41
0.0
 71
     5
 72
     1
  1
\A1;(75.34)
 11
0.0000000000000001
 21
1.0
 31
0.0
 73
     1
 44
1.0
1001
ACAD
1000
MTEXTBEGIN
1070
    73
1070
     1
1070
    44
1040
1.0
1070
    74
1070
     0
1000
MTEXTEND
  0
POINT
  5
AD78
330
AC89
100
AcDbEntity
  8
DEFPOINTS
 62
     0
100
AcDbPoint
 10
380.9060580127154
 20
51.82889281865437
 30
0.0
  0
POINT
  5
AD79
330
AC89
100
AcDbEntity
  8
DEFPOINTS
 62
     0
100
AcDbPoint
 10
380.9060580127154
 20
127.1711075186542
 30
0.0
  0
POINT
  5
AD7A
330
AC89
100
AcDbEntity
  8
DEFPOINTS
 62
     0
100
AcDbPoint
 10
338.0000010127153
 20
127.1711075186543
 30
0.0
  0
ENDBLK
  5
AC8B
330
AC89
100
AcDbEntity
  8
0
100
AcDbBlockEnd
  0
BLOCK
  5
AC96
330
AC95
100
AcDbEntity
  8
0
100
AcDbBlockBegin
  2
*D16
 70
     1
 10
0.0
 20
0.0
 30
0.0
  3
*D16
  1

  0
LINE
  5
AD7B
330
AC95
100
AcDbEntity
  8
0
 62
   115
370
    -2
100
AcDbLine
 10
356.0000010127155
 20
57.88546148897115
 30
0.0
 11
356.0000010127155
 21
0.0000005186543603
 31
0.0
  0
LINE
  5
AD7C
330
AC95
100
AcDbEntity
  8
0
 62
   115
370
    -2
100
AcDbLine
 10
426.0000010127155
 20
57.88546148897125
 30
0.0
 11
426.0000010127155
 21
0.0000005186543603
 31
0.0
  0
LINE
  5
AD7D
330
AC95
100
AcDbEntity
  8
0
 62
   115
370
    -2
100
AcDbLine
 10
359.0000010127155
 20
1.00000051865436
 30
0.0
 11
423.0000010127155
 21
1.00000051865436
 31
0.0
  0
SOLID
  5
AD7E
330
AC95
100
AcDbEntity
  8
0
 62
   115
100
AcDbTrace
 10
359.0000010127155
 20
1.50000051865436
 30
0.0
 11
359.0000010127155
 21
0.5000005186543604
 31
0.0
 12
356.0000010127155
 22
1.00000051865436
 32
0.0
 13
356.0000010127155
 23
1.00000051865436
 33
0.0
  0
SOLID
  5
AD7F
330
AC95
100
AcDbEntity
  8
0
 62
   115
100
AcDbTrace
 10
423.0000010127155
 20
1.50000051865436
 30
0.0
 11
423.0000010127155
 21
0.5000005186543604
 31
0.0
 12
426.0000010127155
 22
1.00000051865436
 32
0.0
 13
426.0000010127155
 23
1.00000051865436
 33
0.0
  0
MTEXT
  5
AD80
330
AC95
100
AcDbEntity
  8
0
 62
     7
100
AcDbMText
 10
391.0000010127155
 20
3.50000051865436
 30
0.0
 40
3.0
 41
0.0
 71
     5
 72
     1
  1
\A1;70
 73
     1
 44
1.0
1001
ACAD
1000
MTEXTBEGIN
1070
    73
1070
     1
1070
    44
1040
1.0
1070
    74
1070
     0
1000
MTEXTEND
  0
POINT
  5
AD81
330
AC95
100
AcDbEntity
  8
DEFPOINTS
 62
     0
100
AcDbPoint
 10
356.0000010127155
 20
58.88546148897114
 30
0.0
  0
POINT
  5
AD82
330
AC95
100
AcDbEntity
  8
DEFPOINTS
 62
     0
100
AcDbPoint
 10
426.0000010127155
 20
58.88546148897126
 30
0.0
  0
POINT
  5
AD83
330
AC95
100
AcDbEntity
  8
DEFPOINTS
 62
     0
100
AcDbPoint
 10
426.0000010127155
 20
1.00000051865436
 30
0.0
  0
ENDBLK
  5
AC97
330
AC95
100
AcDbEntity
  8
0
100
AcDbBlockEnd
  0
BLOCK
  5
ACA2
330
ACA1
100
AcDbEntity
  8
0
100
AcDbBlockBegin
  2
*D17
 70
     1
 10
0.0
 20
0.0
 30
0.0
  3
*D17
  1

  0
LINE
  5
AD84
330
ACA1
100
AcDbEntity
  8
0
 62
   115
370
    -2
100
AcDbLine
 10
378.7060970720964
 20
43.61852246935465
 30
0.0
 11
376.1179071054964
 21
33.95926518919811
 31
0.0
  0
LINE
  5
AD85
330
ACA1
100
AcDbEntity
  8
0
 62
   115
370
    -2
100
AcDbLine
 10
403.2939049533345
 20
43.61852246935465
 30
0.0
 11
405.8820949199344
 21
33.9592651891981
 31
0.0
  0
ARC
  5
AD86
330
ACA1
100
AcDbEntity
  8
0
 62
   115
370
    -2
100
AcDbCircle
 10
391.0000010127155
 20
89.50000051865378
 30
0.0
 40
56.49999999999941
100
AcDbArc
 50
258.0426124961566
 51
281.9573875038433
  0
SOLID
  5
AD87
330
ACA1
100
AcDbEntity
  8
0
 62
   115
100
AcDbTrace
 10
379.1775542529391
 20
33.73971144481597
 30
0.0
 11
379.4106380007349
 21
34.71216811043837
 31
0.0
 12
376.3767261299698
 22
34.92519102101474
 32
0.0
 13
376.3767261299698
 23
34.92519102101474
 33
0.0
  0
SOLID
  5
AD88
330
ACA1
100
AcDbEntity
  8
0
 62
   115
100
AcDbTrace
 10
402.589364024696
 20
34.71216811043836
 30
0.0
 11
402.8224477724918
 21
33.73971144481596
 31
0.0
 12
405.6232758954611
 22
34.92519102101473
 32
0.0
 13
405.6232758954611
 23
34.92519102101473
 33
0.0
  0
MTEXT
  5
AD89
102
{ACAD_XDICTIONARY
360
B36F
102
}
330
ACA1
100
AcDbEntity
  8
0
 62
     7
100
AcDbMText
 10
391.0000010127155
 20
35.50000051865437
 30
0.0
 40
3.0
 41
0.0
 71
     5
 72
     1
  1
\A1;30\U+00B0
 73
     1
 44
1.0
1001
ACAD
1000
MTEXTBEGIN
1070
    73
1070
     1
1070
    44
1040
1.0
1070
    74
1070
     0
1000
MTEXTEND
  0
POINT
  5
AD8A
330
ACA1
100
AcDbEntity
  8
DEFPOINTS
 62
     0
100
AcDbPoint
 10
386.0757019481631
 20
33.2150000414149
 30
0.0
  0
POINT
  5
AD8B
330
ACA1
100
AcDbEntity
  8
DEFPOINTS
 62
     0
100
AcDbPoint
 10
378.9649160965698
 20
44.58444830117127
 30
0.0
  0
POINT
  5
AD8C
330
ACA1
100
AcDbEntity
  8
DEFPOINTS
 62
     0
100
AcDbPoint
 10
403.0350859288612
 20
44.58444830117127
 30
0.0
  0
POINT
  5
AD8D
330
ACA1
100
AcDbEntity
  8
DEFPOINTS
 62
     0
100
AcDbPoint
 10
399.1528005617606
 20
59.07333577842064
 30
0.0
  0
POINT
  5
AD8E
330
ACA1
100
AcDbEntity
  8
DEFPOINTS
 62
     0
100
AcDbPoint
 10
382.8472014636704
 20
59.07333577842064
 30
0.0
  0
ENDBLK
  5
ACA3
330
ACA1
100
AcDbEntity
  8
0
100
AcDbBlockEnd
  0
BLOCK
  5
ACB0
330
ACAF
100
AcDbEntity
  8
0
100
AcDbBlockBegin
  2
*D18
 70
     1
 10
0.0
 20
0.0
 30
0.0
  3
*D18
  1

  0
LINE
  5
AD8F
330
ACAF
100
AcDbEntity
  8
0
 62
   115
370
    -2
100
AcDbLine
 10
363.4228360127154
 20
60.92283561865452
 30
0.0
 11
363.4228360127154
 21
8.000000518654132
 31
0.0
  0
LINE
  5
AD90
330
ACAF
100
AcDbEntity
  8
0
 62
   115
370
    -2
100
AcDbLine
 10
418.5771653127153
 20
60.92283561865452
 30
0.0
 11
418.5771653127153
 21
8.000000518654132
 31
0.0
  0
LINE
  5
AD91
330
ACAF
100
AcDbEntity
  8
0
 62
   115
370
    -2
100
AcDbLine
 10
366.4228360127154
 20
9.000000518654132
 30
0.0
 11
415.5771653127153
 21
9.000000518654132
 31
0.0
  0
SOLID
  5
AD92
330
ACAF
100
AcDbEntity
  8
0
 62
   115
100
AcDbTrace
 10
366.4228360127154
 20
9.500000518654132
 30
0.0
 11
366.4228360127154
 21
8.500000518654132
 31
0.0
 12
363.4228360127154
 22
9.000000518654132
 32
0.0
 13
363.4228360127154
 23
9.000000518654132
 33
0.0
  0
SOLID
  5
AD93
330
ACAF
100
AcDbEntity
  8
0
 62
   115
100
AcDbTrace
 10
415.5771653127153
 20
9.500000518654132
 30
0.0
 11
415.5771653127153
 21
8.500000518654132
 31
0.0
 12
418.5771653127153
 22
9.000000518654132
 32
0.0
 13
418.5771653127153
 23
9.000000518654132
 33
0.0
  0
MTEXT
  5
AD94
330
ACAF
100
AcDbEntity
  8
0
 62
     7
100
AcDbMText
 10
391.0000006627154
 20
12.28571480436842
 30
0.0
 40
3.0
 41
0.0
 71
     5
 72
     1
  1
\A1;(55.15)
 73
     1
 44
1.0
1001
ACAD
1000
MTEXTBEGIN
1070
    73
1070
     1
1070
    44
1040
1.0
1070
    74
1070
     0
1000
MTEXTEND
  0
POINT
  5
AD95
330
ACAF
100
AcDbEntity
  8
DEFPOINTS
 62
     0
100
AcDbPoint
 10
363.4228360127154
 20
61.92283561865451
 30
0.0
  0
POINT
  5
AD96
330
ACAF
100
AcDbEntity
  8
DEFPOINTS
 62
     0
100
AcDbPoint
 10
418.5771653127153
 20
61.92283561865451
 30
0.0
  0
POINT
  5
AD97
330
ACAF
100
AcDbEntity
  8
DEFPOINTS
 62
     0
100
AcDbPoint
 10
418.5771653127153
 20
9.000000518654132
 30
0.0
  0
ENDBLK
  5
ACB1
330
ACAF
100
AcDbEntity
  8
0
100
AcDbBlockEnd
  0
BLOCK
  5
ACBC
330
ACBB
100
AcDbEntity
  8
0
100
AcDbBlockBegin
  2
*D19
 70
     1
 10
0.0
 20
0.0
 30
0.0
  3
*D19
  1

  0
LINE
  5
AD98
330
ACBB
100
AcDbEntity
  8
0
 62
   115
370
    -2
100
AcDbLine
 10
392.0000010127155
 20
50.49999983456439
 30
0.0
 11
445.0000010127145
 21
50.49999983456437
 31
0.0
  0
LINE
  5
AD99
330
ACBB
100
AcDbEntity
  8
0
 62
   115
370
    -2
100
AcDbLine
 10
392.0000010127155
 20
128.5000012027443
 30
0.0
 11
445.0000010127146
 21
128.5000012027443
 31
0.0
  0
LINE
  5
AD9A
330
ACBB
100
AcDbEntity
  8
0
 62
   115
370
    -2
100
AcDbLine
 10
444.0000010127145
 20
53.49999983456438
 30
0.0
 11
444.0000010127145
 21
125.5000012027443
 31
0.0
  0
SOLID
  5
AD9B
330
ACBB
100
AcDbEntity
  8
0
 62
   115
100
AcDbTrace
 10
443.5000010127145
 20
53.49999983456438
 30
0.0
 11
444.5000010127145
 21
53.49999983456438
 31
0.0
 12
444.0000010127145
 22
50.49999983456437
 32
0.0
 13
444.0000010127145
 23
50.49999983456437
 33
0.0
  0
SOLID
  5
AD9C
330
ACBB
100
AcDbEntity
  8
0
 62
   115
100
AcDbTrace
 10
443.5000010127145
 20
125.5000012027443
 30
0.0
 11
444.5000010127145
 21
125.5000012027443
 31
0.0
 12
444.0000010127146
 22
128.5000012027443
 32
0.0
 13
444.0000010127146
 23
128.5000012027443
 33
0.0
  0
MTEXT
  5
AD9D
330
ACBB
100
AcDbEntity
  8
0
 62
     7
100
AcDbMText
 10
441.5000010127145
 20
89.50000051865442
 30
0.0
 40
3.0
 41
0.0
 71
     5
 72
     1
  1
\A1;PCD 78
 11
0.0000000000000001
 21
1.0
 31
0.0
 73
     1
 44
1.0
1001
ACAD
1000
MTEXTBEGIN
1070
    73
1070
     1
1070
    44
1040
1.0
1070
    74
1070
     0
1000
MTEXTEND
  0
POINT
  5
AD9E
330
ACBB
100
AcDbEntity
  8
DEFPOINTS
 62
     0
100
AcDbPoint
 10
391.0000010127155
 20
50.49999983456439
 30
0.0
  0
POINT
  5
AD9F
330
ACBB
100
AcDbEntity
  8
DEFPOINTS
 62
     0
100
AcDbPoint
 10
391.0000010127155
 20
128.5000012027443
 30
0.0
  0
POINT
  5
ADA0
330
ACBB
100
AcDbEntity
  8
DEFPOINTS
 62
     0
100
AcDbPoint
 10
444.0000010127146
 20
128.5000012027443
 30
0.0
  0
ENDBLK
  5
ACBD
330
ACBB
100
AcDbEntity
  8
0
100
AcDbBlockEnd
  0
BLOCK
  5
ACC8
330
ACC7
100
AcDbEntity
  8
0
100
AcDbBlockBegin
  2
*D20
 70
     1
 10
0.0
 20
0.0
 30
0.0
  3
*D20
  1

  0
LINE
  5
ADA1
330
ACC7
100
AcDbEntity
  8
0
 62
   115
370
    -2
100
AcDbLine
 10
419.5771653127154
 20
112.5771645186544
 30
0.0
 11
437.0000010127146
 21
112.5771645186544
 31
0.0
  0
LINE
  5
ADA2
330
ACC7
100
AcDbEntity
  8
0
 62
   115
370
    -2
100
AcDbLine
 10
419.5771653127154
 20
121.5771645186544
 30
0.0
 11
437.0000010127146
 21
121.5771645186544
 31
0.0
  0
LINE
  5
ADA3
330
ACC7
100
AcDbEntity
  8
0
 62
   115
370
    -2
100
AcDbLine
 10
436.0000010127146
 20
115.5771645186544
 30
0.0
 11
436.0000010127146
 21
118.5771645186544
 31
0.0
  0
LINE
  5
ADA4
330
ACC7
100
AcDbEntity
  8
0
 62
   115
370
    -2
100
AcDbLine
 10
436.0000010127146
 20
121.5771645186544
 30
0.0
 11
436.0000010127146
 21
137.7200216615115
 31
0.0
  0
SOLID
  5
ADA5
330
ACC7
100
AcDbEntity
  8
0
 62
   115
100
AcDbTrace
 10
435.5000010127146
 20
115.5771645186544
 30
0.0
 11
436.5000010127146
 21
115.5771645186544
 31
0.0
 12
436.0000010127146
 22
112.5771645186544
 32
0.0
 13
436.0000010127146
 23
112.5771645186544
 33
0.0
  0
SOLID
  5
ADA6
330
ACC7
100
AcDbEntity
  8
0
 62
   115
100
AcDbTrace
 10
435.5000010127146
 20
118.5771645186544
 30
0.0
 11
436.5000010127146
 21
118.5771645186544
 31
0.0
 12
436.0000010127146
 22
121.5771645186544
 32
0.0
 13
436.0000010127146
 23
121.5771645186544
 33
0.0
  0
MTEXT
  5
ADA7
330
ACC7
100
AcDbEntity
  8
0
 62
     7
100
AcDbMText
 10
433.5000010127146
 20
131.148593090083
 30
0.0
 40
3.0
 41
0.0
 71
     5
 72
     1
  1
\A1;8-%%C9
 11
0.0000000000000001
 21
1.0
 31
0.0
 73
     1
 44
1.0
1001
ACAD
1000
MTEXTBEGIN
1070
    73
1070
     1
1070
    44
1040
1.0
1070
    74
1070
     0
1000
MTEXTEND
  0
POINT
  5
ADA8
330
ACC7
100
AcDbEntity
  8
DEFPOINTS
 62
     0
100
AcDbPoint
 10
418.5771653127154
 20
112.5771645186544
 30
0.0
  0
POINT
  5
ADA9
330
ACC7
100
AcDbEntity
  8
DEFPOINTS
 62
     0
100
AcDbPoint
 10
418.5771653127154
 20
121.5771645186544
 30
0.0
  0
POINT
  5
ADAA
330
ACC7
100
AcDbEntity
  8
DEFPOINTS
 62
     0
100
AcDbPoint
 10
436.0000010127146
 20
121.5771645186544
 30
0.0
  0
ENDBLK
  5
ACC9
330
ACC7
100
AcDbEntity
  8
0
100
AcDbBlockEnd
  0
BLOCK
  5
ACD5
330
ACD4
100
AcDbEntity
  8
0
100
AcDbBlockBegin
  2
*D21
 70
     1
 10
0.0
 20
0.0
 30
0.0
  3
*D21
  1

  0
LINE
  5
ADAB
330
ACD4
100
AcDbEntity
  8
0
 62
   115
370
    -2
100
AcDbLine
 10
380.9060580127154
 20
50.82889281865448
 30
0.0
 11
380.9060580127154
 21
16.00000051865413
 31
0.0
  0
LINE
  5
ADAC
330
ACD4
100
AcDbEntity
  8
0
 62
   115
370
    -2
100
AcDbLine
 10
401.0939436127154
 20
50.82889281865448
 30
0.0
 11
401.0939436127154
 21
16.00000051865413
 31
0.0
  0
LINE
  5
ADAD
330
ACD4
100
AcDbEntity
  8
0
 62
   115
370
    -2
100
AcDbLine
 10
383.9060580127154
 20
17.00000051865413
 30
0.0
 11
398.0939436127155
 21
17.00000051865413
 31
0.0
  0
SOLID
  5
ADAE
330
ACD4
100
AcDbEntity
  8
0
 62
   115
100
AcDbTrace
 10
383.9060580127154
 20
17.50000051865413
 30
0.0
 11
383.9060580127154
 21
16.50000051865413
 31
0.0
 12
380.9060580127154
 22
17.00000051865413
 32
0.0
 13
380.9060580127154
 23
17.00000051865413
 33
0.0
  0
SOLID
  5
ADAF
330
ACD4
100
AcDbEntity
  8
0
 62
   115
100
AcDbTrace
 10
398.0939436127155
 20
17.50000051865413
 30
0.0
 11
398.0939436127155
 21
16.50000051865413
 31
0.0
 12
401.0939436127154
 22
17.00000051865413
 32
0.0
 13
401.0939436127154
 23
17.00000051865413
 33
0.0
  0
MTEXT
  5
ADB0
330
ACD4
100
AcDbEntity
  8
0
 62
     7
100
AcDbMText
 10
391.0000008127154
 20
20.28571480436842
 30
0.0
 40
3.0
 41
0.0
 71
     5
 72
     1
  1
\A1;(20.19)
 73
     1
 44
1.0
1001
ACAD
1000
MTEXTBEGIN
1070
    73
1070
     1
1070
    44
1040
1.0
1070
    74
1070
     0
1000
MTEXTEND
  0
POINT
  5
ADB1
330
ACD4
100
AcDbEntity
  8
DEFPOINTS
 62
     0
100
AcDbPoint
 10
380.9060580127154
 20
51.82889281865448
 30
0.0
  0
POINT
  5
ADB2
330
ACD4
100
AcDbEntity
  8
DEFPOINTS
 62
     0
100
AcDbPoint
 10
401.0939436127154
 20
51.82889281865448
 30
0.0
  0
POINT
  5
ADB3
330
ACD4
100
AcDbEntity
  8
DEFPOINTS
 62
     0
100
AcDbPoint
 10
401.0939436127154
 20
17.00000051865413
 30
0.0
  0
ENDBLK
  5
ACD6
330
ACD4
100
AcDbEntity
  8
0
100
AcDbBlockEnd
  0
BLOCK
  5
ACE1
330
ACE0
100
AcDbEntity
  8
0
100
AcDbBlockBegin
  2
*D22
 70
     1
 10
0.0
 20
0.0
 30
0.0
  3
*D22
  1

  0
LINE
  5
ADB4
330
ACE0
100
AcDbEntity
  8
0
 62
   115
370
    -2
100
AcDbLine
 10
357.412428897573
 20
55.91242690132306
 30
0.0
 11
344.6845078807164
 21
43.18450531521571
 31
0.0
  0
LINE
  5
ADB5
330
ACE0
100
AcDbEntity
  8
0
 62
   115
370
    -2
100
AcDbLine
 10
424.5875731278579
 20
55.91242690132307
 30
0.0
 11
437.3154941447146
 21
43.18450531521593
 31
0.0
  0
ARC
  5
ADB6
330
ACE0
100
AcDbEntity
  8
0
 62
   115
370
    -2
100
AcDbCircle
 10
391.0000010127154
 20
89.50000051865456
 30
0.0
 40
64.50000000000014
100
AcDbArc
 50
227.6651615298229
 51
312.3348384701774
  0
SOLID
  5
ADB7
330
ACE0
100
AcDbEntity
  8
0
 62
   115
100
AcDbTrace
 10
347.2164587586861
 20
41.45851861530086
 30
0.0
 11
347.9069299407882
 21
42.18187851651644
 31
0.0
 12
345.3916146460904
 22
43.89161211221478
 32
0.0
 13
345.3916146460904
 23
43.89161211221478
 33
0.0
  0
SOLID
  5
ADB8
330
ACE0
100
AcDbEntity
  8
0
 62
   115
100
AcDbTrace
 10
434.0930720846428
 20
42.18187851651664
 30
0.0
 11
434.7835432667449
 21
41.45851861530107
 31
0.0
 12
436.6083873793406
 22
43.89161211221499
 32
0.0
 13
436.6083873793406
 23
43.89161211221499
 33
0.0
  0
MTEXT
  5
ADB9
102
{ACAD_XDICTIONARY
360
B371
102
}
330
ACE0
100
AcDbEntity
  8
0
 62
     7
100
AcDbMText
 10
391.0000010127155
 20
27.50000051865443
 30
0.0
 40
3.0
 41
0.0
 71
     5
 72
     1
  1
\A1;90\U+00B0
 73
     1
 44
1.0
1001
ACAD
1000
MTEXTBEGIN
1070
    73
1070
     1
1070
    44
1040
1.0
1070
    74
1070
     0
1000
MTEXTEND
  0
POINT
  5
ADBA
330
ACE0
100
AcDbEntity
  8
DEFPOINTS
 62
     0
100
AcDbPoint
 10
374.3061730680093
 20
27.19778459857217
 30
0.0
  0
POINT
  5
ADBB
330
ACE0
100
AcDbEntity
  8
DEFPOINTS
 62
     0
100
AcDbPoint
 10
358.119535662947
 20
56.61953369832213
 30
0.0
  0
POINT
  5
ADBC
330
ACE0
100
AcDbEntity
  8
DEFPOINTS
 62
     0
100
AcDbPoint
 10
423.8804663624839
 20
56.61953369832213
 30
0.0
  0
POINT
  5
ADBD
330
ACE0
100
AcDbEntity
  8
DEFPOINTS
 62
     0
100
AcDbPoint
 10
413.2738648818734
 20
67.22613565330812
 30
0.0
  0
POINT
  5
ADBE
330
ACE0
100
AcDbEntity
  8
DEFPOINTS
 62
     0
100
AcDbPoint
 10
368.7261371435575
 20
67.22613565330812
 30
0.0
  0
ENDBLK
  5
ACE2
330
ACE0
100
AcDbEntity
  8
0
100
AcDbBlockEnd
  0
BLOCK
  5
AF08
330
AF07
100
AcDbEntity
  8
0
100
AcDbBlockBegin
  2
4010SDK
 70
     0
 10
0.0
 20
0.0
 30
0.0
  3
4010SDK
  1

  0
TEXT
  5
B260
330
AF07
100
AcDbEntity
  8
0
100
AcDbText
 10
149.7271104313922
 20
287.5000013686545
 30
0.0
 40
4.0
  1
SDK4010
 72
     4
 11
163.2509199552018
 21
289.5000013686545
 31
0.0
100
AcDbText
  0
LINE
  5
B261
330
AF07
100
AcDbEntity
  8
0
100
AcDbLine
 10
196.2500071627154
 20
336.0000005186544
 30
0.0
 11
196.2500071627154
 21
320.1145395483377
 31
0.0
  0
LINE
  5
B262
330
AF07
100
AcDbEntity
  8
0
100
AcDbLine
 10
196.2500071627155
 20
258.885461488971
 30
0.0
 11
196.2500071627155
 21
243.0000005186544
 31
0.0
  0
LINE
  5
B263
330
AF07
100
AcDbEntity
  8
0
100
AcDbLine
 10
195.2500071627154
 20
335.0000005186544
 30
0.0
 11
195.2500071627155
 21
244.0000005186544
 31
0.0
  0
LINE
  5
B264
330
AF07
100
AcDbEntity
  8
0
100
AcDbLine
 10
196.2500071627155
 20
243.0000005186544
 30
0.0
 11
195.2500071627155
 21
244.0000005186544
 31
0.0
  0
LINE
  5
B265
330
AF07
100
AcDbEntity
  8
0
100
AcDbLine
 10
196.2500071627154
 20
336.0000005186544
 30
0.0
 11
195.2500071627154
 21
335.0000005186544
 31
0.0
  0
LINE
  5
B266
330
AF07
100
AcDbEntity
  8
0
100
AcDbLine
 10
128.7500008627154
 20
258.0000119686543
 30
0.0
 11
128.7500008627154
 21
321.0000041686544
 31
0.0
  0
LINE
  5
B267
330
AF07
100
AcDbEntity
  8
0
100
AcDbLine
 10
215.2500011627155
 20
258.0000119686542
 30
0.0
 11
215.2500011627155
 21
321.0000041686544
 31
0.0
  0
LINE
  5
B268
330
AF07
100
AcDbEntity
  8
0
100
AcDbLine
 10
209.2500071627155
 20
335.0000005186544
 30
0.0
 11
209.2500071627155
 21
244.0000005186544
 31
0.0
  0
LINE
  5
B269
330
AF07
100
AcDbEntity
  8
0
100
AcDbLine
 10
208.2500071627155
 20
243.0000005186544
 30
0.0
 11
209.2500071627155
 21
244.0000005186544
 31
0.0
  0
LINE
  5
B26A
330
AF07
100
AcDbEntity
  8
0
100
AcDbLine
 10
208.2500071627155
 20
336.0000005186543
 30
0.0
 11
209.2500071627155
 21
335.0000005186544
 31
0.0
  0
LINE
  5
B26B
330
AF07
100
AcDbEntity
  8
0
100
AcDbLine
 10
208.2500071627155
 20
243.0000005186544
 30
0.0
 11
208.2500071627155
 21
258.885461488971
 31
0.0
  0
LINE
  5
B26C
330
AF07
100
AcDbEntity
  8
0
100
AcDbLine
 10
208.2500071627155
 20
320.1145395483376
 30
0.0
 11
208.2500071627155
 21
336.0000005186543
 31
0.0
  0
LINE
  5
B26D
330
AF07
100
AcDbEntity
  8
0
100
AcDbLine
 10
127.7500008627154
 20
320.0000041686544
 30
0.0
 11
127.7500008627154
 21
259.0000119686542
 31
0.0
  0
LINE
  5
B26E
330
AF07
100
AcDbEntity
  8
0
100
AcDbLine
 10
128.7500008627154
 20
258.0000119686542
 30
0.0
 11
127.7500008627154
 21
259.0000119686542
 31
0.0
  0
LINE
  5
B26F
330
AF07
100
AcDbEntity
  8
0
100
AcDbLine
 10
128.7500008627154
 20
321.0000041686544
 30
0.0
 11
127.7500008627154
 21
320.0000041686544
 31
0.0
  0
LINE
  5
B270
330
AF07
100
AcDbEntity
  8
0
100
AcDbLine
 10
128.7500008627154
 20
258.0000119686542
 30
0.0
 11
195.2500011627155
 21
258.0000119686542
 31
0.0
  0
LINE
  5
B271
330
AF07
100
AcDbEntity
  8
0
100
AcDbLine
 10
196.2500071627155
 20
243.0000005186544
 30
0.0
 11
208.2500071627155
 21
243.0000005186544
 31
0.0
  0
LINE
  5
B272
330
AF07
100
AcDbEntity
  8
0
100
AcDbLine
 10
209.2500011627155
 20
258.0000119686542
 30
0.0
 11
215.2500011627155
 21
258.0000119686542
 31
0.0
  0
LINE
  5
B273
330
AF07
100
AcDbEntity
  8
0
100
AcDbLine
 10
216.2500011627154
 20
259.0000119686542
 30
0.0
 11
216.2500011627155
 21
320.0000041686544
 31
0.0
  0
LINE
  5
B274
330
AF07
100
AcDbEntity
  8
0
100
AcDbLine
 10
215.2500011627155
 20
258.0000119686542
 30
0.0
 11
216.2500011627154
 21
259.0000119686542
 31
0.0
  0
LINE
  5
B275
330
AF07
100
AcDbEntity
  8
0
100
AcDbLine
 10
215.2500011627155
 20
321.0000041686544
 30
0.0
 11
216.2500011627155
 21
320.0000041686544
 31
0.0
  0
LINE
  5
B276
330
AF07
100
AcDbEntity
  8
0
100
AcDbLine
 10
215.2500011627155
 20
321.0000041686544
 30
0.0
 11
209.2500011627155
 21
321.0000041686544
 31
0.0
  0
LINE
  5
B277
330
AF07
100
AcDbEntity
  8
0
100
AcDbLine
 10
208.2500071627155
 20
336.0000005186543
 30
0.0
 11
196.2500071627154
 21
336.0000005186544
 31
0.0
  0
LINE
  5
B278
330
AF07
100
AcDbEntity
  8
0
100
AcDbLine
 10
195.2500011627155
 20
321.0000041686544
 30
0.0
 11
128.7500008627154
 21
321.0000041686544
 31
0.0
  0
LINE
  5
B279
330
AF07
100
AcDbEntity
  8
0
100
AcDbLine
 10
195.2500071627154
 20
320.1145395483377
 30
0.0
 11
209.2500071627155
 21
320.1145395483377
 31
0.0
  0
LINE
  5
B27A
330
AF07
100
AcDbEntity
  8
0
100
AcDbLine
 10
195.2500071627155
 20
258.8854614889712
 30
0.0
 11
209.2500071627155
 21
258.8854614889712
 31
0.0
  0
LINE
  5
B27B
330
AF07
100
AcDbEntity
  8
9
100
AcDbLine
 10
195.2500071627155
 20
258.8854614889712
 30
0.0
 11
209.2500071627155
 21
320.1145395483377
 31
0.0
  0
LINE
  5
B27C
330
AF07
100
AcDbEntity
  8
9
100
AcDbLine
 10
195.2500071627154
 20
320.1145395483377
 30
0.0
 11
209.2500071627155
 21
258.8854614889712
 31
0.0
  0
LINE
  5
B27D
330
AF07
100
AcDbEntity
  8
2
100
AcDbLine
 10
127.7500008627154
 20
309.3000005186544
 30
0.0
 11
216.2500011627155
 21
309.3000005186544
 31
0.0
  0
LINE
  5
B27E
330
AF07
100
AcDbEntity
  8
2
100
AcDbLine
 10
216.2500011627155
 20
269.7000005186543
 30
0.0
 11
127.7500008627154
 21
269.7000005186543
 31
0.0
  0
LWPOLYLINE
  5
B290
330
AF07
100
AcDbEntity
  8
0
100
AcDbPolyline
 90
       35
 70
   128
 43
0.0
 10
202.2500071627153
 20
327.2040005186544
 10
202.8747555232917
 20
327.2329462491918
 10
203.4782288277517
 20
327.318797728667
 10
204.0398765164984
 20
327.458631387914
 10
204.5405723511137
 20
327.6476853593792
 10
204.9632657354683
 20
327.8795216368096
 10
205.2935623533227
 20
328.1462453138342
 10
205.520214349503
 20
328.4387734355318
 10
205.6355033621185
 20
328.7471443075668
 10
205.6355033621185
 20
329.060856729742
 10
205.520214349503
 20
329.3692276017769
 10
205.2935623533227
 20
329.6617557234745
 10
204.9632657354683
 20
329.9284794004991
 10
204.5405723511137
 20
330.1603156779295
 10
204.0398765164984
 20
330.3493696493947
 10
203.4782288277517
 20
330.4892033086418
 10
202.8747555232917
 20
330.575054788117
 10
202.2500071627153
 20
330.6040005186544
 10
201.625258802139
 20
330.575054788117
 10
201.0217854976791
 20
330.4892033086418
 10
200.4601378089324
 20
330.3493696493947
 10
199.959441974317
 20
330.1603156779295
 10
199.5367485899626
 20
329.9284794004991
 10
199.2064519721082
 20
329.6617557234745
 10
198.9797999759278
 20
329.3692276017769
 10
198.8645109633123
 20
329.060856729742
 10
198.8645109633123
 20
328.7471443075667
 10
198.9797999759278
 20
328.4387734355318
 10
199.2064519721082
 20
328.1462453138342
 10
199.5367485899626
 20
327.8795216368096
 10
199.9594419743171
 20
327.6476853593792
 10
200.4601378089325
 20
327.458631387914
 10
201.0217854976792
 20
327.318797728667
 10
201.6252588021392
 20
327.2329462491918
 10
202.2500071627153
 20
327.2040005186544
  0
LWPOLYLINE
  5
B291
330
AF07
100
AcDbEntity
  8
9
100
AcDbPolyline
 90
        9
 70
   128
 43
0.0
 10
206.2500071627155
 20
328.9040005186544
 10
205.9455252927606
 20
328.1386336539242
 10
205.0784342874617
 20
327.4897869562813
 10
203.7807408921759
 20
327.0562414536319
 10
202.2500071627155
 20
326.9040005186544
 10
200.7192734332551
 20
327.0562414536319
 10
199.4215800379692
 20
327.4897869562813
 10
198.5544890326703
 20
328.1386336539242
 10
198.2500071627154
 20
328.9040005186544
  0
LWPOLYLINE
  5
B292
330
AF07
100
AcDbEntity
  8
9
100
AcDbPolyline
 90
        5
 70
   128
 43
0.0
 10
202.2500071627155
 20
330.9040005186544
 10
203.7807408921759
 20
330.751759583677
 10
205.0784342874617
 20
330.3182140810275
 10
205.9455252927606
 20
329.6693673833845
 10
206.2500071627155
 20
328.9040005186544
  0
ENDBLK
  5
AF09
330
AF07
100
AcDbEntity
  8
0
100
AcDbBlockEnd
  0
ENDSEC
  0
SECTION
  2
ENTITIES
  0
LINE
  5
ABB3
330
19
100
AcDbEntity
  8
1
100
AcDbLine
 10
19.00000101271556
 20
89.50000051865435
 30
0.0
 11
325.0000010127155
 21
89.50000051865435
 31
0.0
  0
DIMENSION
  5
ABB4
330
19
100
AcDbEntity
  8
0
100
AcDbDimension
  2
*D2
 10
12.00000101271536
 20
106.5000005186544
 30
0.0
 11
9.50000101271534
 21
89.50000051865448
 31
0.0
 70
    32
  1
%%C<>
 71
     5
 42
34.0
  3
STANDARD
100
AcDbAlignedDimension
 13
22.00000101271553
 23
72.50000051865447
 33
0.0
 14
22.00000101271553
 24
106.5000005186544
 34
0.0
 50
90.0
100
AcDbRotatedDimension
1001
ACAD
1000
DSTYLE
1002
{
1070
    41
1040
3.0
1070
    42
1040
1.0
1070
    43
1040
1.0
1070
    44
1040
1.0
1070
    73
1070
     0
1070
    74
1070
     0
1070
    77
1070
     3
1070
    78
1070
     8
1070
   141
1040
-1.0
1070
   147
1040
1.0
1070
   172
1070
     1
1070
   176
1070
   115
1070
   177
1070
   115
1070
   178
1070
     7
1070
   271
1070
     2
1070
   272
1070
     2
1002
}
  0
DIMENSION
  5
ABB5
330
19
100
AcDbEntity
  8
0
100
AcDbDimension
  2
*D3
 10
4.000001012715344
 20
109.3000005186543
 30
0.0
 11
1.500001012715325
 21
89.50000051865435
 31
0.0
 70
    32
  1
%%C<>
 71
     5
 42
39.59999999999991
  3
STANDARD
100
AcDbAlignedDimension
 13
22.00000101271553
 23
69.7000005186544
 33
0.0
 14
22.00000101271553
 24
109.3000005186543
 34
0.0
 50
90.0
100
AcDbRotatedDimension
1001
ACAD
1000
DSTYLE
1002
{
1070
    41
1040
3.0
1070
    42
1040
1.0
1070
    43
1040
1.0
1070
    44
1040
1.0
1070
    73
1070
     0
1070
    74
1070
     0
1070
    77
1070
     3
1070
    78
1070
     8
1070
   141
1040
-1.0
1070
   147
1040
1.0
1070
   172
1070
     1
1070
   176
1070
   115
1070
   177
1070
   115
1070
   178
1070
     7
1070
   271
1070
     2
1070
   272
1070
     2
1002
}
  0
DIMENSION
  5
ABB6
330
19
100
AcDbEntity
  8
0
100
AcDbDimension
  2
*D4
 10
117.7500008627153
 20
121.0000041686544
 30
0.0
 11
114.464286577001
 21
89.50000806865435
 31
0.0
 70
    32
  1
%%C<> g6 ({\H0.5x;\S-0.010^ -0.029;})
 71
     5
 42
62.99999220000017
  3
STANDARD
100
AcDbAlignedDimension
 13
128.7500008627154
 23
58.00001196865423
 33
0.0
 14
128.7500008627154
 24
121.0000041686544
 34
0.0
 50
90.0
100
AcDbRotatedDimension
1001
ACAD
1000
DSTYLE
1002
{
1070
   998
1000
1,1,-0.01,-0.029,0,0,2,H7,g6,256
1070
    48
1040
0.029
1070
    47
1040
-0.01
1070
    71
1070
     0
1070
    72
1070
     0
1070
   284
1070
     8
1070
   283
1070
     1
1070
   146
1040
1.0
1070
     3
1000

1070
    41
1040
3.0
1070
    42
1040
1.0
1070
    43
1040
1.0
1070
    44
1040
1.0
1070
    73
1070
     0
1070
    74
1070
     0
1070
    77
1070
     3
1070
    78
1070
     8
1070
   141
1040
-1.0
1070
   147
1040
1.0
1070
   172
1070
     1
1070
   176
1070
   115
1070
   177
1070
   115
1070
   178
1070
     7
1070
   271
1070
     2
1070
   272
1070
     3
1002
}
  0
DIMENSION
  5
ABB7
330
19
100
AcDbEntity
  8
0
100
AcDbDimension
  2
*D5
 10
127.7500008627154
 20
33.00000051865436
 30
0.0
 11
161.5000040127154
 21
35.50000051865436
 31
0.0
 70
    32
 71
     5
 42
67.50000630000011
  3
STANDARD
100
AcDbAlignedDimension
 13
195.2500071627155
 23
44.00000051865439
 33
0.0
 14
127.7500008627154
 24
59.00001196865424
 34
0.0
100
AcDbRotatedDimension
1001
ACAD
1000
DSTYLE
1002
{
1070
    41
1040
3.0
1070
    42
1040
1.0
1070
    43
1040
1.0
1070
    44
1040
1.0
1070
    47
1040
1.0
1070
    48
1040
1.0
1070
    73
1070
     0
1070
    74
1070
     0
1070
    77
1070
     3
1070
    78
1070
     8
1070
   141
1040
-1.0
1070
   147
1040
1.0
1070
   172
1070
     1
1070
   176
1070
   115
1070
   177
1070
   115
1070
   178
1070
     7
1070
   271
1070
     2
1070
   272
1070
     3
1070
   284
1070
     8
1002
}
  0
DIMENSION
  5
ABB8
330
19
100
AcDbEntity
  8
0
100
AcDbDimension
  2
*D6
 10
209.2500071627155
 20
33.25000051865436
 30
0.0
 11
202.2500071627155
 21
35.75000051865436
 31
0.0
 70
    32
 71
     5
 42
14.0
  3
STANDARD
100
AcDbAlignedDimension
 13
195.2500071627155
 23
44.00000051865439
 33
0.0
 14
209.2500071627155
 24
44.00000051865435
 34
0.0
100
AcDbRotatedDimension
1001
ACAD
1000
DSTYLE
1002
{
1070
    41
1040
3.0
1070
    42
1040
1.0
1070
    43
1040
1.0
1070
    44
1040
1.0
1070
    73
1070
     0
1070
    74
1070
     0
1070
    77
1070
     3
1070
    78
1070
     8
1070
   141
1040
-1.0
1070
   147
1040
1.0
1070
   172
1070
     1
1070
   176
1070
   115
1070
   177
1070
   115
1070
   178
1070
     7
1070
   271
1070
     2
1070
   272
1070
     2
1002
}
  0
DIMENSION
  5
ABB9
330
19
100
AcDbEntity
  8
0
100
AcDbDimension
  2
*D7
 10
216.2500011627154
 20
25.00000051865436
 30
0.0
 11
172.0000010127154
 21
27.50000051865436
 31
0.0
 70
    32
 71
     5
 42
88.50000030000003
  3
STANDARD
100
AcDbAlignedDimension
 13
127.7500008627154
 23
59.00001196865424
 33
0.0
 14
216.2500011627154
 24
59.00001196865424
 34
0.0
100
AcDbRotatedDimension
1001
ACAD
1000
DSTYLE
1002
{
1070
    41
1040
3.0
1070
    42
1040
1.0
1070
    43
1040
1.0
1070
    44
1040
1.0
1070
    47
1040
1.0
1070
    48
1040
1.0
1070
    73
1070
     0
1070
    74
1070
     0
1070
    77
1070
     3
1070
    78
1070
     8
1070
   141
1040
-1.0
1070
   147
1040
1.0
1070
   172
1070
     1
1070
   176
1070
   115
1070
   177
1070
   115
1070
   178
1070
     7
1070
   271
1070
     2
1070
   272
1070
     3
1070
   284
1070
     8
1002
}
  0
DIMENSION
  5
ABBA
330
19
100
AcDbEntity
  8
0
100
AcDbDimension
  2
*D8
 10
346.0000010127153
 20
117.0771645186544
 30
0.0
 11
342.714286727001
 21
89.50000006865447
 31
0.0
 70
    32
  1
(<>)
 71
     5
 42
55.1543289
  3
STANDARD
100
AcDbAlignedDimension
 13
363.4228360127154
 23
61.92283561865441
 33
0.0
 14
363.4228360127155
 24
117.0771645186544
 34
0.0
 50
90.0
100
AcDbRotatedDimension
1001
ACAD
1000
DSTYLE
1002
{
1070
    41
1040
3.0
1070
    42
1040
1.0
1070
    43
1040
1.0
1070
    44
1040
1.0
1070
    73
1070
     0
1070
    74
1070
     0
1070
    77
1070
     3
1070
    78
1070
     8
1070
   141
1040
-1.0
1070
   147
1040
1.0
1070
   172
1070
     1
1070
   176
1070
   115
1070
   177
1070
   115
1070
   178
1070
     7
1070
   271
1070
     2
1070
   272
1070
     2
1002
}
  0
DIMENSION
  5
ABBB
330
19
100
AcDbEntity
  8
0
100
AcDbDimension
  2
*D9
 10
226.2500011627154
 20
121.0000041686544
 30
0.0
 11
222.9642868770011
 21
89.50000806865435
 31
0.0
 70
    32
  1
%%C<> g6 ({\H0.5x;\S-0.010^ -0.029;})
 71
     5
 42
62.99999220000017
  3
STANDARD
100
AcDbAlignedDimension
 13
215.2500011627155
 23
58.00001196865423
 33
0.0
 14
215.2500011627155
 24
121.0000041686544
 34
0.0
 50
90.0
100
AcDbRotatedDimension
1001
ACAD
1000
DSTYLE
1002
{
1070
   998
1000
1,1,-0.009,-0.025,0,0,2,H7,g6,256
1070
    47
1040
-0.009
1070
    71
1070
     0
1070
    72
1070
     0
1070
   283
1070
     1
1070
   146
1040
1.0
1070
     3
1000

1070
    41
1040
3.0
1070
    42
1040
1.0
1070
    43
1040
1.0
1070
    44
1040
1.0
1070
    48
1040
0.025
1070
    73
1070
     0
1070
    74
1070
     0
1070
    77
1070
     3
1070
    78
1070
     8
1070
   141
1040
-1.0
1070
   147
1040
1.0
1070
   172
1070
     1
1070
   176
1070
   115
1070
   177
1070
   115
1070
   178
1070
     7
1070
   271
1070
     2
1070
   272
1070
     3
1070
   284
1070
     8
1002
}
  0
DIMENSION
  5
ABBD
330
19
100
AcDbEntity
  8
0
100
AcDbDimension
  2
*D10
 10
216.2500011627154
 20
33.25000051865436
 30
0.0
 11
212.7500041627155
 21
35.75000051865436
 31
0.0
 70
    32
 71
     5
 42
6.999993999999929
  3
STANDARD
100
AcDbAlignedDimension
 13
209.2500071627155
 23
44.00000051865435
 33
0.0
 14
216.2500011627154
 24
59.00001196865424
 34
0.0
100
AcDbRotatedDimension
1001
ACAD
1000
DSTYLE
1002
{
1070
    41
1040
3.0
1070
    42
1040
1.0
1070
    43
1040
1.0
1070
    44
1040
1.0
1070
    73
1070
     0
1070
    74
1070
     0
1070
    77
1070
     3
1070
    78
1070
     8
1070
   141
1040
-1.0
1070
   147
1040
1.0
1070
   172
1070
     1
1070
   176
1070
   115
1070
   177
1070
   115
1070
   178
1070
     7
1070
   271
1070
     2
1070
   272
1070
     2
1002
}
  0
DIMENSION
  5
ABBE
330
19
100
AcDbEntity
  8
0
100
AcDbDimension
  2
*D11
 10
234.2500011627154
 20
136.0000005186543
 30
0.0
 11
231.7500011627153
 21
89.50000051865441
 31
0.0
 70
    32
  1
%%C<>
 71
     5
 42
93.0
  3
STANDARD
100
AcDbAlignedDimension
 13
208.2500071627155
 23
43.00000051865436
 33
0.0
 14
208.2500071627155
 24
136.0000005186543
 34
0.0
 50
90.0
100
AcDbRotatedDimension
1001
ACAD
1000
DSTYLE
1002
{
1070
   998
1000
1,1,-0.007,-0.02,0,0,2,H7,g6,256
1070
    47
1040
-0.007
1070
    71
1070
     0
1070
    72
1070
     0
1070
   283
1070
     1
1070
   146
1040
1.0
1070
     3
1000

1070
    41
1040
3.0
1070
    42
1040
1.0
1070
    43
1040
1.0
1070
    44
1040
1.0
1070
    48
1040
0.02
1070
    73
1070
     0
1070
    74
1070
     0
1070
    77
1070
     3
1070
    78
1070
     8
1070
   141
1040
-1.0
1070
   147
1040
1.0
1070
   172
1070
     1
1070
   176
1070
   115
1070
   177
1070
   115
1070
   178
1070
     7
1070
   271
1070
     2
1070
   272
1070
     3
1070
   284
1070
     8
1002
}
  0
DIMENSION
  5
ABBF
330
19
100
AcDbEntity
  8
0
100
AcDbDimension
  2
*D12
 10
401.430818944936
 20
148.0611111259125
 30
0.0
 11
406.0958825870561
 21
144.9809840490731
 31
0.0
 70
    32
 71
     5
 42
10.00000031890188
  3
STANDARD
100
AcDbAlignedDimension
 13
376.7141020127156
 23
122.2439015186544
 33
0.0
 14
376.5566248756335
 24
133.699987914159
 34
0.0
 50
120.0000009846555
100
AcDbRotatedDimension
1001
ACAD
1000
DSTYLE
1002
{
1070
    41
1040
3.0
1070
    42
1040
1.0
1070
    43
1040
1.0
1070
    44
1040
1.0
1070
    73
1070
     0
1070
    74
1070
     0
1070
    77
1070
     3
1070
    78
1070
     8
1070
   141
1040
-1.0
1070
   147
1040
1.0
1070
   172
1070
     1
1070
   176
1070
   115
1070
   177
1070
   115
1070
   178
1070
     7
1070
   271
1070
     2
1070
   272
1070
     2
1002
}
  0
DIMENSION
  5
ABC0
330
19
100
AcDbEntity
  8
0
100
AcDbDimension
  2
*D13
 10
359.7858986168014
 20
135.5644098985318
 30
0.0
 11
348.2673117508923
 21
131.8009017814687
 31
0.0
 70
    32
  1
M<>x1
 71
     5
 42
7.999999800575608
  3
STANDARD
100
AcDbAlignedDimension
 13
371.7141020127156
 23
130.9041555186543
 33
0.0
 14
364.7858990127155
 24
126.9041555186543
 34
0.0
 50
210.000000984657
100
AcDbRotatedDimension
1001
ACAD
1000
DSTYLE
1002
{
1070
    41
1040
3.0
1070
    42
1040
1.0
1070
    43
1040
1.0
1070
    44
1040
1.0
1070
    73
1070
     0
1070
    74
1070
     0
1070
    77
1070
     3
1070
    78
1070
     8
1070
   141
1040
-1.0
1070
   147
1040
1.0
1070
   172
1070
     1
1070
   176
1070
   115
1070
   177
1070
   115
1070
   178
1070
     7
1070
   271
1070
     2
1070
   272
1070
     2
1002
}
  0
DIMENSION
  5
ABC1
330
19
100
AcDbEntity
  8
0
100
AcDbDimension
  2
*D14
 10
381.1984952474777
 20
106.4767062602536
 30
0.0
 11
373.9155750102689
 21
153.2599465432624
 31
0.0
 70
    34
 71
     5
 42
0.523598771071292
  3
STANDARD
100
AcDb2LineAngularDimension
 13
391.0000010127155
 23
40.00000051865436
 33
0.0
 14
391.0000010127155
 24
139.0000005186543
 34
0.0
 15
366.3976382245171
 25
132.1125428875984
 35
0.0
 16
379.9717522897719
 26
152.0443071432437
 36
0.0
1001
ACAD
1000
DSTYLE
1002
{
1070
    41
1040
3.0
1070
    42
1040
1.0
1070
    43
1040
1.0
1070
    44
1040
1.0
1070
    73
1070
     0
1070
    74
1070
     0
1070
    77
1070
     3
1070
    78
1070
     8
1070
   141
1040
-1.0
1070
   147
1040
1.0
1070
   172
1070
     1
1070
   176
1070
   115
1070
   177
1070
   115
1070
   178
1070
     7
1070
   179
1070
     0
1070
   271
1070
     2
1070
   272
1070
     2
1002
}
  0
LINE
  5
ABC2
330
19
100
AcDbEntity
  8
1
100
AcDbLine
 10
381.1984952474777
 20
106.4767062602536
 30
0.0
 11
366.3976382245171
 21
132.1125428875984
 31
0.0
  0
DIMENSION
  5
ABC3
330
19
100
AcDbEntity
  8
0
100
AcDbDimension
  2
*D15
 10
338.0000010127153
 20
127.1711075186543
 30
0.0
 11
334.714286727001
 21
89.50000016865438
 31
0.0
 70
    32
  1
(<>)
 71
     5
 42
75.34221469999988
  3
STANDARD
100
AcDbAlignedDimension
 13
380.9060580127154
 23
51.82889281865437
 33
0.0
 14
380.9060580127154
 24
127.1711075186542
 34
0.0
 50
90.0
100
AcDbRotatedDimension
1001
ACAD
1000
DSTYLE
1002
{
1070
    41
1040
3.0
1070
    42
1040
1.0
1070
    43
1040
1.0
1070
    44
1040
1.0
1070
    73
1070
     0
1070
    74
1070
     0
1070
    77
1070
     3
1070
    78
1070
     8
1070
   141
1040
-1.0
1070
   147
1040
1.0
1070
   172
1070
     1
1070
   176
1070
   115
1070
   177
1070
   115
1070
   178
1070
     7
1070
   271
1070
     2
1070
   272
1070
     2
1002
}
  0
INSERT
  5
ABC4
330
19
100
AcDbEntity
  8
0
100
AcDbBlockReference
  2
A$C114A6ADA
 10
22.00000248370998
 20
69.7000004189656
 30
0.0
  0
INSERT
  5
ABC6
330
19
100
AcDbEntity
  8
0
100
AcDbBlockReference
  2
A$C7CDE718E
 10
355.999999590983
 20
42.99999987309866
 30
0.0
  0
LINE
  5
ABC7
330
19
100
AcDbEntity
  8
1
100
AcDbLine
 10
358.1195351442009
 20
56.61953476937071
 30
0.0
 11
368.7261368812299
 21
67.22613646793809
 31
0.0
  0
LINE
  5
ABC8
330
19
100
AcDbEntity
  8
1
100
AcDbLine
 10
378.964915111798
 20
44.5844489693535
 30
0.0
 11
382.847200829173
 21
59.07333635274722
 31
0.0
  0
LINE
  5
ABC9
330
19
100
AcDbEntity
  8
1
100
AcDbLine
 10
391.0000010127155
 20
40.00000051865436
 30
0.0
 11
391.0000010127155
 21
139.0000005186543
 31
0.0
  0
LINE
  5
ABCA
330
19
100
AcDbEntity
  8
1
100
AcDbLine
 10
353.0000010127155
 20
89.50000051865435
 30
0.0
 11
429.0000010127155
 21
89.50000051865425
 31
0.0
  0
LINE
  5
ABCB
330
19
100
AcDbEntity
  8
1
100
AcDbLine
 10
423.8804668812299
 20
56.61953476937071
 30
0.0
 11
413.273865144201
 21
67.22613646793809
 31
0.0
  0
LINE
  5
ABCC
330
19
100
AcDbEntity
  8
1
100
AcDbLine
 10
403.0350869136329
 20
44.5844489693535
 30
0.0
 11
399.152801196258
 21
59.07333635274722
 31
0.0
  0
LINE
  5
ABCD
330
19
100
AcDbEntity
  8
1
100
AcDbLine
 10
358.1195351442009
 20
122.3804662679377
 30
0.0
 11
368.7261368812299
 21
111.7738645693704
 31
0.0
  0
LINE
  5
ABCE
330
19
100
AcDbEntity
  8
1
100
AcDbLine
 10
378.964915111798
 20
134.415552067955
 30
0.0
 11
382.847200829173
 21
119.9266646845613
 31
0.0
  0
LINE
  5
ABCF
330
19
100
AcDbEntity
  8
1
100
AcDbLine
 10
423.8804668812299
 20
122.3804662679377
 30
0.0
 11
413.273865144201
 21
111.7738645693704
 31
0.0
  0
LINE
  5
ABD0
330
19
100
AcDbEntity
  8
1
100
AcDbLine
 10
403.0350869136329
 20
134.415552067955
 30
0.0
 11
399.152801196258
 21
119.9266646845613
 31
0.0
  0
CIRCLE
  5
ABD1
330
19
100
AcDbEntity
  8
1
100
AcDbCircle
 10
391.0000010127155
 20
89.50000051865435
 30
0.0
 40
39.00000068408996
  0
DIMENSION
  5
ABD2
330
19
100
AcDbEntity
  8
0
100
AcDbDimension
  2
*D16
 10
426.0000010127155
 20
1.00000051865436
 30
0.0
 11
391.0000010127155
 21
3.50000051865436
 31
0.0
 70
    32
 71
     5
 42
70.00000000000006
  3
STANDARD
100
AcDbAlignedDimension
 13
356.0000010127155
 23
58.88546148897114
 33
0.0
 14
426.0000010127155
 24
58.88546148897126
 34
0.0
100
AcDbRotatedDimension
1001
ACAD
1000
DSTYLE
1002
{
1070
    41
1040
3.0
1070
    42
1040
1.0
1070
    43
1040
1.0
1070
    44
1040
1.0
1070
    73
1070
     0
1070
    74
1070
     0
1070
    77
1070
     3
1070
    78
1070
     8
1070
   141
1040
-1.0
1070
   147
1040
1.0
1070
   172
1070
     1
1070
   176
1070
   115
1070
   177
1070
   115
1070
   178
1070
     7
1070
   271
1070
     2
1070
   272
1070
     2
1002
}
  0
DIMENSION
  5
ABD3
330
19
100
AcDbEntity
  8
0
100
AcDbDimension
  2
*D17
 10
382.8472014636704
 20
59.07333577842064
 30
0.0
 11
391.0000010127155
 21
35.50000051865437
 31
0.0
 70
    34
 71
     5
 42
0.523598732884576
  3
STANDARD
100
AcDb2LineAngularDimension
 13
403.0350859288612
 23
44.58444830117127
 33
0.0
 14
399.1528005617606
 24
59.07333577842064
 34
0.0
 15
378.9649160965698
 25
44.58444830117127
 35
0.0
 16
386.0757019481631
 26
33.2150000414149
 36
0.0
1001
ACAD
1000
DSTYLE
1002
{
1070
    41
1040
3.0
1070
    42
1040
1.0
1070
    43
1040
1.0
1070
    44
1040
1.0
1070
    73
1070
     0
1070
    74
1070
     0
1070
    77
1070
     3
1070
    78
1070
     8
1070
    79
1070
     2
1070
   141
1040
-1.0
1070
   147
1040
1.0
1070
   172
1070
     1
1070
   176
1070
   115
1070
   177
1070
   115
1070
   178
1070
     7
1070
   271
1070
     2
1070
   272
1070
     2
1002
}
  0
DIMENSION
  5
ABD4
330
19
100
AcDbEntity
  8
0
100
AcDbDimension
  2
*D18
 10
418.5771653127153
 20
9.000000518654132
 30
0.0
 11
391.0000006627154
 21
12.28571480436842
 31
0.0
 70
    32
  1
(<>)
 71
     5
 42
55.15432929999992
  3
STANDARD
100
AcDbAlignedDimension
 13
363.4228360127154
 23
61.92283561865451
 33
0.0
 14
418.5771653127153
 24
61.92283561865451
 34
0.0
100
AcDbRotatedDimension
1001
ACAD
1000
DSTYLE
1002
{
1070
    41
1040
3.0
1070
    42
1040
1.0
1070
    43
1040
1.0
1070
    44
1040
1.0
1070
    73
1070
     0
1070
    74
1070
     0
1070
    77
1070
     3
1070
    78
1070
     8
1070
   141
1040
-1.0
1070
   147
1040
1.0
1070
   172
1070
     1
1070
   176
1070
   115
1070
   177
1070
   115
1070
   178
1070
     7
1070
   271
1070
     2
1070
   272
1070
     2
1002
}
  0
DIMENSION
  5
ABD5
330
19
100
AcDbEntity
  8
0
100
AcDbDimension
  2
*D19
 10
444.0000010127146
 20
128.5000012027443
 30
0.0
 11
441.5000010127145
 21
89.50000051865442
 31
0.0
 70
    32
  1
PCD <>
 71
     5
 42
78.00000136817994
  3
STANDARD
100
AcDbAlignedDimension
 13
391.0000010127155
 23
50.49999983456439
 33
0.0
 14
391.0000010127155
 24
128.5000012027443
 34
0.0
 50
90.0
100
AcDbRotatedDimension
1001
ACAD
1000
DSTYLE
1002
{
1070
    41
1040
3.0
1070
    42
1040
1.0
1070
    43
1040
1.0
1070
    44
1040
1.0
1070
    73
1070
     0
1070
    74
1070
     0
1070
    77
1070
     3
1070
    78
1070
     8
1070
   141
1040
-1.0
1070
   147
1040
1.0
1070
   172
1070
     1
1070
   176
1070
   115
1070
   177
1070
   115
1070
   178
1070
     7
1070
   271
1070
     2
1070
   272
1070
     2
1002
}
  0
DIMENSION
  5
ABD6
330
19
100
AcDbEntity
  8
0
100
AcDbDimension
  2
*D20
 10
436.0000010127146
 20
121.5771645186544
 30
0.0
 11
433.5000010127146
 21
131.148593090083
 31
0.0
 70
    32
  1
8-%%C<>
 71
     5
 42
9.0
  3
STANDARD
100
AcDbAlignedDimension
 13
418.5771653127154
 23
112.5771645186544
 33
0.0
 14
418.5771653127154
 24
121.5771645186544
 34
0.0
 50
90.0
100
AcDbRotatedDimension
1001
ACAD
1000
DSTYLE
1002
{
1070
    41
1040
3.0
1070
    42
1040
1.0
1070
    43
1040
1.0
1070
    44
1040
1.0
1070
    73
1070
     0
1070
    74
1070
     0
1070
    77
1070
     3
1070
    78
1070
     8
1070
   141
1040
-1.0
1070
   147
1040
1.0
1070
   172
1070
     1
1070
   176
1070
   115
1070
   177
1070
   115
1070
   178
1070
     7
1070
   271
1070
     2
1070
   272
1070
     2
1002
}
  0
DIMENSION
  5
ABD7
330
19
100
AcDbEntity
  8
0
100
AcDbDimension
  2
*D21
 10
401.0939436127154
 20
17.00000051865413
 30
0.0
 11
391.0000008127154
 21
20.28571480436842
 31
0.0
 70
    32
  1
(<>)
 71
     5
 42
20.18788560000007
  3
STANDARD
100
AcDbAlignedDimension
 13
380.9060580127154
 23
51.82889281865448
 33
0.0
 14
401.0939436127154
 24
51.82889281865448
 34
0.0
100
AcDbRotatedDimension
1001
ACAD
1000
DSTYLE
1002
{
1070
    41
1040
3.0
1070
    42
1040
1.0
1070
    43
1040
1.0
1070
    44
1040
1.0
1070
    73
1070
     0
1070
    74
1070
     0
1070
    77
1070
     3
1070
    78
1070
     8
1070
   141
1040
-1.0
1070
   147
1040
1.0
1070
   172
1070
     1
1070
   176
1070
   115
1070
   177
1070
   115
1070
   178
1070
     7
1070
   271
1070
     2
1070
   272
1070
     2
1002
}
  0
DIMENSION
  5
ABD8
330
19
100
AcDbEntity
  8
0
100
AcDbDimension
  2
*D22
 10
368.7261371435575
 20
67.22613565330812
 30
0.0
 11
391.0000010127155
 21
27.50000051865443
 31
0.0
 70
    34
 71
     5
 42
1.570796282070347
  3
STANDARD
100
AcDb2LineAngularDimension
 13
423.8804663624839
 23
56.61953369832213
 33
0.0
 14
413.2738648818734
 24
67.22613565330812
 34
0.0
 15
358.119535662947
 25
56.61953369832213
 35
0.0
 16
374.3061730680093
 26
27.19778459857217
 36
0.0
1001
ACAD
1000
DSTYLE
1002
{
1070
    41
1040
3.0
1070
    42
1040
1.0
1070
    43
1040
1.0
1070
    44
1040
1.0
1070
    73
1070
     0
1070
    74
1070
     0
1070
    77
1070
     3
1070
    78
1070
     8
1070
    79
1070
     2
1070
   141
1040
-1.0
1070
   147
1040
1.0
1070
   172
1070
     1
1070
   176
1070
   115
1070
   177
1070
   115
1070
   178
1070
     7
1070
   271
1070
     2
1070
   272
1070
     2
1002
}
  0
LINE
  5
ABD9
330
19
100
AcDbEntity
  8
1
100
AcDbLine
 10
195.2500071627155
 20
128.9041563908463
 30
0.0
 11
209.2500071627155
 21
128.9041563908463
 31
0.0
  0
LINE
  5
ABDA
330
19
100
AcDbEntity
  8
1
100
AcDbLine
 10
202.2500071627155
 20
123.9043122630382
 30
0.0
 11
202.2500071627155
 21
133.9040005186543
 31
0.0
  0
INSERT
  5
AF2B
330
19
100
AcDbEntity
  8
0
100
AcDbBlockReference
  2
4010SDK
 10
0.0
 20
-200.0
 30
0.0
  0
ENDSEC
  0
SECTION
  2
OBJECTS
  0
DICTIONARY
  5
C
330
0
100
AcDbDictionary
281
     1
  3
ACAD_CIP_PREVIOUS_PRODUCT_INFO
350
A079
  3
ACAD_COLOR
350
9ECD
  3
ACAD_GROUP
350
D
  3
ACAD_LAYOUT
350
9ED0
  3
ACAD_MATERIAL
350
9ECC
  3
ACAD_MLEADERSTYLE
350
9FF7
  3
ACAD_MLINESTYLE
350
E
  3
ACAD_PLOTSETTINGS
350
9ED1
  3
ACAD_PLOTSTYLENAME
350
9ECA
  3
ACAD_SCALELIST
350
9FD5
  3
ACAD_TABLESTYLE
350
9ECE
  3
ACAD_VISUALSTYLE
350
9FC4
  3
ACDB_RECOMPOSE_DATA
350
B32F
  3
ACDBVARIABLEDICTIONARY
350
1BF
  3
DWGPROPS
350
B330
  0
DICTIONARY
  5
AE9A
330
8
100
AcDbDictionary
280
     1
281
     1
  0
DICTIONARY
  5
A045
330
F
100
AcDbDictionary
280
     1
281
     1
  3
ADSK_XREC_LAYER_RECONCILED
360
A046
  0
DICTIONARY
  5
AB80
330
AB7F
100
AcDbDictionary
280
     1
281
     1
  0
DICTIONARY
  5
AB82
330
AB81
100
AcDbDictionary
280
     1
281
     1
  0
DICTIONARY
  5
AB84
330
AB83
100
AcDbDictionary
280
     1
281
     1
  0
DICTIONARY
  5
A44F
330
19
100
AcDbDictionary
280
     1
281
     1
  3
ACAD_SORTENTS
360
A450
  0
DICTIONARY
  5
AAD5
330
AAD4
100
AcDbDictionary
280
     1
281
     1
  3
ACAD_SORTENTS
360
AAD6
  0
DICTIONARY
  5
AB0A
330
AB09
100
AcDbDictionary
280
     1
281
     1
  3
ACAD_SORTENTS
360
AB0B
  0
DICTIONARY
  5
B281
330
AF07
100
AcDbDictionary
280
     1
281
     1
  3
ACAD_SORTENTS
360
B297
  0
DICTIONARY
  5
B36D
330
AD6C
100
AcDbDictionary
280
     1
281
     1
  3
ACAD_MTEXT_RT
360
B36E
  0
DICTIONARY
  5
B36F
330
AD89
100
AcDbDictionary
280
     1
281
     1
  3
ACAD_MTEXT_RT
360
B370
  0
DICTIONARY
  5
B371
330
ADB9
100
AcDbDictionary
280
     1
281
     1
  3
ACAD_MTEXT_RT
360
B372
  0
XRECORD
  5
A079
102
{ACAD_REACTORS
330
C
102
}
330
C
100
AcDbXrecord
280
     1
300
ACDLT
300
2012
300
ACDLT_F_S
  0
DICTIONARY
  5
9ECD
102
{ACAD_REACTORS
330
C
102
}
330
C
100
AcDbDictionary
281
     1
  0
DICTIONARY
  5
D
102
{ACAD_REACTORS
330
C
102
}
330
C
100
AcDbDictionary
281
     1
  0
DICTIONARY
  5
9ED0
102
{ACAD_REACTORS
330
C
102
}
330
C
100
AcDbDictionary
281
     1
  3
Model
350
9ED2
  3
배치1
350
9ED3
  0
DICTIONARY
  5
9ECC
102
{ACAD_REACTORS
330
C
102
}
330
C
100
AcDbDictionary
281
     1
  3
ByBlock
350
9FB4
  3
ByLayer
350
9FAC
  3
Global
350
9FBC
  0
DICTIONARY
  5
9FF7
102
{ACAD_REACTORS
330
C
102
}
330
C
100
AcDbDictionary
281
     1
  3
Standard
350
9FF8
  0
DICTIONARY
  5
E
102
{ACAD_REACTORS
330
C
102
}
330
C
100
AcDbDictionary
281
     1
  3
STANDARD
350
1C
  0
DICTIONARY
  5
9ED1
102
{ACAD_REACTORS
330
C
102
}
330
C
100
AcDbDictionary
281
     1
  0
ACDBDICTIONARYWDFLT
  5
9ECA
102
{ACAD_REACTORS
330
C
102
}
330
C
100
AcDbDictionary
281
     1
  3
Normal
350
9ECB
100
AcDbDictionaryWithDefault
340
9ECB
  0
DICTIONARY
  5
9FD5
102
{ACAD_REACTORS
330
C
102
}
330
C
100
AcDbDictionary
281
     1
  3
A0
350
9FD6
  3
A1
350
9FD7
  3
A2
350
9FD8
  3
A3
350
9FD9
  3
A4
350
9FDA
  3
A5
350
9FDB
  3
A6
350
9FDC
  3
A7
350
9FDD
  3
A8
350
9FDE
  3
A9
350
9FDF
  3
B0
350
9FE0
  3
B1
350
9FE1
  3
B2
350
9FE2
  3
B3
350
9FE3
  3
B4
350
9FE4
  3
B5
350
9FE5
  3
B6
350
9FE6
  3
B7
350
9FE7
  3
B8
350
9FE8
  3
B9
350
9FE9
  3
C0
350
9FEA
  3
C1
350
9FEB
  3
C2
350
9FEC
  3
C3
350
9FED
  3
C4
350
9FEE
  3
C5
350
9FEF
  3
C6
350
9FF0
  3
C7
350
9FF1
  3
C8
350
9FF2
  3
C9
350
9FF3
  3
D0
350
9FF4
  3
D1
350
9FF5
  3
D2
350
9FF6
  0
DICTIONARY
  5
9ECE
102
{ACAD_REACTORS
330
C
102
}
330
C
100
AcDbDictionary
281
     1
  3
Standard
350
9ECF
  0
DICTIONARY
  5
9FC4
102
{ACAD_REACTORS
330
C
102
}
330
C
100
AcDbDictionary
281
     1
  3
2dWireframe
350
9FCA
  3
3D Hidden
350
9FCC
  3
3dWireframe
350
9FCB
  3
Basic
350
9FC9
  3
Brighten
350
9FD0
  3
ColorChange
350
9FD4
  3
Conceptual
350
9FCD
  3
Dim
350
9FCF
  3
EdgeColorOff
350
A076
  3
Facepattern
350
9FD3
  3
Flat
350
9FC5
  3
FlatWithEdges
350
9FC6
  3
Gouraud
350
9FC7
  3
GouraudWithEdges
350
9FC8
  3
Hidden
350
A06E
  3
JitterOff
350
A074
  3
Linepattern
350
9FD2
  3
OverhangOff
350
A075
  3
Realistic
350
9FCE
  3
Shaded
350
A073
  3
Shaded with edges
350
A072
  3
Shades of Gray
350
A06F
  3
Sketchy
350
A070
  3
Thicken
350
9FD1
  3
Wireframe
350
A06D
  3
X-Ray
350
A071
  0
XRECORD
  5
B32F
102
{ACAD_REACTORS
330
C
102
}
330
C
100
AcDbXrecord
280
     1
 90
        1
330
9ECF
  0
DICTIONARY
  5
1BF
102
{ACAD_REACTORS
330
C
102
}
330
C
100
AcDbDictionary
281
     1
  3
CANNOSCALE
350
A054
  3
CMLEADERSTYLE
350
A053
  3
CTABLESTYLE
350
9F88
  3
DIMASSOC
350
9F90
  3
INDEXCTL
350
A055
  3
PROJECTNAME
350
9F91
  3
SORTENTS
350
1C0
  3
XCLIPFRAME
350
B2E8
  0
XRECORD
  5
B330
102
{ACAD_REACTORS
330
C
102
}
330
C
100
AcDbXrecord
280
     1
  1
DWGPROPS COOKIE
  2

  3

  4

  6

  7

  8
woni
  9

300
=
301
=
302
=
303
=
304
=
305
=
306
=
307
=
308
=
309
=
 40
0.3790628009259259
 41
2452464.575009942
 42
2456846.807086424
  1

 90
        0
  0
XRECORD
  5
A046
102
{ACAD_REACTORS
330
A045
102
}
330
A045
100
AcDbXrecord
280
     1
290
     1
  0
SORTENTSTABLE
  5
A450
102
{ACAD_REACTORS
330
A44F
102
}
330
A44F
100
AcDbSortentsTable
330
19
331
ABCE
  5
AEF9
331
ABD2
  5
AEFD
331
ABC6
  5
AEF1
331
ABBE
  5
ABBE
331
ABD3
  5
AEFE
331
ABCF
  5
AEFA
331
ABC7
  5
AEF2
331
ABBF
  5
ABBF
331
ABB3
  5
ABB3
331
ABD4
  5
AEFF
331
ABC8
  5
AEF3
331
ABC0
  5
ABC0
331
ABB4
  5
ABB4
331
ABB8
  5
ABB8
331
AF2B
  5
AF2B
331
ABD5
  5
AF00
331
ABC9
  5
AEF4
331
ABC1
  5
ABC1
331
ABB5
  5
ABB5
331
ABB9
  5
ABB9
331
ABD6
  5
AF01
331
ABCA
  5
AEF5
331
ABC2
  5
ABC2
331
ABB6
  5
ABB6
331
ABBA
  5
ABBA
331
ABD7
  5
AF02
331
ABCB
  5
AEF6
331
ABC3
  5
ABC3
331
ABB7
  5
ABB7
331
ABBB
  5
ABBB
331
ABD8
  5
AF03
331
ABCC
  5
AEF7
331
ABD0
  5
AEFB
331
ABC4
  5
ABC4
331
ABD9
  5
AF04
331
ABD1
  5
AEFC
331
ABCD
  5
AEF8
331
ABBD
  5
ABBD
331
ABDA
  5
AF05
  0
SORTENTSTABLE
  5
AAD6
102
{ACAD_REACTORS
330
AAD5
102
}
330
AAD5
100
AcDbSortentsTable
330
AAD4
  0
SORTENTSTABLE
  5
AB0B
102
{ACAD_REACTORS
330
AB0A
102
}
330
AB0A
100
AcDbSortentsTable
330
AB09
  0
SORTENTSTABLE
  5
B297
102
{ACAD_REACTORS
330
B281
102
}
330
B281
100
AcDbSortentsTable
330
AF07
331
B27D
  5
B27E
331
B278
  5
B279
331
B26E
  5
B26E
331
B269
  5
B269
331
B273
  5
B273
331
B264
  5
B264
331
B27E
  5
B27F
331
B26A
  5
B26A
331
B290
  5
B291
331
B265
  5
B265
331
B274
  5
B274
331
B26F
  5
B26F
331
B260
  5
B260
331
B279
  5
B27A
331
B261
  5
B261
331
B27A
  5
B27B
331
B270
  5
B270
331
B26B
  5
B26B
331
B291
  5
B292
331
B275
  5
B275
331
B266
  5
B266
331
B27B
  5
B27C
331
B26C
  5
B26C
331
B292
  5
B293
331
B267
  5
B267
331
B276
  5
B276
331
B271
  5
B271
331
B262
  5
B262
331
B263
  5
B263
331
B27C
  5
B27D
331
B272
  5
B272
331
B26D
  5
B26D
331
B277
  5
B277
331
B268
  5
B268
  0
XRECORD
  5
B36E
102
{ACAD_REACTORS
330
B36D
102
}
330
B36D
100
AcDbXrecord
280
     1
 40
5283.0
  1
\A1;30\U+00B0
  0
XRECORD
  5
B370
102
{ACAD_REACTORS
330
B36F
102
}
330
B36F
100
AcDbXrecord
280
     1
 40
5283.0
  1
\A1;30\U+00B0
  0
XRECORD
  5
B372
102
{ACAD_REACTORS
330
B371
102
}
330
B371
100
AcDbXrecord
280
     1
 40
5313.0
  1
\A1;90\U+00B0
  0
LAYOUT
  5
9ED2
102
{ACAD_XDICTIONARY
360
B332
102
}
102
{ACAD_REACTORS
330
9ED0
102
}
330
9ED0
100
AcDbPlotSettings
  1

  2
\\문광휘\HP LaserJet 5100 PCL 6
  4

  6

 40
0.0
 41
0.0
 42
0.0
 43
0.0
 44
0.0
 45
0.0
 46
0.0
 47
0.0
 48
0.0
 49
0.0
140
0.0
141
0.0
142
1.0
143
1.0
 70
  1712
 72
     0
 73
     0
 74
     0
  7

 75
     0
147
1.0
148
0.0
149
0.0
100
AcDbLayout
  1
Model
 70
     1
 71
     0
 10
0.0
 20
0.0
 11
12.0
 21
9.0
 12
0.0
 22
0.0
 32
0.0
 14
0.0
 24
0.0
 34
0.0
 15
0.0
 25
0.0
 35
0.0
146
0.0
 13
0.0
 23
0.0
 33
0.0
 16
1.0
 26
0.0
 36
0.0
 17
0.0
 27
1.0
 37
0.0
 76
     0
330
19
331
9F9F
  0
LAYOUT
  5
9ED3
102
{ACAD_XDICTIONARY
360
B334
102
}
102
{ACAD_REACTORS
330
9ED0
102
}
330
9ED0
100
AcDbPlotSettings
  1

  2
\\문광휘\HP LaserJet 5100 PCL 6
  4

  6

 40
0.0
 41
0.0
 42
0.0
 43
0.0
 44
0.0
 45
0.0
 46
0.0
 47
0.0
 48
0.0
 49
0.0
140
0.0
141
0.0
142
1.0
143
1.0
 70
   688
 72
     0
 73
     0
 74
     5
  7

 75
    16
147
1.0
148
0.0
149
0.0
100
AcDbLayout
  1
배치1
 70
     1
 71
     1
 10
0.0
 20
0.0
 11
12.0
 21
9.0
 12
0.0
 22
0.0
 32
0.0
 14
1.000000000000000E+20
 24
1.000000000000000E+20
 34
1.000000000000000E+20
 15
-1.000000000000000E+20
 25
-1.000000000000000E+20
 35
-1.000000000000000E+20
146
0.0
 13
0.0
 23
0.0
 33
0.0
 16
1.0
 26
0.0
 36
0.0
 17
0.0
 27
1.0
 37
0.0
 76
     0
330
16
  0
MATERIAL
  5
9FB4
102
{ACAD_XDICTIONARY
360
9FB5
102
}
102
{ACAD_REACTORS
330
9ECC
102
}
330
9ECC
100
AcDbMaterial
  1
ByBlock
 72
     0
 43
0.0208333333333333
 43
0.0
 43
0.0
 43
0.0
 43
0.0
 43
0.0208333333333333
 43
0.0
 43
0.0
 43
0.0
 43
0.0
 43
1.0
 43
0.0
 43
0.0
 43
0.0
 43
0.0
 43
1.0
 77
     0
 47
0.0208333333333333
 47
0.0
 47
0.0
 47
0.0
 47
0.0
 47
0.0208333333333333
 47
0.0
 47
0.0
 47
0.0
 47
0.0
 47
1.0
 47
0.0
 47
0.0
 47
0.0
 47
0.0
 47
1.0
171
     0
 49
0.0208333333333333
 49
0.0
 49
0.0
 49
0.0
 49
0.0
 49
0.0208333333333333
 49
0.0
 49
0.0
 49
0.0
 49
0.0
 49
1.0
 49
0.0
 49
0.0
 49
0.0
 49
0.0
 49
1.0
175
     0
142
0.0208333333333333
142
0.0
142
0.0
142
0.0
142
0.0
142
0.0208333333333333
142
0.0
142
0.0
142
0.0
142
0.0
142
1.0
142
0.0
142
0.0
142
0.0
142
0.0
142
1.0
179
     0
144
0.0208333333333333
144
0.0
144
0.0
144
0.0
144
0.0
144
0.0208333333333333
144
0.0
144
0.0
144
0.0
144
0.0
144
1.0
144
0.0
144
0.0
144
0.0
144
0.0
144
1.0
147
0.0208333333333333
147
0.0
147
0.0
147
0.0
147
0.0
147
0.0208333333333333
147
0.0
147
0.0
147
0.0
147
0.0
147
1.0
147
0.0
147
0.0
147
0.0
147
0.0
147
1.0
  0
MATERIAL
  5
9FAC
102
{ACAD_XDICTIONARY
360
9FAD
102
}
102
{ACAD_REACTORS
330
9ECC
102
}
330
9ECC
100
AcDbMaterial
  1
ByLayer
 72
     0
 43
0.0208333333333333
 43
0.0
 43
0.0
 43
0.0
 43
0.0
 43
0.0208333333333333
 43
0.0
 43
0.0
 43
0.0
 43
0.0
 43
1.0
 43
0.0
 43
0.0
 43
0.0
 43
0.0
 43
1.0
 77
     0
 47
0.0208333333333333
 47
0.0
 47
0.0
 47
0.0
 47
0.0
 47
0.0208333333333333
 47
0.0
 47
0.0
 47
0.0
 47
0.0
 47
1.0
 47
0.0
 47
0.0
 47
0.0
 47
0.0
 47
1.0
171
     0
 49
0.0208333333333333
 49
0.0
 49
0.0
 49
0.0
 49
0.0
 49
0.0208333333333333
 49
0.0
 49
0.0
 49
0.0
 49
0.0
 49
1.0
 49
0.0
 49
0.0
 49
0.0
 49
0.0
 49
1.0
175
     0
142
0.0208333333333333
142
0.0
142
0.0
142
0.0
142
0.0
142
0.0208333333333333
142
0.0
142
0.0
142
0.0
142
0.0
142
1.0
142
0.0
142
0.0
142
0.0
142
0.0
142
1.0
179
     0
144
0.0208333333333333
144
0.0
144
0.0
144
0.0
144
0.0
144
0.0208333333333333
144
0.0
144
0.0
144
0.0
144
0.0
144
1.0
144
0.0
144
0.0
144
0.0
144
0.0
144
1.0
147
0.0208333333333333
147
0.0
147
0.0
147
0.0
147
0.0
147
0.0208333333333333
147
0.0
147
0.0
147
0.0
147
0.0
147
1.0
147
0.0
147
0.0
147
0.0
147
0.0
147
1.0
  0
MATERIAL
  5
9FBC
102
{ACAD_XDICTIONARY
360
9FBD
102
}
102
{ACAD_REACTORS
330
9ECC
102
}
330
9ECC
100
AcDbMaterial
  1
Global
 72
     0
 43
0.0208333333333333
 43
0.0
 43
0.0
 43
0.0
 43
0.0
 43
0.0208333333333333
 43
0.0
 43
0.0
 43
0.0
 43
0.0
 43
1.0
 43
0.0
 43
0.0
 43
0.0
 43
0.0
 43
1.0
 77
     0
 47
0.0208333333333333
 47
0.0
 47
0.0
 47
0.0
 47
0.0
 47
0.0208333333333333
 47
0.0
 47
0.0
 47
0.0
 47
0.0
 47
1.0
 47
0.0
 47
0.0
 47
0.0
 47
0.0
 47
1.0
171
     0
 49
0.0208333333333333
 49
0.0
 49
0.0
 49
0.0
 49
0.0
 49
0.0208333333333333
 49
0.0
 49
0.0
 49
0.0
 49
0.0
 49
1.0
 49
0.0
 49
0.0
 49
0.0
 49
0.0
 49
1.0
175
     0
142
0.0208333333333333
142
0.0
142
0.0
142
0.0
142
0.0
142
0.0208333333333333
142
0.0
142
0.0
142
0.0
142
0.0
142
1.0
142
0.0
142
0.0
142
0.0
142
0.0
142
1.0
179
     0
144
0.0208333333333333
144
0.0
144
0.0
144
0.0
144
0.0
144
0.0208333333333333
144
0.0
144
0.0
144
0.0
144
0.0
144
1.0
144
0.0
144
0.0
144
0.0
144
0.0
144
1.0
147
0.0208333333333333
147
0.0
147
0.0
147
0.0
147
0.0
147
0.0208333333333333
147
0.0
147
0.0
147
0.0
147
0.0
147
1.0
147
0.0
147
0.0
147
0.0
147
0.0
147
1.0
  0
MLEADERSTYLE
  5
9FF8
102
{ACAD_REACTORS
330
9FF7
102
}
330
9FF7
100
AcDbMLeaderStyle
170
     2
171
     1
172
     0
 90
        2
 40
0.0
 41
0.0
173
     1
 91
-1056964608
340
13
 92
       -2
290
     1
 42
0.09
291
     1
 43
0.36
  3
Standard
 44
0.18
300

342
10
174
     1
178
     6
175
     1
176
     0
 93
-1056964608
 45
0.18
292
     0
297
     0
 46
0.18
 94
-1056964608
 47
1.0
 49
1.0
140
1.0
293
     1
141
0.0
294
     1
177
     0
142
1.0
295
     0
296
     0
143
0.125
1001
ACAD_MLEADERVER
1070
     2
  0
MLINESTYLE
  5
1C
102
{ACAD_REACTORS
330
E
102
}
330
E
100
AcDbMlineStyle
  2
STANDARD
 70
     0
  3

 62
     0
 51
90.0
 52
90.0
 71
     2
 49
0.5
 62
   256
  6
BYLAYER
 49
-0.5
 62
   256
  6
BYLAYER
  0
ACDBPLACEHOLDER
  5
9ECB
102
{ACAD_REACTORS
330
9ECA
102
}
330
9ECA
  0
SCALE
  5
9FD6
102
{ACAD_REACTORS
330
9FD5
102
}
330
9FD5
100
AcDbScale
 70
     0
300
1:1
140
1.0
141
1.0
290
     1
  0
SCALE
  5
9FD7
102
{ACAD_REACTORS
330
9FD5
102
}
330
9FD5
100
AcDbScale
 70
     0
300
1:2
140
1.0
141
2.0
290
     0
  0
SCALE
  5
9FD8
102
{ACAD_REACTORS
330
9FD5
102
}
330
9FD5
100
AcDbScale
 70
     0
300
1:4
140
1.0
141
4.0
290
     0
  0
SCALE
  5
9FD9
102
{ACAD_REACTORS
330
9FD5
102
}
330
9FD5
100
AcDbScale
 70
     0
300
1:5
140
1.0
141
5.0
290
     0
  0
SCALE
  5
9FDA
102
{ACAD_REACTORS
330
9FD5
102
}
330
9FD5
100
AcDbScale
 70
     0
300
1:8
140
1.0
141
8.0
290
     0
  0
SCALE
  5
9FDB
102
{ACAD_REACTORS
330
9FD5
102
}
330
9FD5
100
AcDbScale
 70
     0
300
1:10
140
1.0
141
10.0
290
     0
  0
SCALE
  5
9FDC
102
{ACAD_REACTORS
330
9FD5
102
}
330
9FD5
100
AcDbScale
 70
     0
300
1:16
140
1.0
141
16.0
290
     0
  0
SCALE
  5
9FDD
102
{ACAD_REACTORS
330
9FD5
102
}
330
9FD5
100
AcDbScale
 70
     0
300
1:20
140
1.0
141
20.0
290
     0
  0
SCALE
  5
9FDE
102
{ACAD_REACTORS
330
9FD5
102
}
330
9FD5
100
AcDbScale
 70
     0
300
1:30
140
1.0
141
30.0
290
     0
  0
SCALE
  5
9FDF
102
{ACAD_REACTORS
330
9FD5
102
}
330
9FD5
100
AcDbScale
 70
     0
300
1:40
140
1.0
141
40.0
290
     0
  0
SCALE
  5
9FE0
102
{ACAD_REACTORS
330
9FD5
102
}
330
9FD5
100
AcDbScale
 70
     0
300
1:50
140
1.0
141
50.0
290
     0
  0
SCALE
  5
9FE1
102
{ACAD_REACTORS
330
9FD5
102
}
330
9FD5
100
AcDbScale
 70
     0
300
1:100
140
1.0
141
100.0
290
     0
  0
SCALE
  5
9FE2
102
{ACAD_REACTORS
330
9FD5
102
}
330
9FD5
100
AcDbScale
 70
     0
300
2:1
140
2.0
141
1.0
290
     0
  0
SCALE
  5
9FE3
102
{ACAD_REACTORS
330
9FD5
102
}
330
9FD5
100
AcDbScale
 70
     0
300
4:1
140
4.0
141
1.0
290
     0
  0
SCALE
  5
9FE4
102
{ACAD_REACTORS
330
9FD5
102
}
330
9FD5
100
AcDbScale
 70
     0
300
8:1
140
8.0
141
1.0
290
     0
  0
SCALE
  5
9FE5
102
{ACAD_REACTORS
330
9FD5
102
}
330
9FD5
100
AcDbScale
 70
     0
300
10:1
140
10.0
141
1.0
290
     0
  0
SCALE
  5
9FE6
102
{ACAD_REACTORS
330
9FD5
102
}
330
9FD5
100
AcDbScale
 70
     0
300
100:1
140
100.0
141
1.0
290
     0
  0
SCALE
  5
9FE7
102
{ACAD_REACTORS
330
9FD5
102
}
330
9FD5
100
AcDbScale
 70
     0
300
1/128" = 1'-0"
140
0.0078125
141
12.0
290
     0
  0
SCALE
  5
9FE8
102
{ACAD_REACTORS
330
9FD5
102
}
330
9FD5
100
AcDbScale
 70
     0
300
1/64" = 1'-0"
140
0.015625
141
12.0
290
     0
  0
SCALE
  5
9FE9
102
{ACAD_REACTORS
330
9FD5
102
}
330
9FD5
100
AcDbScale
 70
     0
300
1/32" = 1'-0"
140
0.03125
141
12.0
290
     0
  0
SCALE
  5
9FEA
102
{ACAD_REACTORS
330
9FD5
102
}
330
9FD5
100
AcDbScale
 70
     0
300
1/16" = 1'-0"
140
0.0625
141
12.0
290
     0
  0
SCALE
  5
9FEB
102
{ACAD_REACTORS
330
9FD5
102
}
330
9FD5
100
AcDbScale
 70
     0
300
3/32" = 1'-0"
140
0.09375
141
12.0
290
     0
  0
SCALE
  5
9FEC
102
{ACAD_REACTORS
330
9FD5
102
}
330
9FD5
100
AcDbScale
 70
     0
300
1/8" = 1'-0"
140
0.125
141
12.0
290
     0
  0
SCALE
  5
9FED
102
{ACAD_REACTORS
330
9FD5
102
}
330
9FD5
100
AcDbScale
 70
     0
300
3/16" = 1'-0"
140
0.1875
141
12.0
290
     0
  0
SCALE
  5
9FEE
102
{ACAD_REACTORS
330
9FD5
102
}
330
9FD5
100
AcDbScale
 70
     0
300
1/4" = 1'-0"
140
0.25
141
12.0
290
     0
  0
SCALE
  5
9FEF
102
{ACAD_REACTORS
330
9FD5
102
}
330
9FD5
100
AcDbScale
 70
     0
300
3/8" = 1'-0"
140
0.375
141
12.0
290
     0
  0
SCALE
  5
9FF0
102
{ACAD_REACTORS
330
9FD5
102
}
330
9FD5
100
AcDbScale
 70
     0
300
1/2" = 1'-0"
140
0.5
141
12.0
290
     0
  0
SCALE
  5
9FF1
102
{ACAD_REACTORS
330
9FD5
102
}
330
9FD5
100
AcDbScale
 70
     0
300
3/4" = 1'-0"
140
0.75
141
12.0
290
     0
  0
SCALE
  5
9FF2
102
{ACAD_REACTORS
330
9FD5
102
}
330
9FD5
100
AcDbScale
 70
     0
300
1" = 1'-0"
140
1.0
141
12.0
290
     0
  0
SCALE
  5
9FF3
102
{ACAD_REACTORS
330
9FD5
102
}
330
9FD5
100
AcDbScale
 70
     0
300
1-1/2" = 1'-0"
140
1.5
141
12.0
290
     0
  0
SCALE
  5
9FF4
102
{ACAD_REACTORS
330
9FD5
102
}
330
9FD5
100
AcDbScale
 70
     0
300
3" = 1'-0"
140
3.0
141
12.0
290
     0
  0
SCALE
  5
9FF5
102
{ACAD_REACTORS
330
9FD5
102
}
330
9FD5
100
AcDbScale
 70
     0
300
6" = 1'-0"
140
6.0
141
12.0
290
     0
  0
SCALE
  5
9FF6
102
{ACAD_REACTORS
330
9FD5
102
}
330
9FD5
100
AcDbScale
 70
     0
300
1'-0" = 1'-0"
140
12.0
141
12.0
290
     0
  0
TABLESTYLE
  5
9ECF
102
{ACAD_XDICTIONARY
360
A056
102
}
102
{ACAD_REACTORS
330
9ECE
102
}
330
9ECE
100
AcDbTableStyle
  3
Standard
 70
     0
 71
     0
 40
0.06
 41
0.06
280
     0
281
     0
  7
STANDARD
140
0.18
170
     2
 62
     0
 63
     7
283
     0
274
    -2
284
     1
 64
     0
275
    -2
285
     1
 65
     0
276
    -2
286
     1
 66
     0
277
    -2
287
     1
 67
     0
278
    -2
288
     1
 68
     0
279
    -2
289
     1
 69
     0
  7
STANDARD
140
0.25
170
     5
 62
     0
 63
     7
283
     0
274
    -2
284
     1
 64
     0
275
    -2
285
     1
 65
     0
276
    -2
286
     1
 66
     0
277
    -2
287
     1
 67
     0
278
    -2
288
     1
 68
     0
279
    -2
289
     1
 69
     0
  7
STANDARD
140
0.18
170
     5
 62
     0
 63
     7
283
     0
274
    -2
284
     1
 64
     0
275
    -2
285
     1
 65
     0
276
    -2
286
     1
 66
     0
277
    -2
287
     1
 67
     0
278
    -2
288
     1
 68
     0
279
    -2
289
     1
 69
     0
  0
VISUALSTYLE
  5
9FCA
102
{ACAD_XDICTIONARY
360
B343
102
}
102
{ACAD_REACTORS
330
9FC4
102
}
330
9FC4
100
AcDbVisualStyle
  2

 70
     4
 71
     0
 72
     2
 73
     0
 90
        0
 40
-0.6
 41
-30.0
 62
     5
 63
     7
 74
     1
 91
        4
 64
     7
 65
   257
 75
     1
175
     1
 42
1.0
 92
        0
 66
   257
 43
1.0
 76
     1
 77
     6
 78
     2
 67
     7
 79
     5
170
     0
171
     0
290
     0
174
     0
 93
        1
 44
0.0
173
     0
291
     0
 45
0.0
1001
ACAD
1000
AcDbSavedByObjectVersion
1070
     0
  0
VISUALSTYLE
  5
9FCC
102
{ACAD_XDICTIONARY
360
B347
102
}
102
{ACAD_REACTORS
330
9FC4
102
}
330
9FC4
100
AcDbVisualStyle
  2

 70
     6
 71
     1
 72
     2
 73
     2
 90
        0
 40
-0.6
 41
-30.0
 62
     5
 63
     7
 74
     2
 91
        2
 64
     7
 65
   257
 75
     2
175
     1
 42
40.0
 92
        0
 66
   257
 43
1.0
 76
     1
 77
     6
 78
     2
 67
     7
 79
     3
170
     0
171
     0
290
     0
174
     0
 93
        1
 44
0.0
173
     0
291
     0
 45
0.0
1001
ACAD
1000
AcDbSavedByObjectVersion
1070
     0
  0
VISUALSTYLE
  5
9FCB
102
{ACAD_XDICTIONARY
360
B345
102
}
102
{ACAD_REACTORS
330
9FC4
102
}
330
9FC4
100
AcDbVisualStyle
  2

 70
     5
 71
     0
 72
     2
 73
     0
 90
        0
 40
-0.6
 41
-30.0
 62
     5
 63
     7
 74
     1
 91
        4
 64
     7
 65
   257
 75
     1
175
     1
 42
1.0
 92
        0
 66
   257
 43
1.0
 76
     1
 77
     6
 78
     2
 67
     7
 79
     5
170
     0
171
     0
290
     0
174
     0
 93
        1
 44
0.0
173
     0
291
     0
 45
0.0
1001
ACAD
1000
AcDbSavedByObjectVersion
1070
     0
  0
VISUALSTYLE
  5
9FC9
102
{ACAD_XDICTIONARY
360
B341
102
}
102
{ACAD_REACTORS
330
9FC4
102
}
330
9FC4
100
AcDbVisualStyle
  2

 70
     7
 71
     1
 72
     0
 73
     1
 90
        0
 40
-0.6
 41
-30.0
 62
     5
 63
     7
 74
     0
 91
        4
 64
     7
 65
   257
 75
     1
175
     1
 42
1.0
 92
        8
 66
     7
 43
1.0
 76
     1
 77
     6
 78
     2
 67
     7
 79
     5
170
     0
171
     0
290
     0
174
     0
 93
        1
 44
0.0
173
     0
291
     1
 45
0.0
1001
ACAD
1000
AcDbSavedByObjectVersion
1070
     0
  0
VISUALSTYLE
  5
9FD0
102
{ACAD_XDICTIONARY
360
B34F
102
}
102
{ACAD_REACTORS
330
9FC4
102
}
330
9FC4
100
AcDbVisualStyle
  2

 70
    12
 71
     2
 72
     2
 73
     0
 90
        0
 40
-0.6
 41
-30.0
 62
     5
 63
     7
 74
     1
 91
        4
 64
     7
 65
   257
 75
     1
175
     1
 42
1.0
 92
        8
 66
     7
 43
1.0
 76
     1
 77
     6
 78
     2
 67
     7
 79
     5
170
     0
171
     0
290
     0
174
     0
 93
        1
 44
50.0
173
     0
291
     1
 45
0.0
1001
ACAD
1000
AcDbSavedByObjectVersion
1070
     0
  0
VISUALSTYLE
  5
9FD4
102
{ACAD_XDICTIONARY
360
B357
102
}
102
{ACAD_REACTORS
330
9FC4
102
}
330
9FC4
100
AcDbVisualStyle
  2

 70
    16
 71
     2
 72
     2
 73
     3
 90
        0
 40
-0.6
 41
-30.0
 62
     5
 63
     8
 74
     1
 91
        4
 64
     7
 65
   257
 75
     1
175
     1
 42
1.0
 92
        8
 66
     8
 43
1.0
 76
     1
 77
     6
 78
     2
 67
     7
 79
     5
170
     0
171
     0
290
     0
174
     0
 93
        1
 44
0.0
173
     0
291
     1
 45
0.0
1001
ACAD
1000
AcDbSavedByObjectVersion
1070
     0
  0
VISUALSTYLE
  5
9FCD
102
{ACAD_XDICTIONARY
360
B349
102
}
102
{ACAD_REACTORS
330
9FC4
102
}
330
9FC4
100
AcDbVisualStyle
  2

 70
     9
 71
     3
 72
     2
 73
     0
 90
        0
 40
-0.6
 41
-30.0
 62
     5
 63
     7
 74
     2
 91
        2
 64
     7
 65
   257
 75
     1
175
     1
 42
40.0
 92
        8
 66
     7
 43
1.0
 76
     1
 77
     6
 78
     2
 67
     7
 79
     3
170
     0
171
     0
290
     0
174
     0
 93
        1
 44
0.0
173
     0
291
     0
 45
0.0
1001
ACAD
1000
AcDbSavedByObjectVersion
1070
     0
  0
VISUALSTYLE
  5
9FCF
102
{ACAD_XDICTIONARY
360
B34D
102
}
102
{ACAD_REACTORS
330
9FC4
102
}
330
9FC4
100
AcDbVisualStyle
  2

 70
    11
 71
     2
 72
     2
 73
     0
 90
        0
 40
-0.6
 41
-30.0
 62
     5
 63
     7
 74
     1
 91
        4
 64
     7
 65
   257
 75
     1
175
     1
 42
1.0
 92
        8
 66
     7
 43
1.0
 76
     1
 77
     6
 78
     2
 67
     7
 79
     5
170
     0
171
     0
290
     0
174
     0
 93
        1
 44
-50.0
173
     0
291
     1
 45
0.0
1001
ACAD
1000
AcDbSavedByObjectVersion
1070
     0
  0
VISUALSTYLE
  5
A076
102
{ACAD_XDICTIONARY
360
B36B
102
}
102
{ACAD_REACTORS
330
9FC4
102
}
330
9FC4
100
AcDbVisualStyle
  2
EdgeColorOff
 70
    22
 71
     2
 72
     2
 73
     0
 90
        0
 40
-0.6
 41
-30.0
 62
     5
 63
     7
 74
     1
 91
        4
 64
     7
 65
   257
 75
     1
175
     1
 42
1.0
 92
        8
 66
     7
 43
1.0
 76
     1
 77
     6
 78
     2
 67
     7
 79
     5
170
     0
171
     0
290
     0
174
     0
 93
        1
 44
0.0
173
     0
291
     1
 45
0.0
1001
ACAD
1000
AcDbSavedByObjectVersion
1070
     0
  0
VISUALSTYLE
  5
9FD3
102
{ACAD_XDICTIONARY
360
B355
102
}
102
{ACAD_REACTORS
330
9FC4
102
}
330
9FC4
100
AcDbVisualStyle
  2

 70
    15
 71
     2
 72
     2
 73
     0
 90
        0
 40
-0.6
 41
-30.0
 62
     5
 63
     7
 74
     1
 91
        4
 64
     7
 65
   257
 75
     1
175
     1
 42
1.0
 92
        8
 66
     7
 43
1.0
 76
     1
 77
     6
 78
     2
 67
     7
 79
     5
170
     0
171
     0
290
     0
174
     0
 93
        1
 44
0.0
173
     0
291
     1
 45
0.0
1001
ACAD
1000
AcDbSavedByObjectVersion
1070
     0
  0
VISUALSTYLE
  5
9FC5
102
{ACAD_XDICTIONARY
360
B339
102
}
102
{ACAD_REACTORS
330
9FC4
102
}
330
9FC4
100
AcDbVisualStyle
  2

 70
     0
 71
     2
 72
     1
 73
     1
 90
        2
 40
-0.6
 41
30.0
 62
     5
 63
     7
 74
     0
 91
        4
 64
     7
 65
   257
 75
     1
175
     1
 42
1.0
 92
        8
 66
     7
 43
1.0
 76
     1
 77
     6
 78
     2
 67
     7
 79
     5
170
     0
171
     0
290
     0
174
     0
 93
       13
 44
0.0
173
     0
291
     1
 45
0.0
1001
ACAD
1000
AcDbSavedByObjectVersion
1070
     0
  0
VISUALSTYLE
  5
9FC6
102
{ACAD_XDICTIONARY
360
B33B
102
}
102
{ACAD_REACTORS
330
9FC4
102
}
330
9FC4
100
AcDbVisualStyle
  2

 70
     1
 71
     2
 72
     1
 73
     1
 90
        2
 40
-0.6
 41
30.0
 62
     5
 63
     7
 74
     1
 91
        4
 64
     7
 65
   257
 75
     1
175
     1
 42
1.0
 92
        0
 66
   257
 43
1.0
 76
     1
 77
     6
 78
     2
 67
     7
 79
     5
170
     0
171
     0
290
     0
174
     0
 93
       13
 44
0.0
173
     0
291
     1
 45
0.0
1001
ACAD
1000
AcDbSavedByObjectVersion
1070
     0
  0
VISUALSTYLE
  5
9FC7
102
{ACAD_XDICTIONARY
360
B33D
102
}
102
{ACAD_REACTORS
330
9FC4
102
}
330
9FC4
100
AcDbVisualStyle
  2

 70
     2
 71
     2
 72
     2
 73
     1
 90
        2
 40
-0.6
 41
30.0
 62
     5
 63
     7
 74
     0
 91
        4
 64
     7
 65
   257
 75
     1
175
     1
 42
1.0
 92
        0
 66
     7
 43
1.0
 76
     1
 77
     6
 78
     2
 67
     7
 79
     5
170
     0
171
     0
290
     0
174
     0
 93
       13
 44
0.0
173
     0
291
     1
 45
0.0
1001
ACAD
1000
AcDbSavedByObjectVersion
1070
     0
  0
VISUALSTYLE
  5
9FC8
102
{ACAD_XDICTIONARY
360
B33F
102
}
102
{ACAD_REACTORS
330
9FC4
102
}
330
9FC4
100
AcDbVisualStyle
  2

 70
     3
 71
     2
 72
     2
 73
     1
 90
        2
 40
-0.6
 41
30.0
 62
     5
 63
     7
 74
     1
 91
        4
 64
     7
 65
   257
 75
     1
175
     1
 42
1.0
 92
        0
 66
   257
 43
1.0
 76
     1
 77
     6
 78
     2
 67
     7
 79
     5
170
     0
171
     0
290
     0
174
     0
 93
       13
 44
0.0
173
     0
291
     1
 45
0.0
1001
ACAD
1000
AcDbSavedByObjectVersion
1070
     0
  0
VISUALSTYLE
  5
A06E
102
{ACAD_XDICTIONARY
360
B35B
102
}
102
{ACAD_REACTORS
330
9FC4
102
}
330
9FC4
100
AcDbVisualStyle
  2
Hidden
 70
     6
 71
     1
 72
     2
 73
     2
 90
        0
 40
-0.6
 41
-30.0
 62
     5
 63
     7
 74
     2
 91
        2
 64
     7
 65
   257
 75
     2
175
     1
 42
40.0
 92
        0
 66
   257
 43
1.0
 76
     1
 77
     6
 78
     2
 67
     7
 79
     3
170
     0
171
     0
290
     0
174
     0
 93
        1
 44
0.0
173
     0
291
     0
 45
0.0
1001
ACAD
1000
AcDbSavedByObjectVersion
1070
     0
  0
VISUALSTYLE
  5
A074
102
{ACAD_XDICTIONARY
360
B367
102
}
102
{ACAD_REACTORS
330
9FC4
102
}
330
9FC4
100
AcDbVisualStyle
  2
JitterOff
 70
    20
 71
     2
 72
     2
 73
     0
 90
        0
 40
-0.6
 41
-30.0
 62
     5
 63
     7
 74
     1
 91
        4
 64
     7
 65
   257
 75
     1
175
     1
 42
1.0
 92
       10
 66
     7
 43
1.0
 76
     1
 77
     6
 78
     2
 67
     7
 79
     5
170
     0
171
     0
290
     0
174
     0
 93
        1
 44
0.0
173
     0
291
     1
 45
0.0
1001
ACAD
1000
AcDbSavedByObjectVersion
1070
     0
  0
VISUALSTYLE
  5
9FD2
102
{ACAD_XDICTIONARY
360
B353
102
}
102
{ACAD_REACTORS
330
9FC4
102
}
330
9FC4
100
AcDbVisualStyle
  2

 70
    14
 71
     2
 72
     2
 73
     0
 90
        0
 40
-0.6
 41
-30.0
 62
     5
 63
     7
 74
     1
 91
        4
 64
     7
 65
   257
 75
     7
175
     7
 42
1.0
 92
        8
 66
     7
 43
1.0
 76
     1
 77
     6
 78
     2
 67
     7
 79
     5
170
     0
171
     0
290
     0
174
     0
 93
        1
 44
0.0
173
     0
291
     1
 45
0.0
1001
ACAD
1000
AcDbSavedByObjectVersion
1070
     0
  0
VISUALSTYLE
  5
A075
102
{ACAD_XDICTIONARY
360
B369
102
}
102
{ACAD_REACTORS
330
9FC4
102
}
330
9FC4
100
AcDbVisualStyle
  2
OverhangOff
 70
    21
 71
     2
 72
     2
 73
     0
 90
        0
 40
-0.6
 41
-30.0
 62
     5
 63
     7
 74
     1
 91
        4
 64
     7
 65
   257
 75
     1
175
     1
 42
1.0
 92
        9
 66
     7
 43
1.0
 76
     1
 77
     6
 78
     2
 67
     7
 79
     5
170
     0
171
     0
290
     0
174
     0
 93
        1
 44
0.0
173
     0
291
     1
 45
0.0
1001
ACAD
1000
AcDbSavedByObjectVersion
1070
     0
  0
VISUALSTYLE
  5
9FCE
102
{ACAD_XDICTIONARY
360
B34B
102
}
102
{ACAD_REACTORS
330
9FC4
102
}
330
9FC4
100
AcDbVisualStyle
  2

 70
     8
 71
     2
 72
     2
 73
     0
 90
        0
 40
-0.6
 41
-30.0
 62
     5
 63
     7
 74
     1
 91
        0
 64
     7
 65
   257
 75
     1
175
     1
 42
1.0
 92
        8
 66
     8
 43
1.0
 76
     1
 77
     6
 78
     2
 67
     7
 79
     5
170
     0
171
     0
290
     0
174
     0
 93
       13
 44
0.0
173
     0
291
     0
 45
0.0
1001
ACAD
1000
AcDbSavedByObjectVersion
1070
     0
  0
VISUALSTYLE
  5
A073
102
{ACAD_XDICTIONARY
360
B365
102
}
102
{ACAD_REACTORS
330
9FC4
102
}
330
9FC4
100
AcDbVisualStyle
  2
Shaded
 70
    27
 71
     2
 72
     2
 73
     1
 90
        2
 40
-0.6
 41
30.0
 62
     5
 63
     7
 74
     0
 91
        4
 64
     7
 65
   257
 75
     1
175
     1
 42
1.0
 92
        8
 66
   257
 43
1.0
 76
     1
 77
     6
 78
     2
 67
     8
 79
     3
170
     0
171
     0
290
     0
174
     0
 93
        5
 44
0.0
173
     0
291
     0
 45
0.0
1001
ACAD
1000
AcDbSavedByObjectVersion
1070
     0
  0
VISUALSTYLE
  5
A072
102
{ACAD_XDICTIONARY
360
B363
102
}
102
{ACAD_REACTORS
330
9FC4
102
}
330
9FC4
100
AcDbVisualStyle
  2
Shaded with edges
 70
    26
 71
     2
 72
     2
 73
     1
 90
        2
 40
-0.6
 41
30.0
 62
     5
 63
     7
 74
     1
 91
       10
 64
     7
 65
   257
 75
     2
175
     1
 42
1.0
 92
        8
 66
   257
 43
1.0
 76
     1
 77
     6
 78
     2
 67
     7
 79
     3
170
     0
171
     0
290
     0
174
     0
 93
        5
 44
0.0
173
     0
291
     0
 45
0.0
1001
ACAD
1000
AcDbSavedByObjectVersion
1070
     0
  0
VISUALSTYLE
  5
A06F
102
{ACAD_XDICTIONARY
360
B35D
102
}
102
{ACAD_REACTORS
330
9FC4
102
}
330
9FC4
100
AcDbVisualStyle
  2
Shades of Gray
 70
    23
 71
     2
 72
     2
 73
     3
 90
        0
 40
-0.6
 41
-30.0
 62
     5
 63
     7
 74
     2
 91
        2
 64
     7
 65
     7
 75
     1
175
     1
 42
40.0
 92
        8
 66
     7
 43
1.0
 76
     1
 77
     6
 78
     2
 67
     7
 79
     3
170
     0
171
     0
290
     0
174
     0
 93
        1
 44
0.0
173
     0
291
     0
 45
0.0
1001
ACAD
1000
AcDbSavedByObjectVersion
1070
     0
  0
VISUALSTYLE
  5
A070
102
{ACAD_XDICTIONARY
360
B35F
102
}
102
{ACAD_REACTORS
330
9FC4
102
}
330
9FC4
100
AcDbVisualStyle
  2
Sketchy
 70
    24
 71
     1
 72
     2
 73
     2
 90
        0
 40
-0.6
 41
-30.0
 62
     5
 63
     7
 74
     2
 91
        2
 64
     7
 65
     7
 75
     1
175
     1
 42
40.0
 92
       11
 66
     7
 43
1.0
 76
     1
 77
     6
 78
     2
 67
     7
 79
     6
170
     0
171
     0
290
     0
174
     0
 93
        1
 44
0.0
173
     0
291
     0
 45
0.0
1001
ACAD
1000
AcDbSavedByObjectVersion
1070
     0
  0
VISUALSTYLE
  5
9FD1
102
{ACAD_XDICTIONARY
360
B351
102
}
102
{ACAD_REACTORS
330
9FC4
102
}
330
9FC4
100
AcDbVisualStyle
  2

 70
    13
 71
     2
 72
     2
 73
     0
 90
        0
 40
-0.6
 41
-30.0
 62
     5
 63
     7
 74
     1
 91
        4
 64
     7
 65
   257
 75
     1
175
     1
 42
1.0
 92
       12
 66
     7
 43
1.0
 76
     1
 77
     6
 78
     2
 67
     7
 79
     5
170
     0
171
     0
290
     0
174
     0
 93
        1
 44
0.0
173
     0
291
     1
 45
0.0
1001
ACAD
1000
AcDbSavedByObjectVersion
1070
     0
  0
VISUALSTYLE
  5
A06D
102
{ACAD_XDICTIONARY
360
B359
102
}
102
{ACAD_REACTORS
330
9FC4
102
}
330
9FC4
100
AcDbVisualStyle
  2
Wireframe
 70
     5
 71
     0
 72
     2
 73
     0
 90
        0
 40
-0.6
 41
-30.0
 62
     5
 63
     7
 74
     1
 91
        4
 64
     7
 65
   257
 75
     1
175
     1
 42
1.0
 92
        0
 66
   257
 43
1.0
 76
     1
 77
     6
 78
     2
 67
     7
 79
     3
170
     0
171
     0
290
     0
174
     0
 93
        1
 44
0.0
173
     0
291
     0
 45
0.0
1001
ACAD
1000
AcDbSavedByObjectVersion
1070
     0
  0
VISUALSTYLE
  5
A071
102
{ACAD_XDICTIONARY
360
B361
102
}
102
{ACAD_REACTORS
330
9FC4
102
}
330
9FC4
100
AcDbVisualStyle
  2
X-Ray
 70
    25
 71
     2
 72
     2
 73
     1
 90
        1
 40
0.5
 41
-30.0
 62
     5
 63
     7
 74
     1
 91
        0
 64
     7
 65
   257
 75
     1
175
     1
 42
1.0
 92
        8
 66
     7
 43
1.0
 76
     1
 77
     6
 78
     2
 67
     7
 79
     3
170
     0
171
     0
290
     0
174
     0
 93
       13
 44
0.0
173
     0
291
     0
 45
0.0
1001
ACAD
1000
AcDbSavedByObjectVersion
1070
     0
  0
DICTIONARYVAR
  5
A054
102
{ACAD_REACTORS
330
1BF
102
}
330
1BF
100
DictionaryVariables
280
     0
  1
1:1
  0
DICTIONARYVAR
  5
A053
102
{ACAD_REACTORS
330
1BF
102
}
330
1BF
100
DictionaryVariables
280
     0
  1
STANDARD
  0
DICTIONARYVAR
  5
9F88
102
{ACAD_REACTORS
330
1BF
102
}
330
1BF
100
DictionaryVariables
280
     0
  1
STANDARD
  0
DICTIONARYVAR
  5
9F90
102
{ACAD_REACTORS
330
1BF
102
}
330
1BF
100
DictionaryVariables
280
     0
  1
1
  0
DICTIONARYVAR
  5
A055
102
{ACAD_REACTORS
330
1BF
102
}
330
1BF
100
DictionaryVariables
280
     0
  1
0
  0
DICTIONARYVAR
  5
9F91
102
{ACAD_REACTORS
330
1BF
102
}
330
1BF
100
DictionaryVariables
280
     0
  1

  0
DICTIONARYVAR
  5
1C0
102
{ACAD_REACTORS
330
1BF
102
}
330
1BF
100
DictionaryVariables
280
     0
  1
96
  0
DICTIONARYVAR
  5
B2E8
102
{ACAD_REACTORS
330
1BF
102
}
330
1BF
100
DictionaryVariables
280
     0
  1
2
  0
DICTIONARY
  5
B332
330
9ED2
100
AcDbDictionary
280
     1
281
     1
  3
ACAD_XREC_ROUNDTRIP
360
B333
  0
DICTIONARY
  5
B334
330
9ED3
100
AcDbDictionary
280
     1
281
     1
  3
ACAD_XREC_ROUNDTRIP
360
B335
  0
DICTIONARY
  5
9FB5
330
9FB4
100
AcDbDictionary
280
     1
281
     1
  3
ACAD_XREC_ROUNDTRIP
360
B337
  3
BUMPTILE
360
9FB7
  3
DIFFUSETILE
360
9FB6
  3
OPACITYTILE
360
9FBA
  3
REFLECTIONTILE
360
9FB9
  3
REFRACTIONTILE
360
9FBB
  3
SPECULARTILE
360
9FB8
  0
DICTIONARY
  5
9FAD
330
9FAC
100
AcDbDictionary
280
     1
281
     1
  3
ACAD_XREC_ROUNDTRIP
360
B336
  3
BUMPTILE
360
9FAF
  3
DIFFUSETILE
360
9FAE
  3
OPACITYTILE
360
9FB2
  3
REFLECTIONTILE
360
9FB1
  3
REFRACTIONTILE
360
9FB3
  3
SPECULARTILE
360
9FB0
  0
DICTIONARY
  5
9FBD
330
9FBC
100
AcDbDictionary
280
     1
281
     1
  3
ACAD_XREC_ROUNDTRIP
360
B338
  3
BUMPTILE
360
9FBF
  3
DIFFUSETILE
360
9FBE
  3
OPACITYTILE
360
9FC2
  3
REFLECTIONTILE
360
9FC1
  3
REFRACTIONTILE
360
9FC3
  3
SPECULARTILE
360
9FC0
  0
DICTIONARY
  5
A056
330
9ECF
100
AcDbDictionary
280
     1
281
     1
  3
ACAD_ROUNDTRIP_2008_TABLESTYLE_CELLSTYLEMAP
360
B32E
  3
ACAD_XREC_ROUNDTRIP
360
B331
  0
DICTIONARY
  5
B343
330
9FCA
100
AcDbDictionary
280
     1
281
     1
  3
ACAD_XREC_ROUNDTRIP
360
B344
  0
DICTIONARY
  5
B347
330
9FCC
100
AcDbDictionary
280
     1
281
     1
  3
ACAD_XREC_ROUNDTRIP
360
B348
  0
DICTIONARY
  5
B345
330
9FCB
100
AcDbDictionary
280
     1
281
     1
  3
ACAD_XREC_ROUNDTRIP
360
B346
  0
DICTIONARY
  5
B341
330
9FC9
100
AcDbDictionary
280
     1
281
     1
  3
ACAD_XREC_ROUNDTRIP
360
B342
  0
DICTIONARY
  5
B34F
330
9FD0
100
AcDbDictionary
280
     1
281
     1
  3
ACAD_XREC_ROUNDTRIP
360
B350
  0
DICTIONARY
  5
B357
330
9FD4
100
AcDbDictionary
280
     1
281
     1
  3
ACAD_XREC_ROUNDTRIP
360
B358
  0
DICTIONARY
  5
B349
330
9FCD
100
AcDbDictionary
280
     1
281
     1
  3
ACAD_XREC_ROUNDTRIP
360
B34A
  0
DICTIONARY
  5
B34D
330
9FCF
100
AcDbDictionary
280
     1
281
     1
  3
ACAD_XREC_ROUNDTRIP
360
B34E
  0
DICTIONARY
  5
B36B
330
A076
100
AcDbDictionary
280
     1
281
     1
  3
ACAD_XREC_ROUNDTRIP
360
B36C
  0
DICTIONARY
  5
B355
330
9FD3
100
AcDbDictionary
280
     1
281
     1
  3
ACAD_XREC_ROUNDTRIP
360
B356
  0
DICTIONARY
  5
B339
330
9FC5
100
AcDbDictionary
280
     1
281
     1
  3
ACAD_XREC_ROUNDTRIP
360
B33A
  0
DICTIONARY
  5
B33B
330
9FC6
100
AcDbDictionary
280
     1
281
     1
  3
ACAD_XREC_ROUNDTRIP
360
B33C
  0
DICTIONARY
  5
B33D
330
9FC7
100
AcDbDictionary
280
     1
281
     1
  3
ACAD_XREC_ROUNDTRIP
360
B33E
  0
DICTIONARY
  5
B33F
330
9FC8
100
AcDbDictionary
280
     1
281
     1
  3
ACAD_XREC_ROUNDTRIP
360
B340
  0
DICTIONARY
  5
B35B
330
A06E
100
AcDbDictionary
280
     1
281
     1
  3
ACAD_XREC_ROUNDTRIP
360
B35C
  0
DICTIONARY
  5
B367
330
A074
100
AcDbDictionary
280
     1
281
     1
  3
ACAD_XREC_ROUNDTRIP
360
B368
  0
DICTIONARY
  5
B353
330
9FD2
100
AcDbDictionary
280
     1
281
     1
  3
ACAD_XREC_ROUNDTRIP
360
B354
  0
DICTIONARY
  5
B369
330
A075
100
AcDbDictionary
280
     1
281
     1
  3
ACAD_XREC_ROUNDTRIP
360
B36A
  0
DICTIONARY
  5
B34B
330
9FCE
100
AcDbDictionary
280
     1
281
     1
  3
ACAD_XREC_ROUNDTRIP
360
B34C
  0
DICTIONARY
  5
B365
330
A073
100
AcDbDictionary
280
     1
281
     1
  3
ACAD_XREC_ROUNDTRIP
360
B366
  0
DICTIONARY
  5
B363
330
A072
100
AcDbDictionary
280
     1
281
     1
  3
ACAD_XREC_ROUNDTRIP
360
B364
  0
DICTIONARY
  5
B35D
330
A06F
100
AcDbDictionary
280
     1
281
     1
  3
ACAD_XREC_ROUNDTRIP
360
B35E
  0
DICTIONARY
  5
B35F
330
A070
100
AcDbDictionary
280
     1
281
     1
  3
ACAD_XREC_ROUNDTRIP
360
B360
  0
DICTIONARY
  5
B351
330
9FD1
100
AcDbDictionary
280
     1
281
     1
  3
ACAD_XREC_ROUNDTRIP
360
B352
  0
DICTIONARY
  5
B359
330
A06D
100
AcDbDictionary
280
     1
281
     1
  3
ACAD_XREC_ROUNDTRIP
360
B35A
  0
DICTIONARY
  5
B361
330
A071
100
AcDbDictionary
280
     1
281
     1
  3
ACAD_XREC_ROUNDTRIP
360
B362
  0
XRECORD
  5
B333
102
{ACAD_REACTORS
330
B332
102
}
330
B332
100
AcDbXrecord
280
     1
102
SHADEPLOT
 70
     0
102
SHADEPLOTRESLEVEL
 70
     2
102
SHADEPLOTCUSTOMDPI
 70
   300
  0
XRECORD
  5
B335
102
{ACAD_REACTORS
330
B334
102
}
330
B334
100
AcDbXrecord
280
     1
102
SHADEPLOT
 70
     0
102
SHADEPLOTRESLEVEL
 70
     2
102
SHADEPLOTCUSTOMDPI
 70
   300
  0
XRECORD
  5
B337
102
{ACAD_REACTORS
330
9FB5
102
}
330
9FB5
100
AcDbXrecord
280
     1
102
MATERIAL
148
0.0
149
0.0
149
0.0
 93
        0
 94
      127
282
     0
 72
     0
 77
     0
171
     0
175
     0
179
     0
273
     0
  0
XRECORD
  5
9FB7
102
{ACAD_REACTORS
330
9FB5
102
}
330
9FB5
100
AcDbXrecord
280
     1
270
     1
271
     1
  0
XRECORD
  5
9FB6
102
{ACAD_REACTORS
330
9FB5
102
}
330
9FB5
100
AcDbXrecord
280
     1
270
     1
271
     1
  0
XRECORD
  5
9FBA
102
{ACAD_REACTORS
330
9FB5
102
}
330
9FB5
100
AcDbXrecord
280
     1
270
     1
271
     1
  0
XRECORD
  5
9FB9
102
{ACAD_REACTORS
330
9FB5
102
}
330
9FB5
100
AcDbXrecord
280
     1
270
     1
271
     1
  0
XRECORD
  5
9FBB
102
{ACAD_REACTORS
330
9FB5
102
}
330
9FB5
100
AcDbXrecord
280
     1
270
     1
271
     1
  0
XRECORD
  5
9FB8
102
{ACAD_REACTORS
330
9FB5
102
}
330
9FB5
100
AcDbXrecord
280
     1
270
     1
271
     1
  0
XRECORD
  5
B336
102
{ACAD_REACTORS
330
9FAD
102
}
330
9FAD
100
AcDbXrecord
280
     1
102
MATERIAL
148
0.0
149
0.0
149
0.0
 93
        0
 94
      127
282
     0
 72
     0
 77
     0
171
     0
175
     0
179
     0
273
     0
  0
XRECORD
  5
9FAF
102
{ACAD_REACTORS
330
9FAD
102
}
330
9FAD
100
AcDbXrecord
280
     1
270
     1
271
     1
  0
XRECORD
  5
9FAE
102
{ACAD_REACTORS
330
9FAD
102
}
330
9FAD
100
AcDbXrecord
280
     1
270
     1
271
     1
  0
XRECORD
  5
9FB2
102
{ACAD_REACTORS
330
9FAD
102
}
330
9FAD
100
AcDbXrecord
280
     1
270
     1
271
     1
  0
XRECORD
  5
9FB1
102
{ACAD_REACTORS
330
9FAD
102
}
330
9FAD
100
AcDbXrecord
280
     1
270
     1
271
     1
  0
XRECORD
  5
9FB3
102
{ACAD_REACTORS
330
9FAD
102
}
330
9FAD
100
AcDbXrecord
280
     1
270
     1
271
     1
  0
XRECORD
  5
9FB0
102
{ACAD_REACTORS
330
9FAD
102
}
330
9FAD
100
AcDbXrecord
280
     1
270
     1
271
     1
  0
XRECORD
  5
B338
102
{ACAD_REACTORS
330
9FBD
102
}
330
9FBD
100
AcDbXrecord
280
     1
102
MATERIAL
148
0.0
149
0.0
149
0.0
 93
        0
 94
      127
282
     0
 72
     0
 77
     0
171
     0
175
     0
179
     0
273
     0
  0
XRECORD
  5
9FBF
102
{ACAD_REACTORS
330
9FBD
102
}
330
9FBD
100
AcDbXrecord
280
     1
270
     1
271
     1
  0
XRECORD
  5
9FBE
102
{ACAD_REACTORS
330
9FBD
102
}
330
9FBD
100
AcDbXrecord
280
     1
270
     1
271
     1
  0
XRECORD
  5
9FC2
102
{ACAD_REACTORS
330
9FBD
102
}
330
9FBD
100
AcDbXrecord
280
     1
270
     1
271
     1
  0
XRECORD
  5
9FC1
102
{ACAD_REACTORS
330
9FBD
102
}
330
9FBD
100
AcDbXrecord
280
     1
270
     1
271
     1
  0
XRECORD
  5
9FC3
102
{ACAD_REACTORS
330
9FBD
102
}
330
9FBD
100
AcDbXrecord
280
     1
270
     1
271
     1
  0
XRECORD
  5
9FC0
102
{ACAD_REACTORS
330
9FBD
102
}
330
9FBD
100
AcDbXrecord
280
     1
270
     1
271
     1
  0
CELLSTYLEMAP
  5
B32E
102
{ACAD_REACTORS
330
A056
102
}
330
A056
100
AcDbCellStyleMap
 90
        3
300
CELLSTYLE
  1
TABLEFORMAT_BEGIN
 90
        5
170
     1
 91
        0
 92
    32768
 62
   257
 93
        1
300
CONTENTFORMAT
  1
CONTENTFORMAT_BEGIN
 90
        0
 91
        0
 92
        4
 93
        0
300

 40
0.0
140
1.0
 94
        5
 62
     0
340
10
144
0.25
309
CONTENTFORMAT_END
171
     1
301
MARGIN
  1
CELLMARGIN_BEGIN
 40
0.06
 40
0.06
 40
0.06
 40
0.06
 40
0.18
 40
0.18
309
CELLMARGIN_END
 94
        6
 95
        1
302
GRIDFORMAT
  1
GRIDFORMAT_BEGIN
 90
        0
 91
        1
 62
     0
 92
       -2
340
0
 93
        0
 40
0.045
309
GRIDFORMAT_END
 95
        2
302
GRIDFORMAT
  1
GRIDFORMAT_BEGIN
 90
        0
 91
        1
 62
     0
 92
       -2
340
0
 93
        0
 40
0.045
309
GRIDFORMAT_END
 95
        4
302
GRIDFORMAT
  1
GRIDFORMAT_BEGIN
 90
        0
 91
        1
 62
     0
 92
       -2
340
0
 93
        0
 40
0.045
309
GRIDFORMAT_END
 95
        8
302
GRIDFORMAT
  1
GRIDFORMAT_BEGIN
 90
        0
 91
        1
 62
     0
 92
       -2
340
0
 93
        0
 40
0.045
309
GRIDFORMAT_END
 95
       16
302
GRIDFORMAT
  1
GRIDFORMAT_BEGIN
 90
        0
 91
        1
 62
     0
 92
       -2
340
0
 93
        0
 40
0.045
309
GRIDFORMAT_END
 95
       32
302
GRIDFORMAT
  1
GRIDFORMAT_BEGIN
 90
        0
 91
        1
 62
     0
 92
       -2
340
0
 93
        0
 40
0.045
309
GRIDFORMAT_END
309
TABLEFORMAT_END
  1
CELLSTYLE_BEGIN
 90
        1
 91
        1
300
_TITLE
309
CELLSTYLE_END
300
CELLSTYLE
  1
TABLEFORMAT_BEGIN
 90
        5
170
     1
 91
        0
 92
        0
 62
   257
 93
        1
300
CONTENTFORMAT
  1
CONTENTFORMAT_BEGIN
 90
        0
 91
        0
 92
        4
 93
        0
300

 40
0.0
140
1.0
 94
        5
 62
     0
340
10
144
0.18
309
CONTENTFORMAT_END
171
     1
301
MARGIN
  1
CELLMARGIN_BEGIN
 40
0.06
 40
0.06
 40
0.06
 40
0.06
 40
0.18
 40
0.18
309
CELLMARGIN_END
 94
        6
 95
        1
302
GRIDFORMAT
  1
GRIDFORMAT_BEGIN
 90
        0
 91
        1
 62
     0
 92
       -2
340
0
 93
        0
 40
0.045
309
GRIDFORMAT_END
 95
        2
302
GRIDFORMAT
  1
GRIDFORMAT_BEGIN
 90
        0
 91
        1
 62
     0
 92
       -2
340
0
 93
        0
 40
0.045
309
GRIDFORMAT_END
 95
        4
302
GRIDFORMAT
  1
GRIDFORMAT_BEGIN
 90
        0
 91
        1
 62
     0
 92
       -2
340
0
 93
        0
 40
0.045
309
GRIDFORMAT_END
 95
        8
302
GRIDFORMAT
  1
GRIDFORMAT_BEGIN
 90
        0
 91
        1
 62
     0
 92
       -2
340
0
 93
        0
 40
0.045
309
GRIDFORMAT_END
 95
       16
302
GRIDFORMAT
  1
GRIDFORMAT_BEGIN
 90
        0
 91
        1
 62
     0
 92
       -2
340
0
 93
        0
 40
0.045
309
GRIDFORMAT_END
 95
       32
302
GRIDFORMAT
  1
GRIDFORMAT_BEGIN
 90
        0
 91
        1
 62
     0
 92
       -2
340
0
 93
        0
 40
0.045
309
GRIDFORMAT_END
309
TABLEFORMAT_END
  1
CELLSTYLE_BEGIN
 90
        2
 91
        1
300
_HEADER
309
CELLSTYLE_END
300
CELLSTYLE
  1
TABLEFORMAT_BEGIN
 90
        5
170
     1
 91
        0
 92
        0
 62
   257
 93
        1
300
CONTENTFORMAT
  1
CONTENTFORMAT_BEGIN
 90
        0
 91
        0
 92
        4
 93
        0
300

 40
0.0
140
1.0
 94
        2
 62
     0
340
10
144
0.18
309
CONTENTFORMAT_END
171
     1
301
MARGIN
  1
CELLMARGIN_BEGIN
 40
0.06
 40
0.06
 40
0.06
 40
0.06
 40
0.18
 40
0.18
309
CELLMARGIN_END
 94
        6
 95
        1
302
GRIDFORMAT
  1
GRIDFORMAT_BEGIN
 90
        0
 91
        1
 62
     0
 92
       -2
340
0
 93
        0
 40
0.045
309
GRIDFORMAT_END
 95
        2
302
GRIDFORMAT
  1
GRIDFORMAT_BEGIN
 90
        0
 91
        1
 62
     0
 92
       -2
340
0
 93
        0
 40
0.045
309
GRIDFORMAT_END
 95
        4
302
GRIDFORMAT
  1
GRIDFORMAT_BEGIN
 90
        0
 91
        1
 62
     0
 92
       -2
340
0
 93
        0
 40
0.045
309
GRIDFORMAT_END
 95
        8
302
GRIDFORMAT
  1
GRIDFORMAT_BEGIN
 90
        0
 91
        1
 62
     0
 92
       -2
340
0
 93
        0
 40
0.045
309
GRIDFORMAT_END
 95
       16
302
GRIDFORMAT
  1
GRIDFORMAT_BEGIN
 90
        0
 91
        1
 62
     0
 92
       -2
340
0
 93
        0
 40
0.045
309
GRIDFORMAT_END
 95
       32
302
GRIDFORMAT
  1
GRIDFORMAT_BEGIN
 90
        0
 91
        1
 62
     0
 92
       -2
340
0
 93
        0
 40
0.045
309
GRIDFORMAT_END
309
TABLEFORMAT_END
  1
CELLSTYLE_BEGIN
 90
        3
 91
        2
300
_DATA
309
CELLSTYLE_END
  0
XRECORD
  5
B331
102
{ACAD_REACTORS
330
A056
102
}
330
A056
100
AcDbXrecord
280
     1
102
ACAD_ROUNDTRIP_PRE2007_TABLESTYLE
 90
        4
 91
        0
  1

 92
        4
 93
        0
  2

 94
        4
 95
        0
  3

  0
XRECORD
  5
B344
102
{ACAD_REACTORS
330
B343
102
}
330
B343
100
AcDbXrecord
280
     1
102
RTVSPropertyOp0
 70
     1
102
RTVSPropertyOp1
 70
     1
102
RTVSPropertyOp2
 70
     1
102
RTVSPropertyOp3
 70
     1
102
RTVSPropertyOp4
 70
     1
102
RTVSPropertyOp5
 70
     1
102
RTVSPropertyOp6
 70
     1
102
RTVSPropertyOp7
 70
     1
102
RTVSPropertyOp8
 70
     1
102
RTVSPropertyOp9
 70
     1
102
RTVSPropertyOp10
 70
     1
102
RTVSPropertyOp11
 70
     1
102
RTVSPropertyOp12
 70
     1
102
RTVSPropertyOp13
 70
     1
102
RTVSPropertyOp14
 70
     1
102
RTVSPropertyOp15
 70
     1
102
RTVSPropertyOp16
 70
     1
102
RTVSPropertyOp17
 70
     1
102
RTVSPropertyOp18
 70
     1
102
RTVSPropertyOp19
 70
     1
102
RTVSPropertyOp20
 70
     1
102
RTVSPropertyOp21
 70
     1
102
RTVSPropertyOp22
 70
     1
102
RTVSPropertyOp23
 70
     1
102
RTVSPropertyOp24
 70
     1
102
RTVSPropertyOp25
 70
     1
102
RTVSPropertyOp26
 70
     1
102
RTVSPropertyOp27
 70
     1
102
RTVSPropertyOp28
 70
     1
102
RTVSPropertyOp29
 70
     1
102
RTVSPropertyOp30
 70
     1
102
RTVSPropertyOp31
 70
     1
102
RTVSPropertyOp32
 70
     1
  0
XRECORD
  5
B348
102
{ACAD_REACTORS
330
B347
102
}
330
B347
100
AcDbXrecord
280
     1
102
RTVSPropertyOp0
 70
     1
102
RTVSPropertyOp1
 70
     1
102
RTVSPropertyOp2
 70
     1
102
RTVSPropertyOp3
 70
     1
102
RTVSPropertyOp4
 70
     1
102
RTVSPropertyOp5
 70
     1
102
RTVSPropertyOp6
 70
     1
102
RTVSPropertyOp7
 70
     1
102
RTVSPropertyOp8
 70
     1
102
RTVSPropertyOp9
 70
     1
102
RTVSPropertyOp10
 70
     1
102
RTVSPropertyOp11
 70
     1
102
RTVSPropertyOp12
 70
     1
102
RTVSPropertyOp13
 70
     1
102
RTVSPropertyOp14
 70
     1
102
RTVSPropertyOp15
 70
     1
102
RTVSPropertyOp16
 70
     1
102
RTVSPropertyOp17
 70
     1
102
RTVSPropertyOp18
 70
     1
102
RTVSPropertyOp19
 70
     1
102
RTVSPropertyOp20
 70
     1
102
RTVSPropertyOp21
 70
     1
102
RTVSPropertyOp22
 70
     1
102
RTVSPropertyOp23
 70
     1
102
RTVSPropertyOp24
 70
     1
102
RTVSPropertyOp25
 70
     1
102
RTVSPropertyOp26
 70
     1
102
RTVSPropertyOp27
 70
     1
102
RTVSPropertyOp28
 70
     1
102
RTVSPropertyOp29
 70
     1
102
RTVSPropertyOp30
 70
     1
102
RTVSPropertyOp31
 70
     1
102
RTVSPropertyOp32
 70
     1
  0
XRECORD
  5
B346
102
{ACAD_REACTORS
330
B345
102
}
330
B345
100
AcDbXrecord
280
     1
102
RTVSPropertyOp0
 70
     1
102
RTVSPropertyOp1
 70
     1
102
RTVSPropertyOp2
 70
     1
102
RTVSPropertyOp3
 70
     1
102
RTVSPropertyOp4
 70
     1
102
RTVSPropertyOp5
 70
     1
102
RTVSPropertyOp6
 70
     1
102
RTVSPropertyOp7
 70
     1
102
RTVSPropertyOp8
 70
     1
102
RTVSPropertyOp9
 70
     1
102
RTVSPropertyOp10
 70
     1
102
RTVSPropertyOp11
 70
     1
102
RTVSPropertyOp12
 70
     1
102
RTVSPropertyOp13
 70
     1
102
RTVSPropertyOp14
 70
     1
102
RTVSPropertyOp15
 70
     1
102
RTVSPropertyOp16
 70
     1
102
RTVSPropertyOp17
 70
     1
102
RTVSPropertyOp18
 70
     1
102
RTVSPropertyOp19
 70
     1
102
RTVSPropertyOp20
 70
     1
102
RTVSPropertyOp21
 70
     1
102
RTVSPropertyOp22
 70
     1
102
RTVSPropertyOp23
 70
     1
102
RTVSPropertyOp24
 70
     1
102
RTVSPropertyOp25
 70
     1
102
RTVSPropertyOp26
 70
     1
102
RTVSPropertyOp27
 70
     1
102
RTVSPropertyOp28
 70
     1
102
RTVSPropertyOp29
 70
     1
102
RTVSPropertyOp30
 70
     1
102
RTVSPropertyOp31
 70
     1
102
RTVSPropertyOp32
 70
     1
  0
XRECORD
  5
B342
102
{ACAD_REACTORS
330
B341
102
}
330
B341
100
AcDbXrecord
280
     1
102
RTVSPropertyOp0
 70
     1
102
RTVSPropertyOp1
 70
     1
102
RTVSPropertyOp2
 70
     1
102
RTVSPropertyOp3
 70
     1
102
RTVSPropertyOp4
 70
     1
102
RTVSPropertyOp5
 70
     1
102
RTVSPropertyOp6
 70
     1
102
RTVSPropertyOp7
 70
     1
102
RTVSPropertyOp8
 70
     1
102
RTVSPropertyOp9
 70
     1
102
RTVSPropertyOp10
 70
     1
102
RTVSPropertyOp11
 70
     1
102
RTVSPropertyOp12
 70
     1
102
RTVSPropertyOp13
 70
     1
102
RTVSPropertyOp14
 70
     1
102
RTVSPropertyOp15
 70
     1
102
RTVSPropertyOp16
 70
     1
102
RTVSPropertyOp17
 70
     1
102
RTVSPropertyOp18
 70
     1
102
RTVSPropertyOp19
 70
     1
102
RTVSPropertyOp20
 70
     1
102
RTVSPropertyOp21
 70
     1
102
RTVSPropertyOp22
 70
     1
102
RTVSPropertyOp23
 70
     1
102
RTVSPropertyOp24
 70
     1
102
RTVSPropertyOp25
 70
     1
102
RTVSPropertyOp26
 70
     1
102
RTVSPropertyOp27
 70
     1
102
RTVSPropertyOp28
 70
     1
102
RTVSPropertyOp29
 70
     1
102
RTVSPropertyOp30
 70
     1
102
RTVSPropertyOp31
 70
     1
102
RTVSPropertyOp32
 70
     1
  0
XRECORD
  5
B350
102
{ACAD_REACTORS
330
B34F
102
}
330
B34F
100
AcDbXrecord
280
     1
102
RTVSPropertyOp0
 70
     1
102
RTVSPropertyOp1
 70
     1
102
RTVSPropertyOp2
 70
     1
102
RTVSPropertyOp3
 70
     1
102
RTVSPropertyOp4
 70
     1
102
RTVSPropertyOp5
 70
     1
102
RTVSPropertyOp6
 70
     1
102
RTVSPropertyOp7
 70
     1
102
RTVSPropertyOp8
 70
     1
102
RTVSPropertyOp9
 70
     1
102
RTVSPropertyOp10
 70
     1
102
RTVSPropertyOp11
 70
     1
102
RTVSPropertyOp12
 70
     1
102
RTVSPropertyOp13
 70
     1
102
RTVSPropertyOp14
 70
     1
102
RTVSPropertyOp15
 70
     1
102
RTVSPropertyOp16
 70
     1
102
RTVSPropertyOp17
 70
     1
102
RTVSPropertyOp18
 70
     1
102
RTVSPropertyOp19
 70
     1
102
RTVSPropertyOp20
 70
     1
102
RTVSPropertyOp21
 70
     1
102
RTVSPropertyOp22
 70
     1
102
RTVSPropertyOp23
 70
     1
102
RTVSPropertyOp24
 70
     1
102
RTVSPropertyOp25
 70
     1
102
RTVSPropertyOp26
 70
     1
102
RTVSPropertyOp27
 70
     1
102
RTVSPropertyOp28
 70
     1
102
RTVSPropertyOp29
 70
     1
102
RTVSPropertyOp30
 70
     1
102
RTVSPropertyOp31
 70
     1
102
RTVSPropertyOp32
 70
     1
  0
XRECORD
  5
B358
102
{ACAD_REACTORS
330
B357
102
}
330
B357
100
AcDbXrecord
280
     1
102
RTVSPropertyOp0
 70
     1
102
RTVSPropertyOp1
 70
     1
102
RTVSPropertyOp2
 70
     1
102
RTVSPropertyOp3
 70
     1
102
RTVSPropertyOp4
 70
     1
102
RTVSPropertyOp5
 70
     1
102
RTVSPropertyOp6
 70
     1
102
RTVSPropertyOp7
 70
     1
102
RTVSPropertyOp8
 70
     1
102
RTVSPropertyOp9
 70
     1
102
RTVSPropertyOp10
 70
     1
102
RTVSPropertyOp11
 70
     1
102
RTVSPropertyOp12
 70
     1
102
RTVSPropertyOp13
 70
     1
102
RTVSPropertyOp14
 70
     1
102
RTVSPropertyOp15
 70
     1
102
RTVSPropertyOp16
 70
     1
102
RTVSPropertyOp17
 70
     1
102
RTVSPropertyOp18
 70
     1
102
RTVSPropertyOp19
 70
     1
102
RTVSPropertyOp20
 70
     1
102
RTVSPropertyOp21
 70
     1
102
RTVSPropertyOp22
 70
     1
102
RTVSPropertyOp23
 70
     1
102
RTVSPropertyOp24
 70
     1
102
RTVSPropertyOp25
 70
     1
102
RTVSPropertyOp26
 70
     1
102
RTVSPropertyOp27
 70
     1
102
RTVSPropertyOp28
 70
     1
102
RTVSPropertyOp29
 70
     1
102
RTVSPropertyOp30
 70
     1
102
RTVSPropertyOp31
 70
     1
102
RTVSPropertyOp32
 70
     1
  0
XRECORD
  5
B34A
102
{ACAD_REACTORS
330
B349
102
}
330
B349
100
AcDbXrecord
280
     1
102
RTVSPropertyOp0
 70
     1
102
RTVSPropertyOp1
 70
     1
102
RTVSPropertyOp2
 70
     1
102
RTVSPropertyOp3
 70
     1
102
RTVSPropertyOp4
 70
     1
102
RTVSPropertyOp5
 70
     1
102
RTVSPropertyOp6
 70
     1
102
RTVSPropertyOp7
 70
     1
102
RTVSPropertyOp8
 70
     1
102
RTVSPropertyOp9
 70
     1
102
RTVSPropertyOp10
 70
     1
102
RTVSPropertyOp11
 70
     1
102
RTVSPropertyOp12
 70
     1
102
RTVSPropertyOp13
 70
     1
102
RTVSPropertyOp14
 70
     1
102
RTVSPropertyOp15
 70
     1
102
RTVSPropertyOp16
 70
     1
102
RTVSPropertyOp17
 70
     1
102
RTVSPropertyOp18
 70
     1
102
RTVSPropertyOp19
 70
     1
102
RTVSPropertyOp20
 70
     1
102
RTVSPropertyOp21
 70
     1
102
RTVSPropertyOp22
 70
     1
102
RTVSPropertyOp23
 70
     1
102
RTVSPropertyOp24
 70
     1
102
RTVSPropertyOp25
 70
     1
102
RTVSPropertyOp26
 70
     1
102
RTVSPropertyOp27
 70
     1
102
RTVSPropertyOp28
 70
     1
102
RTVSPropertyOp29
 70
     1
102
RTVSPropertyOp30
 70
     1
102
RTVSPropertyOp31
 70
     1
102
RTVSPropertyOp32
 70
     1
  0
XRECORD
  5
B34E
102
{ACAD_REACTORS
330
B34D
102
}
330
B34D
100
AcDbXrecord
280
     1
102
RTVSPropertyOp0
 70
     1
102
RTVSPropertyOp1
 70
     1
102
RTVSPropertyOp2
 70
     1
102
RTVSPropertyOp3
 70
     1
102
RTVSPropertyOp4
 70
     1
102
RTVSPropertyOp5
 70
     1
102
RTVSPropertyOp6
 70
     1
102
RTVSPropertyOp7
 70
     1
102
RTVSPropertyOp8
 70
     1
102
RTVSPropertyOp9
 70
     1
102
RTVSPropertyOp10
 70
     1
102
RTVSPropertyOp11
 70
     1
102
RTVSPropertyOp12
 70
     1
102
RTVSPropertyOp13
 70
     1
102
RTVSPropertyOp14
 70
     1
102
RTVSPropertyOp15
 70
     1
102
RTVSPropertyOp16
 70
     1
102
RTVSPropertyOp17
 70
     1
102
RTVSPropertyOp18
 70
     1
102
RTVSPropertyOp19
 70
     1
102
RTVSPropertyOp20
 70
     1
102
RTVSPropertyOp21
 70
     1
102
RTVSPropertyOp22
 70
     1
102
RTVSPropertyOp23
 70
     1
102
RTVSPropertyOp24
 70
     1
102
RTVSPropertyOp25
 70
     1
102
RTVSPropertyOp26
 70
     1
102
RTVSPropertyOp27
 70
     1
102
RTVSPropertyOp28
 70
     1
102
RTVSPropertyOp29
 70
     1
102
RTVSPropertyOp30
 70
     1
102
RTVSPropertyOp31
 70
     1
102
RTVSPropertyOp32
 70
     1
  0
XRECORD
  5
B36C
102
{ACAD_REACTORS
330
B36B
102
}
330
B36B
100
AcDbXrecord
280
     1
102
RTVSPropertyOp0
 70
     0
102
RTVSPropertyOp1
 70
     0
102
RTVSPropertyOp2
 70
     0
102
RTVSPropertyOp3
 70
     0
102
RTVSPropertyOp4
 70
     0
102
RTVSPropertyOp5
 70
     0
102
RTVSPropertyOp6
 70
     0
102
RTVSPropertyOp7
 70
     0
102
RTVSPropertyOp8
 70
     0
102
RTVSPropertyOp9
 70
     0
102
RTVSPropertyOp10
 70
     0
102
RTVSPropertyOp11
 70
     0
102
RTVSPropertyOp12
 70
     0
102
RTVSPropertyOp13
 70
     0
102
RTVSPropertyOp14
 70
     2
102
RTVSPropertyOp15
 70
     0
102
RTVSPropertyOp16
 70
     0
102
RTVSPropertyOp17
 70
     0
102
RTVSPropertyOp18
 70
     0
102
RTVSPropertyOp19
 70
     0
102
RTVSPropertyOp20
 70
     0
102
RTVSPropertyOp21
 70
     0
102
RTVSPropertyOp22
 70
     0
102
RTVSPropertyOp23
 70
     0
102
RTVSPropertyOp24
 70
     0
102
RTVSPropertyOp25
 70
     0
102
RTVSPropertyOp26
 70
     0
102
RTVSPropertyOp27
 70
     0
102
RTVSPropertyOp28
 70
     0
102
RTVSPropertyOp29
 70
     0
102
RTVSPropertyOp30
 70
     0
102
RTVSPropertyOp31
 70
     0
102
RTVSPropertyOp32
 70
     0
  0
XRECORD
  5
B356
102
{ACAD_REACTORS
330
B355
102
}
330
B355
100
AcDbXrecord
280
     1
102
RTVSPropertyOp0
 70
     1
102
RTVSPropertyOp1
 70
     1
102
RTVSPropertyOp2
 70
     1
102
RTVSPropertyOp3
 70
     1
102
RTVSPropertyOp4
 70
     1
102
RTVSPropertyOp5
 70
     1
102
RTVSPropertyOp6
 70
     1
102
RTVSPropertyOp7
 70
     1
102
RTVSPropertyOp8
 70
     1
102
RTVSPropertyOp9
 70
     1
102
RTVSPropertyOp10
 70
     1
102
RTVSPropertyOp11
 70
     1
102
RTVSPropertyOp12
 70
     1
102
RTVSPropertyOp13
 70
     1
102
RTVSPropertyOp14
 70
     1
102
RTVSPropertyOp15
 70
     1
102
RTVSPropertyOp16
 70
     1
102
RTVSPropertyOp17
 70
     1
102
RTVSPropertyOp18
 70
     1
102
RTVSPropertyOp19
 70
     1
102
RTVSPropertyOp20
 70
     1
102
RTVSPropertyOp21
 70
     1
102
RTVSPropertyOp22
 70
     1
102
RTVSPropertyOp23
 70
     1
102
RTVSPropertyOp24
 70
     1
102
RTVSPropertyOp25
 70
     1
102
RTVSPropertyOp26
 70
     1
102
RTVSPropertyOp27
 70
     1
102
RTVSPropertyOp28
 70
     1
102
RTVSPropertyOp29
 70
     1
102
RTVSPropertyOp30
 70
     1
102
RTVSPropertyOp31
 70
     1
102
RTVSPropertyOp32
 70
     1
  0
XRECORD
  5
B33A
102
{ACAD_REACTORS
330
B339
102
}
330
B339
100
AcDbXrecord
280
     1
102
RTVSPropertyOp0
 70
     1
102
RTVSPropertyOp1
 70
     1
102
RTVSPropertyOp2
 70
     1
102
RTVSPropertyOp3
 70
     1
102
RTVSPropertyOp4
 70
     1
102
RTVSPropertyOp5
 70
     1
102
RTVSPropertyOp6
 70
     1
102
RTVSPropertyOp7
 70
     1
102
RTVSPropertyOp8
 70
     1
102
RTVSPropertyOp9
 70
     1
102
RTVSPropertyOp10
 70
     1
102
RTVSPropertyOp11
 70
     1
102
RTVSPropertyOp12
 70
     1
102
RTVSPropertyOp13
 70
     1
102
RTVSPropertyOp14
 70
     1
102
RTVSPropertyOp15
 70
     1
102
RTVSPropertyOp16
 70
     1
102
RTVSPropertyOp17
 70
     1
102
RTVSPropertyOp18
 70
     1
102
RTVSPropertyOp19
 70
     1
102
RTVSPropertyOp20
 70
     1
102
RTVSPropertyOp21
 70
     1
102
RTVSPropertyOp22
 70
     1
102
RTVSPropertyOp23
 70
     1
102
RTVSPropertyOp24
 70
     1
102
RTVSPropertyOp25
 70
     1
102
RTVSPropertyOp26
 70
     1
102
RTVSPropertyOp27
 70
     1
102
RTVSPropertyOp28
 70
     1
102
RTVSPropertyOp29
 70
     1
102
RTVSPropertyOp30
 70
     1
102
RTVSPropertyOp31
 70
     1
102
RTVSPropertyOp32
 70
     1
  0
XRECORD
  5
B33C
102
{ACAD_REACTORS
330
B33B
102
}
330
B33B
100
AcDbXrecord
280
     1
102
RTVSPropertyOp0
 70
     1
102
RTVSPropertyOp1
 70
     1
102
RTVSPropertyOp2
 70
     1
102
RTVSPropertyOp3
 70
     1
102
RTVSPropertyOp4
 70
     1
102
RTVSPropertyOp5
 70
     1
102
RTVSPropertyOp6
 70
     1
102
RTVSPropertyOp7
 70
     1
102
RTVSPropertyOp8
 70
     1
102
RTVSPropertyOp9
 70
     1
102
RTVSPropertyOp10
 70
     1
102
RTVSPropertyOp11
 70
     1
102
RTVSPropertyOp12
 70
     1
102
RTVSPropertyOp13
 70
     1
102
RTVSPropertyOp14
 70
     1
102
RTVSPropertyOp15
 70
     1
102
RTVSPropertyOp16
 70
     1
102
RTVSPropertyOp17
 70
     1
102
RTVSPropertyOp18
 70
     1
102
RTVSPropertyOp19
 70
     1
102
RTVSPropertyOp20
 70
     1
102
RTVSPropertyOp21
 70
     1
102
RTVSPropertyOp22
 70
     1
102
RTVSPropertyOp23
 70
     1
102
RTVSPropertyOp24
 70
     1
102
RTVSPropertyOp25
 70
     1
102
RTVSPropertyOp26
 70
     1
102
RTVSPropertyOp27
 70
     1
102
RTVSPropertyOp28
 70
     1
102
RTVSPropertyOp29
 70
     1
102
RTVSPropertyOp30
 70
     1
102
RTVSPropertyOp31
 70
     1
102
RTVSPropertyOp32
 70
     1
  0
XRECORD
  5
B33E
102
{ACAD_REACTORS
330
B33D
102
}
330
B33D
100
AcDbXrecord
280
     1
102
RTVSPropertyOp0
 70
     1
102
RTVSPropertyOp1
 70
     1
102
RTVSPropertyOp2
 70
     1
102
RTVSPropertyOp3
 70
     1
102
RTVSPropertyOp4
 70
     1
102
RTVSPropertyOp5
 70
     1
102
RTVSPropertyOp6
 70
     1
102
RTVSPropertyOp7
 70
     1
102
RTVSPropertyOp8
 70
     1
102
RTVSPropertyOp9
 70
     1
102
RTVSPropertyOp10
 70
     1
102
RTVSPropertyOp11
 70
     1
102
RTVSPropertyOp12
 70
     1
102
RTVSPropertyOp13
 70
     1
102
RTVSPropertyOp14
 70
     1
102
RTVSPropertyOp15
 70
     1
102
RTVSPropertyOp16
 70
     1
102
RTVSPropertyOp17
 70
     1
102
RTVSPropertyOp18
 70
     1
102
RTVSPropertyOp19
 70
     1
102
RTVSPropertyOp20
 70
     1
102
RTVSPropertyOp21
 70
     1
102
RTVSPropertyOp22
 70
     1
102
RTVSPropertyOp23
 70
     1
102
RTVSPropertyOp24
 70
     1
102
RTVSPropertyOp25
 70
     1
102
RTVSPropertyOp26
 70
     1
102
RTVSPropertyOp27
 70
     1
102
RTVSPropertyOp28
 70
     1
102
RTVSPropertyOp29
 70
     1
102
RTVSPropertyOp30
 70
     1
102
RTVSPropertyOp31
 70
     1
102
RTVSPropertyOp32
 70
     1
  0
XRECORD
  5
B340
102
{ACAD_REACTORS
330
B33F
102
}
330
B33F
100
AcDbXrecord
280
     1
102
RTVSPropertyOp0
 70
     1
102
RTVSPropertyOp1
 70
     1
102
RTVSPropertyOp2
 70
     1
102
RTVSPropertyOp3
 70
     1
102
RTVSPropertyOp4
 70
     1
102
RTVSPropertyOp5
 70
     1
102
RTVSPropertyOp6
 70
     1
102
RTVSPropertyOp7
 70
     1
102
RTVSPropertyOp8
 70
     1
102
RTVSPropertyOp9
 70
     1
102
RTVSPropertyOp10
 70
     1
102
RTVSPropertyOp11
 70
     1
102
RTVSPropertyOp12
 70
     1
102
RTVSPropertyOp13
 70
     1
102
RTVSPropertyOp14
 70
     1
102
RTVSPropertyOp15
 70
     1
102
RTVSPropertyOp16
 70
     1
102
RTVSPropertyOp17
 70
     1
102
RTVSPropertyOp18
 70
     1
102
RTVSPropertyOp19
 70
     1
102
RTVSPropertyOp20
 70
     1
102
RTVSPropertyOp21
 70
     1
102
RTVSPropertyOp22
 70
     1
102
RTVSPropertyOp23
 70
     1
102
RTVSPropertyOp24
 70
     1
102
RTVSPropertyOp25
 70
     1
102
RTVSPropertyOp26
 70
     1
102
RTVSPropertyOp27
 70
     1
102
RTVSPropertyOp28
 70
     1
102
RTVSPropertyOp29
 70
     1
102
RTVSPropertyOp30
 70
     1
102
RTVSPropertyOp31
 70
     1
102
RTVSPropertyOp32
 70
     1
  0
XRECORD
  5
B35C
102
{ACAD_REACTORS
330
B35B
102
}
330
B35B
100
AcDbXrecord
280
     1
102
RTVSPropertyOp0
 70
     1
102
RTVSPropertyOp1
 70
     1
102
RTVSPropertyOp2
 70
     1
102
RTVSPropertyOp3
 70
     1
102
RTVSPropertyOp4
 70
     1
102
RTVSPropertyOp5
 70
     1
102
RTVSPropertyOp6
 70
     1
102
RTVSPropertyOp7
 70
     1
102
RTVSPropertyOp8
 70
     1
102
RTVSPropertyOp9
 70
     1
102
RTVSPropertyOp10
 70
     1
102
RTVSPropertyOp11
 70
     1
102
RTVSPropertyOp12
 70
     1
102
RTVSPropertyOp13
 70
     1
102
RTVSPropertyOp14
 70
     1
102
RTVSPropertyOp15
 70
     1
102
RTVSPropertyOp16
 70
     1
102
RTVSPropertyOp17
 70
     1
102
RTVSPropertyOp18
 70
     1
102
RTVSPropertyOp19
 70
     1
102
RTVSPropertyOp20
 70
     1
102
RTVSPropertyOp21
 70
     1
102
RTVSPropertyOp22
 70
     1
102
RTVSPropertyOp23
 70
     1
102
RTVSPropertyOp24
 70
     1
102
RTVSPropertyOp25
 70
     1
102
RTVSPropertyOp26
 70
     1
102
RTVSPropertyOp27
 70
     1
102
RTVSPropertyOp28
 70
     1
102
RTVSPropertyOp29
 70
     1
102
RTVSPropertyOp30
 70
     1
102
RTVSPropertyOp31
 70
     1
102
RTVSPropertyOp32
 70
     1
  0
XRECORD
  5
B368
102
{ACAD_REACTORS
330
B367
102
}
330
B367
100
AcDbXrecord
280
     1
102
RTVSPropertyOp0
 70
     0
102
RTVSPropertyOp1
 70
     0
102
RTVSPropertyOp2
 70
     0
102
RTVSPropertyOp3
 70
     0
102
RTVSPropertyOp4
 70
     0
102
RTVSPropertyOp5
 70
     0
102
RTVSPropertyOp6
 70
     0
102
RTVSPropertyOp7
 70
     0
102
RTVSPropertyOp8
 70
     0
102
RTVSPropertyOp9
 70
     0
102
RTVSPropertyOp10
 70
     0
102
RTVSPropertyOp11
 70
     0
102
RTVSPropertyOp12
 70
     0
102
RTVSPropertyOp13
 70
     0
102
RTVSPropertyOp14
 70
     2
102
RTVSPropertyOp15
 70
     0
102
RTVSPropertyOp16
 70
     0
102
RTVSPropertyOp17
 70
     0
102
RTVSPropertyOp18
 70
     0
102
RTVSPropertyOp19
 70
     0
102
RTVSPropertyOp20
 70
     0
102
RTVSPropertyOp21
 70
     0
102
RTVSPropertyOp22
 70
     0
102
RTVSPropertyOp23
 70
     0
102
RTVSPropertyOp24
 70
     0
102
RTVSPropertyOp25
 70
     0
102
RTVSPropertyOp26
 70
     0
102
RTVSPropertyOp27
 70
     0
102
RTVSPropertyOp28
 70
     0
102
RTVSPropertyOp29
 70
     0
102
RTVSPropertyOp30
 70
     0
102
RTVSPropertyOp31
 70
     0
102
RTVSPropertyOp32
 70
     0
  0
XRECORD
  5
B354
102
{ACAD_REACTORS
330
B353
102
}
330
B353
100
AcDbXrecord
280
     1
102
RTVSPropertyOp0
 70
     1
102
RTVSPropertyOp1
 70
     1
102
RTVSPropertyOp2
 70
     1
102
RTVSPropertyOp3
 70
     1
102
RTVSPropertyOp4
 70
     1
102
RTVSPropertyOp5
 70
     1
102
RTVSPropertyOp6
 70
     1
102
RTVSPropertyOp7
 70
     1
102
RTVSPropertyOp8
 70
     1
102
RTVSPropertyOp9
 70
     1
102
RTVSPropertyOp10
 70
     1
102
RTVSPropertyOp11
 70
     1
102
RTVSPropertyOp12
 70
     1
102
RTVSPropertyOp13
 70
     1
102
RTVSPropertyOp14
 70
     1
102
RTVSPropertyOp15
 70
     1
102
RTVSPropertyOp16
 70
     1
102
RTVSPropertyOp17
 70
     1
102
RTVSPropertyOp18
 70
     1
102
RTVSPropertyOp19
 70
     1
102
RTVSPropertyOp20
 70
     1
102
RTVSPropertyOp21
 70
     1
102
RTVSPropertyOp22
 70
     1
102
RTVSPropertyOp23
 70
     1
102
RTVSPropertyOp24
 70
     1
102
RTVSPropertyOp25
 70
     1
102
RTVSPropertyOp26
 70
     1
102
RTVSPropertyOp27
 70
     1
102
RTVSPropertyOp28
 70
     1
102
RTVSPropertyOp29
 70
     1
102
RTVSPropertyOp30
 70
     1
102
RTVSPropertyOp31
 70
     1
102
RTVSPropertyOp32
 70
     1
  0
XRECORD
  5
B36A
102
{ACAD_REACTORS
330
B369
102
}
330
B369
100
AcDbXrecord
280
     1
102
RTVSPropertyOp0
 70
     0
102
RTVSPropertyOp1
 70
     0
102
RTVSPropertyOp2
 70
     0
102
RTVSPropertyOp3
 70
     0
102
RTVSPropertyOp4
 70
     0
102
RTVSPropertyOp5
 70
     0
102
RTVSPropertyOp6
 70
     0
102
RTVSPropertyOp7
 70
     0
102
RTVSPropertyOp8
 70
     0
102
RTVSPropertyOp9
 70
     0
102
RTVSPropertyOp10
 70
     0
102
RTVSPropertyOp11
 70
     0
102
RTVSPropertyOp12
 70
     0
102
RTVSPropertyOp13
 70
     0
102
RTVSPropertyOp14
 70
     2
102
RTVSPropertyOp15
 70
     0
102
RTVSPropertyOp16
 70
     0
102
RTVSPropertyOp17
 70
     0
102
RTVSPropertyOp18
 70
     0
102
RTVSPropertyOp19
 70
     0
102
RTVSPropertyOp20
 70
     0
102
RTVSPropertyOp21
 70
     0
102
RTVSPropertyOp22
 70
     0
102
RTVSPropertyOp23
 70
     0
102
RTVSPropertyOp24
 70
     0
102
RTVSPropertyOp25
 70
     0
102
RTVSPropertyOp26
 70
     0
102
RTVSPropertyOp27
 70
     0
102
RTVSPropertyOp28
 70
     0
102
RTVSPropertyOp29
 70
     0
102
RTVSPropertyOp30
 70
     0
102
RTVSPropertyOp31
 70
     0
102
RTVSPropertyOp32
 70
     0
  0
XRECORD
  5
B34C
102
{ACAD_REACTORS
330
B34B
102
}
330
B34B
100
AcDbXrecord
280
     1
102
RTVSPropertyOp0
 70
     1
102
RTVSPropertyOp1
 70
     1
102
RTVSPropertyOp2
 70
     1
102
RTVSPropertyOp3
 70
     1
102
RTVSPropertyOp4
 70
     1
102
RTVSPropertyOp5
 70
     1
102
RTVSPropertyOp6
 70
     1
102
RTVSPropertyOp7
 70
     1
102
RTVSPropertyOp8
 70
     1
102
RTVSPropertyOp9
 70
     1
102
RTVSPropertyOp10
 70
     1
102
RTVSPropertyOp11
 70
     1
102
RTVSPropertyOp12
 70
     1
102
RTVSPropertyOp13
 70
     1
102
RTVSPropertyOp14
 70
     1
102
RTVSPropertyOp15
 70
     1
102
RTVSPropertyOp16
 70
     1
102
RTVSPropertyOp17
 70
     1
102
RTVSPropertyOp18
 70
     1
102
RTVSPropertyOp19
 70
     1
102
RTVSPropertyOp20
 70
     1
102
RTVSPropertyOp21
 70
     1
102
RTVSPropertyOp22
 70
     1
102
RTVSPropertyOp23
 70
     1
102
RTVSPropertyOp24
 70
     1
102
RTVSPropertyOp25
 70
     1
102
RTVSPropertyOp26
 70
     1
102
RTVSPropertyOp27
 70
     1
102
RTVSPropertyOp28
 70
     1
102
RTVSPropertyOp29
 70
     1
102
RTVSPropertyOp30
 70
     1
102
RTVSPropertyOp31
 70
     1
102
RTVSPropertyOp32
 70
     1
  0
XRECORD
  5
B366
102
{ACAD_REACTORS
330
B365
102
}
330
B365
100
AcDbXrecord
280
     1
102
RTVSPropertyOp0
 70
     1
102
RTVSPropertyOp1
 70
     1
102
RTVSPropertyOp2
 70
     1
102
RTVSPropertyOp3
 70
     1
102
RTVSPropertyOp4
 70
     1
102
RTVSPropertyOp5
 70
     1
102
RTVSPropertyOp6
 70
     1
102
RTVSPropertyOp7
 70
     1
102
RTVSPropertyOp8
 70
     1
102
RTVSPropertyOp9
 70
     1
102
RTVSPropertyOp10
 70
     1
102
RTVSPropertyOp11
 70
     1
102
RTVSPropertyOp12
 70
     1
102
RTVSPropertyOp13
 70
     1
102
RTVSPropertyOp14
 70
     1
102
RTVSPropertyOp15
 70
     1
102
RTVSPropertyOp16
 70
     1
102
RTVSPropertyOp17
 70
     1
102
RTVSPropertyOp18
 70
     1
102
RTVSPropertyOp19
 70
     1
102
RTVSPropertyOp20
 70
     1
102
RTVSPropertyOp21
 70
     1
102
RTVSPropertyOp22
 70
     1
102
RTVSPropertyOp23
 70
     1
102
RTVSPropertyOp24
 70
     1
102
RTVSPropertyOp25
 70
     1
102
RTVSPropertyOp26
 70
     1
102
RTVSPropertyOp27
 70
     1
102
RTVSPropertyOp28
 70
     1
102
RTVSPropertyOp29
 70
     1
102
RTVSPropertyOp30
 70
     1
102
RTVSPropertyOp31
 70
     1
102
RTVSPropertyOp32
 70
     1
  0
XRECORD
  5
B364
102
{ACAD_REACTORS
330
B363
102
}
330
B363
100
AcDbXrecord
280
     1
102
RTVSPropertyOp0
 70
     1
102
RTVSPropertyOp1
 70
     1
102
RTVSPropertyOp2
 70
     1
102
RTVSPropertyOp3
 70
     1
102
RTVSPropertyOp4
 70
     1
102
RTVSPropertyOp5
 70
     1
102
RTVSPropertyOp6
 70
     1
102
RTVSPropertyOp7
 70
     1
102
RTVSPropertyOp8
 70
     1
102
RTVSPropertyOp9
 70
     1
102
RTVSPropertyOp10
 70
     1
102
RTVSPropertyOp11
 70
     1
102
RTVSPropertyOp12
 70
     1
102
RTVSPropertyOp13
 70
     1
102
RTVSPropertyOp14
 70
     1
102
RTVSPropertyOp15
 70
     1
102
RTVSPropertyOp16
 70
     1
102
RTVSPropertyOp17
 70
     1
102
RTVSPropertyOp18
 70
     1
102
RTVSPropertyOp19
 70
     1
102
RTVSPropertyOp20
 70
     1
102
RTVSPropertyOp21
 70
     1
102
RTVSPropertyOp22
 70
     1
102
RTVSPropertyOp23
 70
     1
102
RTVSPropertyOp24
 70
     1
102
RTVSPropertyOp25
 70
     1
102
RTVSPropertyOp26
 70
     1
102
RTVSPropertyOp27
 70
     1
102
RTVSPropertyOp28
 70
     1
102
RTVSPropertyOp29
 70
     1
102
RTVSPropertyOp30
 70
     1
102
RTVSPropertyOp31
 70
     1
102
RTVSPropertyOp32
 70
     1
  0
XRECORD
  5
B35E
102
{ACAD_REACTORS
330
B35D
102
}
330
B35D
100
AcDbXrecord
280
     1
102
RTVSPropertyOp0
 70
     1
102
RTVSPropertyOp1
 70
     1
102
RTVSPropertyOp2
 70
     1
102
RTVSPropertyOp3
 70
     1
102
RTVSPropertyOp4
 70
     1
102
RTVSPropertyOp5
 70
     1
102
RTVSPropertyOp6
 70
     1
102
RTVSPropertyOp7
 70
     1
102
RTVSPropertyOp8
 70
     1
102
RTVSPropertyOp9
 70
     1
102
RTVSPropertyOp10
 70
     1
102
RTVSPropertyOp11
 70
     1
102
RTVSPropertyOp12
 70
     1
102
RTVSPropertyOp13
 70
     1
102
RTVSPropertyOp14
 70
     1
102
RTVSPropertyOp15
 70
     1
102
RTVSPropertyOp16
 70
     1
102
RTVSPropertyOp17
 70
     1
102
RTVSPropertyOp18
 70
     1
102
RTVSPropertyOp19
 70
     1
102
RTVSPropertyOp20
 70
     1
102
RTVSPropertyOp21
 70
     1
102
RTVSPropertyOp22
 70
     1
102
RTVSPropertyOp23
 70
     1
102
RTVSPropertyOp24
 70
     1
102
RTVSPropertyOp25
 70
     1
102
RTVSPropertyOp26
 70
     1
102
RTVSPropertyOp27
 70
     1
102
RTVSPropertyOp28
 70
     1
102
RTVSPropertyOp29
 70
     1
102
RTVSPropertyOp30
 70
     1
102
RTVSPropertyOp31
 70
     1
102
RTVSPropertyOp32
 70
     1
  0
XRECORD
  5
B360
102
{ACAD_REACTORS
330
B35F
102
}
330
B35F
100
AcDbXrecord
280
     1
102
RTVSPropertyOp0
 70
     1
102
RTVSPropertyOp1
 70
     1
102
RTVSPropertyOp2
 70
     1
102
RTVSPropertyOp3
 70
     1
102
RTVSPropertyOp4
 70
     1
102
RTVSPropertyOp5
 70
     1
102
RTVSPropertyOp6
 70
     1
102
RTVSPropertyOp7
 70
     1
102
RTVSPropertyOp8
 70
     1
102
RTVSPropertyOp9
 70
     1
102
RTVSPropertyOp10
 70
     1
102
RTVSPropertyOp11
 70
     1
102
RTVSPropertyOp12
 70
     1
102
RTVSPropertyOp13
 70
     1
102
RTVSPropertyOp14
 70
     1
102
RTVSPropertyOp15
 70
     1
102
RTVSPropertyOp16
 70
     1
102
RTVSPropertyOp17
 70
     1
102
RTVSPropertyOp18
 70
     1
102
RTVSPropertyOp19
 70
     1
102
RTVSPropertyOp20
 70
     1
102
RTVSPropertyOp21
 70
     1
102
RTVSPropertyOp22
 70
     1
102
RTVSPropertyOp23
 70
     1
102
RTVSPropertyOp24
 70
     1
102
RTVSPropertyOp25
 70
     1
102
RTVSPropertyOp26
 70
     1
102
RTVSPropertyOp27
 70
     1
102
RTVSPropertyOp28
 70
     1
102
RTVSPropertyOp29
 70
     1
102
RTVSPropertyOp30
 70
     1
102
RTVSPropertyOp31
 70
     1
102
RTVSPropertyOp32
 70
     1
  0
XRECORD
  5
B352
102
{ACAD_REACTORS
330
B351
102
}
330
B351
100
AcDbXrecord
280
     1
102
RTVSPropertyOp0
 70
     1
102
RTVSPropertyOp1
 70
     1
102
RTVSPropertyOp2
 70
     1
102
RTVSPropertyOp3
 70
     1
102
RTVSPropertyOp4
 70
     1
102
RTVSPropertyOp5
 70
     1
102
RTVSPropertyOp6
 70
     1
102
RTVSPropertyOp7
 70
     1
102
RTVSPropertyOp8
 70
     1
102
RTVSPropertyOp9
 70
     1
102
RTVSPropertyOp10
 70
     1
102
RTVSPropertyOp11
 70
     1
102
RTVSPropertyOp12
 70
     1
102
RTVSPropertyOp13
 70
     1
102
RTVSPropertyOp14
 70
     1
102
RTVSPropertyOp15
 70
     1
102
RTVSPropertyOp16
 70
     1
102
RTVSPropertyOp17
 70
     1
102
RTVSPropertyOp18
 70
     1
102
RTVSPropertyOp19
 70
     1
102
RTVSPropertyOp20
 70
     1
102
RTVSPropertyOp21
 70
     1
102
RTVSPropertyOp22
 70
     1
102
RTVSPropertyOp23
 70
     1
102
RTVSPropertyOp24
 70
     1
102
RTVSPropertyOp25
 70
     1
102
RTVSPropertyOp26
 70
     1
102
RTVSPropertyOp27
 70
     1
102
RTVSPropertyOp28
 70
     1
102
RTVSPropertyOp29
 70
     1
102
RTVSPropertyOp30
 70
     1
102
RTVSPropertyOp31
 70
     1
102
RTVSPropertyOp32
 70
     1
  0
XRECORD
  5
B35A
102
{ACAD_REACTORS
330
B359
102
}
330
B359
100
AcDbXrecord
280
     1
102
RTVSPropertyOp0
 70
     1
102
RTVSPropertyOp1
 70
     1
102
RTVSPropertyOp2
 70
     1
102
RTVSPropertyOp3
 70
     1
102
RTVSPropertyOp4
 70
     1
102
RTVSPropertyOp5
 70
     1
102
RTVSPropertyOp6
 70
     1
102
RTVSPropertyOp7
 70
     1
102
RTVSPropertyOp8
 70
     1
102
RTVSPropertyOp9
 70
     1
102
RTVSPropertyOp10
 70
     1
102
RTVSPropertyOp11
 70
     1
102
RTVSPropertyOp12
 70
     1
102
RTVSPropertyOp13
 70
     1
102
RTVSPropertyOp14
 70
     1
102
RTVSPropertyOp15
 70
     1
102
RTVSPropertyOp16
 70
     1
102
RTVSPropertyOp17
 70
     1
102
RTVSPropertyOp18
 70
     1
102
RTVSPropertyOp19
 70
     1
102
RTVSPropertyOp20
 70
     1
102
RTVSPropertyOp21
 70
     1
102
RTVSPropertyOp22
 70
     1
102
RTVSPropertyOp23
 70
     1
102
RTVSPropertyOp24
 70
     1
102
RTVSPropertyOp25
 70
     1
102
RTVSPropertyOp26
 70
     1
102
RTVSPropertyOp27
 70
     1
102
RTVSPropertyOp28
 70
     1
102
RTVSPropertyOp29
 70
     1
102
RTVSPropertyOp30
 70
     1
102
RTVSPropertyOp31
 70
     1
102
RTVSPropertyOp32
 70
     1
  0
XRECORD
  5
B362
102
{ACAD_REACTORS
330
B361
102
}
330
B361
100
AcDbXrecord
280
     1
102
RTVSPropertyOp0
 70
     1
102
RTVSPropertyOp1
 70
     1
102
RTVSPropertyOp2
 70
     1
102
RTVSPropertyOp3
 70
     1
102
RTVSPropertyOp4
 70
     1
102
RTVSPropertyOp5
 70
     1
102
RTVSPropertyOp6
 70
     1
102
RTVSPropertyOp7
 70
     1
102
RTVSPropertyOp8
 70
     1
102
RTVSPropertyOp9
 70
     1
102
RTVSPropertyOp10
 70
     1
102
RTVSPropertyOp11
 70
     1
102
RTVSPropertyOp12
 70
     1
102
RTVSPropertyOp13
 70
     1
102
RTVSPropertyOp14
 70
     1
102
RTVSPropertyOp15
 70
     1
102
RTVSPropertyOp16
 70
     1
102
RTVSPropertyOp17
 70
     1
102
RTVSPropertyOp18
 70
     1
102
RTVSPropertyOp19
 70
     1
102
RTVSPropertyOp20
 70
     1
102
RTVSPropertyOp21
 70
     1
102
RTVSPropertyOp22
 70
     1
102
RTVSPropertyOp23
 70
     1
102
RTVSPropertyOp24
 70
     1
102
RTVSPropertyOp25
 70
     1
102
RTVSPropertyOp26
 70
     1
102
RTVSPropertyOp27
 70
     1
102
RTVSPropertyOp28
 70
     1
102
RTVSPropertyOp29
 70
     1
102
RTVSPropertyOp30
 70
     1
102
RTVSPropertyOp31
 70
     1
102
RTVSPropertyOp32
 70
     1
  0
ENDSEC
  0
EOF
