  0
SECTION
  2
HEADER
  9
$ACADVER
  1
AC1015
  9
$ACADMAINTVER
 70
    20
  9
$DWGCODEPAGE
  3
ANSI_949
  9
$INSBASE
 10
0.0
 20
0.0
 30
0.0
  9
$EXTMIN
 10
-0.000000539519339
 20
-7.999999351629355
 30
0.0
  9
$EXTMAX
 10
444.9999994604799
 20
147.4852925420393
 30
0.0
  9
$LIMMIN
 10
0.0
 20
0.0
  9
$LIMMAX
 10
420.0
 20
297.0
  9
$ORTHOMODE
 70
     1
  9
$REGENMODE
 70
     1
  9
$FILLMODE
 70
     1
  9
$QTEXTMODE
 70
     0
  9
$MIRRTEXT
 70
     1
  9
$LTSCALE
 40
10.0
  9
$ATTMODE
 70
     1
  9
$TEXTSIZE
 40
3.149999999999999
  9
$TRACEWID
 40
0.05
  9
$TEXTSTYLE
  7
H
  9
$CLAYER
  8
0
  9
$CELTYPE
  6
BYLAYER
  9
$CECOLOR
 62
   256
  9
$CELTSCALE
 40
1.0
  9
$DISPSILH
 70
     0
  9
$DIMSCALE
 40
1.5
  9
$DIMASZ
 40
2.5
  9
$DIMEXO
 40
0.8
  9
$DIMDLI
 40
0.8
  9
$DIMRND
 40
0.0
  9
$DIMDLE
 40
0.0
  9
$DIMEXE
 40
0.8
  9
$DIMTP
 40
0.0
  9
$DIMTM
 40
0.0
  9
$DIMTXT
 40
3.0
  9
$DIMCEN
 40
-1.0
  9
$DIMTSZ
 40
0.0
  9
$DIMTOL
 70
     0
  9
$DIMLIM
 70
     0
  9
$DIMTIH
 70
     0
  9
$DIMTOH
 70
     0
  9
$DIMSE1
 70
     0
  9
$DIMSE2
 70
     0
  9
$DIMTAD
 70
     3
  9
$DIMZIN
 70
     8
  9
$DIMBLK
  1

  9
$DIMASO
 70
     1
  9
$DIMSHO
 70
     1
  9
$DIMPOST
  1

  9
$DIMAPOST
  1

  9
$DIMALT
 70
     0
  9
$DIMALTD
 70
     2
  9
$DIMALTF
 40
25.4
  9
$DIMLFAC
 40
1.0
  9
$DIMTOFL
 70
     1
  9
$DIMTVP
 40
0.0
  9
$DIMTIX
 70
     0
  9
$DIMSOXD
 70
     0
  9
$DIMSAH
 70
     0
  9
$DIMBLK1
  1

  9
$DIMBLK2
  1

  9
$DIMSTYLE
  2
STANDARD
  9
$DIMCLRD
 70
   115
  9
$DIMCLRE
 70
   115
  9
$DIMCLRT
 70
     7
  9
$DIMTFAC
 40
1.0
  9
$DIMGAP
 40
1.0
  9
$DIMJUST
 70
     0
  9
$DIMSD1
 70
     0
  9
$DIMSD2
 70
     0
  9
$DIMTOLJ
 70
     1
  9
$DIMTZIN
 70
     0
  9
$DIMALTZ
 70
     0
  9
$DIMALTTZ
 70
     0
  9
$DIMUPT
 70
     0
  9
$DIMDEC
 70
     3
  9
$DIMTDEC
 70
     4
  9
$DIMALTU
 70
     2
  9
$DIMALTTD
 70
     2
  9
$DIMTXSTY
  7
STANDARD
  9
$DIMAUNIT
 70
     0
  9
$DIMADEC
 70
     0
  9
$DIMALTRND
 40
0.0
  9
$DIMAZIN
 70
     0
  9
$DIMDSEP
 70
    46
  9
$DIMATFIT
 70
     3
  9
$DIMFRAC
 70
     0
  9
$DIMLDRBLK
  1

  9
$DIMLUNIT
 70
     2
  9
$DIMLWD
 70
    -2
  9
$DIMLWE
 70
    -2
  9
$DIMTMOVE
 70
     1
  9
$LUNITS
 70
     2
  9
$LUPREC
 70
     4
  9
$SKETCHINC
 40
0.1
  9
$FILLETRAD
 40
0.0
  9
$AUNITS
 70
     0
  9
$AUPREC
 70
     0
  9
$MENU
  1
.
  9
$ELEVATION
 40
0.0
  9
$PELEVATION
 40
0.0
  9
$THICKNESS
 40
0.0
  9
$LIMCHECK
 70
     0
  9
$CHAMFERA
 40
1.0
  9
$CHAMFERB
 40
1.0
  9
$CHAMFERC
 40
1.0
  9
$CHAMFERD
 40
0.0
  9
$SKPOLY
 70
     1
  9
$TDCREATE
 40
2452464.575009942
  9
$TDUCREATE
 40
2452464.200009942
  9
$TDUPDATE
 40
2456846.807371551
  9
$TDUUPDATE
 40
2456846.432371551
  9
$TDINDWG
 40
0.5009304514
  9
$TDUSRTIMER
 40
0.5009303935
  9
$USRTIMER
 70
     1
  9
$ANGBASE
 50
0.0
  9
$ANGDIR
 70
     0
  9
$PDMODE
 70
     0
  9
$PDSIZE
 40
0.0
  9
$PLINEWID
 40
0.5
  9
$SPLFRAME
 70
     0
  9
$SPLINETYPE
 70
     6
  9
$SPLINESEGS
 70
     8
  9
$HANDSEED
  5
B360
  9
$SURFTAB1
 70
     6
  9
$SURFTAB2
 70
     6
  9
$SURFTYPE
 70
     6
  9
$SURFU
 70
     6
  9
$SURFV
 70
     6
  9
$UCSBASE
  2

  9
$UCSNAME
  2

  9
$UCSORG
 10
0.0
 20
0.0
 30
0.0
  9
$UCSXDIR
 10
1.0
 20
0.0
 30
0.0
  9
$UCSYDIR
 10
0.0
 20
1.0
 30
0.0
  9
$UCSORTHOREF
  2

  9
$UCSORTHOVIEW
 70
     0
  9
$UCSORGTOP
 10
0.0
 20
0.0
 30
0.0
  9
$UCSORGBOTTOM
 10
0.0
 20
0.0
 30
0.0
  9
$UCSORGLEFT
 10
0.0
 20
0.0
 30
0.0
  9
$UCSORGRIGHT
 10
0.0
 20
0.0
 30
0.0
  9
$UCSORGFRONT
 10
0.0
 20
0.0
 30
0.0
  9
$UCSORGBACK
 10
0.0
 20
0.0
 30
0.0
  9
$PUCSBASE
  2

  9
$PUCSNAME
  2

  9
$PUCSORG
 10
0.0
 20
0.0
 30
0.0
  9
$PUCSXDIR
 10
1.0
 20
0.0
 30
0.0
  9
$PUCSYDIR
 10
0.0
 20
1.0
 30
0.0
  9
$PUCSORTHOREF
  2

  9
$PUCSORTHOVIEW
 70
     0
  9
$PUCSORGTOP
 10
0.0
 20
0.0
 30
0.0
  9
$PUCSORGBOTTOM
 10
0.0
 20
0.0
 30
0.0
  9
$PUCSORGLEFT
 10
0.0
 20
0.0
 30
0.0
  9
$PUCSORGRIGHT
 10
0.0
 20
0.0
 30
0.0
  9
$PUCSORGFRONT
 10
0.0
 20
0.0
 30
0.0
  9
$PUCSORGBACK
 10
0.0
 20
0.0
 30
0.0
  9
$USERI1
 70
     0
  9
$USERI2
 70
   452
  9
$USERI3
 70
     1
  9
$USERI4
 70
     0
  9
$USERI5
 70
     0
  9
$USERR1
 40
0.0
  9
$USERR2
 40
0.0
  9
$USERR3
 40
0.0
  9
$USERR4
 40
0.0
  9
$USERR5
 40
0.0
  9
$WORLDVIEW
 70
     1
  9
$SHADEDGE
 70
     3
  9
$SHADEDIF
 70
    70
  9
$TILEMODE
 70
     1
  9
$MAXACTVP
 70
    48
  9
$PINSBASE
 10
0.0
 20
0.0
 30
0.0
  9
$PLIMCHECK
 70
     0
  9
$PEXTMIN
 10
1.000000000000000E+20
 20
1.000000000000000E+20
 30
1.000000000000000E+20
  9
$PEXTMAX
 10
-1.000000000000000E+20
 20
-1.000000000000000E+20
 30
-1.000000000000000E+20
  9
$PLIMMIN
 10
0.0
 20
0.0
  9
$PLIMMAX
 10
12.0
 20
9.0
  9
$UNITMODE
 70
     0
  9
$VISRETAIN
 70
     1
  9
$PLINEGEN
 70
     0
  9
$PSLTSCALE
 70
     1
  9
$TREEDEPTH
 70
  3020
  9
$CMLSTYLE
  2
STANDARD
  9
$CMLJUST
 70
     0
  9
$CMLSCALE
 40
1.0
  9
$PROXYGRAPHICS
 70
     1
  9
$MEASUREMENT
 70
     0
  9
$CELWEIGHT
370
    -1
  9
$ENDCAPS
280
     0
  9
$JOINSTYLE
280
     0
  9
$LWDISPLAY
290
     0
  9
$INSUNITS
 70
     0
  9
$HYPERLINKBASE
  1

  9
$STYLESHEET
  1

  9
$XEDIT
290
     1
  9
$CEPSNTYPE
380
     0
  9
$PSTYLEMODE
290
     1
  9
$FINGERPRINTGUID
  2
{4D3501F2-8AC1-4264-8818-42F5B7035BFD}
  9
$VERSIONGUID
  2
{1FE99695-0E36-464F-B5B5-7E7CEE0475D6}
  9
$EXTNAMES
290
     1
  9
$PSVPSCALE
 40
0.0
  9
$OLESTARTUP
290
     0
  0
ENDSEC
  0
SECTION
  2
CLASSES
  0
CLASS
  1
DICTIONARYVAR
  2
AcDbDictionaryVar
  3
ObjectDBX Classes
 90
        0
280
     0
281
     0
  0
CLASS
  1
ACDBDICTIONARYWDFLT
  2
AcDbDictionaryWithDefault
  3
ObjectDBX Classes
 90
        0
280
     0
281
     0
  0
CLASS
  1
TABLESTYLE
  2
AcDbTableStyle
  3
ObjectDBX Classes
 90
     4095
280
     0
281
     0
  0
CLASS
  1
ACDBPLACEHOLDER
  2
AcDbPlaceHolder
  3
ObjectDBX Classes
 90
        0
280
     0
281
     0
  0
CLASS
  1
LAYOUT
  2
AcDbLayout
  3
ObjectDBX Classes
 90
        0
280
     0
281
     0
  0
CLASS
  1
MATERIAL
  2
AcDbMaterial
  3
ObjectDBX Classes
 90
     1153
280
     0
281
     0
  0
CLASS
  1
VISUALSTYLE
  2
AcDbVisualStyle
  3
ObjectDBX Classes
 90
     4095
280
     0
281
     0
  0
CLASS
  1
SCALE
  2
AcDbScale
  3
ObjectDBX Classes
 90
     1153
280
     0
281
     0
  0
CLASS
  1
MLEADERSTYLE
  2
AcDbMLeaderStyle
  3
ACDB_MLEADERSTYLE_CLASS
 90
     4095
280
     0
281
     0
  0
CLASS
  1
CELLSTYLEMAP
  2
AcDbCellStyleMap
  3
ObjectDBX Classes
 90
     1152
280
     0
281
     0
  0
CLASS
  1
SORTENTSTABLE
  2
AcDbSortentsTable
  3
ObjectDBX Classes
 90
        0
280
     0
281
     0
  0
CLASS
  1
ACAD_EVALUATION_GRAPH
  2
AcDbEvalGraph
  3
ObjectDBX Classes
 90
    33921
280
     0
281
     0
  0
CLASS
  1
ACAECUSTOBJ
  2
AcAeEditorObj
  3
AcAeEditorObj
 90
    33792
280
     0
281
     0
  0
CLASS
  1
ACDB_DYNAMICBLOCKPURGEPREVENTER_VERSION
  2
AcDbDynamicBlockPurgePreventer
  3
ObjectDBX Classes
 90
    33921
280
     0
281
     0
  0
ENDSEC
  0
SECTION
  2
TABLES
  0
TABLE
  2
VPORT
  5
8
102
{ACAD_XDICTIONARY
360
AE2E
102
}
330
0
100
AcDbSymbolTable
 70
     1
  0
VPORT
  5
9D62
330
8
100
AcDbSymbolTableRecord
100
AcDbViewportTableRecord
  2
*Active
 70
     0
 10
0.0
 20
0.0
 11
1.0
 21
1.0
 12
222.4969502707663
 22
69.74043015993595
 13
0.0
 23
0.0
 14
0.5
 24
0.5
 15
0.5
 25
0.5
 16
0.0
 26
0.0
 36
1.0
 17
0.0
 27
0.0
 37
0.0
 40
197.8372898666141
 41
2.257287705956907
 42
50.0
 43
0.0
 44
0.0
 50
0.0
 51
0.0
 71
     0
 72
   100
 73
     1
 74
     1
 75
     0
 76
     0
 77
     0
 78
     0
281
     0
 65
     1
110
0.0
120
0.0
130
0.0
111
1.0
121
0.0
131
0.0
112
0.0
122
1.0
132
0.0
 79
     0
146
0.0
1001
ACAD_NAV_VCDISPLAY
1070
     3
  0
ENDTAB
  0
TABLE
  2
LTYPE
  5
5
330
0
100
AcDbSymbolTable
 70
     3
  0
LTYPE
  5
13
330
5
100
AcDbSymbolTableRecord
100
AcDbLinetypeTableRecord
  2
BYBLOCK
 70
     0
  3

 72
    65
 73
     0
 40
0.0
  0
LTYPE
  5
14
330
5
100
AcDbSymbolTableRecord
100
AcDbLinetypeTableRecord
  2
BYLAYER
 70
     0
  3

 72
    65
 73
     0
 40
0.0
  0
LTYPE
  5
15
330
5
100
AcDbSymbolTableRecord
100
AcDbLinetypeTableRecord
  2
CONTINUOUS
 70
     0
  3
Solid line
 72
    65
 73
     0
 40
0.0
  0
LTYPE
  5
5D
330
5
100
AcDbSymbolTableRecord
100
AcDbLinetypeTableRecord
  2
CENTER
 70
     0
  3
Center ____ _ ____ _ ____ _ ____ _ ____ _ ____
 72
    65
 73
     4
 40
2.0
 49
1.25
 74
     0
 49
-0.25
 74
     0
 49
0.25
 74
     0
 49
-0.25
 74
     0
  0
LTYPE
  5
5E
330
5
100
AcDbSymbolTableRecord
100
AcDbLinetypeTableRecord
  2
HIDDEN
 70
     0
  3
Hidden __ __ __ __ __ __ __ __ __ __ __ __ __ _
 72
    65
 73
     2
 40
0.375
 49
0.25
 74
     0
 49
-0.125
 74
     0
  0
ENDTAB
  0
TABLE
  2
LAYER
  5
2
330
0
100
AcDbSymbolTable
 70
     5
  0
LAYER
  5
F
102
{ACAD_XDICTIONARY
360
9E5D
102
}
330
2
100
AcDbSymbolTableRecord
100
AcDbLayerTableRecord
  2
0
 70
     0
 62
     7
  6
CONTINUOUS
370
    -3
390
9C8E
  0
LAYER
  5
55
102
{ACAD_XDICTIONARY
360
9E5F
102
}
330
2
100
AcDbSymbolTableRecord
100
AcDbLayerTableRecord
  2
9
 70
     0
 62
     3
  6
CONTINUOUS
370
    -3
390
9C8E
  0
LAYER
  5
61
102
{ACAD_XDICTIONARY
360
9E61
102
}
330
2
100
AcDbSymbolTableRecord
100
AcDbLayerTableRecord
  2
1
 70
     0
 62
     1
  6
CENTER
370
    -3
390
9C8E
  0
LAYER
  5
62
102
{ACAD_XDICTIONARY
360
9E63
102
}
330
2
100
AcDbSymbolTableRecord
100
AcDbLayerTableRecord
  2
2
 70
     0
 62
     2
  6
HIDDEN
370
    -3
390
9C8E
  0
LAYER
  5
24EF
330
2
100
AcDbSymbolTableRecord
100
AcDbLayerTableRecord
  2
DEFPOINTS
 70
     0
 62
     7
  6
CONTINUOUS
290
     0
370
    -3
390
9C8E
  0
ENDTAB
  0
TABLE
  2
STYLE
  5
3
330
0
100
AcDbSymbolTable
 70
     2
  0
STYLE
  5
10
330
3
100
AcDbSymbolTableRecord
100
AcDbTextStyleTableRecord
  2
STANDARD
 70
     0
 40
0.0
 41
1.0
 50
0.0
 71
     0
 42
3.0
  3
romans.shx
  4

  0
STYLE
  5
9CA2
330
3
100
AcDbSymbolTableRecord
100
AcDbTextStyleTableRecord
  2
H
 70
     0
 40
0.0
 41
1.0
 50
0.0
 71
     0
 42
3.149999999999999
  3
txt.shx
  4

  0
ENDTAB
  0
TABLE
  2
VIEW
  5
6
330
0
100
AcDbSymbolTable
 70
     0
  0
ENDTAB
  0
TABLE
  2
UCS
  5
7
330
0
100
AcDbSymbolTable
 70
     0
  0
ENDTAB
  0
TABLE
  2
APPID
  5
9
330
0
100
AcDbSymbolTable
 70
    10
  0
APPID
  5
11
330
9
100
AcDbSymbolTableRecord
100
AcDbRegAppTableRecord
  2
ACAD
 70
     0
  0
APPID
  5
2325
330
9
100
AcDbSymbolTableRecord
100
AcDbRegAppTableRecord
  2
MCLBOMATTRIB
 70
     0
  0
APPID
  5
2326
330
9
100
AcDbSymbolTableRecord
100
AcDbRegAppTableRecord
  2
MCLBOM
 70
     0
  0
APPID
  5
9DBC
330
9
100
AcDbSymbolTableRecord
100
AcDbRegAppTableRecord
  2
ACAD_MLEADERVER
 70
     0
  0
APPID
  5
9FCD
330
9
100
AcDbSymbolTableRecord
100
AcDbRegAppTableRecord
  2
ACAD_NAV_VCDISPLAY
 70
     0
  0
APPID
  5
9FCE
330
9
100
AcDbSymbolTableRecord
100
AcDbRegAppTableRecord
  2
ACAD_PSEXT
 70
     0
  0
APPID
  5
A292
330
9
100
AcDbSymbolTableRecord
100
AcDbRegAppTableRecord
  2
ACAD_EXEMPT_FROM_CAD_STANDARDS
 70
     0
  0
APPID
  5
B0D5
330
9
100
AcDbSymbolTableRecord
100
AcDbRegAppTableRecord
  2
ACAUTHENVIRON
 70
     0
  0
APPID
  5
B0DA
330
9
100
AcDbSymbolTableRecord
100
AcDbRegAppTableRecord
  2
AcDbDynamicBlockTrueName
 70
     0
  0
APPID
  5
B0DB
330
9
100
AcDbSymbolTableRecord
100
AcDbRegAppTableRecord
  2
AcDbDynamicBlockGUID
 70
     0
  0
ENDTAB
  0
TABLE
  2
DIMSTYLE
  5
A
330
0
100
AcDbSymbolTable
 70
     1
100
AcDbDimStyleTable
 71
     1
340
1D
  0
DIMSTYLE
105
1D
102
{ACAD_REACTORS
330
AAFC
330
AAFD
330
AAFE
330
AAFF
330
AB01
330
AB02
330
AB13
330
AB14
330
AB15
330
AB17
330
AB18
330
AAF3
330
AAF4
330
AAF5
330
AAF6
330
AAF7
330
AAF8
330
AAF9
330
AAFA
330
AAFB
330
AD59
102
}
330
A
100
AcDbSymbolTableRecord
100
AcDbDimStyleTableRecord
  2
STANDARD
 70
     0
 41
2.0
140
3.0
176
     2
177
     2
178
     4
340
10
  0
ENDTAB
  0
TABLE
  2
BLOCK_RECORD
  5
1
330
0
100
AcDbSymbolTable
 70
    24
  0
BLOCK_RECORD
  5
19
102
{ACAD_XDICTIONARY
360
A28F
102
}
330
1
100
AcDbSymbolTableRecord
100
AcDbBlockTableRecord
  2
*MODEL_SPACE
340
9C95
  0
BLOCK_RECORD
  5
16
330
1
100
AcDbSymbolTableRecord
100
AcDbBlockTableRecord
  2
*PAPER_SPACE
340
9C96
  0
BLOCK_RECORD
  5
A2D3
102
{ACAD_XDICTIONARY
360
A2DB
102
}
330
1
100
AcDbSymbolTableRecord
100
AcDbBlockTableRecord
  2
A$C07861BC3
340
0
102
{BLKREFS
331
AB03
102
}
  0
BLOCK_RECORD
  5
A4CC
102
{ACAD_XDICTIONARY
360
A4E3
102
}
330
1
100
AcDbSymbolTableRecord
100
AcDbBlockTableRecord
  2
A$C0D073EDA
340
0
102
{BLKREFS
331
AB05
102
}
  0
BLOCK_RECORD
  5
AB19
330
1
100
AcDbSymbolTableRecord
100
AcDbBlockTableRecord
  2
*D2
340
0
  0
BLOCK_RECORD
  5
AB25
330
1
100
AcDbSymbolTableRecord
100
AcDbBlockTableRecord
  2
*D3
340
0
  0
BLOCK_RECORD
  5
AB31
330
1
100
AcDbSymbolTableRecord
100
AcDbBlockTableRecord
  2
*D4
340
0
  0
BLOCK_RECORD
  5
AB3E
330
1
100
AcDbSymbolTableRecord
100
AcDbBlockTableRecord
  2
*D5
340
0
  0
BLOCK_RECORD
  5
AB57
330
1
100
AcDbSymbolTableRecord
100
AcDbBlockTableRecord
  2
*D6
340
0
  0
BLOCK_RECORD
  5
AB65
330
1
100
AcDbSymbolTableRecord
100
AcDbBlockTableRecord
  2
*D7
340
0
  0
BLOCK_RECORD
  5
AB71
330
1
100
AcDbSymbolTableRecord
100
AcDbBlockTableRecord
  2
*D8
340
0
  0
BLOCK_RECORD
  5
AB7D
330
1
100
AcDbSymbolTableRecord
100
AcDbBlockTableRecord
  2
*D9
340
0
  0
BLOCK_RECORD
  5
AB8B
330
1
100
AcDbSymbolTableRecord
100
AcDbBlockTableRecord
  2
*D10
340
0
  0
BLOCK_RECORD
  5
AB99
330
1
100
AcDbSymbolTableRecord
100
AcDbBlockTableRecord
  2
*D11
340
0
  0
BLOCK_RECORD
  5
ABA5
330
1
100
AcDbSymbolTableRecord
100
AcDbBlockTableRecord
  2
*D12
340
0
  0
BLOCK_RECORD
  5
ABB1
330
1
100
AcDbSymbolTableRecord
100
AcDbBlockTableRecord
  2
*D13
340
0
  0
BLOCK_RECORD
  5
ABBD
330
1
100
AcDbSymbolTableRecord
100
AcDbBlockTableRecord
  2
*D14
340
0
  0
BLOCK_RECORD
  5
ABC9
330
1
100
AcDbSymbolTableRecord
100
AcDbBlockTableRecord
  2
*D15
340
0
  0
BLOCK_RECORD
  5
ABD5
330
1
100
AcDbSymbolTableRecord
100
AcDbBlockTableRecord
  2
*D16
340
0
  0
BLOCK_RECORD
  5
ABE1
330
1
100
AcDbSymbolTableRecord
100
AcDbBlockTableRecord
  2
*D17
340
0
  0
BLOCK_RECORD
  5
ABED
330
1
100
AcDbSymbolTableRecord
100
AcDbBlockTableRecord
  2
*D18
340
0
  0
BLOCK_RECORD
  5
ABF9
330
1
100
AcDbSymbolTableRecord
100
AcDbBlockTableRecord
  2
*D19
340
0
  0
BLOCK_RECORD
  5
AC05
330
1
100
AcDbSymbolTableRecord
100
AcDbBlockTableRecord
  2
*D20
340
0
  0
BLOCK_RECORD
  5
AC13
330
1
100
AcDbSymbolTableRecord
100
AcDbBlockTableRecord
  2
*D21
340
0
  0
BLOCK_RECORD
  5
AD5A
330
1
100
AcDbSymbolTableRecord
100
AcDbBlockTableRecord
  2
*D22
340
0
  0
BLOCK_RECORD
  5
AE9D
102
{ACAD_XDICTIONARY
360
B22A
102
}
330
1
100
AcDbSymbolTableRecord
100
AcDbBlockTableRecord
  2
SDK4005
340
0
310
2800000020000000200000000100080000000000000400000000000000000000000000000000000000000000000080000080000000808000800000008000800080800000C0C0C000C0DCC000F0CAA6000020400000206000002080000020A0000020C0000020E00000400000004020000040400000406000004080000040A0
310
000040C0000040E00000600000006020000060400000606000006080000060A0000060C0000060E00000800000008020000080400000806000008080000080A0000080C0000080E00000A0000000A0200000A0400000A0600000A0800000A0A00000A0C00000A0E00000C0000000C0200000C0400000C0600000C0800000C0
310
A00000C0C00000C0E00000E0000000E0200000E0400000E0600000E0800000E0A00000E0C00000E0E00040000000400020004000400040006000400080004000A0004000C0004000E00040200000402020004020400040206000402080004020A0004020C0004020E000404000004040200040404000404060004040800040
310
40A0004040C0004040E00040600000406020004060400040606000406080004060A0004060C0004060E00040800000408020004080400040806000408080004080A0004080C0004080E00040A0000040A0200040A0400040A0600040A0800040A0A00040A0C00040A0E00040C0000040C0200040C0400040C0600040C08000
310
40C0A00040C0C00040C0E00040E0000040E0200040E0400040E0600040E0800040E0A00040E0C00040E0E00080000000800020008000400080006000800080008000A0008000C0008000E00080200000802020008020400080206000802080008020A0008020C0008020E00080400000804020008040400080406000804080
310
008040A0008040C0008040E00080600000806020008060400080606000806080008060A0008060C0008060E00080800000808020008080400080806000808080008080A0008080C0008080E00080A0000080A0200080A0400080A0600080A0800080A0A00080A0C00080A0E00080C0000080C0200080C0400080C0600080C0
310
800080C0A00080C0C00080C0E00080E0000080E0200080E0400080E0600080E0800080E0A00080E0C00080E0E000C0000000C0002000C0004000C0006000C0008000C000A000C000C000C000E000C0200000C0202000C0204000C0206000C0208000C020A000C020C000C020E000C0400000C0402000C0404000C0406000C0
310
408000C040A000C040C000C040E000C0600000C0602000C0604000C0606000C0608000C060A000C060C000C060E000C0800000C0802000C0804000C0806000C0808000C080A000C080C000C080E000C0A00000C0A02000C0A04000C0A06000C0A08000C0A0A000C0A0C000C0A0E000C0C00000C0C02000C0C04000C0C06000
310
C0C08000C0C0A000F0FBFF00A4A0A000808080000000FF0000FF000000FFFF00FF000000FF00FF00FFFF0000FFFFFF00494949494949494949494949494949494949494949494949494949494949494949494949494949494949494949494949494949FFFFFFFFFF4949494949494949494949494949494949494949494949
310
49494949FF494949FF494949494949494949494949494949494949494949494949494949FF494949FF494949494949494949494949494949494949494949494949494949FF494949FF494949494949494949494949494949494949494949494949494949FF494949FF4949494949494949494949494949FFFFFFFFFFFFFFFF
310
FFFFFFFFFFFFFFFFFFFFFFFF494949494949494949494949FF494949494949494949494949FA494949FA49FF494949494949494949494949FF494949494949494949494949FA494949FA49FF494949494949494949494949FF494949494949494949494949FFFA49FAFF49FF494949494949494949494949FFFBFBFBFBFBFB
310
FBFBFBFBFBFBFBFAFBFAFBFBFF494949494949494949494949FF494949494949494949494949FFFA49FAFF49FF494949494949494949494949FF494949494949494949494949FFFA49FAFF49FF494949494949494949494949FF494949494949494949494949FFFA49FAFF49FF494949494949494949494949FF4949494949
310
49494949494949FF49FA49FF49FF494949494949494949494949FF4949FFFFFFFFFFFFFFFF4949FF49FA49FF49FF494949494949494949494949FF4949FFFFFFFFFFFFFFFF4949FF49FA49FF49FFFF4949494949494949494949FF494949494949494949494949FF49FA49FF49FFFF4949494949494949494949FF49494949
310
4949494949494949FFFA49FAFF49FFFF4949494949494949494949FF494949494949494949494949FFFA49FAFF49FFFF4949494949494949494949FF494949494949494949494949FFFA49FAFF49FFFF4949494949494949494949FF494949494949494949494949FFFA49FAFF49FFFF4949494949494949494949FFFBFBFB
310
FBFBFBFBFBFBFBFBFBFBFAFBFAFBFBFFFF4949494949494949494949FF494949494949494949494949FA494949FA49FFFF4949494949494949494949FF494949494949494949494949FA494949FA49FFFF4949494949494949494949FFFFFFFFFFFFFFFFFFFFFFFFFFFFFFFFFFFFFFFFFF4949494949494949494949494949
310
49494949494949494949FF494949FF494949494949494949494949494949494949494949494949494949FFFAFFFFFF494949494949494949494949494949494949494949494949494949FFFAFFFFFF494949494949494949494949494949494949494949494949494949FF494949FF49494949494949494949494949494949
310
4949494949494949494949FFFFFFFFFF49494949494949494949494949494949494949494949494949494949494949494949494949494949
102
{BLKREFS
331
AEC1
102
}
1001
AcDbDynamicBlockGUID
1000
{E7EEE2AF-67D4-404F-B7C8-CEEE195CF09A}
  0
ENDTAB
  0
ENDSEC
  0
SECTION
  2
BLOCKS
  0
BLOCK
  5
1A
330
19
100
AcDbEntity
  8
0
100
AcDbBlockBegin
  2
*MODEL_SPACE
 70
     0
 10
0.0
 20
0.0
 30
0.0
  3
*MODEL_SPACE
  1

  0
ENDBLK
  5
1B
330
19
100
AcDbEntity
  8
0
100
AcDbBlockEnd
  0
BLOCK
  5
17
330
16
100
AcDbEntity
 67
     1
  8
0
100
AcDbBlockBegin
  2
*PAPER_SPACE
 70
     0
 10
0.0
 20
0.0
 30
0.0
  3
*PAPER_SPACE
  1

  0
ENDBLK
  5
18
330
16
100
AcDbEntity
 67
     1
  8
0
100
AcDbBlockEnd
  0
BLOCK
  5
A2DD
330
A2D3
100
AcDbEntity
  8
0
100
AcDbBlockBegin
  2
A$C07861BC3
 70
     0
 10
0.0
 20
0.0
 30
0.0
  3
A$C07861BC3
  1

  0
LINE
  5
A2D4
330
A2D3
100
AcDbEntity
  8
0
  6
Continuous
100
AcDbLine
 10
-0.0000009049754794
 20
-0.0000005328236625
 30
0.0
 11
299.9999990950245
 21
-0.0000005328236625
 31
0.0
  0
LINE
  5
A2D5
330
A2D3
100
AcDbEntity
  8
0
  6
Continuous
100
AcDbLine
 10
-0.0000009049754794
 20
39.59999946717636
 30
0.0
 11
299.9999990950245
 21
39.59999946717636
 31
0.0
  0
LINE
  5
A2D6
330
A2D3
100
AcDbEntity
  8
9
  6
Continuous
100
AcDbLine
 10
-0.0000009049754794
 20
1.449999467176326
 30
0.0
 11
299.9999990950245
 21
1.449999467176326
 31
0.0
  0
LINE
  5
A2D7
330
A2D3
100
AcDbEntity
  8
9
  6
Continuous
100
AcDbLine
 10
-0.0000009049754794
 20
38.14999946717632
 30
0.0
 11
299.9999990950245
 21
38.14999946717637
 31
0.0
  0
LINE
  5
A2D8
330
A2D3
100
AcDbEntity
  8
0
100
AcDbLine
 10
-0.0000009049754794
 20
-0.0000005328236625
 30
0.0
 11
-0.0000009049754794
 21
39.59999946717636
 31
0.0
  0
LINE
  5
A2D9
330
A2D3
100
AcDbEntity
  8
0
100
AcDbLine
 10
299.9999990950245
 20
-0.0000005328236625
 30
0.0
 11
299.9999990950245
 21
39.59999946717636
 31
0.0
  0
TEXT
  5
A2DA
330
A2D3
100
AcDbEntity
  8
0
100
AcDbText
 10
32.25000209502451
 20
17.79999946717635
 30
0.0
 40
4.0
  1
RM4005
 72
     4
 11
44.25000209502451
 21
19.79999946717635
 31
0.0
100
AcDbText
  0
ENDBLK
  5
A2DE
330
A2D3
100
AcDbEntity
  8
0
100
AcDbBlockEnd
  0
BLOCK
  5
A4E5
330
A4CC
100
AcDbEntity
  8
0
100
AcDbBlockBegin
  2
A$C0D073EDA
 70
     0
 10
0.0
 20
0.0
 30
0.0
  3
A$C0D073EDA
  1

  0
CIRCLE
  5
A4CD
330
A4CC
100
AcDbEntity
  8
0
100
AcDbCircle
 10
7.422833593771429
 20
18.90905394519791
 30
0.0
 40
4.5
  0
CIRCLE
  5
A4CE
330
A4CC
100
AcDbEntity
  8
0
100
AcDbCircle
 10
62.5771628937714
 20
18.90905394519791
 30
0.0
 40
4.5
  0
CIRCLE
  5
A4CF
330
A4CC
100
AcDbEntity
  8
0
100
AcDbCircle
 10
34.99999859377147
 20
46.48621884519781
 30
0.0
 40
31.5
  0
CIRCLE
  5
A4D0
330
A4CC
100
AcDbEntity
  8
0
100
AcDbCircle
 10
24.90605559377139
 20
8.815111145197874
 30
0.0
 40
4.5
  0
CIRCLE
  5
A4D1
330
A4CC
100
AcDbEntity
  8
0
100
AcDbCircle
 10
45.09394119377145
 20
8.815111145197874
 30
0.0
 40
4.5
  0
CIRCLE
  5
A4D2
330
A4CC
100
AcDbEntity
  8
0
100
AcDbCircle
 10
62.5771628937714
 20
74.06338284519785
 30
0.0
 40
4.5
  0
CIRCLE
  5
A4D3
330
A4CC
100
AcDbEntity
  8
0
100
AcDbCircle
 10
24.90605559377144
 20
84.15732584519782
 30
0.0
 40
4.5
  0
LWPOLYLINE
  5
A4D4
330
A4CC
100
AcDbEntity
  8
2
100
AcDbPolyline
 90
        4
 70
     0
 43
0.0
 10
8.78589659377144
 20
83.89037384519781
 10
13.78589659377144
 20
75.23011984519786
 10
20.71409959377144
 20
79.23011984519786
 10
15.71409959377144
 20
87.89037384519781
  0
CIRCLE
  5
A4D5
330
A4CC
100
AcDbEntity
  8
0
100
AcDbCircle
 10
45.09394119377145
 20
84.15732584519782
 30
0.0
 40
4.5
  0
LWPOLYLINE
  5
A4D6
330
A4CC
100
AcDbEntity
  8
2
100
AcDbPolyline
 90
        2
 70
     0
 43
0.0
 10
22.17886762340333
 20
61.57457861823701
 10
9.381195593771451
 20
84.23406984519784
  0
LWPOLYLINE
  5
A4D7
330
A4CC
100
AcDbEntity
  8
2
100
AcDbPolyline
 90
        2
 70
     0
 43
0.0
 10
15.28108759377142
 20
87.64037384519781
 10
28.28698689954194
 20
65.11349653124574
  0
CIRCLE
  5
A4D8
330
A4CC
100
AcDbEntity
  8
0
100
AcDbCircle
 10
7.422833593771429
 20
74.06338284519785
 30
0.0
 40
4.5
  0
ARC
  5
A4D9
330
A4CC
100
AcDbEntity
  8
0
100
AcDbCircle
 10
34.99999859377147
 20
46.48621884519781
 30
0.0
 40
46.5
100
AcDbArc
 50
221.1762247037547
 51
318.8237752962442
  0
ARC
  5
A4DA
330
A4CC
100
AcDbEntity
  8
0
100
AcDbCircle
 10
34.99999859377147
 20
46.48621884519781
 30
0.0
 40
45.49999999999999
100
AcDbArc
 50
219.7151372318256
 51
320.2848627681744
  0
LINE
  5
A4DB
330
A4CC
100
AcDbEntity
  8
0
100
AcDbLine
 10
-0.0000014062285345
 20
77.10075787488114
 30
0.0
 11
-0.0000014062285913
 21
15.87167981551459
 31
0.0
  0
LINE
  5
A4DC
330
A4CC
100
AcDbEntity
  8
0
100
AcDbLine
 10
69.99999859377147
 20
77.10075787488108
 30
0.0
 11
69.99999859377147
 21
15.87167981551459
 31
0.0
  0
ARC
  5
A4DD
330
A4CC
100
AcDbEntity
  8
0
100
AcDbCircle
 10
34.99999859377147
 20
46.48621884519781
 30
0.0
 40
46.5
100
AcDbArc
 50
41.17622470375478
 51
108.096010195889
  0
ARC
  5
A4DE
330
A4CC
100
AcDbEntity
  8
0
100
AcDbCircle
 10
34.99999859377147
 20
46.48621884519781
 30
0.0
 40
45.49999999999999
100
AcDbArc
 50
39.71513723182561
 51
140.2848627681744
  0
LINE
  5
A4DF
330
A4CC
100
AcDbEntity
  8
0
100
AcDbLine
 10
20.55662245668941
 20
90.68620624070252
 30
0.0
 11
3.943374730853406
 21
81.09454319407712
 31
0.0
  0
ARC
  5
A4E0
330
A4CC
100
AcDbEntity
  8
0
100
AcDbCircle
 10
34.99999859377147
 20
46.48621884519781
 30
0.0
 40
46.5
100
AcDbArc
 50
131.9039898041076
 51
138.8237752962441
  0
ARC
  5
A4E1
330
A4CC
100
AcDbEntity
  8
9
100
AcDbCircle
 10
34.99999859377147
 20
46.48621884519781
 30
0.0
 40
18.35000000000002
100
AcDbArc
 50
180.0
 51
90.0
  0
CIRCLE
  5
A4E2
330
A4CC
100
AcDbEntity
  8
0
100
AcDbCircle
 10
34.99999859377147
 20
46.48621884519781
 30
0.0
 40
19.80000000000001
  0
ENDBLK
  5
A4E6
330
A4CC
100
AcDbEntity
  8
0
100
AcDbBlockEnd
  0
BLOCK
  5
AB1A
330
AB19
100
AcDbEntity
  8
0
100
AcDbBlockBegin
  2
*D2
 70
     1
 10
0.0
 20
0.0
 30
0.0
  3
*D2
  1

  0
LINE
  5
AD47
330
AB19
100
AcDbEntity
  8
0
 62
   115
370
    -2
100
AcDbLine
 10
363.4228344604808
 20
52.92283574837085
 30
0.0
 11
363.4228344604808
 21
0.0000006483705306
 31
0.0
  0
LINE
  5
AD48
330
AB19
100
AcDbEntity
  8
0
 62
   115
370
    -2
100
AcDbLine
 10
418.5771637604807
 20
52.92283574837085
 30
0.0
 11
418.5771637604807
 21
0.0000006483705306
 31
0.0
  0
LINE
  5
AD49
330
AB19
100
AcDbEntity
  8
0
 62
   115
370
    -2
100
AcDbLine
 10
366.4228344604808
 20
1.00000064837053
 30
0.0
 11
415.5771637604807
 21
1.00000064837053
 31
0.0
  0
SOLID
  5
AD4A
330
AB19
100
AcDbEntity
  8
0
 62
   115
100
AcDbTrace
 10
366.4228344604808
 20
1.50000064837053
 30
0.0
 11
366.4228344604808
 21
0.5000006483705306
 31
0.0
 12
363.4228344604808
 22
1.00000064837053
 32
0.0
 13
363.4228344604808
 23
1.00000064837053
 33
0.0
  0
SOLID
  5
AD4B
330
AB19
100
AcDbEntity
  8
0
 62
   115
100
AcDbTrace
 10
415.5771637604807
 20
1.50000064837053
 30
0.0
 11
415.5771637604807
 21
0.5000006483705306
 31
0.0
 12
418.5771637604807
 22
1.00000064837053
 32
0.0
 13
418.5771637604807
 23
1.00000064837053
 33
0.0
  0
MTEXT
  5
AD4C
330
AB19
100
AcDbEntity
  8
0
 62
     7
100
AcDbMText
 10
390.9999991104808
 20
4.285714934084816
 30
0.0
 40
3.0
 41
0.0
 71
     5
 72
     1
  1
\A1;(55.15)
 73
     1
 44
1.0
1001
ACAD
1000
MTEXTBEGIN
1070
    73
1070
     1
1070
    44
1040
1.0
1070
    74
1070
     0
1000
MTEXTEND
  0
POINT
  5
AD4D
330
AB19
100
AcDbEntity
  8
DEFPOINTS
 62
     0
100
AcDbPoint
 10
363.4228344604808
 20
53.92283574837086
 30
0.0
  0
POINT
  5
AD4E
330
AB19
100
AcDbEntity
  8
DEFPOINTS
 62
     0
100
AcDbPoint
 10
418.5771637604807
 20
53.92283574837086
 30
0.0
  0
POINT
  5
AD4F
330
AB19
100
AcDbEntity
  8
DEFPOINTS
 62
     0
100
AcDbPoint
 10
418.5771637604807
 20
1.00000064837053
 30
0.0
  0
ENDBLK
  5
AB1B
330
AB19
100
AcDbEntity
  8
0
100
AcDbBlockEnd
  0
BLOCK
  5
AB26
330
AB25
100
AcDbEntity
  8
0
100
AcDbBlockBegin
  2
*D3
 70
     1
 10
0.0
 20
0.0
 30
0.0
  3
*D3
  1

  0
LINE
  5
AC28
330
AB25
100
AcDbEntity
  8
0
 62
   115
370
    -2
100
AcDbLine
 10
391.9999994604808
 20
42.50000090712018
 30
0.0
 11
444.9999994604799
 21
42.50000090712016
 31
0.0
  0
LINE
  5
AC29
330
AB25
100
AcDbEntity
  8
0
 62
   115
370
    -2
100
AcDbLine
 10
391.9999994604808
 20
120.5000003896214
 30
0.0
 11
444.9999994604799
 21
120.5000003896214
 31
0.0
  0
LINE
  5
AC2A
330
AB25
100
AcDbEntity
  8
0
 62
   115
370
    -2
100
AcDbLine
 10
443.9999994604798
 20
45.50000090712017
 30
0.0
 11
443.9999994604798
 21
117.5000003896214
 31
0.0
  0
SOLID
  5
AC2B
330
AB25
100
AcDbEntity
  8
0
 62
   115
100
AcDbTrace
 10
443.4999994604798
 20
45.50000090712017
 30
0.0
 11
444.4999994604798
 21
45.50000090712017
 31
0.0
 12
443.9999994604798
 22
42.50000090712016
 32
0.0
 13
443.9999994604798
 23
42.50000090712016
 33
0.0
  0
SOLID
  5
AC2C
330
AB25
100
AcDbEntity
  8
0
 62
   115
100
AcDbTrace
 10
443.4999994604798
 20
117.5000003896214
 30
0.0
 11
444.4999994604798
 21
117.5000003896214
 31
0.0
 12
443.9999994604798
 22
120.5000003896214
 32
0.0
 13
443.9999994604798
 23
120.5000003896214
 33
0.0
  0
MTEXT
  5
AC2D
330
AB25
100
AcDbEntity
  8
0
 62
     7
100
AcDbMText
 10
441.4999994604799
 20
81.50000064837085
 30
0.0
 40
3.0
 41
0.0
 71
     5
 72
     1
  1
\A1;PCD 78
 11
0.0000000000000001
 21
1.0
 31
0.0
 73
     1
 44
1.0
1001
ACAD
1000
MTEXTBEGIN
1070
    73
1070
     1
1070
    44
1040
1.0
1070
    74
1070
     0
1000
MTEXTEND
  0
POINT
  5
AC2E
330
AB25
100
AcDbEntity
  8
DEFPOINTS
 62
     0
100
AcDbPoint
 10
390.9999994604808
 20
42.50000090712018
 30
0.0
  0
POINT
  5
AC2F
330
AB25
100
AcDbEntity
  8
DEFPOINTS
 62
     0
100
AcDbPoint
 10
390.9999994604808
 20
120.5000003896214
 30
0.0
  0
POINT
  5
AC30
330
AB25
100
AcDbEntity
  8
DEFPOINTS
 62
     0
100
AcDbPoint
 10
443.9999994604798
 20
120.5000003896214
 30
0.0
  0
ENDBLK
  5
AB27
330
AB25
100
AcDbEntity
  8
0
100
AcDbBlockEnd
  0
BLOCK
  5
AB32
330
AB31
100
AcDbEntity
  8
0
100
AcDbBlockBegin
  2
*D4
 70
     1
 10
0.0
 20
0.0
 30
0.0
  3
*D4
  1

  0
LINE
  5
ADE2
330
AB31
100
AcDbEntity
  8
0
 62
   115
370
    -2
100
AcDbLine
 10
419.5771637604807
 20
104.5771646483708
 30
0.0
 11
436.9999994604799
 21
104.5771646483708
 31
0.0
  0
LINE
  5
ADE3
330
AB31
100
AcDbEntity
  8
0
 62
   115
370
    -2
100
AcDbLine
 10
419.5771637604807
 20
113.5771646483708
 30
0.0
 11
436.9999994604799
 21
113.5771646483708
 31
0.0
  0
LINE
  5
ADE4
330
AB31
100
AcDbEntity
  8
0
 62
   115
370
    -2
100
AcDbLine
 10
435.9999994604798
 20
107.5771646483708
 30
0.0
 11
435.9999994604798
 21
110.5771646483708
 31
0.0
  0
LINE
  5
ADE5
330
AB31
100
AcDbEntity
  8
0
 62
   115
370
    -2
100
AcDbLine
 10
435.9999994604798
 20
113.5771646483708
 30
0.0
 11
435.9999994604799
 21
129.7200217912279
 31
0.0
  0
SOLID
  5
ADE6
330
AB31
100
AcDbEntity
  8
0
 62
   115
100
AcDbTrace
 10
435.4999994604798
 20
107.5771646483708
 30
0.0
 11
436.4999994604799
 21
107.5771646483708
 31
0.0
 12
435.9999994604798
 22
104.5771646483708
 32
0.0
 13
435.9999994604798
 23
104.5771646483708
 33
0.0
  0
SOLID
  5
ADE7
330
AB31
100
AcDbEntity
  8
0
 62
   115
100
AcDbTrace
 10
435.4999994604798
 20
110.5771646483708
 30
0.0
 11
436.4999994604799
 21
110.5771646483708
 31
0.0
 12
435.9999994604798
 22
113.5771646483708
 32
0.0
 13
435.9999994604798
 23
113.5771646483708
 33
0.0
  0
MTEXT
  5
ADE8
330
AB31
100
AcDbEntity
  8
0
 62
     7
100
AcDbMText
 10
433.4999994604799
 20
123.1485932197994
 30
0.0
 40
3.0
 41
0.0
 71
     5
 72
     1
  1
\A1;8-%%C9
 11
0.0000000000000001
 21
1.0
 31
0.0
 73
     1
 44
1.0
1001
ACAD
1000
MTEXTBEGIN
1070
    73
1070
     1
1070
    44
1040
1.0
1070
    74
1070
     0
1000
MTEXTEND
  0
POINT
  5
ADE9
330
AB31
100
AcDbEntity
  8
DEFPOINTS
 62
     0
100
AcDbPoint
 10
418.5771637604807
 20
104.5771646483708
 30
0.0
  0
POINT
  5
ADEA
330
AB31
100
AcDbEntity
  8
DEFPOINTS
 62
     0
100
AcDbPoint
 10
418.5771637604807
 20
113.5771646483708
 30
0.0
  0
POINT
  5
ADEB
330
AB31
100
AcDbEntity
  8
DEFPOINTS
 62
     0
100
AcDbPoint
 10
435.9999994604798
 20
113.5771646483708
 30
0.0
  0
ENDBLK
  5
AB33
330
AB31
100
AcDbEntity
  8
0
100
AcDbBlockEnd
  0
BLOCK
  5
AB3F
330
AB3E
100
AcDbEntity
  8
0
100
AcDbBlockBegin
  2
*D5
 70
     1
 10
0.0
 20
0.0
 30
0.0
  3
*D5
  1

  0
LINE
  5
B004
330
AB3E
100
AcDbEntity
  8
0
 62
   115
370
    -2
100
AcDbLine
 10
204.9999996104808
 20
50.00001209837083
 30
0.0
 11
215.9999996104807
 21
50.00001209837082
 31
0.0
  0
LINE
  5
B005
330
AB3E
100
AcDbEntity
  8
0
 62
   115
370
    -2
100
AcDbLine
 10
204.9999996104809
 20
113.0000042983708
 30
0.0
 11
215.9999996104807
 21
113.0000042983708
 31
0.0
  0
LINE
  5
B006
330
AB3E
100
AcDbEntity
  8
0
 62
   115
370
    -2
100
AcDbLine
 10
214.9999996104807
 20
53.00001209837082
 30
0.0
 11
214.9999996104808
 21
110.0000042983708
 31
0.0
  0
SOLID
  5
B007
330
AB3E
100
AcDbEntity
  8
0
 62
   115
100
AcDbTrace
 10
214.4999996104807
 20
53.00001209837082
 30
0.0
 11
215.4999996104807
 21
53.00001209837082
 31
0.0
 12
214.9999996104807
 22
50.00001209837082
 32
0.0
 13
214.9999996104807
 23
50.00001209837082
 33
0.0
  0
SOLID
  5
B008
330
AB3E
100
AcDbEntity
  8
0
 62
   115
100
AcDbTrace
 10
214.4999996104807
 20
110.0000042983708
 30
0.0
 11
215.4999996104808
 21
110.0000042983708
 31
0.0
 12
214.9999996104808
 22
113.0000042983708
 32
0.0
 13
214.9999996104808
 23
113.0000042983708
 33
0.0
  0
MTEXT
  5
B009
330
AB3E
100
AcDbEntity
  8
0
 62
     7
100
AcDbMText
 10
211.7142853247664
 20
81.50000819837085
 30
0.0
 40
3.0
 41
0.0
 71
     5
 72
     1
  1
\A1;%%C63 g6 ({\H0.5x;\S-0.010^ -0.029;})
 11
0.0000000000000001
 21
1.0
 31
0.0
 73
     1
 44
1.0
1001
ACAD
1000
MTEXTBEGIN
1070
    73
1070
     1
1070
    44
1040
1.0
1070
    74
1070
     0
1000
MTEXTEND
  0
POINT
  5
B00A
330
AB3E
100
AcDbEntity
  8
DEFPOINTS
 62
     0
100
AcDbPoint
 10
203.9999996104809
 20
50.00001209837083
 30
0.0
  0
POINT
  5
B00B
330
AB3E
100
AcDbEntity
  8
DEFPOINTS
 62
     0
100
AcDbPoint
 10
203.9999996104809
 20
113.0000042983708
 30
0.0
  0
POINT
  5
B00C
330
AB3E
100
AcDbEntity
  8
DEFPOINTS
 62
     0
100
AcDbPoint
 10
214.9999996104808
 20
113.0000042983708
 30
0.0
  0
ENDBLK
  5
AB40
330
AB3E
100
AcDbEntity
  8
0
100
AcDbBlockEnd
  0
BLOCK
  5
AB58
330
AB57
100
AcDbEntity
  8
0
100
AcDbBlockBegin
  2
*D6
 70
     1
 10
0.0
 20
0.0
 30
0.0
  3
*D6
  1

  0
LINE
  5
AF85
330
AB57
100
AcDbEntity
  8
0
 62
   115
370
    -2
100
AcDbLine
 10
198.0000056104808
 20
35.00000064837081
 30
0.0
 11
198.0000056104808
 21
24.50000064837079
 31
0.0
  0
LINE
  5
AF86
330
AB57
100
AcDbEntity
  8
0
 62
   115
370
    -2
100
AcDbLine
 10
204.9999996104808
 20
50.00001209837083
 30
0.0
 11
204.9999996104808
 21
24.50000064837079
 31
0.0
  0
LINE
  5
AF87
330
AB57
100
AcDbEntity
  8
0
 62
   115
370
    -2
100
AcDbLine
 10
195.0000056104808
 20
25.50000064837079
 30
0.0
 11
192.0000056104808
 21
25.50000064837079
 31
0.0
  0
LINE
  5
AF88
330
AB57
100
AcDbEntity
  8
0
 62
   115
370
    -2
100
AcDbLine
 10
207.9999996104809
 20
25.50000064837079
 30
0.0
 11
210.9999996104809
 21
25.50000064837079
 31
0.0
  0
LINE
  5
AF89
330
AB57
100
AcDbEntity
  8
0
 62
   115
370
    -2
100
AcDbLine
 10
198.0000056104808
 20
25.50000064837079
 30
0.0
 11
204.9999996104808
 21
25.50000064837079
 31
0.0
  0
SOLID
  5
AF8A
330
AB57
100
AcDbEntity
  8
0
 62
   115
100
AcDbTrace
 10
195.0000056104808
 20
26.00000064837079
 30
0.0
 11
195.0000056104808
 21
25.00000064837079
 31
0.0
 12
198.0000056104808
 22
25.50000064837079
 32
0.0
 13
198.0000056104808
 23
25.50000064837079
 33
0.0
  0
SOLID
  5
AF8B
330
AB57
100
AcDbEntity
  8
0
 62
   115
100
AcDbTrace
 10
207.9999996104809
 20
26.00000064837079
 30
0.0
 11
207.9999996104809
 21
25.00000064837079
 31
0.0
 12
204.9999996104808
 22
25.50000064837079
 32
0.0
 13
204.9999996104808
 23
25.50000064837079
 33
0.0
  0
MTEXT
  5
AF8C
330
AB57
100
AcDbEntity
  8
0
 62
     7
100
AcDbMText
 10
201.5000026104808
 20
28.00000064837078
 30
0.0
 40
3.0
 41
0.0
 71
     5
 72
     1
  1
\A1;7
 73
     1
 44
1.0
1001
ACAD
1000
MTEXTBEGIN
1070
    73
1070
     1
1070
    44
1040
1.0
1070
    74
1070
     0
1000
MTEXTEND
  0
POINT
  5
AF8D
330
AB57
100
AcDbEntity
  8
DEFPOINTS
 62
     0
100
AcDbPoint
 10
198.0000056104808
 20
36.00000064837082
 30
0.0
  0
POINT
  5
AF8E
330
AB57
100
AcDbEntity
  8
DEFPOINTS
 62
     0
100
AcDbPoint
 10
204.9999996104808
 20
51.00001209837083
 30
0.0
  0
POINT
  5
AF8F
330
AB57
100
AcDbEntity
  8
DEFPOINTS
 62
     0
100
AcDbPoint
 10
204.9999996104808
 20
25.50000064837079
 30
0.0
  0
ENDBLK
  5
AB59
330
AB57
100
AcDbEntity
  8
0
100
AcDbBlockEnd
  0
BLOCK
  5
AB66
330
AB65
100
AcDbEntity
  8
0
100
AcDbBlockBegin
  2
*D7
 70
     1
 10
0.0
 20
0.0
 30
0.0
  3
*D7
  1

  0
LINE
  5
AF44
330
AB65
100
AcDbEntity
  8
0
 62
   115
370
    -2
100
AcDbLine
 10
198.0000056104808
 20
35.00000064837081
 30
0.0
 11
223.9999996104807
 21
35.00000064837081
 31
0.0
  0
LINE
  5
AF45
330
AB65
100
AcDbEntity
  8
0
 62
   115
370
    -2
100
AcDbLine
 10
198.0000056104808
 20
128.0000006483708
 30
0.0
 11
223.9999996104808
 21
128.0000006483708
 31
0.0
  0
LINE
  5
AF46
330
AB65
100
AcDbEntity
  8
0
 62
   115
370
    -2
100
AcDbLine
 10
222.9999996104807
 20
38.00000064837081
 30
0.0
 11
222.9999996104808
 21
125.0000006483708
 31
0.0
  0
SOLID
  5
AF47
330
AB65
100
AcDbEntity
  8
0
 62
   115
100
AcDbTrace
 10
222.4999996104807
 20
38.00000064837081
 30
0.0
 11
223.4999996104807
 21
38.00000064837081
 31
0.0
 12
222.9999996104807
 22
35.00000064837081
 32
0.0
 13
222.9999996104807
 23
35.00000064837081
 33
0.0
  0
SOLID
  5
AF48
330
AB65
100
AcDbEntity
  8
0
 62
   115
100
AcDbTrace
 10
222.4999996104807
 20
125.0000006483708
 30
0.0
 11
223.4999996104808
 21
125.0000006483708
 31
0.0
 12
222.9999996104808
 22
128.0000006483708
 32
0.0
 13
222.9999996104808
 23
128.0000006483708
 33
0.0
  0
MTEXT
  5
AF49
330
AB65
100
AcDbEntity
  8
0
 62
     7
100
AcDbMText
 10
220.4999996104807
 20
81.50000064837085
 30
0.0
 40
3.0
 41
0.0
 71
     5
 72
     1
  1
\A1;%%C93
 11
0.0000000000000001
 21
1.0
 31
0.0
 73
     1
 44
1.0
1001
ACAD
1000
MTEXTBEGIN
1070
    73
1070
     1
1070
    44
1040
1.0
1070
    74
1070
     0
1000
MTEXTEND
  0
POINT
  5
AF4A
330
AB65
100
AcDbEntity
  8
DEFPOINTS
 62
     0
100
AcDbPoint
 10
197.0000056104808
 20
35.00000064837081
 30
0.0
  0
POINT
  5
AF4B
330
AB65
100
AcDbEntity
  8
DEFPOINTS
 62
     0
100
AcDbPoint
 10
197.0000056104808
 20
128.0000006483708
 30
0.0
  0
POINT
  5
AF4C
330
AB65
100
AcDbEntity
  8
DEFPOINTS
 62
     0
100
AcDbPoint
 10
222.9999996104808
 20
128.0000006483708
 30
0.0
  0
ENDBLK
  5
AB67
330
AB65
100
AcDbEntity
  8
0
100
AcDbBlockEnd
  0
BLOCK
  5
AB72
330
AB71
100
AcDbEntity
  8
0
100
AcDbBlockBegin
  2
*D8
 70
     1
 10
0.0
 20
0.0
 30
0.0
  3
*D8
  1

  0
LINE
  5
AC62
330
AB71
100
AcDbEntity
  8
0
 62
   115
370
    -2
100
AcDbLine
 10
377.5801258556726
 20
114.7439016632539
 30
0.0
 11
407.2968430961743
 21
131.9008570424187
 31
0.0
  0
LINE
  5
AC63
330
AB71
100
AcDbEntity
  8
0
 62
   115
370
    -2
100
AcDbLine
 10
377.4226487185905
 20
126.1999880587586
 30
0.0
 11
402.2968427878925
 21
140.5611112705126
 31
0.0
  0
LINE
  5
AC64
330
AB71
100
AcDbEntity
  8
0
 62
   115
370
    -2
100
AcDbLine
 10
404.9308176563333
 20
133.9989332131106
 30
0.0
 11
402.9308174373501
 21
137.4630350700545
 31
0.0
  0
SOLID
  5
AC65
330
AB71
100
AcDbEntity
  8
0
 62
   115
100
AcDbTrace
 10
405.3638303539292
 20
134.2489332205522
 30
0.0
 11
404.4978049587375
 21
133.7489332056691
 31
0.0
 12
406.4308177009825
 22
131.4008570275356
 32
0.0
 13
406.4308177009825
 23
131.4008570275356
 33
0.0
  0
SOLID
  5
AC66
330
AB71
100
AcDbEntity
  8
0
 62
   115
100
AcDbTrace
 10
403.3638301349459
 20
137.713035077496
 30
0.0
 11
402.4978047397543
 21
137.2130350626129
 31
0.0
 12
401.4308173927008
 22
140.0611112556295
 32
0.0
 13
401.4308173927008
 23
140.0611112556295
 33
0.0
  0
MTEXT
  5
AC67
330
AB71
100
AcDbEntity
  8
0
 62
     7
100
AcDbMText
 10
406.095881034821
 20
136.9809841787903
 30
0.0
 40
3.0
 41
0.0
 71
     5
 72
     1
  1
\A1;10
 11
0.5000000148830854
 21
-0.8660253951916851
 31
0.0
 73
     1
 44
1.0
1001
ACAD
1000
MTEXTBEGIN
1070
    73
1070
     1
1070
    44
1040
1.0
1070
    74
1070
     0
1000
MTEXTEND
  0
POINT
  5
AC68
330
AB71
100
AcDbEntity
  8
DEFPOINTS
 62
     0
100
AcDbPoint
 10
376.7141004604809
 20
114.2439016483708
 30
0.0
  0
POINT
  5
AC69
330
AB71
100
AcDbEntity
  8
DEFPOINTS
 62
     0
100
AcDbPoint
 10
376.5566233233988
 20
125.6999880438755
 30
0.0
  0
POINT
  5
AC6A
330
AB71
100
AcDbEntity
  8
DEFPOINTS
 62
     0
100
AcDbPoint
 10
401.4308173927008
 20
140.0611112556295
 30
0.0
  0
ENDBLK
  5
AB73
330
AB71
100
AcDbEntity
  8
0
100
AcDbBlockEnd
  0
BLOCK
  5
AB7E
330
AB7D
100
AcDbEntity
  8
0
100
AcDbBlockBegin
  2
*D9
 70
     1
 10
0.0
 20
0.0
 30
0.0
  3
*D9
  1

  0
LINE
  5
AC6B
330
AB7D
100
AcDbEntity
  8
0
 62
   115
370
    -2
100
AcDbLine
 10
371.2141004455977
 20
123.7701810435624
 30
0.0
 11
366.2141000385103
 21
132.4304354427926
 31
0.0
  0
LINE
  5
AC6C
330
AB7D
100
AcDbEntity
  8
0
 62
   115
370
    -2
100
AcDbLine
 10
364.2858974455977
 20
119.7701810435624
 30
0.0
 11
359.2858970496835
 21
128.4304354234401
 31
0.0
  0
LINE
  5
AC6D
330
AB7D
100
AcDbEntity
  8
0
 62
   115
370
    -2
100
AcDbLine
 10
369.3121762389684
 20
133.0644100922502
 30
0.0
 11
371.9102524245434
 21
134.5644101368995
 31
0.0
  0
LINE
  5
AC6E
330
AB7D
100
AcDbEntity
  8
0
 62
   115
370
    -2
100
AcDbLine
 10
357.1878208789915
 20
126.0644099835991
 30
0.0
 11
344.4448757783139
 21
118.7072669074622
 31
0.0
  0
LINE
  5
AC6F
330
AB7D
100
AcDbEntity
  8
0
 62
   115
370
    -2
100
AcDbLine
 10
366.7141000533933
 20
131.5644100476009
 30
0.0
 11
359.7858970645666
 21
127.5644100282484
 31
0.0
  0
SOLID
  5
AC70
330
AB7D
100
AcDbEntity
  8
0
 62
   115
100
AcDbTrace
 10
369.0621762315268
 20
133.497422789846
 30
0.0
 11
369.5621762464099
 21
132.6313973946543
 31
0.0
 12
366.7141000533933
 22
131.5644100476009
 32
0.0
 13
366.7141000533933
 23
131.5644100476009
 33
0.0
  0
SOLID
  5
AC71
330
AB7D
100
AcDbEntity
  8
0
 62
   115
100
AcDbTrace
 10
356.9378208715499
 20
126.497422681195
 30
0.0
 11
357.437820886433
 21
125.6313972860033
 31
0.0
 12
359.7858970645666
 22
127.5644100282484
 32
0.0
 13
359.7858970645666
 23
127.5644100282484
 33
0.0
  0
MTEXT
  5
AC72
330
AB7D
100
AcDbEntity
  8
0
 62
     7
100
AcDbMText
 10
348.2673101986575
 20
123.8009019111853
 30
0.0
 40
3.0
 41
0.0
 71
     5
 72
     1
  1
\A1;M8x1
 11
0.8660253951916816
 21
0.5000000148830914
 31
0.0
 73
     1
 44
1.0
1001
ACAD
1000
MTEXTBEGIN
1070
    73
1070
     1
1070
    44
1040
1.0
1070
    74
1070
     0
1000
MTEXTEND
  0
POINT
  5
AC73
330
AB7D
100
AcDbEntity
  8
DEFPOINTS
 62
     0
100
AcDbPoint
 10
371.7141004604808
 20
122.9041556483707
 30
0.0
  0
POINT
  5
AC74
330
AB7D
100
AcDbEntity
  8
DEFPOINTS
 62
     0
100
AcDbPoint
 10
364.7858974604808
 20
118.9041556483707
 30
0.0
  0
POINT
  5
AC75
330
AB7D
100
AcDbEntity
  8
DEFPOINTS
 62
     0
100
AcDbPoint
 10
359.7858970645666
 20
127.5644100282484
 30
0.0
  0
ENDBLK
  5
AB7F
330
AB7D
100
AcDbEntity
  8
0
100
AcDbBlockEnd
  0
BLOCK
  5
AB8C
330
AB8B
100
AcDbEntity
  8
0
100
AcDbBlockBegin
  2
*D10
 70
     1
 10
0.0
 20
0.0
 30
0.0
  3
*D10
  1

  0
LINE
  5
AC76
330
AB8B
100
AcDbEntity
  8
0
 62
   115
370
    -2
100
AcDbLine
 10
390.9999994604808
 20
132.0000006483708
 30
0.0
 11
390.9999994604807
 21
146.0091540063772
 31
0.0
  0
LINE
  5
AC77
330
AB8B
100
AcDbEntity
  8
0
 62
   115
370
    -2
100
AcDbLine
 10
365.8976366762029
 20
124.9785684233629
 30
0.0
 11
358.7454228284071
 21
137.3665663238554
 31
0.0
  0
ARC
  5
AC78
330
AB8B
100
AcDbEntity
  8
0
 62
   115
370
    -2
100
AcDbCircle
 10
390.9999994604808
 20
81.50000023641283
 30
0.0
 40
63.50915376996439
100
AcDbArc
 50
92.70674876446296
 51
117.2932509761585
  0
SOLID
  5
AC79
330
AB8B
100
AcDbEntity
  8
0
 62
   115
100
AcDbTrace
 10
387.9890270163573
 20
145.438158599277
 30
0.0
 11
388.012645658883
 21
144.4384375583235
 31
0.0
 12
390.9999994604808
 22
145.0091540063772
 32
0.0
 13
390.9999994604808
 23
145.0091540063772
 33
0.0
  0
SOLID
  5
AC7A
330
AB8B
100
AcDbEntity
  8
0
 62
   115
100
AcDbTrace
 10
362.1179053353136
 20
137.4999628632305
 30
0.0
 11
361.6384991632398
 21
138.3775560048272
 31
0.0
 12
359.2454228244867
 22
136.5005409178075
 32
0.0
 13
359.2454228244867
 23
136.5005409178075
 33
0.0
  0
MTEXT
  5
AC7B
102
{ACAD_XDICTIONARY
360
B35A
102
}
330
AB8B
100
AcDbEntity
  8
0
 62
     7
100
AcDbMText
 10
373.9155734580341
 20
145.2599466729785
 30
0.0
 40
3.0
 41
0.0
 71
     5
 72
     1
  1
\A1;30\U+00B0
 11
0.9659258268749065
 21
0.258819042916143
 31
0.0
 73
     1
 44
1.0
1001
ACAD
1000
MTEXTBEGIN
1070
    73
1070
     1
1070
    44
1040
1.0
1070
    74
1070
     0
1000
MTEXTEND
  0
POINT
  5
AC7C
330
AB8B
100
AcDbEntity
  8
DEFPOINTS
 62
     0
100
AcDbPoint
 10
379.9717507375372
 20
144.0443072729599
 30
0.0
  0
POINT
  5
AC7D
330
AB8B
100
AcDbEntity
  8
DEFPOINTS
 62
     0
100
AcDbPoint
 10
366.3976366722824
 20
124.1125430173149
 30
0.0
  0
POINT
  5
AC7E
330
AB8B
100
AcDbEntity
  8
DEFPOINTS
 62
     0
100
AcDbPoint
 10
390.9999994604808
 20
32.00000064837076
 30
0.0
  0
POINT
  5
AC7F
330
AB8B
100
AcDbEntity
  8
DEFPOINTS
 62
     0
100
AcDbPoint
 10
390.9999994604808
 20
131.0000006483708
 30
0.0
  0
POINT
  5
AC80
330
AB8B
100
AcDbEntity
  8
DEFPOINTS
 62
     0
100
AcDbPoint
 10
381.198493695243
 20
98.47670638997005
 30
0.0
  0
ENDBLK
  5
AB8D
330
AB8B
100
AcDbEntity
  8
0
100
AcDbBlockEnd
  0
BLOCK
  5
AB9A
330
AB99
100
AcDbEntity
  8
0
100
AcDbBlockBegin
  2
*D11
 70
     1
 10
0.0
 20
0.0
 30
0.0
  3
*D11
  1

  0
LINE
  5
AC81
330
AB99
100
AcDbEntity
  8
0
 62
   115
370
    -2
100
AcDbLine
 10
379.9060564604807
 20
43.82889294837082
 30
0.0
 11
336.9999994604807
 21
43.82889294837083
 31
0.0
  0
LINE
  5
AC82
330
AB99
100
AcDbEntity
  8
0
 62
   115
370
    -2
100
AcDbLine
 10
379.9060564604807
 20
119.1711076483707
 30
0.0
 11
336.9999994604807
 21
119.1711076483707
 31
0.0
  0
LINE
  5
AC83
330
AB99
100
AcDbEntity
  8
0
 62
   115
370
    -2
100
AcDbLine
 10
337.9999994604807
 20
46.82889294837083
 30
0.0
 11
337.9999994604807
 21
116.1711076483707
 31
0.0
  0
SOLID
  5
AC84
330
AB99
100
AcDbEntity
  8
0
 62
   115
100
AcDbTrace
 10
337.4999994604807
 20
46.82889294837083
 30
0.0
 11
338.4999994604807
 21
46.82889294837083
 31
0.0
 12
337.9999994604807
 22
43.82889294837083
 32
0.0
 13
337.9999994604807
 23
43.82889294837083
 33
0.0
  0
SOLID
  5
AC85
330
AB99
100
AcDbEntity
  8
0
 62
   115
100
AcDbTrace
 10
337.4999994604807
 20
116.1711076483707
 30
0.0
 11
338.4999994604807
 21
116.1711076483707
 31
0.0
 12
337.9999994604807
 22
119.1711076483707
 32
0.0
 13
337.9999994604807
 23
119.1711076483707
 33
0.0
  0
MTEXT
  5
AC86
330
AB99
100
AcDbEntity
  8
0
 62
     7
100
AcDbMText
 10
334.7142851747664
 20
81.50000029837084
 30
0.0
 40
3.0
 41
0.0
 71
     5
 72
     1
  1
\A1;(75.34)
 11
0.0000000000000001
 21
1.0
 31
0.0
 73
     1
 44
1.0
1001
ACAD
1000
MTEXTBEGIN
1070
    73
1070
     1
1070
    44
1040
1.0
1070
    74
1070
     0
1000
MTEXTEND
  0
POINT
  5
AC87
330
AB99
100
AcDbEntity
  8
DEFPOINTS
 62
     0
100
AcDbPoint
 10
380.9060564604807
 20
43.82889294837082
 30
0.0
  0
POINT
  5
AC88
330
AB99
100
AcDbEntity
  8
DEFPOINTS
 62
     0
100
AcDbPoint
 10
380.9060564604807
 20
119.1711076483707
 30
0.0
  0
POINT
  5
AC89
330
AB99
100
AcDbEntity
  8
DEFPOINTS
 62
     0
100
AcDbPoint
 10
337.9999994604807
 20
119.1711076483707
 30
0.0
  0
ENDBLK
  5
AB9B
330
AB99
100
AcDbEntity
  8
0
100
AcDbBlockEnd
  0
BLOCK
  5
ABA6
330
ABA5
100
AcDbEntity
  8
0
100
AcDbBlockBegin
  2
*D12
 70
     1
 10
0.0
 20
0.0
 30
0.0
  3
*D12
  1

  0
LINE
  5
AD50
330
ABA5
100
AcDbEntity
  8
0
 62
   115
370
    -2
100
AcDbLine
 10
380.9060564604807
 20
42.82889294837082
 30
0.0
 11
380.9060564604807
 21
8.00000064837053
 31
0.0
  0
LINE
  5
AD51
330
ABA5
100
AcDbEntity
  8
0
 62
   115
370
    -2
100
AcDbLine
 10
401.0939420604808
 20
42.82889294837082
 30
0.0
 11
401.0939420604808
 21
8.00000064837053
 31
0.0
  0
LINE
  5
AD52
330
ABA5
100
AcDbEntity
  8
0
 62
   115
370
    -2
100
AcDbLine
 10
383.9060564604807
 20
9.00000064837053
 30
0.0
 11
398.0939420604808
 21
9.00000064837053
 31
0.0
  0
SOLID
  5
AD53
330
ABA5
100
AcDbEntity
  8
0
 62
   115
100
AcDbTrace
 10
383.9060564604807
 20
9.50000064837053
 30
0.0
 11
383.9060564604807
 21
8.50000064837053
 31
0.0
 12
380.9060564604807
 22
9.00000064837053
 32
0.0
 13
380.9060564604807
 23
9.00000064837053
 33
0.0
  0
SOLID
  5
AD54
330
ABA5
100
AcDbEntity
  8
0
 62
   115
100
AcDbTrace
 10
398.0939420604808
 20
9.50000064837053
 30
0.0
 11
398.0939420604808
 21
8.50000064837053
 31
0.0
 12
401.0939420604808
 22
9.00000064837053
 32
0.0
 13
401.0939420604808
 23
9.00000064837053
 33
0.0
  0
MTEXT
  5
AD55
330
ABA5
100
AcDbEntity
  8
0
 62
     7
100
AcDbMText
 10
390.9999992604808
 20
12.28571493408481
 30
0.0
 40
3.0
 41
0.0
 71
     5
 72
     1
  1
\A1;(20.19)
 73
     1
 44
1.0
1001
ACAD
1000
MTEXTBEGIN
1070
    73
1070
     1
1070
    44
1040
1.0
1070
    74
1070
     0
1000
MTEXTEND
  0
POINT
  5
AD56
330
ABA5
100
AcDbEntity
  8
DEFPOINTS
 62
     0
100
AcDbPoint
 10
380.9060564604807
 20
43.82889294837082
 30
0.0
  0
POINT
  5
AD57
330
ABA5
100
AcDbEntity
  8
DEFPOINTS
 62
     0
100
AcDbPoint
 10
401.0939420604808
 20
43.82889294837082
 30
0.0
  0
POINT
  5
AD58
330
ABA5
100
AcDbEntity
  8
DEFPOINTS
 62
     0
100
AcDbPoint
 10
401.0939420604808
 20
9.00000064837053
 30
0.0
  0
ENDBLK
  5
ABA7
330
ABA5
100
AcDbEntity
  8
0
100
AcDbBlockEnd
  0
BLOCK
  5
ABB2
330
ABB1
100
AcDbEntity
  8
0
100
AcDbBlockBegin
  2
*D13
 70
     1
 10
0.0
 20
0.0
 30
0.0
  3
*D13
  1

  0
LINE
  5
AC93
330
ABB1
100
AcDbEntity
  8
0
 62
   115
370
    -2
100
AcDbLine
 10
20.99999946048086
 20
63.15000064837079
 30
0.0
 11
10.99999946048068
 21
63.1500006483708
 31
0.0
  0
LINE
  5
AC94
330
ABB1
100
AcDbEntity
  8
0
 62
   115
370
    -2
100
AcDbLine
 10
20.99999946048086
 20
99.85000064837079
 30
0.0
 11
10.99999946048069
 21
99.85000064837079
 31
0.0
  0
LINE
  5
AC95
330
ABB1
100
AcDbEntity
  8
0
 62
   115
370
    -2
100
AcDbLine
 10
11.99999946048069
 20
66.15000064837079
 30
0.0
 11
11.99999946048069
 21
96.85000064837078
 31
0.0
  0
SOLID
  5
AC96
330
ABB1
100
AcDbEntity
  8
0
 62
   115
100
AcDbTrace
 10
11.49999946048068
 20
66.15000064837079
 30
0.0
 11
12.49999946048069
 21
66.15000064837079
 31
0.0
 12
11.99999946048069
 22
63.1500006483708
 32
0.0
 13
11.99999946048069
 23
63.1500006483708
 33
0.0
  0
SOLID
  5
AC97
330
ABB1
100
AcDbEntity
  8
0
 62
   115
100
AcDbTrace
 10
11.49999946048069
 20
96.85000064837078
 30
0.0
 11
12.49999946048069
 21
96.85000064837078
 31
0.0
 12
11.99999946048069
 22
99.85000064837079
 32
0.0
 13
11.99999946048069
 23
99.85000064837079
 33
0.0
  0
MTEXT
  5
AC98
330
ABB1
100
AcDbEntity
  8
0
 62
     7
100
AcDbMText
 10
9.499999460480678
 20
81.50000064837078
 30
0.0
 40
3.0
 41
0.0
 71
     5
 72
     1
  1
\A1;%%C36.7
 11
0.0000000000000001
 21
1.0
 31
0.0
 73
     1
 44
1.0
1001
ACAD
1000
MTEXTBEGIN
1070
    73
1070
     1
1070
    44
1040
1.0
1070
    74
1070
     0
1000
MTEXTEND
  0
POINT
  5
AC99
330
ABB1
100
AcDbEntity
  8
DEFPOINTS
 62
     0
100
AcDbPoint
 10
21.99999946048087
 20
63.15000064837079
 30
0.0
  0
POINT
  5
AC9A
330
ABB1
100
AcDbEntity
  8
DEFPOINTS
 62
     0
100
AcDbPoint
 10
21.99999946048087
 20
99.85000064837079
 30
0.0
  0
POINT
  5
AC9B
330
ABB1
100
AcDbEntity
  8
DEFPOINTS
 62
     0
100
AcDbPoint
 10
11.99999946048069
 20
99.85000064837079
 30
0.0
  0
ENDBLK
  5
ABB3
330
ABB1
100
AcDbEntity
  8
0
100
AcDbBlockEnd
  0
BLOCK
  5
ABBE
330
ABBD
100
AcDbEntity
  8
0
100
AcDbBlockBegin
  2
*D14
 70
     1
 10
0.0
 20
0.0
 30
0.0
  3
*D14
  1

  0
LINE
  5
AC9C
330
ABBD
100
AcDbEntity
  8
0
 62
   115
370
    -2
100
AcDbLine
 10
20.99999946048086
 20
61.7000006483708
 30
0.0
 11
2.999999460480672
 21
61.70000064837081
 31
0.0
  0
LINE
  5
AC9D
330
ABBD
100
AcDbEntity
  8
0
 62
   115
370
    -2
100
AcDbLine
 10
20.99999946048086
 20
101.3000006483708
 30
0.0
 11
2.999999460480681
 21
101.3000006483708
 31
0.0
  0
LINE
  5
AC9E
330
ABBD
100
AcDbEntity
  8
0
 62
   115
370
    -2
100
AcDbLine
 10
3.999999460480671
 20
64.7000006483708
 30
0.0
 11
3.999999460480679
 21
98.30000064837083
 31
0.0
  0
SOLID
  5
AC9F
330
ABBD
100
AcDbEntity
  8
0
 62
   115
100
AcDbTrace
 10
3.499999460480671
 20
64.7000006483708
 30
0.0
 11
4.499999460480671
 21
64.7000006483708
 31
0.0
 12
3.999999460480671
 22
61.70000064837081
 32
0.0
 13
3.999999460480671
 23
61.70000064837081
 33
0.0
  0
SOLID
  5
ACA0
330
ABBD
100
AcDbEntity
  8
0
 62
   115
100
AcDbTrace
 10
3.499999460480679
 20
98.30000064837083
 30
0.0
 11
4.499999460480679
 21
98.30000064837083
 31
0.0
 12
3.99999946048068
 22
101.3000006483708
 32
0.0
 13
3.99999946048068
 23
101.3000006483708
 33
0.0
  0
MTEXT
  5
ACA1
330
ABBD
100
AcDbEntity
  8
0
 62
     7
100
AcDbMText
 10
1.499999460480662
 20
81.50000064837081
 30
0.0
 40
3.0
 41
0.0
 71
     5
 72
     1
  1
\A1;%%C39.6
 11
0.0000000000000001
 21
1.0
 31
0.0
 73
     1
 44
1.0
1001
ACAD
1000
MTEXTBEGIN
1070
    73
1070
     1
1070
    44
1040
1.0
1070
    74
1070
     0
1000
MTEXTEND
  0
POINT
  5
ACA2
330
ABBD
100
AcDbEntity
  8
DEFPOINTS
 62
     0
100
AcDbPoint
 10
21.99999946048087
 20
61.7000006483708
 30
0.0
  0
POINT
  5
ACA3
330
ABBD
100
AcDbEntity
  8
DEFPOINTS
 62
     0
100
AcDbPoint
 10
21.99999946048087
 20
101.3000006483708
 30
0.0
  0
POINT
  5
ACA4
330
ABBD
100
AcDbEntity
  8
DEFPOINTS
 62
     0
100
AcDbPoint
 10
3.99999946048068
 20
101.3000006483708
 30
0.0
  0
ENDBLK
  5
ABBF
330
ABBD
100
AcDbEntity
  8
0
100
AcDbBlockEnd
  0
BLOCK
  5
ABCA
330
ABC9
100
AcDbEntity
  8
0
100
AcDbBlockBegin
  2
*D15
 70
     1
 10
0.0
 20
0.0
 30
0.0
  3
*D15
  1

  0
LINE
  5
B05B
330
ABC9
100
AcDbEntity
  8
0
 62
   115
370
    -2
100
AcDbLine
 10
138.9999993104808
 20
50.00001209837083
 30
0.0
 11
127.9999993104806
 21
50.00001209837083
 31
0.0
  0
LINE
  5
B05C
330
ABC9
100
AcDbEntity
  8
0
 62
   115
370
    -2
100
AcDbLine
 10
138.9999993104808
 20
113.0000042983709
 30
0.0
 11
127.9999993104807
 21
113.0000042983709
 31
0.0
  0
LINE
  5
B05D
330
ABC9
100
AcDbEntity
  8
0
 62
   115
370
    -2
100
AcDbLine
 10
128.9999993104806
 20
53.00001209837083
 30
0.0
 11
128.9999993104807
 21
110.0000042983709
 31
0.0
  0
SOLID
  5
B05E
330
ABC9
100
AcDbEntity
  8
0
 62
   115
100
AcDbTrace
 10
128.4999993104806
 20
53.00001209837083
 30
0.0
 11
129.4999993104806
 21
53.00001209837083
 31
0.0
 12
128.9999993104806
 22
50.00001209837083
 32
0.0
 13
128.9999993104806
 23
50.00001209837083
 33
0.0
  0
SOLID
  5
B05F
330
ABC9
100
AcDbEntity
  8
0
 62
   115
100
AcDbTrace
 10
128.4999993104807
 20
110.0000042983709
 30
0.0
 11
129.4999993104807
 21
110.0000042983709
 31
0.0
 12
128.9999993104807
 22
113.0000042983709
 32
0.0
 13
128.9999993104807
 23
113.0000042983709
 33
0.0
  0
MTEXT
  5
B060
330
ABC9
100
AcDbEntity
  8
0
 62
     7
100
AcDbMText
 10
125.7142850247664
 20
81.50000819837087
 30
0.0
 40
3.0
 41
0.0
 71
     5
 72
     1
  1
\A1;%%C63 g6 ({\H0.5x;\S-0.010^ -0.029;})
 11
0.0000000000000001
 21
1.0
 31
0.0
 73
     1
 44
1.0
1001
ACAD
1000
MTEXTBEGIN
1070
    73
1070
     1
1070
    44
1040
1.0
1070
    74
1070
     0
1000
MTEXTEND
  0
POINT
  5
B061
330
ABC9
100
AcDbEntity
  8
DEFPOINTS
 62
     0
100
AcDbPoint
 10
139.9999993104808
 20
50.00001209837083
 30
0.0
  0
POINT
  5
B062
330
ABC9
100
AcDbEntity
  8
DEFPOINTS
 62
     0
100
AcDbPoint
 10
139.9999993104808
 20
113.0000042983709
 30
0.0
  0
POINT
  5
B063
330
ABC9
100
AcDbEntity
  8
DEFPOINTS
 62
     0
100
AcDbPoint
 10
128.9999993104807
 20
113.0000042983709
 30
0.0
  0
ENDBLK
  5
ABCB
330
ABC9
100
AcDbEntity
  8
0
100
AcDbBlockEnd
  0
BLOCK
  5
ABD6
330
ABD5
100
AcDbEntity
  8
0
100
AcDbBlockBegin
  2
*D16
 70
     1
 10
0.0
 20
0.0
 30
0.0
  3
*D16
  1

  0
LINE
  5
AF7C
330
ABD5
100
AcDbEntity
  8
0
 62
   115
370
    -2
100
AcDbLine
 10
184.0000056104808
 20
35.00000064837076
 30
0.0
 11
184.0000056104808
 21
24.50000064837079
 31
0.0
  0
LINE
  5
AF7D
330
ABD5
100
AcDbEntity
  8
0
 62
   115
370
    -2
100
AcDbLine
 10
138.9999993104808
 20
50.00001209837083
 30
0.0
 11
138.9999993104808
 21
24.50000064837079
 31
0.0
  0
LINE
  5
AF7E
330
ABD5
100
AcDbEntity
  8
0
 62
   115
370
    -2
100
AcDbLine
 10
181.0000056104808
 20
25.50000064837079
 30
0.0
 11
141.9999993104808
 21
25.50000064837079
 31
0.0
  0
SOLID
  5
AF7F
330
ABD5
100
AcDbEntity
  8
0
 62
   115
100
AcDbTrace
 10
181.0000056104808
 20
26.00000064837079
 30
0.0
 11
181.0000056104808
 21
25.00000064837079
 31
0.0
 12
184.0000056104808
 22
25.50000064837079
 32
0.0
 13
184.0000056104808
 23
25.50000064837079
 33
0.0
  0
SOLID
  5
AF80
330
ABD5
100
AcDbEntity
  8
0
 62
   115
100
AcDbTrace
 10
141.9999993104808
 20
26.00000064837079
 30
0.0
 11
141.9999993104808
 21
25.00000064837079
 31
0.0
 12
138.9999993104808
 22
25.50000064837079
 32
0.0
 13
138.9999993104808
 23
25.50000064837079
 33
0.0
  0
MTEXT
  5
AF81
330
ABD5
100
AcDbEntity
  8
0
 62
     7
100
AcDbMText
 10
161.5000024604808
 20
28.00000064837078
 30
0.0
 40
3.0
 41
0.0
 71
     5
 72
     1
  1
\A1;45
 73
     1
 44
1.0
1001
ACAD
1000
MTEXTBEGIN
1070
    73
1070
     1
1070
    44
1040
1.0
1070
    74
1070
     0
1000
MTEXTEND
  0
POINT
  5
AF82
330
ABD5
100
AcDbEntity
  8
DEFPOINTS
 62
     0
100
AcDbPoint
 10
184.0000056104808
 20
36.00000064837076
 30
0.0
  0
POINT
  5
AF83
330
ABD5
100
AcDbEntity
  8
DEFPOINTS
 62
     0
100
AcDbPoint
 10
138.9999993104808
 20
51.00001209837083
 30
0.0
  0
POINT
  5
AF84
330
ABD5
100
AcDbEntity
  8
DEFPOINTS
 62
     0
100
AcDbPoint
 10
138.9999993104808
 20
25.50000064837079
 30
0.0
  0
ENDBLK
  5
ABD7
330
ABD5
100
AcDbEntity
  8
0
100
AcDbBlockEnd
  0
BLOCK
  5
ABE2
330
ABE1
100
AcDbEntity
  8
0
100
AcDbBlockBegin
  2
*D17
 70
     1
 10
0.0
 20
0.0
 30
0.0
  3
*D17
  1

  0
LINE
  5
AF68
330
ABE1
100
AcDbEntity
  8
0
 62
   115
370
    -2
100
AcDbLine
 10
184.0000056104808
 20
35.00000064837076
 30
0.0
 11
184.0000056104808
 21
24.50000064837079
 31
0.0
  0
LINE
  5
AF69
330
ABE1
100
AcDbEntity
  8
0
 62
   115
370
    -2
100
AcDbLine
 10
198.0000056104808
 20
35.00000064837081
 30
0.0
 11
198.0000056104808
 21
24.50000064837079
 31
0.0
  0
LINE
  5
AF6A
330
ABE1
100
AcDbEntity
  8
0
 62
   115
370
    -2
100
AcDbLine
 10
187.0000056104808
 20
25.50000064837079
 30
0.0
 11
195.0000056104808
 21
25.50000064837079
 31
0.0
  0
SOLID
  5
AF6B
330
ABE1
100
AcDbEntity
  8
0
 62
   115
100
AcDbTrace
 10
187.0000056104808
 20
26.00000064837079
 30
0.0
 11
187.0000056104808
 21
25.00000064837079
 31
0.0
 12
184.0000056104808
 22
25.50000064837079
 32
0.0
 13
184.0000056104808
 23
25.50000064837079
 33
0.0
  0
SOLID
  5
AF6C
330
ABE1
100
AcDbEntity
  8
0
 62
   115
100
AcDbTrace
 10
195.0000056104808
 20
26.00000064837079
 30
0.0
 11
195.0000056104808
 21
25.00000064837079
 31
0.0
 12
198.0000056104808
 22
25.50000064837079
 32
0.0
 13
198.0000056104808
 23
25.50000064837079
 33
0.0
  0
MTEXT
  5
AF6D
330
ABE1
100
AcDbEntity
  8
0
 62
     7
100
AcDbMText
 10
191.0000056104808
 20
28.00000064837078
 30
0.0
 40
3.0
 41
0.0
 71
     5
 72
     1
  1
\A1;14
 73
     1
 44
1.0
1001
ACAD
1000
MTEXTBEGIN
1070
    73
1070
     1
1070
    44
1040
1.0
1070
    74
1070
     0
1000
MTEXTEND
  0
POINT
  5
AF6E
330
ABE1
100
AcDbEntity
  8
DEFPOINTS
 62
     0
100
AcDbPoint
 10
184.0000056104808
 20
36.00000064837076
 30
0.0
  0
POINT
  5
AF6F
330
ABE1
100
AcDbEntity
  8
DEFPOINTS
 62
     0
100
AcDbPoint
 10
198.0000056104808
 20
36.00000064837082
 30
0.0
  0
POINT
  5
AF70
330
ABE1
100
AcDbEntity
  8
DEFPOINTS
 62
     0
100
AcDbPoint
 10
198.0000056104808
 20
25.50000064837079
 30
0.0
  0
ENDBLK
  5
ABE3
330
ABE1
100
AcDbEntity
  8
0
100
AcDbBlockEnd
  0
BLOCK
  5
ABEE
330
ABED
100
AcDbEntity
  8
0
100
AcDbBlockBegin
  2
*D18
 70
     1
 10
0.0
 20
0.0
 30
0.0
  3
*D18
  1

  0
LINE
  5
AF90
330
ABED
100
AcDbEntity
  8
0
 62
   115
370
    -2
100
AcDbLine
 10
138.9999993104808
 20
50.00001209837083
 30
0.0
 11
138.9999993104808
 21
16.00000064837081
 31
0.0
  0
LINE
  5
AF91
330
ABED
100
AcDbEntity
  8
0
 62
   115
370
    -2
100
AcDbLine
 10
204.9999996104808
 20
50.00001209837083
 30
0.0
 11
204.9999996104808
 21
16.00000064837081
 31
0.0
  0
LINE
  5
AF92
330
ABED
100
AcDbEntity
  8
0
 62
   115
370
    -2
100
AcDbLine
 10
141.9999993104808
 20
17.00000064837081
 30
0.0
 11
201.9999996104809
 21
17.00000064837081
 31
0.0
  0
SOLID
  5
AF93
330
ABED
100
AcDbEntity
  8
0
 62
   115
100
AcDbTrace
 10
141.9999993104808
 20
17.50000064837081
 30
0.0
 11
141.9999993104808
 21
16.50000064837081
 31
0.0
 12
138.9999993104808
 22
17.00000064837081
 32
0.0
 13
138.9999993104808
 23
17.00000064837081
 33
0.0
  0
SOLID
  5
AF94
330
ABED
100
AcDbEntity
  8
0
 62
   115
100
AcDbTrace
 10
201.9999996104809
 20
17.50000064837081
 30
0.0
 11
201.9999996104809
 21
16.50000064837081
 31
0.0
 12
204.9999996104808
 22
17.00000064837081
 32
0.0
 13
204.9999996104808
 23
17.00000064837081
 33
0.0
  0
MTEXT
  5
AF95
330
ABED
100
AcDbEntity
  8
0
 62
     7
100
AcDbMText
 10
171.9999994604808
 20
19.50000064837081
 30
0.0
 40
3.0
 41
0.0
 71
     5
 72
     1
  1
\A1;66
 73
     1
 44
1.0
1001
ACAD
1000
MTEXTBEGIN
1070
    73
1070
     1
1070
    44
1040
1.0
1070
    74
1070
     0
1000
MTEXTEND
  0
POINT
  5
AF96
330
ABED
100
AcDbEntity
  8
DEFPOINTS
 62
     0
100
AcDbPoint
 10
138.9999993104808
 20
51.00001209837083
 30
0.0
  0
POINT
  5
AF97
330
ABED
100
AcDbEntity
  8
DEFPOINTS
 62
     0
100
AcDbPoint
 10
204.9999996104808
 20
51.00001209837083
 30
0.0
  0
POINT
  5
AF98
330
ABED
100
AcDbEntity
  8
DEFPOINTS
 62
     0
100
AcDbPoint
 10
204.9999996104808
 20
17.00000064837081
 30
0.0
  0
ENDBLK
  5
ABEF
330
ABED
100
AcDbEntity
  8
0
100
AcDbBlockEnd
  0
BLOCK
  5
ABFA
330
ABF9
100
AcDbEntity
  8
0
100
AcDbBlockBegin
  2
*D19
 70
     1
 10
0.0
 20
0.0
 30
0.0
  3
*D19
  1

  0
LINE
  5
AD3E
330
ABF9
100
AcDbEntity
  8
0
 62
   115
370
    -2
100
AcDbLine
 10
355.9999994604808
 20
49.88546161868748
 30
0.0
 11
355.9999994604808
 21
-7.999999351629355
 31
0.0
  0
LINE
  5
AD3F
330
ABF9
100
AcDbEntity
  8
0
 62
   115
370
    -2
100
AcDbLine
 10
425.9999994604807
 20
49.88546161868754
 30
0.0
 11
425.9999994604807
 21
-7.999999351629355
 31
0.0
  0
LINE
  5
AD40
330
ABF9
100
AcDbEntity
  8
0
 62
   115
370
    -2
100
AcDbLine
 10
358.9999994604808
 20
-6.999999351629355
 30
0.0
 11
422.9999994604808
 21
-6.999999351629355
 31
0.0
  0
SOLID
  5
AD41
330
ABF9
100
AcDbEntity
  8
0
 62
   115
100
AcDbTrace
 10
358.9999994604808
 20
-6.499999351629355
 30
0.0
 11
358.9999994604808
 21
-7.499999351629355
 31
0.0
 12
355.9999994604808
 22
-6.999999351629355
 32
0.0
 13
355.9999994604808
 23
-6.999999351629355
 33
0.0
  0
SOLID
  5
AD42
330
ABF9
100
AcDbEntity
  8
0
 62
   115
100
AcDbTrace
 10
422.9999994604808
 20
-6.499999351629355
 30
0.0
 11
422.9999994604808
 21
-7.499999351629355
 31
0.0
 12
425.9999994604807
 22
-6.999999351629355
 32
0.0
 13
425.9999994604807
 23
-6.999999351629355
 33
0.0
  0
MTEXT
  5
AD43
330
ABF9
100
AcDbEntity
  8
0
 62
     7
100
AcDbMText
 10
390.9999994604808
 20
-4.499999351629355
 30
0.0
 40
3.0
 41
0.0
 71
     5
 72
     1
  1
\A1;70
 73
     1
 44
1.0
1001
ACAD
1000
MTEXTBEGIN
1070
    73
1070
     1
1070
    44
1040
1.0
1070
    74
1070
     0
1000
MTEXTEND
  0
POINT
  5
AD44
330
ABF9
100
AcDbEntity
  8
DEFPOINTS
 62
     0
100
AcDbPoint
 10
355.9999994604808
 20
50.88546161868748
 30
0.0
  0
POINT
  5
AD45
330
ABF9
100
AcDbEntity
  8
DEFPOINTS
 62
     0
100
AcDbPoint
 10
425.9999994604807
 20
50.88546161868754
 30
0.0
  0
POINT
  5
AD46
330
ABF9
100
AcDbEntity
  8
DEFPOINTS
 62
     0
100
AcDbPoint
 10
425.9999994604807
 20
-6.999999351629355
 30
0.0
  0
ENDBLK
  5
ABFB
330
ABF9
100
AcDbEntity
  8
0
100
AcDbBlockEnd
  0
BLOCK
  5
AC06
330
AC05
100
AcDbEntity
  8
0
100
AcDbBlockBegin
  2
*D20
 70
     1
 10
0.0
 20
0.0
 30
0.0
  3
*D20
  1

  0
LINE
  5
ADCC
330
AC05
100
AcDbEntity
  8
0
 62
   115
370
    -2
100
AcDbLine
 10
378.7060955198617
 20
35.61852259907093
 30
0.0
 11
376.1179055532618
 21
25.95926531891447
 31
0.0
  0
LINE
  5
ADCD
330
AC05
100
AcDbEntity
  8
0
 62
   115
370
    -2
100
AcDbLine
 10
403.2939034010999
 20
35.61852259907093
 30
0.0
 11
405.8820933676997
 21
25.95926531891446
 31
0.0
  0
ARC
  5
ADCE
330
AC05
100
AcDbEntity
  8
0
 62
   115
370
    -2
100
AcDbCircle
 10
390.9999994604808
 20
81.50000064837042
 30
0.0
 40
56.49999999999966
100
AcDbArc
 50
258.0426124961566
 51
281.9573875038433
  0
SOLID
  5
ADCF
330
AC05
100
AcDbEntity
  8
0
 62
   115
100
AcDbTrace
 10
379.1775527007045
 20
25.73971157453233
 30
0.0
 11
379.4106364485003
 21
26.71216824015473
 31
0.0
 12
376.3767245777352
 22
26.9251911507311
 32
0.0
 13
376.3767245777352
 23
26.9251911507311
 33
0.0
  0
SOLID
  5
ADD0
330
AC05
100
AcDbEntity
  8
0
 62
   115
100
AcDbTrace
 10
402.5893624724613
 20
26.71216824015473
 30
0.0
 11
402.8224462202571
 21
25.73971157453233
 31
0.0
 12
405.6232743432263
 22
26.92519115073109
 32
0.0
 13
405.6232743432263
 23
26.92519115073109
 33
0.0
  0
MTEXT
  5
ADD1
102
{ACAD_XDICTIONARY
360
B35C
102
}
330
AC05
100
AcDbEntity
  8
0
 62
     7
100
AcDbMText
 10
390.9999994604808
 20
27.50000064837076
 30
0.0
 40
3.0
 41
0.0
 71
     5
 72
     1
  1
\A1;30\U+00B0
 73
     1
 44
1.0
1001
ACAD
1000
MTEXTBEGIN
1070
    73
1070
     1
1070
    44
1040
1.0
1070
    74
1070
     0
1000
MTEXTEND
  0
POINT
  5
ADD2
330
AC05
100
AcDbEntity
  8
DEFPOINTS
 62
     0
100
AcDbPoint
 10
386.0757003959285
 20
25.21500017113127
 30
0.0
  0
POINT
  5
ADD3
330
AC05
100
AcDbEntity
  8
DEFPOINTS
 62
     0
100
AcDbPoint
 10
378.9649145443351
 20
36.58444843088756
 30
0.0
  0
POINT
  5
ADD4
330
AC05
100
AcDbEntity
  8
DEFPOINTS
 62
     0
100
AcDbPoint
 10
403.0350843766265
 20
36.58444843088756
 30
0.0
  0
POINT
  5
ADD5
330
AC05
100
AcDbEntity
  8
DEFPOINTS
 62
     0
100
AcDbPoint
 10
399.1527990095259
 20
51.07333590813704
 30
0.0
  0
POINT
  5
ADD6
330
AC05
100
AcDbEntity
  8
DEFPOINTS
 62
     0
100
AcDbPoint
 10
382.8471999114357
 20
51.07333590813704
 30
0.0
  0
ENDBLK
  5
AC07
330
AC05
100
AcDbEntity
  8
0
100
AcDbBlockEnd
  0
BLOCK
  5
AC14
330
AC13
100
AcDbEntity
  8
0
100
AcDbBlockBegin
  2
*D21
 70
     1
 10
0.0
 20
0.0
 30
0.0
  3
*D21
  1

  0
LINE
  5
ACDD
330
AC13
100
AcDbEntity
  8
0
 62
   115
370
    -2
100
AcDbLine
 10
362.4228344604808
 20
53.92283574837086
 30
0.0
 11
344.9999994604807
 21
53.92283574837086
 31
0.0
  0
LINE
  5
ACDE
330
AC13
100
AcDbEntity
  8
0
 62
   115
370
    -2
100
AcDbLine
 10
362.4228344604808
 20
109.0771646483708
 30
0.0
 11
344.9999994604807
 21
109.0771646483708
 31
0.0
  0
LINE
  5
ACDF
330
AC13
100
AcDbEntity
  8
0
 62
   115
370
    -2
100
AcDbLine
 10
345.9999994604807
 20
56.92283574837086
 30
0.0
 11
345.9999994604807
 21
106.0771646483708
 31
0.0
  0
SOLID
  5
ACE0
330
AC13
100
AcDbEntity
  8
0
 62
   115
100
AcDbTrace
 10
345.4999994604807
 20
56.92283574837086
 30
0.0
 11
346.4999994604807
 21
56.92283574837086
 31
0.0
 12
345.9999994604807
 22
53.92283574837086
 32
0.0
 13
345.9999994604807
 23
53.92283574837086
 33
0.0
  0
SOLID
  5
ACE1
330
AC13
100
AcDbEntity
  8
0
 62
   115
100
AcDbTrace
 10
345.4999994604807
 20
106.0771646483708
 30
0.0
 11
346.4999994604807
 21
106.0771646483708
 31
0.0
 12
345.9999994604807
 22
109.0771646483708
 32
0.0
 13
345.9999994604807
 23
109.0771646483708
 33
0.0
  0
MTEXT
  5
ACE2
330
AC13
100
AcDbEntity
  8
0
 62
     7
100
AcDbMText
 10
342.7142851747664
 20
81.5000001983709
 30
0.0
 40
3.0
 41
0.0
 71
     5
 72
     1
  1
\A1;(55.15)
 11
0.0000000000000001
 21
1.0
 31
0.0
 73
     1
 44
1.0
1001
ACAD
1000
MTEXTBEGIN
1070
    73
1070
     1
1070
    44
1040
1.0
1070
    74
1070
     0
1000
MTEXTEND
  0
POINT
  5
ACE3
330
AC13
100
AcDbEntity
  8
DEFPOINTS
 62
     0
100
AcDbPoint
 10
363.4228344604808
 20
53.92283574837086
 30
0.0
  0
POINT
  5
ACE4
330
AC13
100
AcDbEntity
  8
DEFPOINTS
 62
     0
100
AcDbPoint
 10
363.4228344604808
 20
109.0771646483708
 30
0.0
  0
POINT
  5
ACE5
330
AC13
100
AcDbEntity
  8
DEFPOINTS
 62
     0
100
AcDbPoint
 10
345.9999994604807
 20
109.0771646483708
 30
0.0
  0
ENDBLK
  5
AC15
330
AC13
100
AcDbEntity
  8
0
100
AcDbBlockEnd
  0
BLOCK
  5
AD5B
330
AD5A
100
AcDbEntity
  8
0
100
AcDbBlockBegin
  2
*D22
 70
     1
 10
0.0
 20
0.0
 30
0.0
  3
*D22
  1

  0
LINE
  5
ADD7
330
AD5A
100
AcDbEntity
  8
0
 62
   115
370
    -2
100
AcDbLine
 10
357.4124273453384
 20
47.9124270310394
 30
0.0
 11
344.6845063284816
 21
35.18450544493215
 31
0.0
  0
LINE
  5
ADD8
330
AD5A
100
AcDbEntity
  8
0
 62
   115
370
    -2
100
AcDbLine
 10
424.5875715756232
 20
47.9124270310394
 30
0.0
 11
437.31549259248
 21
35.18450544493211
 31
0.0
  0
ARC
  5
ADD9
330
AD5A
100
AcDbEntity
  8
0
 62
   115
370
    -2
100
AcDbCircle
 10
390.9999994604808
 20
81.50000064837097
 30
0.0
 40
64.50000000000023
100
AcDbArc
 50
227.6651615298227
 51
312.3348384701773
  0
SOLID
  5
ADDA
330
AD5A
100
AcDbEntity
  8
0
 62
   115
100
AcDbTrace
 10
347.2164572064514
 20
33.45851874501729
 30
0.0
 11
347.9069283885534
 21
34.18187864623286
 31
0.0
 12
345.3916130938556
 22
35.89161224193121
 32
0.0
 13
345.3916130938556
 23
35.89161224193121
 33
0.0
  0
SOLID
  5
ADDB
330
AD5A
100
AcDbEntity
  8
0
 62
   115
100
AcDbTrace
 10
434.0930705324081
 20
34.18187864623283
 30
0.0
 11
434.7835417145102
 21
33.45851874501725
 31
0.0
 12
436.608385827106
 22
35.89161224193117
 32
0.0
 13
436.608385827106
 23
35.89161224193117
 33
0.0
  0
MTEXT
  5
ADDC
102
{ACAD_XDICTIONARY
360
B35E
102
}
330
AD5A
100
AcDbEntity
  8
0
 62
     7
100
AcDbMText
 10
390.9999994604808
 20
19.50000064837074
 30
0.0
 40
3.0
 41
0.0
 71
     5
 72
     1
  1
\A1;90\U+00B0
 73
     1
 44
1.0
1001
ACAD
1000
MTEXTBEGIN
1070
    73
1070
     1
1070
    44
1040
1.0
1070
    74
1070
     0
1000
MTEXTEND
  0
POINT
  5
ADDD
330
AD5A
100
AcDbEntity
  8
DEFPOINTS
 62
     0
100
AcDbPoint
 10
374.3061715157746
 20
19.19778472828852
 30
0.0
  0
POINT
  5
ADDE
330
AD5A
100
AcDbEntity
  8
DEFPOINTS
 62
     0
100
AcDbPoint
 10
358.1195341107124
 20
48.61953382803847
 30
0.0
  0
POINT
  5
ADDF
330
AD5A
100
AcDbEntity
  8
DEFPOINTS
 62
     0
100
AcDbPoint
 10
423.8804648102492
 20
48.61953382803847
 30
0.0
  0
POINT
  5
ADE0
330
AD5A
100
AcDbEntity
  8
DEFPOINTS
 62
     0
100
AcDbPoint
 10
413.2738633296387
 20
59.22613578302446
 30
0.0
  0
POINT
  5
ADE1
330
AD5A
100
AcDbEntity
  8
DEFPOINTS
 62
     0
100
AcDbPoint
 10
368.7261355913229
 20
59.22613578302446
 30
0.0
  0
ENDBLK
  5
AD5C
330
AD5A
100
AcDbEntity
  8
0
100
AcDbBlockEnd
  0
BLOCK
  5
AE9E
330
AE9D
100
AcDbEntity
  8
0
100
AcDbBlockBegin
  2
SDK4005
 70
     0
 10
0.0
 20
0.0
 30
0.0
  3
SDK4005
  1

  0
TEXT
  5
B208
330
AE9D
100
AcDbEntity
  8
0
100
AcDbText
 10
148.5252035597063
 20
179.5000014983709
 30
0.0
 40
4.0
  1
SDK4005
 72
     4
 11
162.0490130835159
 21
181.5000014983709
 31
0.0
100
AcDbText
  0
LINE
  5
B209
330
AE9D
100
AcDbEntity
  8
0
100
AcDbLine
 10
185.0000056104807
 20
228.0000006483708
 30
0.0
 11
185.0000056104808
 21
212.1145396780541
 31
0.0
  0
LINE
  5
B20A
330
AE9D
100
AcDbEntity
  8
0
100
AcDbLine
 10
185.0000056104808
 20
150.8854616186875
 30
0.0
 11
185.0000056104808
 21
135.0000006483707
 31
0.0
  0
LINE
  5
B20B
330
AE9D
100
AcDbEntity
  8
0
100
AcDbLine
 10
184.0000056104807
 20
227.0000006483708
 30
0.0
 11
184.0000056104808
 21
136.0000006483707
 31
0.0
  0
LINE
  5
B20C
330
AE9D
100
AcDbEntity
  8
0
100
AcDbLine
 10
185.0000056104807
 20
228.0000006483708
 30
0.0
 11
184.0000056104807
 21
227.0000006483708
 31
0.0
  0
LINE
  5
B20D
330
AE9D
100
AcDbEntity
  8
0
100
AcDbLine
 10
185.0000056104808
 20
135.0000006483707
 30
0.0
 11
184.0000056104808
 21
136.0000006483707
 31
0.0
  0
LINE
  5
B20E
330
AE9D
100
AcDbEntity
  8
0
100
AcDbLine
 10
139.9999993104808
 20
150.0000120983708
 30
0.0
 11
139.9999993104808
 21
213.0000042983709
 31
0.0
  0
LINE
  5
B20F
330
AE9D
100
AcDbEntity
  8
0
100
AcDbLine
 10
203.9999996104809
 20
150.0000120983708
 30
0.0
 11
203.9999996104809
 21
213.0000042983708
 31
0.0
  0
LINE
  5
B210
330
AE9D
100
AcDbEntity
  8
0
100
AcDbLine
 10
198.0000056104808
 20
227.0000006483709
 30
0.0
 11
198.0000056104808
 21
136.0000006483708
 31
0.0
  0
LINE
  5
B211
330
AE9D
100
AcDbEntity
  8
0
100
AcDbLine
 10
197.0000056104808
 20
135.0000006483708
 30
0.0
 11
198.0000056104808
 21
136.0000006483708
 31
0.0
  0
LINE
  5
B212
330
AE9D
100
AcDbEntity
  8
0
100
AcDbLine
 10
197.0000056104808
 20
135.0000006483708
 30
0.0
 11
197.0000056104808
 21
150.8854616186876
 31
0.0
  0
LINE
  5
B213
330
AE9D
100
AcDbEntity
  8
0
100
AcDbLine
 10
197.0000056104808
 20
212.1145396780542
 30
0.0
 11
197.0000056104808
 21
228.0000006483708
 31
0.0
  0
LINE
  5
B214
330
AE9D
100
AcDbEntity
  8
0
100
AcDbLine
 10
138.9999993104808
 20
212.0000042983709
 30
0.0
 11
138.9999993104808
 21
151.0000120983708
 31
0.0
  0
LINE
  5
B215
330
AE9D
100
AcDbEntity
  8
0
100
AcDbLine
 10
139.9999993104808
 20
150.0000120983708
 30
0.0
 11
138.9999993104808
 21
151.0000120983708
 31
0.0
  0
LINE
  5
B216
330
AE9D
100
AcDbEntity
  8
0
100
AcDbLine
 10
139.9999993104808
 20
150.0000120983708
 30
0.0
 11
183.9999996104809
 21
150.0000120983708
 31
0.0
  0
LINE
  5
B217
330
AE9D
100
AcDbEntity
  8
0
100
AcDbLine
 10
185.0000056104808
 20
135.0000006483707
 30
0.0
 11
197.0000056104808
 21
135.0000006483708
 31
0.0
  0
LINE
  5
B218
330
AE9D
100
AcDbEntity
  8
0
100
AcDbLine
 10
197.9999996104808
 20
150.0000120983708
 30
0.0
 11
203.9999996104809
 21
150.0000120983708
 31
0.0
  0
LINE
  5
B219
330
AE9D
100
AcDbEntity
  8
0
100
AcDbLine
 10
204.9999996104808
 20
151.0000120983708
 30
0.0
 11
204.9999996104809
 21
212.0000042983708
 31
0.0
  0
LINE
  5
B21A
330
AE9D
100
AcDbEntity
  8
0
100
AcDbLine
 10
203.9999996104809
 20
150.0000120983708
 30
0.0
 11
204.9999996104808
 21
151.0000120983708
 31
0.0
  0
LINE
  5
B21B
330
AE9D
100
AcDbEntity
  8
0
100
AcDbLine
 10
203.9999996104809
 20
213.0000042983708
 30
0.0
 11
204.9999996104809
 21
212.0000042983708
 31
0.0
  0
LINE
  5
B21C
330
AE9D
100
AcDbEntity
  8
0
100
AcDbLine
 10
203.9999996104809
 20
213.0000042983708
 30
0.0
 11
197.9999996104808
 21
213.0000042983709
 31
0.0
  0
LINE
  5
B21D
330
AE9D
100
AcDbEntity
  8
0
100
AcDbLine
 10
197.0000056104808
 20
228.0000006483708
 30
0.0
 11
185.0000056104807
 21
228.0000006483708
 31
0.0
  0
LINE
  5
B21E
330
AE9D
100
AcDbEntity
  8
0
100
AcDbLine
 10
198.0000056104808
 20
227.0000006483709
 30
0.0
 11
197.0000056104808
 21
228.0000006483708
 31
0.0
  0
LINE
  5
B21F
330
AE9D
100
AcDbEntity
  8
0
100
AcDbLine
 10
183.9999996104809
 20
213.0000042983709
 30
0.0
 11
139.9999993104808
 21
213.0000042983709
 31
0.0
  0
LINE
  5
B220
330
AE9D
100
AcDbEntity
  8
0
100
AcDbLine
 10
138.9999993104808
 20
212.0000042983709
 30
0.0
 11
139.9999993104808
 21
213.0000042983709
 31
0.0
  0
LINE
  5
B221
330
AE9D
100
AcDbEntity
  8
0
100
AcDbLine
 10
184.0000056104808
 20
150.8854616186876
 30
0.0
 11
198.0000056104808
 21
150.8854616186876
 31
0.0
  0
LINE
  5
B222
330
AE9D
100
AcDbEntity
  8
0
100
AcDbLine
 10
184.0000056104808
 20
212.1145396780542
 30
0.0
 11
198.0000056104808
 21
212.1145396780542
 31
0.0
  0
LINE
  5
B223
330
AE9D
100
AcDbEntity
  8
9
100
AcDbLine
 10
184.0000056104808
 20
150.8854616186876
 30
0.0
 11
198.0000056104808
 21
212.1145396780542
 31
0.0
  0
LINE
  5
B224
330
AE9D
100
AcDbEntity
  8
9
100
AcDbLine
 10
184.0000056104808
 20
212.1145396780542
 30
0.0
 11
198.0000056104808
 21
150.8854616186876
 31
0.0
  0
LINE
  5
B225
330
AE9D
100
AcDbEntity
  8
2
100
AcDbLine
 10
138.9999993104808
 20
201.3000006483708
 30
0.0
 11
204.9999996104808
 21
201.3000006483708
 31
0.0
  0
LINE
  5
B226
330
AE9D
100
AcDbEntity
  8
2
100
AcDbLine
 10
138.9999993104808
 20
161.7000006483708
 30
0.0
 11
204.9999996104808
 21
161.7000006483708
 31
0.0
  0
LWPOLYLINE
  5
B227
330
AE9D
100
AcDbEntity
  8
0
100
AcDbPolyline
 90
       35
 70
   128
 43
0.0
 10
191.0000056104807
 20
219.2040006483708
 10
191.6247539710571
 20
219.2329463789082
 10
192.228227275517
 20
219.3187978583834
 10
192.7898749642637
 20
219.4586315176305
 10
193.290570798879
 20
219.6476854890957
 10
193.7132641832336
 20
219.879521766526
 10
194.043560801088
 20
220.1462454435507
 10
194.2702127972683
 20
220.4387735652483
 10
194.3855018098839
 20
220.7471444372832
 10
194.3855018098839
 20
221.0608568594584
 10
194.2702127972683
 20
221.3692277314933
 10
194.043560801088
 20
221.6617558531909
 10
193.7132641832336
 20
221.9284795302156
 10
193.290570798879
 20
222.1603158076459
 10
192.7898749642637
 20
222.3493697791111
 10
192.228227275517
 20
222.4892034383582
 10
191.6247539710571
 20
222.5750549178334
 10
191.0000056104807
 20
222.6040006483708
 10
190.3752572499044
 20
222.5750549178334
 10
189.7717839454444
 20
222.4892034383582
 10
189.2101362566977
 20
222.3493697791111
 10
188.7094404220824
 20
222.1603158076459
 10
188.286747037728
 20
221.9284795302155
 10
187.9564504198736
 20
221.6617558531909
 10
187.7297984236932
 20
221.3692277314933
 10
187.6145094110776
 20
221.0608568594584
 10
187.6145094110776
 20
220.7471444372832
 10
187.7297984236932
 20
220.4387735652483
 10
187.9564504198736
 20
220.1462454435507
 10
188.286747037728
 20
219.879521766526
 10
188.7094404220825
 20
219.6476854890957
 10
189.2101362566979
 20
219.4586315176305
 10
189.7717839454445
 20
219.3187978583834
 10
190.3752572499045
 20
219.2329463789082
 10
191.0000056104807
 20
219.2040006483708
  0
LWPOLYLINE
  5
B228
330
AE9D
100
AcDbEntity
  8
9
100
AcDbPolyline
 90
        9
 70
   128
 43
0.0
 10
195.0000056104808
 20
220.9040006483708
 10
194.6955237405259
 20
220.1386337836407
 10
193.828432735227
 20
219.4897870859977
 10
192.5307393399412
 20
219.0562415833483
 10
191.0000056104808
 20
218.9040006483708
 10
189.4692718810204
 20
219.0562415833483
 10
188.1715784857346
 20
219.4897870859978
 10
187.3044874804357
 20
220.1386337836407
 10
187.0000056104808
 20
220.9040006483708
  0
LWPOLYLINE
  5
B229
330
AE9D
100
AcDbEntity
  8
9
100
AcDbPolyline
 90
        5
 70
   128
 43
0.0
 10
191.0000056104808
 20
222.9040006483708
 10
192.5307393399412
 20
222.7517597133934
 10
193.828432735227
 20
222.3182142107439
 10
194.6955237405259
 20
221.669367513101
 10
195.0000056104808
 20
220.9040006483708
  0
ENDBLK
  5
AE9F
330
AE9D
100
AcDbEntity
  8
0
100
AcDbBlockEnd
  0
ENDSEC
  0
SECTION
  2
ENTITIES
  0
LINE
  5
AAF2
330
19
100
AcDbEntity
  8
1
100
AcDbLine
 10
18.99999946048089
 20
81.50000064837081
 30
0.0
 11
324.9999994604808
 21
81.50000064837081
 31
0.0
  0
DIMENSION
  5
AAF3
330
19
100
AcDbEntity
  8
0
100
AcDbDimension
  2
*D13
 10
11.99999946048069
 20
99.85000064837079
 30
0.0
 11
9.499999460480678
 21
81.50000064837078
 31
0.0
 70
    32
  1
%%C<>
 71
     5
 42
36.69999999999998
  3
STANDARD
100
AcDbAlignedDimension
 13
21.99999946048087
 23
63.15000064837079
 33
0.0
 14
21.99999946048087
 24
99.85000064837079
 34
0.0
 50
90.0
100
AcDbRotatedDimension
1001
ACAD
1000
DSTYLE
1002
{
1070
    41
1040
3.0
1070
    42
1040
1.0
1070
    43
1040
1.0
1070
    44
1040
1.0
1070
    73
1070
     0
1070
    74
1070
     0
1070
    77
1070
     3
1070
    78
1070
     8
1070
   141
1040
-1.0
1070
   147
1040
1.0
1070
   172
1070
     1
1070
   176
1070
   115
1070
   177
1070
   115
1070
   178
1070
     7
1070
   271
1070
     2
1070
   272
1070
     2
1002
}
  0
DIMENSION
  5
AAF4
330
19
100
AcDbEntity
  8
0
100
AcDbDimension
  2
*D14
 10
3.99999946048068
 20
101.3000006483708
 30
0.0
 11
1.499999460480662
 21
81.50000064837081
 31
0.0
 70
    32
  1
%%C<>
 71
     5
 42
39.60000000000002
  3
STANDARD
100
AcDbAlignedDimension
 13
21.99999946048087
 23
61.7000006483708
 33
0.0
 14
21.99999946048087
 24
101.3000006483708
 34
0.0
 50
90.0
100
AcDbRotatedDimension
1001
ACAD
1000
DSTYLE
1002
{
1070
    41
1040
3.0
1070
    42
1040
1.0
1070
    43
1040
1.0
1070
    44
1040
1.0
1070
    73
1070
     0
1070
    74
1070
     0
1070
    77
1070
     3
1070
    78
1070
     8
1070
   141
1040
-1.0
1070
   147
1040
1.0
1070
   172
1070
     1
1070
   176
1070
   115
1070
   177
1070
   115
1070
   178
1070
     7
1070
   271
1070
     2
1070
   272
1070
     2
1002
}
  0
DIMENSION
  5
AAF5
330
19
100
AcDbEntity
  8
0
100
AcDbDimension
  2
*D15
 10
128.9999993104807
 20
113.0000042983709
 30
0.0
 11
125.7142850247664
 21
81.50000819837087
 31
0.0
 70
    32
  1
%%C<> g6 ({\H0.5x;\S-0.010^ -0.029;})
 71
     5
 42
62.99999220000007
  3
STANDARD
100
AcDbAlignedDimension
 13
139.9999993104808
 23
50.00001209837083
 33
0.0
 14
139.9999993104808
 24
113.0000042983709
 34
0.0
 50
90.0
100
AcDbRotatedDimension
1001
ACAD
1000
DSTYLE
1002
{
1070
   998
1000
1,1,-0.01,-0.029,0,0,2,H7,g6,256
1070
    48
1040
0.029
1070
    47
1040
-0.01
1070
    71
1070
     0
1070
    72
1070
     0
1070
   284
1070
     8
1070
   283
1070
     1
1070
   146
1040
1.0
1070
     3
1000

1070
    41
1040
3.0
1070
    42
1040
1.0
1070
    43
1040
1.0
1070
    44
1040
1.0
1070
    73
1070
     0
1070
    74
1070
     0
1070
    77
1070
     3
1070
    78
1070
     8
1070
   141
1040
-1.0
1070
   147
1040
1.0
1070
   172
1070
     1
1070
   176
1070
   115
1070
   177
1070
   115
1070
   178
1070
     7
1070
   271
1070
     2
1070
   272
1070
     3
1002
}
  0
DIMENSION
  5
AAF6
330
19
100
AcDbEntity
  8
0
100
AcDbDimension
  2
*D16
 10
138.9999993104808
 20
25.50000064837079
 30
0.0
 11
161.5000024604808
 21
28.00000064837078
 31
0.0
 70
    32
 71
     5
 42
45.00000629999997
  3
STANDARD
100
AcDbAlignedDimension
 13
184.0000056104808
 23
36.00000064837076
 33
0.0
 14
138.9999993104808
 24
51.00001209837083
 34
0.0
100
AcDbRotatedDimension
1001
ACAD
1000
DSTYLE
1002
{
1070
    41
1040
3.0
1070
    42
1040
1.0
1070
    43
1040
1.0
1070
    44
1040
1.0
1070
    47
1040
1.0
1070
    48
1040
1.0
1070
    73
1070
     0
1070
    74
1070
     0
1070
    77
1070
     3
1070
    78
1070
     8
1070
   141
1040
-1.0
1070
   147
1040
1.0
1070
   172
1070
     1
1070
   176
1070
   115
1070
   177
1070
   115
1070
   178
1070
     7
1070
   271
1070
     2
1070
   272
1070
     3
1070
   284
1070
     8
1002
}
  0
DIMENSION
  5
AAF7
330
19
100
AcDbEntity
  8
0
100
AcDbDimension
  2
*D17
 10
198.0000056104808
 20
25.50000064837079
 30
0.0
 11
191.0000056104808
 21
28.00000064837078
 31
0.0
 70
    32
 71
     5
 42
14.0
  3
STANDARD
100
AcDbAlignedDimension
 13
184.0000056104808
 23
36.00000064837076
 33
0.0
 14
198.0000056104808
 24
36.00000064837082
 34
0.0
100
AcDbRotatedDimension
1001
ACAD
1000
DSTYLE
1002
{
1070
    41
1040
3.0
1070
    42
1040
1.0
1070
    43
1040
1.0
1070
    44
1040
1.0
1070
    73
1070
     0
1070
    74
1070
     0
1070
    77
1070
     3
1070
    78
1070
     8
1070
   141
1040
-1.0
1070
   147
1040
1.0
1070
   172
1070
     1
1070
   176
1070
   115
1070
   177
1070
   115
1070
   178
1070
     7
1070
   271
1070
     2
1070
   272
1070
     2
1002
}
  0
DIMENSION
  5
AAF8
330
19
100
AcDbEntity
  8
0
100
AcDbDimension
  2
*D18
 10
204.9999996104808
 20
17.00000064837081
 30
0.0
 11
171.9999994604808
 21
19.50000064837081
 31
0.0
 70
    32
 71
     5
 42
66.00000030000003
  3
STANDARD
100
AcDbAlignedDimension
 13
138.9999993104808
 23
51.00001209837083
 33
0.0
 14
204.9999996104808
 24
51.00001209837083
 34
0.0
100
AcDbRotatedDimension
1001
ACAD
1000
DSTYLE
1002
{
1070
    41
1040
3.0
1070
    42
1040
1.0
1070
    43
1040
1.0
1070
    44
1040
1.0
1070
    47
1040
1.0
1070
    48
1040
1.0
1070
    73
1070
     0
1070
    74
1070
     0
1070
    77
1070
     3
1070
    78
1070
     8
1070
   141
1040
-1.0
1070
   147
1040
1.0
1070
   172
1070
     1
1070
   176
1070
   115
1070
   177
1070
   115
1070
   178
1070
     7
1070
   271
1070
     2
1070
   272
1070
     3
1070
   284
1070
     8
1002
}
  0
DIMENSION
  5
AAF9
330
19
100
AcDbEntity
  8
0
100
AcDbDimension
  2
*D19
 10
425.9999994604807
 20
-6.999999351629355
 30
0.0
 11
390.9999994604808
 21
-4.499999351629355
 31
0.0
 70
    32
 71
     5
 42
70.0
  3
STANDARD
100
AcDbAlignedDimension
 13
355.9999994604808
 23
50.88546161868748
 33
0.0
 14
425.9999994604807
 24
50.88546161868754
 34
0.0
100
AcDbRotatedDimension
1001
ACAD
1000
DSTYLE
1002
{
1070
    41
1040
3.0
1070
    42
1040
1.0
1070
    43
1040
1.0
1070
    44
1040
1.0
1070
    73
1070
     0
1070
    74
1070
     0
1070
    77
1070
     3
1070
    78
1070
     8
1070
   141
1040
-1.0
1070
   147
1040
1.0
1070
   172
1070
     1
1070
   176
1070
   115
1070
   177
1070
   115
1070
   178
1070
     7
1070
   271
1070
     2
1070
   272
1070
     2
1002
}
  0
DIMENSION
  5
AAFA
330
19
100
AcDbEntity
  8
0
100
AcDbDimension
  2
*D20
 10
382.8471999114357
 20
51.07333590813704
 30
0.0
 11
390.9999994604808
 21
27.50000064837076
 31
0.0
 70
    34
 71
     5
 42
0.5235987328845724
  3
STANDARD
100
AcDb2LineAngularDimension
 13
403.0350843766265
 23
36.58444843088756
 33
0.0
 14
399.1527990095259
 24
51.07333590813704
 34
0.0
 15
378.9649145443351
 25
36.58444843088756
 35
0.0
 16
386.0757003959285
 26
25.21500017113127
 36
0.0
1001
ACAD
1000
DSTYLE
1002
{
1070
    41
1040
3.0
1070
    42
1040
1.0
1070
    43
1040
1.0
1070
    44
1040
1.0
1070
    73
1070
     0
1070
    74
1070
     0
1070
    77
1070
     3
1070
    78
1070
     8
1070
    79
1070
     2
1070
   141
1040
-1.0
1070
   147
1040
1.0
1070
   172
1070
     1
1070
   176
1070
   115
1070
   177
1070
   115
1070
   178
1070
     7
1070
   271
1070
     2
1070
   272
1070
     2
1002
}
  0
DIMENSION
  5
AAFB
330
19
100
AcDbEntity
  8
0
100
AcDbDimension
  2
*D21
 10
345.9999994604807
 20
109.0771646483708
 30
0.0
 11
342.7142851747664
 21
81.5000001983709
 31
0.0
 70
    32
  1
(<>)
 71
     5
 42
55.15432889999995
  3
STANDARD
100
AcDbAlignedDimension
 13
363.4228344604808
 23
53.92283574837086
 33
0.0
 14
363.4228344604808
 24
109.0771646483708
 34
0.0
 50
90.0
100
AcDbRotatedDimension
1001
ACAD
1000
DSTYLE
1002
{
1070
    41
1040
3.0
1070
    42
1040
1.0
1070
    43
1040
1.0
1070
    44
1040
1.0
1070
    73
1070
     0
1070
    74
1070
     0
1070
    77
1070
     3
1070
    78
1070
     8
1070
   141
1040
-1.0
1070
   147
1040
1.0
1070
   172
1070
     1
1070
   176
1070
   115
1070
   177
1070
   115
1070
   178
1070
     7
1070
   271
1070
     2
1070
   272
1070
     2
1002
}
  0
DIMENSION
  5
AAFC
330
19
100
AcDbEntity
  8
0
100
AcDbDimension
  2
*D2
 10
418.5771637604807
 20
1.00000064837053
 30
0.0
 11
390.9999991104808
 21
4.285714934084816
 31
0.0
 70
    32
  1
(<>)
 71
     5
 42
55.15432929999997
  3
STANDARD
100
AcDbAlignedDimension
 13
363.4228344604808
 23
53.92283574837086
 33
0.0
 14
418.5771637604807
 24
53.92283574837086
 34
0.0
100
AcDbRotatedDimension
1001
ACAD
1000
DSTYLE
1002
{
1070
    41
1040
3.0
1070
    42
1040
1.0
1070
    43
1040
1.0
1070
    44
1040
1.0
1070
    73
1070
     0
1070
    74
1070
     0
1070
    77
1070
     3
1070
    78
1070
     8
1070
   141
1040
-1.0
1070
   147
1040
1.0
1070
   172
1070
     1
1070
   176
1070
   115
1070
   177
1070
   115
1070
   178
1070
     7
1070
   271
1070
     2
1070
   272
1070
     2
1002
}
  0
DIMENSION
  5
AAFD
330
19
100
AcDbEntity
  8
0
100
AcDbDimension
  2
*D3
 10
443.9999994604798
 20
120.5000003896214
 30
0.0
 11
441.4999994604799
 21
81.50000064837085
 31
0.0
 70
    32
  1
PCD <>
 71
     5
 42
77.99999948250121
  3
STANDARD
100
AcDbAlignedDimension
 13
390.9999994604808
 23
42.50000090712018
 33
0.0
 14
390.9999994604808
 24
120.5000003896214
 34
0.0
 50
90.0
100
AcDbRotatedDimension
1001
ACAD
1000
DSTYLE
1002
{
1070
    41
1040
3.0
1070
    42
1040
1.0
1070
    43
1040
1.0
1070
    44
1040
1.0
1070
    73
1070
     0
1070
    74
1070
     0
1070
    77
1070
     3
1070
    78
1070
     8
1070
   141
1040
-1.0
1070
   147
1040
1.0
1070
   172
1070
     1
1070
   176
1070
   115
1070
   177
1070
   115
1070
   178
1070
     7
1070
   271
1070
     2
1070
   272
1070
     2
1002
}
  0
DIMENSION
  5
AAFE
330
19
100
AcDbEntity
  8
0
100
AcDbDimension
  2
*D4
 10
435.9999994604798
 20
113.5771646483708
 30
0.0
 11
433.4999994604799
 21
123.1485932197994
 31
0.0
 70
    32
  1
8-%%C<>
 71
     5
 42
9.0
  3
STANDARD
100
AcDbAlignedDimension
 13
418.5771637604807
 23
104.5771646483708
 33
0.0
 14
418.5771637604807
 24
113.5771646483708
 34
0.0
 50
90.0
100
AcDbRotatedDimension
1001
ACAD
1000
DSTYLE
1002
{
1070
    41
1040
3.0
1070
    42
1040
1.0
1070
    43
1040
1.0
1070
    44
1040
1.0
1070
    73
1070
     0
1070
    74
1070
     0
1070
    77
1070
     3
1070
    78
1070
     8
1070
   141
1040
-1.0
1070
   147
1040
1.0
1070
   172
1070
     1
1070
   176
1070
   115
1070
   177
1070
   115
1070
   178
1070
     7
1070
   271
1070
     2
1070
   272
1070
     2
1002
}
  0
DIMENSION
  5
AAFF
330
19
100
AcDbEntity
  8
0
100
AcDbDimension
  2
*D5
 10
214.9999996104808
 20
113.0000042983708
 30
0.0
 11
211.7142853247664
 21
81.50000819837085
 31
0.0
 70
    32
  1
%%C<> g6 ({\H0.5x;\S-0.010^ -0.029;})
 71
     5
 42
62.99999219999998
  3
STANDARD
100
AcDbAlignedDimension
 13
203.9999996104809
 23
50.00001209837083
 33
0.0
 14
203.9999996104809
 24
113.0000042983708
 34
0.0
 50
90.0
100
AcDbRotatedDimension
1001
ACAD
1000
DSTYLE
1002
{
1070
   998
1000
1,1,-0.009,-0.025,0,0,2,H7,g6,256
1070
    47
1040
-0.009
1070
    71
1070
     0
1070
    72
1070
     0
1070
   283
1070
     1
1070
   146
1040
1.0
1070
     3
1000

1070
    41
1040
3.0
1070
    42
1040
1.0
1070
    43
1040
1.0
1070
    44
1040
1.0
1070
    48
1040
0.025
1070
    73
1070
     0
1070
    74
1070
     0
1070
    77
1070
     3
1070
    78
1070
     8
1070
   141
1040
-1.0
1070
   147
1040
1.0
1070
   172
1070
     1
1070
   176
1070
   115
1070
   177
1070
   115
1070
   178
1070
     7
1070
   271
1070
     2
1070
   272
1070
     3
1070
   284
1070
     8
1002
}
  0
DIMENSION
  5
AB01
330
19
100
AcDbEntity
  8
0
100
AcDbDimension
  2
*D6
 10
204.9999996104808
 20
25.50000064837079
 30
0.0
 11
201.5000026104808
 21
28.00000064837078
 31
0.0
 70
    32
 71
     5
 42
6.999994000000071
  3
STANDARD
100
AcDbAlignedDimension
 13
198.0000056104808
 23
36.00000064837082
 33
0.0
 14
204.9999996104808
 24
51.00001209837083
 34
0.0
100
AcDbRotatedDimension
1001
ACAD
1000
DSTYLE
1002
{
1070
    41
1040
3.0
1070
    42
1040
1.0
1070
    43
1040
1.0
1070
    44
1040
1.0
1070
    73
1070
     0
1070
    74
1070
     0
1070
    77
1070
     3
1070
    78
1070
     8
1070
   141
1040
-1.0
1070
   147
1040
1.0
1070
   172
1070
     1
1070
   176
1070
   115
1070
   177
1070
   115
1070
   178
1070
     7
1070
   271
1070
     2
1070
   272
1070
     2
1002
}
  0
DIMENSION
  5
AB02
330
19
100
AcDbEntity
  8
0
100
AcDbDimension
  2
*D7
 10
222.9999996104808
 20
128.0000006483708
 30
0.0
 11
220.4999996104807
 21
81.50000064837085
 31
0.0
 70
    32
  1
%%C<>
 71
     5
 42
93.00000000000004
  3
STANDARD
100
AcDbAlignedDimension
 13
197.0000056104808
 23
35.00000064837081
 33
0.0
 14
197.0000056104808
 24
128.0000006483708
 34
0.0
 50
90.0
100
AcDbRotatedDimension
1001
ACAD
1000
DSTYLE
1002
{
1070
   998
1000
1,1,-0.007,-0.02,0,0,2,H7,g6,256
1070
    47
1040
-0.007
1070
    71
1070
     0
1070
    72
1070
     0
1070
   283
1070
     1
1070
   146
1040
1.0
1070
     3
1000

1070
    41
1040
3.0
1070
    42
1040
1.0
1070
    43
1040
1.0
1070
    44
1040
1.0
1070
    48
1040
0.02
1070
    73
1070
     0
1070
    74
1070
     0
1070
    77
1070
     3
1070
    78
1070
     8
1070
   141
1040
-1.0
1070
   147
1040
1.0
1070
   172
1070
     1
1070
   176
1070
   115
1070
   177
1070
   115
1070
   178
1070
     7
1070
   271
1070
     2
1070
   272
1070
     3
1070
   284
1070
     8
1002
}
  0
INSERT
  5
AB03
330
19
100
AcDbEntity
  8
0
100
AcDbBlockReference
  2
A$C07861BC3
 10
22.00000036545635
 20
61.70000118119446
 30
0.0
  0
INSERT
  5
AB05
330
19
100
AcDbEntity
  8
0
100
AcDbBlockReference
  2
A$C0D073EDA
 10
356.0000008667093
 20
35.01378180317295
 30
0.0
  0
LINE
  5
AB06
330
19
100
AcDbEntity
  8
1
100
AcDbLine
 10
184.0000056104808
 20
120.9041565205628
 30
0.0
 11
198.0000056104808
 21
120.9041565205627
 31
0.0
  0
LINE
  5
AB07
330
19
100
AcDbEntity
  8
1
100
AcDbLine
 10
191.0000056104808
 20
115.9043123927547
 30
0.0
 11
191.0000056104808
 21
125.9040006483708
 31
0.0
  0
CIRCLE
  5
AB08
330
19
100
AcDbEntity
  8
1
100
AcDbCircle
 10
390.9999994604808
 20
81.50000064837076
 30
0.0
 40
38.99999974125056
  0
LINE
  5
AB09
330
19
100
AcDbEntity
  8
1
100
AcDbLine
 10
390.9999994604808
 20
32.00000064837076
 30
0.0
 11
390.9999994604808
 21
131.0000006483708
 31
0.0
  0
LINE
  5
AB0A
330
19
100
AcDbEntity
  8
1
100
AcDbLine
 10
428.9999994604808
 20
81.50000064837076
 30
0.0
 11
352.9999994604808
 21
81.50000064837081
 31
0.0
  0
LINE
  5
AB0B
330
19
100
AcDbEntity
  8
1
100
AcDbLine
 10
358.1195341107124
 20
48.61953382803847
 30
0.0
 11
368.7261355913229
 21
59.22613578302446
 31
0.0
  0
LINE
  5
AB0C
330
19
100
AcDbEntity
  8
1
100
AcDbLine
 10
378.9649145443351
 20
36.58444843088756
 30
0.0
 11
382.8471999114357
 21
51.07333590813704
 31
0.0
  0
LINE
  5
AB0D
330
19
100
AcDbEntity
  8
1
100
AcDbLine
 10
423.8804648102492
 20
48.61953382803847
 30
0.0
 11
413.2738633296387
 21
59.22613578302446
 31
0.0
  0
LINE
  5
AB0E
330
19
100
AcDbEntity
  8
1
100
AcDbLine
 10
403.0350843766265
 20
36.58444843088756
 30
0.0
 11
399.1527990095259
 21
51.07333590813704
 31
0.0
  0
LINE
  5
AB0F
330
19
100
AcDbEntity
  8
1
100
AcDbLine
 10
358.1195341107124
 20
114.380467468703
 30
0.0
 11
368.7261355913229
 21
103.773865513717
 31
0.0
  0
LINE
  5
AB10
330
19
100
AcDbEntity
  8
1
100
AcDbLine
 10
378.9649145443351
 20
126.4155528658539
 30
0.0
 11
382.8471999114357
 21
111.9266653886044
 31
0.0
  0
LINE
  5
AB11
330
19
100
AcDbEntity
  8
1
100
AcDbLine
 10
423.8804648102492
 20
114.380467468703
 30
0.0
 11
413.2738633296387
 21
103.773865513717
 31
0.0
  0
LINE
  5
AB12
330
19
100
AcDbEntity
  8
1
100
AcDbLine
 10
403.0350843766265
 20
126.4155528658539
 30
0.0
 11
399.1527990095259
 21
111.9266653886044
 31
0.0
  0
DIMENSION
  5
AB13
330
19
100
AcDbEntity
  8
0
100
AcDbDimension
  2
*D8
 10
401.4308173927008
 20
140.0611112556295
 30
0.0
 11
406.095881034821
 21
136.9809841787903
 31
0.0
 70
    32
 71
     5
 42
10.00000031890182
  3
STANDARD
100
AcDbAlignedDimension
 13
376.7141004604809
 23
114.2439016483708
 33
0.0
 14
376.5566233233987
 24
125.6999880438754
 34
0.0
 50
120.000000984657
100
AcDbRotatedDimension
1001
ACAD
1000
DSTYLE
1002
{
1070
    41
1040
3.0
1070
    42
1040
1.0
1070
    43
1040
1.0
1070
    44
1040
1.0
1070
    73
1070
     0
1070
    74
1070
     0
1070
    77
1070
     3
1070
    78
1070
     8
1070
   141
1040
-1.0
1070
   147
1040
1.0
1070
   172
1070
     1
1070
   176
1070
   115
1070
   177
1070
   115
1070
   178
1070
     7
1070
   271
1070
     2
1070
   272
1070
     2
1002
}
  0
DIMENSION
  5
AB14
330
19
100
AcDbEntity
  8
0
100
AcDbDimension
  2
*D9
 10
359.7858970645666
 20
127.5644100282484
 30
0.0
 11
348.2673101986575
 21
123.8009019111853
 31
0.0
 70
    32
  1
M<>x1
 71
     5
 42
7.999999800575551
  3
STANDARD
100
AcDbAlignedDimension
 13
371.7141004604808
 23
122.9041556483707
 33
0.0
 14
364.7858974604808
 24
118.9041556483707
 34
0.0
 50
210.0000009846574
100
AcDbRotatedDimension
1001
ACAD
1000
DSTYLE
1002
{
1070
    41
1040
3.0
1070
    42
1040
1.0
1070
    43
1040
1.0
1070
    44
1040
1.0
1070
    73
1070
     0
1070
    74
1070
     0
1070
    77
1070
     3
1070
    78
1070
     8
1070
   141
1040
-1.0
1070
   147
1040
1.0
1070
   172
1070
     1
1070
   176
1070
   115
1070
   177
1070
   115
1070
   178
1070
     7
1070
   271
1070
     2
1070
   272
1070
     2
1002
}
  0
DIMENSION
  5
AB15
330
19
100
AcDbEntity
  8
0
100
AcDbDimension
  2
*D10
 10
381.198493695243
 20
98.47670638997005
 30
0.0
 11
373.9155734580341
 21
145.2599466729785
 31
0.0
 70
    34
 71
     5
 42
0.5235987710712893
  3
STANDARD
100
AcDb2LineAngularDimension
 13
390.9999994604808
 23
32.00000064837076
 33
0.0
 14
390.9999994604808
 24
131.0000006483708
 34
0.0
 15
366.3976366722824
 25
124.1125430173149
 35
0.0
 16
379.9717507375372
 26
144.0443072729599
 36
0.0
1001
ACAD
1000
DSTYLE
1002
{
1070
    41
1040
3.0
1070
    42
1040
1.0
1070
    43
1040
1.0
1070
    44
1040
1.0
1070
    73
1070
     0
1070
    74
1070
     0
1070
    77
1070
     3
1070
    78
1070
     8
1070
   141
1040
-1.0
1070
   147
1040
1.0
1070
   172
1070
     1
1070
   176
1070
   115
1070
   177
1070
   115
1070
   178
1070
     7
1070
   179
1070
     0
1070
   271
1070
     2
1070
   272
1070
     2
1002
}
  0
LINE
  5
AB16
330
19
100
AcDbEntity
  8
1
100
AcDbLine
 10
381.198493695243
 20
98.47670638997005
 30
0.0
 11
366.3976366722824
 21
124.1125430173149
 31
0.0
  0
DIMENSION
  5
AB17
330
19
100
AcDbEntity
  8
0
100
AcDbDimension
  2
*D11
 10
337.9999994604807
 20
119.1711076483707
 30
0.0
 11
334.7142851747664
 21
81.50000029837084
 31
0.0
 70
    32
  1
(<>)
 71
     5
 42
75.34221469999988
  3
STANDARD
100
AcDbAlignedDimension
 13
380.9060564604807
 23
43.82889294837082
 33
0.0
 14
380.9060564604807
 24
119.1711076483707
 34
0.0
 50
90.0
100
AcDbRotatedDimension
1001
ACAD
1000
DSTYLE
1002
{
1070
    41
1040
3.0
1070
    42
1040
1.0
1070
    43
1040
1.0
1070
    44
1040
1.0
1070
    73
1070
     0
1070
    74
1070
     0
1070
    77
1070
     3
1070
    78
1070
     8
1070
   141
1040
-1.0
1070
   147
1040
1.0
1070
   172
1070
     1
1070
   176
1070
   115
1070
   177
1070
   115
1070
   178
1070
     7
1070
   271
1070
     2
1070
   272
1070
     2
1002
}
  0
DIMENSION
  5
AB18
330
19
100
AcDbEntity
  8
0
100
AcDbDimension
  2
*D12
 10
401.0939420604808
 20
9.00000064837053
 30
0.0
 11
390.9999992604808
 21
12.28571493408481
 31
0.0
 70
    32
  1
(<>)
 71
     5
 42
20.18788560000007
  3
STANDARD
100
AcDbAlignedDimension
 13
380.9060564604807
 23
43.82889294837082
 33
0.0
 14
401.0939420604808
 24
43.82889294837082
 34
0.0
100
AcDbRotatedDimension
1001
ACAD
1000
DSTYLE
1002
{
1070
    41
1040
3.0
1070
    42
1040
1.0
1070
    43
1040
1.0
1070
    44
1040
1.0
1070
    73
1070
     0
1070
    74
1070
     0
1070
    77
1070
     3
1070
    78
1070
     8
1070
   141
1040
-1.0
1070
   147
1040
1.0
1070
   172
1070
     1
1070
   176
1070
   115
1070
   177
1070
   115
1070
   178
1070
     7
1070
   271
1070
     2
1070
   272
1070
     2
1002
}
  0
DIMENSION
  5
AD59
330
19
100
AcDbEntity
  8
0
100
AcDbDimension
  2
*D22
 10
368.7261355913229
 20
59.22613578302446
 30
0.0
 11
390.9999994604808
 21
19.50000064837074
 31
0.0
 70
    34
 71
     5
 42
1.570796282070345
  3
STANDARD
100
AcDb2LineAngularDimension
 13
423.8804648102492
 23
48.61953382803847
 33
0.0
 14
413.2738633296387
 24
59.22613578302446
 34
0.0
 15
358.1195341107124
 25
48.61953382803847
 35
0.0
 16
374.3061715157746
 26
19.19778472828852
 36
0.0
1001
ACAD
1000
DSTYLE
1002
{
1070
    41
1040
3.0
1070
    42
1040
1.0
1070
    43
1040
1.0
1070
    44
1040
1.0
1070
    73
1070
     0
1070
    74
1070
     0
1070
    77
1070
     3
1070
    78
1070
     8
1070
    79
1070
     2
1070
   141
1040
-1.0
1070
   147
1040
1.0
1070
   172
1070
     1
1070
   176
1070
   115
1070
   177
1070
   115
1070
   178
1070
     7
1070
   271
1070
     2
1070
   272
1070
     2
1002
}
  0
INSERT
  5
AEC1
330
19
100
AcDbEntity
  8
0
100
AcDbBlockReference
  2
SDK4005
 10
0.0
 20
-100.0
 30
0.0
  0
ENDSEC
  0
SECTION
  2
OBJECTS
  0
DICTIONARY
  5
C
330
0
100
AcDbDictionary
281
     1
  3
ACAD_CIP_PREVIOUS_PRODUCT_INFO
350
9E91
  3
ACAD_COLOR
350
9C90
  3
ACAD_GROUP
350
D
  3
ACAD_LAYOUT
350
9C93
  3
ACAD_MATERIAL
350
9C8F
  3
ACAD_MLEADERSTYLE
350
9DBA
  3
ACAD_MLINESTYLE
350
E
  3
ACAD_PLOTSETTINGS
350
9C94
  3
ACAD_PLOTSTYLENAME
350
9C8D
  3
ACAD_SCALELIST
350
9D98
  3
ACAD_TABLESTYLE
350
9C91
  3
ACAD_VISUALSTYLE
350
9D87
  3
ACDB_RECOMPOSE_DATA
350
B31C
  3
ACDBVARIABLEDICTIONARY
350
1BF
  3
DWGPROPS
350
B31D
  0
DICTIONARY
  5
AE2E
330
8
100
AcDbDictionary
280
     1
281
     1
  0
DICTIONARY
  5
9E5D
330
F
100
AcDbDictionary
280
     1
281
     1
  3
ADSK_XREC_LAYER_RECONCILED
360
9E5E
  0
DICTIONARY
  5
9E5F
330
55
100
AcDbDictionary
280
     1
281
     1
  3
ADSK_XREC_LAYER_RECONCILED
360
9E60
  0
DICTIONARY
  5
9E61
330
61
100
AcDbDictionary
280
     1
281
     1
  3
ADSK_XREC_LAYER_RECONCILED
360
9E62
  0
DICTIONARY
  5
9E63
330
62
100
AcDbDictionary
280
     1
281
     1
  3
ADSK_XREC_LAYER_RECONCILED
360
9E64
  0
DICTIONARY
  5
A28F
330
19
100
AcDbDictionary
280
     1
281
     1
  3
ACAD_SORTENTS
360
A290
  0
DICTIONARY
  5
A2DB
330
A2D3
100
AcDbDictionary
280
     1
281
     1
  3
ACAD_SORTENTS
360
A2DC
  0
DICTIONARY
  5
A4E3
330
A4CC
100
AcDbDictionary
280
     1
281
     1
  3
ACAD_SORTENTS
360
A4E4
  0
DICTIONARY
  5
B22A
330
AE9D
100
AcDbDictionary
280
     1
281
     1
  3
ACAD_SORTENTS
360
B22E
  0
DICTIONARY
  5
B35A
330
AC7B
100
AcDbDictionary
280
     1
281
     1
  3
ACAD_MTEXT_RT
360
B35B
  0
DICTIONARY
  5
B35C
330
ADD1
100
AcDbDictionary
280
     1
281
     1
  3
ACAD_MTEXT_RT
360
B35D
  0
DICTIONARY
  5
B35E
330
ADDC
100
AcDbDictionary
280
     1
281
     1
  3
ACAD_MTEXT_RT
360
B35F
  0
XRECORD
  5
9E91
102
{ACAD_REACTORS
330
C
102
}
330
C
100
AcDbXrecord
280
     1
300
ACDLT
300
2012
300
ACDLT_F_S
  0
DICTIONARY
  5
9C90
102
{ACAD_REACTORS
330
C
102
}
330
C
100
AcDbDictionary
281
     1
  0
DICTIONARY
  5
D
102
{ACAD_REACTORS
330
C
102
}
330
C
100
AcDbDictionary
281
     1
  0
DICTIONARY
  5
9C93
102
{ACAD_REACTORS
330
C
102
}
330
C
100
AcDbDictionary
281
     1
  3
Model
350
9C95
  3
배치1
350
9C96
  0
DICTIONARY
  5
9C8F
102
{ACAD_REACTORS
330
C
102
}
330
C
100
AcDbDictionary
281
     1
  3
ByBlock
350
9D77
  3
ByLayer
350
9D6F
  3
Global
350
9D7F
  0
DICTIONARY
  5
9DBA
102
{ACAD_REACTORS
330
C
102
}
330
C
100
AcDbDictionary
281
     1
  3
Standard
350
9DBB
  0
DICTIONARY
  5
E
102
{ACAD_REACTORS
330
C
102
}
330
C
100
AcDbDictionary
281
     1
  3
STANDARD
350
1C
  0
DICTIONARY
  5
9C94
102
{ACAD_REACTORS
330
C
102
}
330
C
100
AcDbDictionary
281
     1
  0
ACDBDICTIONARYWDFLT
  5
9C8D
102
{ACAD_REACTORS
330
C
102
}
330
C
100
AcDbDictionary
281
     1
  3
Normal
350
9C8E
100
AcDbDictionaryWithDefault
340
9C8E
  0
DICTIONARY
  5
9D98
102
{ACAD_REACTORS
330
C
102
}
330
C
100
AcDbDictionary
281
     1
  3
A0
350
9D99
  3
A1
350
9D9A
  3
A2
350
9D9B
  3
A3
350
9D9C
  3
A4
350
9D9D
  3
A5
350
9D9E
  3
A6
350
9D9F
  3
A7
350
9DA0
  3
A8
350
9DA1
  3
A9
350
9DA2
  3
B0
350
9DA3
  3
B1
350
9DA4
  3
B2
350
9DA5
  3
B3
350
9DA6
  3
B4
350
9DA7
  3
B5
350
9DA8
  3
B6
350
9DA9
  3
B7
350
9DAA
  3
B8
350
9DAB
  3
B9
350
9DAC
  3
C0
350
9DAD
  3
C1
350
9DAE
  3
C2
350
9DAF
  3
C3
350
9DB0
  3
C4
350
9DB1
  3
C5
350
9DB2
  3
C6
350
9DB3
  3
C7
350
9DB4
  3
C8
350
9DB5
  3
C9
350
9DB6
  3
D0
350
9DB7
  3
D1
350
9DB8
  3
D2
350
9DB9
  0
DICTIONARY
  5
9C91
102
{ACAD_REACTORS
330
C
102
}
330
C
100
AcDbDictionary
281
     1
  3
Standard
350
9C92
  0
DICTIONARY
  5
9D87
102
{ACAD_REACTORS
330
C
102
}
330
C
100
AcDbDictionary
281
     1
  3
2dWireframe
350
9D8D
  3
3D Hidden
350
9D8F
  3
3dWireframe
350
9D8E
  3
Basic
350
9D8C
  3
Brighten
350
9D93
  3
ColorChange
350
9D97
  3
Conceptual
350
9D90
  3
Dim
350
9D92
  3
EdgeColorOff
350
9E8E
  3
Facepattern
350
9D96
  3
Flat
350
9D88
  3
FlatWithEdges
350
9D89
  3
Gouraud
350
9D8A
  3
GouraudWithEdges
350
9D8B
  3
Hidden
350
9E86
  3
JitterOff
350
9E8C
  3
Linepattern
350
9D95
  3
OverhangOff
350
9E8D
  3
Realistic
350
9D91
  3
Shaded
350
9E8B
  3
Shaded with edges
350
9E8A
  3
Shades of Gray
350
9E87
  3
Sketchy
350
9E88
  3
Thicken
350
9D94
  3
Wireframe
350
9E85
  3
X-Ray
350
9E89
  0
XRECORD
  5
B31C
102
{ACAD_REACTORS
330
C
102
}
330
C
100
AcDbXrecord
280
     1
 90
        1
330
9C92
  0
DICTIONARY
  5
1BF
102
{ACAD_REACTORS
330
C
102
}
330
C
100
AcDbDictionary
281
     1
  3
CANNOSCALE
350
9E6C
  3
CMLEADERSTYLE
350
9E6B
  3
CTABLESTYLE
350
9D52
  3
DIMASSOC
350
9D53
  3
INDEXCTL
350
9E6D
  3
PROJECTNAME
350
9D54
  3
SORTENTS
350
1C0
  3
XCLIPFRAME
350
B31A
  0
XRECORD
  5
B31D
102
{ACAD_REACTORS
330
C
102
}
330
C
100
AcDbXrecord
280
     1
  1
DWGPROPS COOKIE
  2

  3

  4

  6

  7

  8
woni
  9

300
=
301
=
302
=
303
=
304
=
305
=
306
=
307
=
308
=
309
=
 40
0.5009303356481482
 41
2452464.575009942
 42
2456846.807371551
  1

 90
        0
  0
XRECORD
  5
9E5E
102
{ACAD_REACTORS
330
9E5D
102
}
330
9E5D
100
AcDbXrecord
280
     1
290
     1
  0
XRECORD
  5
9E60
102
{ACAD_REACTORS
330
9E5F
102
}
330
9E5F
100
AcDbXrecord
280
     1
290
     1
  0
XRECORD
  5
9E62
102
{ACAD_REACTORS
330
9E61
102
}
330
9E61
100
AcDbXrecord
280
     1
290
     1
  0
XRECORD
  5
9E64
102
{ACAD_REACTORS
330
9E63
102
}
330
9E63
100
AcDbXrecord
280
     1
290
     1
  0
SORTENTSTABLE
  5
A290
102
{ACAD_REACTORS
330
A28F
102
}
330
A28F
100
AcDbSortentsTable
330
19
331
AB16
  5
AE99
331
AB0E
  5
AE90
331
AB02
  5
AB02
331
AAFA
  5
AAFA
331
AAF2
  5
AAF2
331
AB17
  5
AE9A
331
AB0F
  5
AE91
331
AB03
  5
AB03
331
AAFB
  5
AAFB
331
AAF3
  5
AAF3
331
AEC1
  5
AEC1
331
AB18
  5
AE9B
331
AB10
  5
AE92
331
AB08
  5
AE8A
331
AAFC
  5
AAFC
331
AAF4
  5
AAF4
331
AB11
  5
AE93
331
AB09
  5
AE8B
331
AB05
  5
AE87
331
AAFD
  5
AAFD
331
AAF5
  5
AAF5
331
AB12
  5
AE95
331
AB06
  5
AE88
331
AB0A
  5
AE8C
331
AAFE
  5
AAFE
331
AAF6
  5
AAF6
331
AB13
  5
AE96
331
AB0B
  5
AE8D
331
AB07
  5
AE89
331
AAFF
  5
AAFF
331
AAF7
  5
AAF7
331
AB14
  5
AE97
331
AB0C
  5
AE8E
331
AAF8
  5
AAF8
331
AD59
  5
AE9C
331
AB15
  5
AE98
331
AB0D
  5
AE8F
331
AB01
  5
AB01
331
AAF9
  5
AAF9
  0
SORTENTSTABLE
  5
A2DC
102
{ACAD_REACTORS
330
A2DB
102
}
330
A2DB
100
AcDbSortentsTable
330
A2D3
  0
SORTENTSTABLE
  5
A4E4
102
{ACAD_REACTORS
330
A4E3
102
}
330
A4E3
100
AcDbSortentsTable
330
A4CC
  0
SORTENTSTABLE
  5
B22E
102
{ACAD_REACTORS
330
B22A
102
}
330
B22A
100
AcDbSortentsTable
330
AE9D
331
B223
  5
B224
331
B212
  5
B212
331
B20E
  5
B20E
331
B21F
  5
B220
331
B20A
  5
B20A
331
B21B
  5
B21B
331
B228
  5
B229
331
B217
  5
B217
331
B224
  5
B225
331
B213
  5
B213
331
B220
  5
B221
331
B20F
  5
B20F
331
B20B
  5
B20B
331
B21C
  5
B21C
331
B229
  5
B22D
331
B218
  5
B218
331
B225
  5
B226
331
B214
  5
B214
331
B221
  5
B222
331
B210
  5
B210
331
B20C
  5
B20C
331
B21D
  5
B21D
331
B208
  5
B208
331
B219
  5
B219
331
B226
  5
B227
331
B215
  5
B215
331
B222
  5
B223
331
B211
  5
B211
331
B20D
  5
B20D
331
B21E
  5
B21F
331
B209
  5
B209
331
B21A
  5
B21A
331
B227
  5
B228
331
B216
  5
B216
  0
XRECORD
  5
B35B
102
{ACAD_REACTORS
330
B35A
102
}
330
B35A
100
AcDbXrecord
280
     1
 40
5283.0
  1
\A1;30\U+00B0
  0
XRECORD
  5
B35D
102
{ACAD_REACTORS
330
B35C
102
}
330
B35C
100
AcDbXrecord
280
     1
 40
5283.0
  1
\A1;30\U+00B0
  0
XRECORD
  5
B35F
102
{ACAD_REACTORS
330
B35E
102
}
330
B35E
100
AcDbXrecord
280
     1
 40
5313.0
  1
\A1;90\U+00B0
  0
LAYOUT
  5
9C95
102
{ACAD_XDICTIONARY
360
B31F
102
}
102
{ACAD_REACTORS
330
9C93
102
}
330
9C93
100
AcDbPlotSettings
  1

  2
\\문광휘\HP LaserJet 5100 PCL 6
  4

  6

 40
0.0
 41
0.0
 42
0.0
 43
0.0
 44
0.0
 45
0.0
 46
0.0
 47
0.0
 48
0.0
 49
0.0
140
0.0
141
0.0
142
1.0
143
1.0
 70
  1712
 72
     0
 73
     0
 74
     0
  7

 75
     0
147
1.0
148
0.0
149
0.0
100
AcDbLayout
  1
Model
 70
     1
 71
     0
 10
0.0
 20
0.0
 11
12.0
 21
9.0
 12
0.0
 22
0.0
 32
0.0
 14
0.0
 24
0.0
 34
0.0
 15
0.0
 25
0.0
 35
0.0
146
0.0
 13
0.0
 23
0.0
 33
0.0
 16
1.0
 26
0.0
 36
0.0
 17
0.0
 27
1.0
 37
0.0
 76
     0
330
19
331
9D62
  0
LAYOUT
  5
9C96
102
{ACAD_XDICTIONARY
360
B321
102
}
102
{ACAD_REACTORS
330
9C93
102
}
330
9C93
100
AcDbPlotSettings
  1

  2
\\문광휘\HP LaserJet 5100 PCL 6
  4

  6

 40
0.0
 41
0.0
 42
0.0
 43
0.0
 44
0.0
 45
0.0
 46
0.0
 47
0.0
 48
0.0
 49
0.0
140
0.0
141
0.0
142
1.0
143
1.0
 70
   688
 72
     0
 73
     0
 74
     5
  7

 75
    16
147
1.0
148
0.0
149
0.0
100
AcDbLayout
  1
배치1
 70
     1
 71
     1
 10
0.0
 20
0.0
 11
12.0
 21
9.0
 12
0.0
 22
0.0
 32
0.0
 14
1.000000000000000E+20
 24
1.000000000000000E+20
 34
1.000000000000000E+20
 15
-1.000000000000000E+20
 25
-1.000000000000000E+20
 35
-1.000000000000000E+20
146
0.0
 13
0.0
 23
0.0
 33
0.0
 16
1.0
 26
0.0
 36
0.0
 17
0.0
 27
1.0
 37
0.0
 76
     0
330
16
  0
MATERIAL
  5
9D77
102
{ACAD_XDICTIONARY
360
9D78
102
}
102
{ACAD_REACTORS
330
9C8F
102
}
330
9C8F
100
AcDbMaterial
  1
ByBlock
 72
     0
 43
0.0208333333333333
 43
0.0
 43
0.0
 43
0.0
 43
0.0
 43
0.0208333333333333
 43
0.0
 43
0.0
 43
0.0
 43
0.0
 43
1.0
 43
0.0
 43
0.0
 43
0.0
 43
0.0
 43
1.0
 77
     0
 47
0.0208333333333333
 47
0.0
 47
0.0
 47
0.0
 47
0.0
 47
0.0208333333333333
 47
0.0
 47
0.0
 47
0.0
 47
0.0
 47
1.0
 47
0.0
 47
0.0
 47
0.0
 47
0.0
 47
1.0
171
     0
 49
0.0208333333333333
 49
0.0
 49
0.0
 49
0.0
 49
0.0
 49
0.0208333333333333
 49
0.0
 49
0.0
 49
0.0
 49
0.0
 49
1.0
 49
0.0
 49
0.0
 49
0.0
 49
0.0
 49
1.0
175
     0
142
0.0208333333333333
142
0.0
142
0.0
142
0.0
142
0.0
142
0.0208333333333333
142
0.0
142
0.0
142
0.0
142
0.0
142
1.0
142
0.0
142
0.0
142
0.0
142
0.0
142
1.0
179
     0
144
0.0208333333333333
144
0.0
144
0.0
144
0.0
144
0.0
144
0.0208333333333333
144
0.0
144
0.0
144
0.0
144
0.0
144
1.0
144
0.0
144
0.0
144
0.0
144
0.0
144
1.0
147
0.0208333333333333
147
0.0
147
0.0
147
0.0
147
0.0
147
0.0208333333333333
147
0.0
147
0.0
147
0.0
147
0.0
147
1.0
147
0.0
147
0.0
147
0.0
147
0.0
147
1.0
  0
MATERIAL
  5
9D6F
102
{ACAD_XDICTIONARY
360
9D70
102
}
102
{ACAD_REACTORS
330
9C8F
102
}
330
9C8F
100
AcDbMaterial
  1
ByLayer
 72
     0
 43
0.0208333333333333
 43
0.0
 43
0.0
 43
0.0
 43
0.0
 43
0.0208333333333333
 43
0.0
 43
0.0
 43
0.0
 43
0.0
 43
1.0
 43
0.0
 43
0.0
 43
0.0
 43
0.0
 43
1.0
 77
     0
 47
0.0208333333333333
 47
0.0
 47
0.0
 47
0.0
 47
0.0
 47
0.0208333333333333
 47
0.0
 47
0.0
 47
0.0
 47
0.0
 47
1.0
 47
0.0
 47
0.0
 47
0.0
 47
0.0
 47
1.0
171
     0
 49
0.0208333333333333
 49
0.0
 49
0.0
 49
0.0
 49
0.0
 49
0.0208333333333333
 49
0.0
 49
0.0
 49
0.0
 49
0.0
 49
1.0
 49
0.0
 49
0.0
 49
0.0
 49
0.0
 49
1.0
175
     0
142
0.0208333333333333
142
0.0
142
0.0
142
0.0
142
0.0
142
0.0208333333333333
142
0.0
142
0.0
142
0.0
142
0.0
142
1.0
142
0.0
142
0.0
142
0.0
142
0.0
142
1.0
179
     0
144
0.0208333333333333
144
0.0
144
0.0
144
0.0
144
0.0
144
0.0208333333333333
144
0.0
144
0.0
144
0.0
144
0.0
144
1.0
144
0.0
144
0.0
144
0.0
144
0.0
144
1.0
147
0.0208333333333333
147
0.0
147
0.0
147
0.0
147
0.0
147
0.0208333333333333
147
0.0
147
0.0
147
0.0
147
0.0
147
1.0
147
0.0
147
0.0
147
0.0
147
0.0
147
1.0
  0
MATERIAL
  5
9D7F
102
{ACAD_XDICTIONARY
360
9D80
102
}
102
{ACAD_REACTORS
330
9C8F
102
}
330
9C8F
100
AcDbMaterial
  1
Global
 72
     0
 43
0.0208333333333333
 43
0.0
 43
0.0
 43
0.0
 43
0.0
 43
0.0208333333333333
 43
0.0
 43
0.0
 43
0.0
 43
0.0
 43
1.0
 43
0.0
 43
0.0
 43
0.0
 43
0.0
 43
1.0
 77
     0
 47
0.0208333333333333
 47
0.0
 47
0.0
 47
0.0
 47
0.0
 47
0.0208333333333333
 47
0.0
 47
0.0
 47
0.0
 47
0.0
 47
1.0
 47
0.0
 47
0.0
 47
0.0
 47
0.0
 47
1.0
171
     0
 49
0.0208333333333333
 49
0.0
 49
0.0
 49
0.0
 49
0.0
 49
0.0208333333333333
 49
0.0
 49
0.0
 49
0.0
 49
0.0
 49
1.0
 49
0.0
 49
0.0
 49
0.0
 49
0.0
 49
1.0
175
     0
142
0.0208333333333333
142
0.0
142
0.0
142
0.0
142
0.0
142
0.0208333333333333
142
0.0
142
0.0
142
0.0
142
0.0
142
1.0
142
0.0
142
0.0
142
0.0
142
0.0
142
1.0
179
     0
144
0.0208333333333333
144
0.0
144
0.0
144
0.0
144
0.0
144
0.0208333333333333
144
0.0
144
0.0
144
0.0
144
0.0
144
1.0
144
0.0
144
0.0
144
0.0
144
0.0
144
1.0
147
0.0208333333333333
147
0.0
147
0.0
147
0.0
147
0.0
147
0.0208333333333333
147
0.0
147
0.0
147
0.0
147
0.0
147
1.0
147
0.0
147
0.0
147
0.0
147
0.0
147
1.0
  0
MLEADERSTYLE
  5
9DBB
102
{ACAD_REACTORS
330
9DBA
102
}
330
9DBA
100
AcDbMLeaderStyle
170
     2
171
     1
172
     0
 90
        2
 40
0.0
 41
0.0
173
     1
 91
-1056964608
340
13
 92
       -2
290
     1
 42
0.09
291
     1
 43
0.36
  3
Standard
 44
0.18
300

342
10
174
     1
178
     6
175
     1
176
     0
 93
-1056964608
 45
0.18
292
     0
297
     0
 46
0.18
 94
-1056964608
 47
1.0
 49
1.0
140
1.0
293
     1
141
0.0
294
     1
177
     0
142
1.0
295
     0
296
     0
143
0.125
1001
ACAD_MLEADERVER
1070
     2
  0
MLINESTYLE
  5
1C
102
{ACAD_REACTORS
330
E
102
}
330
E
100
AcDbMlineStyle
  2
STANDARD
 70
     0
  3

 62
     0
 51
90.0
 52
90.0
 71
     2
 49
0.5
 62
   256
  6
BYLAYER
 49
-0.5
 62
   256
  6
BYLAYER
  0
ACDBPLACEHOLDER
  5
9C8E
102
{ACAD_REACTORS
330
9C8D
102
}
330
9C8D
  0
SCALE
  5
9D99
102
{ACAD_REACTORS
330
9D98
102
}
330
9D98
100
AcDbScale
 70
     0
300
1:1
140
1.0
141
1.0
290
     1
  0
SCALE
  5
9D9A
102
{ACAD_REACTORS
330
9D98
102
}
330
9D98
100
AcDbScale
 70
     0
300
1:2
140
1.0
141
2.0
290
     0
  0
SCALE
  5
9D9B
102
{ACAD_REACTORS
330
9D98
102
}
330
9D98
100
AcDbScale
 70
     0
300
1:4
140
1.0
141
4.0
290
     0
  0
SCALE
  5
9D9C
102
{ACAD_REACTORS
330
9D98
102
}
330
9D98
100
AcDbScale
 70
     0
300
1:5
140
1.0
141
5.0
290
     0
  0
SCALE
  5
9D9D
102
{ACAD_REACTORS
330
9D98
102
}
330
9D98
100
AcDbScale
 70
     0
300
1:8
140
1.0
141
8.0
290
     0
  0
SCALE
  5
9D9E
102
{ACAD_REACTORS
330
9D98
102
}
330
9D98
100
AcDbScale
 70
     0
300
1:10
140
1.0
141
10.0
290
     0
  0
SCALE
  5
9D9F
102
{ACAD_REACTORS
330
9D98
102
}
330
9D98
100
AcDbScale
 70
     0
300
1:16
140
1.0
141
16.0
290
     0
  0
SCALE
  5
9DA0
102
{ACAD_REACTORS
330
9D98
102
}
330
9D98
100
AcDbScale
 70
     0
300
1:20
140
1.0
141
20.0
290
     0
  0
SCALE
  5
9DA1
102
{ACAD_REACTORS
330
9D98
102
}
330
9D98
100
AcDbScale
 70
     0
300
1:30
140
1.0
141
30.0
290
     0
  0
SCALE
  5
9DA2
102
{ACAD_REACTORS
330
9D98
102
}
330
9D98
100
AcDbScale
 70
     0
300
1:40
140
1.0
141
40.0
290
     0
  0
SCALE
  5
9DA3
102
{ACAD_REACTORS
330
9D98
102
}
330
9D98
100
AcDbScale
 70
     0
300
1:50
140
1.0
141
50.0
290
     0
  0
SCALE
  5
9DA4
102
{ACAD_REACTORS
330
9D98
102
}
330
9D98
100
AcDbScale
 70
     0
300
1:100
140
1.0
141
100.0
290
     0
  0
SCALE
  5
9DA5
102
{ACAD_REACTORS
330
9D98
102
}
330
9D98
100
AcDbScale
 70
     0
300
2:1
140
2.0
141
1.0
290
     0
  0
SCALE
  5
9DA6
102
{ACAD_REACTORS
330
9D98
102
}
330
9D98
100
AcDbScale
 70
     0
300
4:1
140
4.0
141
1.0
290
     0
  0
SCALE
  5
9DA7
102
{ACAD_REACTORS
330
9D98
102
}
330
9D98
100
AcDbScale
 70
     0
300
8:1
140
8.0
141
1.0
290
     0
  0
SCALE
  5
9DA8
102
{ACAD_REACTORS
330
9D98
102
}
330
9D98
100
AcDbScale
 70
     0
300
10:1
140
10.0
141
1.0
290
     0
  0
SCALE
  5
9DA9
102
{ACAD_REACTORS
330
9D98
102
}
330
9D98
100
AcDbScale
 70
     0
300
100:1
140
100.0
141
1.0
290
     0
  0
SCALE
  5
9DAA
102
{ACAD_REACTORS
330
9D98
102
}
330
9D98
100
AcDbScale
 70
     0
300
1/128" = 1'-0"
140
0.0078125
141
12.0
290
     0
  0
SCALE
  5
9DAB
102
{ACAD_REACTORS
330
9D98
102
}
330
9D98
100
AcDbScale
 70
     0
300
1/64" = 1'-0"
140
0.015625
141
12.0
290
     0
  0
SCALE
  5
9DAC
102
{ACAD_REACTORS
330
9D98
102
}
330
9D98
100
AcDbScale
 70
     0
300
1/32" = 1'-0"
140
0.03125
141
12.0
290
     0
  0
SCALE
  5
9DAD
102
{ACAD_REACTORS
330
9D98
102
}
330
9D98
100
AcDbScale
 70
     0
300
1/16" = 1'-0"
140
0.0625
141
12.0
290
     0
  0
SCALE
  5
9DAE
102
{ACAD_REACTORS
330
9D98
102
}
330
9D98
100
AcDbScale
 70
     0
300
3/32" = 1'-0"
140
0.09375
141
12.0
290
     0
  0
SCALE
  5
9DAF
102
{ACAD_REACTORS
330
9D98
102
}
330
9D98
100
AcDbScale
 70
     0
300
1/8" = 1'-0"
140
0.125
141
12.0
290
     0
  0
SCALE
  5
9DB0
102
{ACAD_REACTORS
330
9D98
102
}
330
9D98
100
AcDbScale
 70
     0
300
3/16" = 1'-0"
140
0.1875
141
12.0
290
     0
  0
SCALE
  5
9DB1
102
{ACAD_REACTORS
330
9D98
102
}
330
9D98
100
AcDbScale
 70
     0
300
1/4" = 1'-0"
140
0.25
141
12.0
290
     0
  0
SCALE
  5
9DB2
102
{ACAD_REACTORS
330
9D98
102
}
330
9D98
100
AcDbScale
 70
     0
300
3/8" = 1'-0"
140
0.375
141
12.0
290
     0
  0
SCALE
  5
9DB3
102
{ACAD_REACTORS
330
9D98
102
}
330
9D98
100
AcDbScale
 70
     0
300
1/2" = 1'-0"
140
0.5
141
12.0
290
     0
  0
SCALE
  5
9DB4
102
{ACAD_REACTORS
330
9D98
102
}
330
9D98
100
AcDbScale
 70
     0
300
3/4" = 1'-0"
140
0.75
141
12.0
290
     0
  0
SCALE
  5
9DB5
102
{ACAD_REACTORS
330
9D98
102
}
330
9D98
100
AcDbScale
 70
     0
300
1" = 1'-0"
140
1.0
141
12.0
290
     0
  0
SCALE
  5
9DB6
102
{ACAD_REACTORS
330
9D98
102
}
330
9D98
100
AcDbScale
 70
     0
300
1-1/2" = 1'-0"
140
1.5
141
12.0
290
     0
  0
SCALE
  5
9DB7
102
{ACAD_REACTORS
330
9D98
102
}
330
9D98
100
AcDbScale
 70
     0
300
3" = 1'-0"
140
3.0
141
12.0
290
     0
  0
SCALE
  5
9DB8
102
{ACAD_REACTORS
330
9D98
102
}
330
9D98
100
AcDbScale
 70
     0
300
6" = 1'-0"
140
6.0
141
12.0
290
     0
  0
SCALE
  5
9DB9
102
{ACAD_REACTORS
330
9D98
102
}
330
9D98
100
AcDbScale
 70
     0
300
1'-0" = 1'-0"
140
12.0
141
12.0
290
     0
  0
TABLESTYLE
  5
9C92
102
{ACAD_XDICTIONARY
360
9E6E
102
}
102
{ACAD_REACTORS
330
9C91
102
}
330
9C91
100
AcDbTableStyle
  3
Standard
 70
     0
 71
     0
 40
0.06
 41
0.06
280
     0
281
     0
  7
STANDARD
140
0.18
170
     2
 62
     0
 63
     7
283
     0
274
    -2
284
     1
 64
     0
275
    -2
285
     1
 65
     0
276
    -2
286
     1
 66
     0
277
    -2
287
     1
 67
     0
278
    -2
288
     1
 68
     0
279
    -2
289
     1
 69
     0
  7
STANDARD
140
0.25
170
     5
 62
     0
 63
     7
283
     0
274
    -2
284
     1
 64
     0
275
    -2
285
     1
 65
     0
276
    -2
286
     1
 66
     0
277
    -2
287
     1
 67
     0
278
    -2
288
     1
 68
     0
279
    -2
289
     1
 69
     0
  7
STANDARD
140
0.18
170
     5
 62
     0
 63
     7
283
     0
274
    -2
284
     1
 64
     0
275
    -2
285
     1
 65
     0
276
    -2
286
     1
 66
     0
277
    -2
287
     1
 67
     0
278
    -2
288
     1
 68
     0
279
    -2
289
     1
 69
     0
  0
VISUALSTYLE
  5
9D8D
102
{ACAD_XDICTIONARY
360
B330
102
}
102
{ACAD_REACTORS
330
9D87
102
}
330
9D87
100
AcDbVisualStyle
  2

 70
     4
 71
     0
 72
     2
 73
     0
 90
        0
 40
-0.6
 41
-30.0
 62
     5
 63
     7
 74
     1
 91
        4
 64
     7
 65
   257
 75
     1
175
     1
 42
1.0
 92
        0
 66
   257
 43
1.0
 76
     1
 77
     6
 78
     2
 67
     7
 79
     5
170
     0
171
     0
290
     0
174
     0
 93
        1
 44
0.0
173
     0
291
     0
 45
0.0
1001
ACAD
1000
AcDbSavedByObjectVersion
1070
     0
  0
VISUALSTYLE
  5
9D8F
102
{ACAD_XDICTIONARY
360
B334
102
}
102
{ACAD_REACTORS
330
9D87
102
}
330
9D87
100
AcDbVisualStyle
  2

 70
     6
 71
     1
 72
     2
 73
     2
 90
        0
 40
-0.6
 41
-30.0
 62
     5
 63
     7
 74
     2
 91
        2
 64
     7
 65
   257
 75
     2
175
     1
 42
40.0
 92
        0
 66
   257
 43
1.0
 76
     1
 77
     6
 78
     2
 67
     7
 79
     3
170
     0
171
     0
290
     0
174
     0
 93
        1
 44
0.0
173
     0
291
     0
 45
0.0
1001
ACAD
1000
AcDbSavedByObjectVersion
1070
     0
  0
VISUALSTYLE
  5
9D8E
102
{ACAD_XDICTIONARY
360
B332
102
}
102
{ACAD_REACTORS
330
9D87
102
}
330
9D87
100
AcDbVisualStyle
  2

 70
     5
 71
     0
 72
     2
 73
     0
 90
        0
 40
-0.6
 41
-30.0
 62
     5
 63
     7
 74
     1
 91
        4
 64
     7
 65
   257
 75
     1
175
     1
 42
1.0
 92
        0
 66
   257
 43
1.0
 76
     1
 77
     6
 78
     2
 67
     7
 79
     5
170
     0
171
     0
290
     0
174
     0
 93
        1
 44
0.0
173
     0
291
     0
 45
0.0
1001
ACAD
1000
AcDbSavedByObjectVersion
1070
     0
  0
VISUALSTYLE
  5
9D8C
102
{ACAD_XDICTIONARY
360
B32E
102
}
102
{ACAD_REACTORS
330
9D87
102
}
330
9D87
100
AcDbVisualStyle
  2

 70
     7
 71
     1
 72
     0
 73
     1
 90
        0
 40
-0.6
 41
-30.0
 62
     5
 63
     7
 74
     0
 91
        4
 64
     7
 65
   257
 75
     1
175
     1
 42
1.0
 92
        8
 66
     7
 43
1.0
 76
     1
 77
     6
 78
     2
 67
     7
 79
     5
170
     0
171
     0
290
     0
174
     0
 93
        1
 44
0.0
173
     0
291
     1
 45
0.0
1001
ACAD
1000
AcDbSavedByObjectVersion
1070
     0
  0
VISUALSTYLE
  5
9D93
102
{ACAD_XDICTIONARY
360
B33C
102
}
102
{ACAD_REACTORS
330
9D87
102
}
330
9D87
100
AcDbVisualStyle
  2

 70
    12
 71
     2
 72
     2
 73
     0
 90
        0
 40
-0.6
 41
-30.0
 62
     5
 63
     7
 74
     1
 91
        4
 64
     7
 65
   257
 75
     1
175
     1
 42
1.0
 92
        8
 66
     7
 43
1.0
 76
     1
 77
     6
 78
     2
 67
     7
 79
     5
170
     0
171
     0
290
     0
174
     0
 93
        1
 44
50.0
173
     0
291
     1
 45
0.0
1001
ACAD
1000
AcDbSavedByObjectVersion
1070
     0
  0
VISUALSTYLE
  5
9D97
102
{ACAD_XDICTIONARY
360
B344
102
}
102
{ACAD_REACTORS
330
9D87
102
}
330
9D87
100
AcDbVisualStyle
  2

 70
    16
 71
     2
 72
     2
 73
     3
 90
        0
 40
-0.6
 41
-30.0
 62
     5
 63
     8
 74
     1
 91
        4
 64
     7
 65
   257
 75
     1
175
     1
 42
1.0
 92
        8
 66
     8
 43
1.0
 76
     1
 77
     6
 78
     2
 67
     7
 79
     5
170
     0
171
     0
290
     0
174
     0
 93
        1
 44
0.0
173
     0
291
     1
 45
0.0
1001
ACAD
1000
AcDbSavedByObjectVersion
1070
     0
  0
VISUALSTYLE
  5
9D90
102
{ACAD_XDICTIONARY
360
B336
102
}
102
{ACAD_REACTORS
330
9D87
102
}
330
9D87
100
AcDbVisualStyle
  2

 70
     9
 71
     3
 72
     2
 73
     0
 90
        0
 40
-0.6
 41
-30.0
 62
     5
 63
     7
 74
     2
 91
        2
 64
     7
 65
   257
 75
     1
175
     1
 42
40.0
 92
        8
 66
     7
 43
1.0
 76
     1
 77
     6
 78
     2
 67
     7
 79
     3
170
     0
171
     0
290
     0
174
     0
 93
        1
 44
0.0
173
     0
291
     0
 45
0.0
1001
ACAD
1000
AcDbSavedByObjectVersion
1070
     0
  0
VISUALSTYLE
  5
9D92
102
{ACAD_XDICTIONARY
360
B33A
102
}
102
{ACAD_REACTORS
330
9D87
102
}
330
9D87
100
AcDbVisualStyle
  2

 70
    11
 71
     2
 72
     2
 73
     0
 90
        0
 40
-0.6
 41
-30.0
 62
     5
 63
     7
 74
     1
 91
        4
 64
     7
 65
   257
 75
     1
175
     1
 42
1.0
 92
        8
 66
     7
 43
1.0
 76
     1
 77
     6
 78
     2
 67
     7
 79
     5
170
     0
171
     0
290
     0
174
     0
 93
        1
 44
-50.0
173
     0
291
     1
 45
0.0
1001
ACAD
1000
AcDbSavedByObjectVersion
1070
     0
  0
VISUALSTYLE
  5
9E8E
102
{ACAD_XDICTIONARY
360
B358
102
}
102
{ACAD_REACTORS
330
9D87
102
}
330
9D87
100
AcDbVisualStyle
  2
EdgeColorOff
 70
    22
 71
     2
 72
     2
 73
     0
 90
        0
 40
-0.6
 41
-30.0
 62
     5
 63
     7
 74
     1
 91
        4
 64
     7
 65
   257
 75
     1
175
     1
 42
1.0
 92
        8
 66
     7
 43
1.0
 76
     1
 77
     6
 78
     2
 67
     7
 79
     5
170
     0
171
     0
290
     0
174
     0
 93
        1
 44
0.0
173
     0
291
     1
 45
0.0
1001
ACAD
1000
AcDbSavedByObjectVersion
1070
     0
  0
VISUALSTYLE
  5
9D96
102
{ACAD_XDICTIONARY
360
B342
102
}
102
{ACAD_REACTORS
330
9D87
102
}
330
9D87
100
AcDbVisualStyle
  2

 70
    15
 71
     2
 72
     2
 73
     0
 90
        0
 40
-0.6
 41
-30.0
 62
     5
 63
     7
 74
     1
 91
        4
 64
     7
 65
   257
 75
     1
175
     1
 42
1.0
 92
        8
 66
     7
 43
1.0
 76
     1
 77
     6
 78
     2
 67
     7
 79
     5
170
     0
171
     0
290
     0
174
     0
 93
        1
 44
0.0
173
     0
291
     1
 45
0.0
1001
ACAD
1000
AcDbSavedByObjectVersion
1070
     0
  0
VISUALSTYLE
  5
9D88
102
{ACAD_XDICTIONARY
360
B326
102
}
102
{ACAD_REACTORS
330
9D87
102
}
330
9D87
100
AcDbVisualStyle
  2

 70
     0
 71
     2
 72
     1
 73
     1
 90
        2
 40
-0.6
 41
30.0
 62
     5
 63
     7
 74
     0
 91
        4
 64
     7
 65
   257
 75
     1
175
     1
 42
1.0
 92
        8
 66
     7
 43
1.0
 76
     1
 77
     6
 78
     2
 67
     7
 79
     5
170
     0
171
     0
290
     0
174
     0
 93
       13
 44
0.0
173
     0
291
     1
 45
0.0
1001
ACAD
1000
AcDbSavedByObjectVersion
1070
     0
  0
VISUALSTYLE
  5
9D89
102
{ACAD_XDICTIONARY
360
B328
102
}
102
{ACAD_REACTORS
330
9D87
102
}
330
9D87
100
AcDbVisualStyle
  2

 70
     1
 71
     2
 72
     1
 73
     1
 90
        2
 40
-0.6
 41
30.0
 62
     5
 63
     7
 74
     1
 91
        4
 64
     7
 65
   257
 75
     1
175
     1
 42
1.0
 92
        0
 66
   257
 43
1.0
 76
     1
 77
     6
 78
     2
 67
     7
 79
     5
170
     0
171
     0
290
     0
174
     0
 93
       13
 44
0.0
173
     0
291
     1
 45
0.0
1001
ACAD
1000
AcDbSavedByObjectVersion
1070
     0
  0
VISUALSTYLE
  5
9D8A
102
{ACAD_XDICTIONARY
360
B32A
102
}
102
{ACAD_REACTORS
330
9D87
102
}
330
9D87
100
AcDbVisualStyle
  2

 70
     2
 71
     2
 72
     2
 73
     1
 90
        2
 40
-0.6
 41
30.0
 62
     5
 63
     7
 74
     0
 91
        4
 64
     7
 65
   257
 75
     1
175
     1
 42
1.0
 92
        0
 66
     7
 43
1.0
 76
     1
 77
     6
 78
     2
 67
     7
 79
     5
170
     0
171
     0
290
     0
174
     0
 93
       13
 44
0.0
173
     0
291
     1
 45
0.0
1001
ACAD
1000
AcDbSavedByObjectVersion
1070
     0
  0
VISUALSTYLE
  5
9D8B
102
{ACAD_XDICTIONARY
360
B32C
102
}
102
{ACAD_REACTORS
330
9D87
102
}
330
9D87
100
AcDbVisualStyle
  2

 70
     3
 71
     2
 72
     2
 73
     1
 90
        2
 40
-0.6
 41
30.0
 62
     5
 63
     7
 74
     1
 91
        4
 64
     7
 65
   257
 75
     1
175
     1
 42
1.0
 92
        0
 66
   257
 43
1.0
 76
     1
 77
     6
 78
     2
 67
     7
 79
     5
170
     0
171
     0
290
     0
174
     0
 93
       13
 44
0.0
173
     0
291
     1
 45
0.0
1001
ACAD
1000
AcDbSavedByObjectVersion
1070
     0
  0
VISUALSTYLE
  5
9E86
102
{ACAD_XDICTIONARY
360
B348
102
}
102
{ACAD_REACTORS
330
9D87
102
}
330
9D87
100
AcDbVisualStyle
  2
Hidden
 70
     6
 71
     1
 72
     2
 73
     2
 90
        0
 40
-0.6
 41
-30.0
 62
     5
 63
     7
 74
     2
 91
        2
 64
     7
 65
   257
 75
     2
175
     1
 42
40.0
 92
        0
 66
   257
 43
1.0
 76
     1
 77
     6
 78
     2
 67
     7
 79
     3
170
     0
171
     0
290
     0
174
     0
 93
        1
 44
0.0
173
     0
291
     0
 45
0.0
1001
ACAD
1000
AcDbSavedByObjectVersion
1070
     0
  0
VISUALSTYLE
  5
9E8C
102
{ACAD_XDICTIONARY
360
B354
102
}
102
{ACAD_REACTORS
330
9D87
102
}
330
9D87
100
AcDbVisualStyle
  2
JitterOff
 70
    20
 71
     2
 72
     2
 73
     0
 90
        0
 40
-0.6
 41
-30.0
 62
     5
 63
     7
 74
     1
 91
        4
 64
     7
 65
   257
 75
     1
175
     1
 42
1.0
 92
       10
 66
     7
 43
1.0
 76
     1
 77
     6
 78
     2
 67
     7
 79
     5
170
     0
171
     0
290
     0
174
     0
 93
        1
 44
0.0
173
     0
291
     1
 45
0.0
1001
ACAD
1000
AcDbSavedByObjectVersion
1070
     0
  0
VISUALSTYLE
  5
9D95
102
{ACAD_XDICTIONARY
360
B340
102
}
102
{ACAD_REACTORS
330
9D87
102
}
330
9D87
100
AcDbVisualStyle
  2

 70
    14
 71
     2
 72
     2
 73
     0
 90
        0
 40
-0.6
 41
-30.0
 62
     5
 63
     7
 74
     1
 91
        4
 64
     7
 65
   257
 75
     7
175
     7
 42
1.0
 92
        8
 66
     7
 43
1.0
 76
     1
 77
     6
 78
     2
 67
     7
 79
     5
170
     0
171
     0
290
     0
174
     0
 93
        1
 44
0.0
173
     0
291
     1
 45
0.0
1001
ACAD
1000
AcDbSavedByObjectVersion
1070
     0
  0
VISUALSTYLE
  5
9E8D
102
{ACAD_XDICTIONARY
360
B356
102
}
102
{ACAD_REACTORS
330
9D87
102
}
330
9D87
100
AcDbVisualStyle
  2
OverhangOff
 70
    21
 71
     2
 72
     2
 73
     0
 90
        0
 40
-0.6
 41
-30.0
 62
     5
 63
     7
 74
     1
 91
        4
 64
     7
 65
   257
 75
     1
175
     1
 42
1.0
 92
        9
 66
     7
 43
1.0
 76
     1
 77
     6
 78
     2
 67
     7
 79
     5
170
     0
171
     0
290
     0
174
     0
 93
        1
 44
0.0
173
     0
291
     1
 45
0.0
1001
ACAD
1000
AcDbSavedByObjectVersion
1070
     0
  0
VISUALSTYLE
  5
9D91
102
{ACAD_XDICTIONARY
360
B338
102
}
102
{ACAD_REACTORS
330
9D87
102
}
330
9D87
100
AcDbVisualStyle
  2

 70
     8
 71
     2
 72
     2
 73
     0
 90
        0
 40
-0.6
 41
-30.0
 62
     5
 63
     7
 74
     1
 91
        0
 64
     7
 65
   257
 75
     1
175
     1
 42
1.0
 92
        8
 66
     8
 43
1.0
 76
     1
 77
     6
 78
     2
 67
     7
 79
     5
170
     0
171
     0
290
     0
174
     0
 93
       13
 44
0.0
173
     0
291
     0
 45
0.0
1001
ACAD
1000
AcDbSavedByObjectVersion
1070
     0
  0
VISUALSTYLE
  5
9E8B
102
{ACAD_XDICTIONARY
360
B352
102
}
102
{ACAD_REACTORS
330
9D87
102
}
330
9D87
100
AcDbVisualStyle
  2
Shaded
 70
    27
 71
     2
 72
     2
 73
     1
 90
        2
 40
-0.6
 41
30.0
 62
     5
 63
     7
 74
     0
 91
        4
 64
     7
 65
   257
 75
     1
175
     1
 42
1.0
 92
        8
 66
   257
 43
1.0
 76
     1
 77
     6
 78
     2
 67
     8
 79
     3
170
     0
171
     0
290
     0
174
     0
 93
        5
 44
0.0
173
     0
291
     0
 45
0.0
1001
ACAD
1000
AcDbSavedByObjectVersion
1070
     0
  0
VISUALSTYLE
  5
9E8A
102
{ACAD_XDICTIONARY
360
B350
102
}
102
{ACAD_REACTORS
330
9D87
102
}
330
9D87
100
AcDbVisualStyle
  2
Shaded with edges
 70
    26
 71
     2
 72
     2
 73
     1
 90
        2
 40
-0.6
 41
30.0
 62
     5
 63
     7
 74
     1
 91
       10
 64
     7
 65
   257
 75
     2
175
     1
 42
1.0
 92
        8
 66
   257
 43
1.0
 76
     1
 77
     6
 78
     2
 67
     7
 79
     3
170
     0
171
     0
290
     0
174
     0
 93
        5
 44
0.0
173
     0
291
     0
 45
0.0
1001
ACAD
1000
AcDbSavedByObjectVersion
1070
     0
  0
VISUALSTYLE
  5
9E87
102
{ACAD_XDICTIONARY
360
B34A
102
}
102
{ACAD_REACTORS
330
9D87
102
}
330
9D87
100
AcDbVisualStyle
  2
Shades of Gray
 70
    23
 71
     2
 72
     2
 73
     3
 90
        0
 40
-0.6
 41
-30.0
 62
     5
 63
     7
 74
     2
 91
        2
 64
     7
 65
     7
 75
     1
175
     1
 42
40.0
 92
        8
 66
     7
 43
1.0
 76
     1
 77
     6
 78
     2
 67
     7
 79
     3
170
     0
171
     0
290
     0
174
     0
 93
        1
 44
0.0
173
     0
291
     0
 45
0.0
1001
ACAD
1000
AcDbSavedByObjectVersion
1070
     0
  0
VISUALSTYLE
  5
9E88
102
{ACAD_XDICTIONARY
360
B34C
102
}
102
{ACAD_REACTORS
330
9D87
102
}
330
9D87
100
AcDbVisualStyle
  2
Sketchy
 70
    24
 71
     1
 72
     2
 73
     2
 90
        0
 40
-0.6
 41
-30.0
 62
     5
 63
     7
 74
     2
 91
        2
 64
     7
 65
     7
 75
     1
175
     1
 42
40.0
 92
       11
 66
     7
 43
1.0
 76
     1
 77
     6
 78
     2
 67
     7
 79
     6
170
     0
171
     0
290
     0
174
     0
 93
        1
 44
0.0
173
     0
291
     0
 45
0.0
1001
ACAD
1000
AcDbSavedByObjectVersion
1070
     0
  0
VISUALSTYLE
  5
9D94
102
{ACAD_XDICTIONARY
360
B33E
102
}
102
{ACAD_REACTORS
330
9D87
102
}
330
9D87
100
AcDbVisualStyle
  2

 70
    13
 71
     2
 72
     2
 73
     0
 90
        0
 40
-0.6
 41
-30.0
 62
     5
 63
     7
 74
     1
 91
        4
 64
     7
 65
   257
 75
     1
175
     1
 42
1.0
 92
       12
 66
     7
 43
1.0
 76
     1
 77
     6
 78
     2
 67
     7
 79
     5
170
     0
171
     0
290
     0
174
     0
 93
        1
 44
0.0
173
     0
291
     1
 45
0.0
1001
ACAD
1000
AcDbSavedByObjectVersion
1070
     0
  0
VISUALSTYLE
  5
9E85
102
{ACAD_XDICTIONARY
360
B346
102
}
102
{ACAD_REACTORS
330
9D87
102
}
330
9D87
100
AcDbVisualStyle
  2
Wireframe
 70
     5
 71
     0
 72
     2
 73
     0
 90
        0
 40
-0.6
 41
-30.0
 62
     5
 63
     7
 74
     1
 91
        4
 64
     7
 65
   257
 75
     1
175
     1
 42
1.0
 92
        0
 66
   257
 43
1.0
 76
     1
 77
     6
 78
     2
 67
     7
 79
     3
170
     0
171
     0
290
     0
174
     0
 93
        1
 44
0.0
173
     0
291
     0
 45
0.0
1001
ACAD
1000
AcDbSavedByObjectVersion
1070
     0
  0
VISUALSTYLE
  5
9E89
102
{ACAD_XDICTIONARY
360
B34E
102
}
102
{ACAD_REACTORS
330
9D87
102
}
330
9D87
100
AcDbVisualStyle
  2
X-Ray
 70
    25
 71
     2
 72
     2
 73
     1
 90
        1
 40
0.5
 41
-30.0
 62
     5
 63
     7
 74
     1
 91
        0
 64
     7
 65
   257
 75
     1
175
     1
 42
1.0
 92
        8
 66
     7
 43
1.0
 76
     1
 77
     6
 78
     2
 67
     7
 79
     3
170
     0
171
     0
290
     0
174
     0
 93
       13
 44
0.0
173
     0
291
     0
 45
0.0
1001
ACAD
1000
AcDbSavedByObjectVersion
1070
     0
  0
DICTIONARYVAR
  5
9E6C
102
{ACAD_REACTORS
330
1BF
102
}
330
1BF
100
DictionaryVariables
280
     0
  1
1:1
  0
DICTIONARYVAR
  5
9E6B
102
{ACAD_REACTORS
330
1BF
102
}
330
1BF
100
DictionaryVariables
280
     0
  1
STANDARD
  0
DICTIONARYVAR
  5
9D52
102
{ACAD_REACTORS
330
1BF
102
}
330
1BF
100
DictionaryVariables
280
     0
  1
STANDARD
  0
DICTIONARYVAR
  5
9D53
102
{ACAD_REACTORS
330
1BF
102
}
330
1BF
100
DictionaryVariables
280
     0
  1
1
  0
DICTIONARYVAR
  5
9E6D
102
{ACAD_REACTORS
330
1BF
102
}
330
1BF
100
DictionaryVariables
280
     0
  1
0
  0
DICTIONARYVAR
  5
9D54
102
{ACAD_REACTORS
330
1BF
102
}
330
1BF
100
DictionaryVariables
280
     0
  1

  0
DICTIONARYVAR
  5
1C0
102
{ACAD_REACTORS
330
1BF
102
}
330
1BF
100
DictionaryVariables
280
     0
  1
96
  0
DICTIONARYVAR
  5
B31A
102
{ACAD_REACTORS
330
1BF
102
}
330
1BF
100
DictionaryVariables
280
     0
  1
2
  0
DICTIONARY
  5
B31F
330
9C95
100
AcDbDictionary
280
     1
281
     1
  3
ACAD_XREC_ROUNDTRIP
360
B320
  0
DICTIONARY
  5
B321
330
9C96
100
AcDbDictionary
280
     1
281
     1
  3
ACAD_XREC_ROUNDTRIP
360
B322
  0
DICTIONARY
  5
9D78
330
9D77
100
AcDbDictionary
280
     1
281
     1
  3
ACAD_XREC_ROUNDTRIP
360
B324
  3
BUMPTILE
360
9D7A
  3
DIFFUSETILE
360
9D79
  3
OPACITYTILE
360
9D7D
  3
REFLECTIONTILE
360
9D7C
  3
REFRACTIONTILE
360
9D7E
  3
SPECULARTILE
360
9D7B
  0
DICTIONARY
  5
9D70
330
9D6F
100
AcDbDictionary
280
     1
281
     1
  3
ACAD_XREC_ROUNDTRIP
360
B323
  3
BUMPTILE
360
9D72
  3
DIFFUSETILE
360
9D71
  3
OPACITYTILE
360
9D75
  3
REFLECTIONTILE
360
9D74
  3
REFRACTIONTILE
360
9D76
  3
SPECULARTILE
360
9D73
  0
DICTIONARY
  5
9D80
330
9D7F
100
AcDbDictionary
280
     1
281
     1
  3
ACAD_XREC_ROUNDTRIP
360
B325
  3
BUMPTILE
360
9D82
  3
DIFFUSETILE
360
9D81
  3
OPACITYTILE
360
9D85
  3
REFLECTIONTILE
360
9D84
  3
REFRACTIONTILE
360
9D86
  3
SPECULARTILE
360
9D83
  0
DICTIONARY
  5
9E6E
330
9C92
100
AcDbDictionary
280
     1
281
     1
  3
ACAD_ROUNDTRIP_2008_TABLESTYLE_CELLSTYLEMAP
360
B31B
  3
ACAD_XREC_ROUNDTRIP
360
B31E
  0
DICTIONARY
  5
B330
330
9D8D
100
AcDbDictionary
280
     1
281
     1
  3
ACAD_XREC_ROUNDTRIP
360
B331
  0
DICTIONARY
  5
B334
330
9D8F
100
AcDbDictionary
280
     1
281
     1
  3
ACAD_XREC_ROUNDTRIP
360
B335
  0
DICTIONARY
  5
B332
330
9D8E
100
AcDbDictionary
280
     1
281
     1
  3
ACAD_XREC_ROUNDTRIP
360
B333
  0
DICTIONARY
  5
B32E
330
9D8C
100
AcDbDictionary
280
     1
281
     1
  3
ACAD_XREC_ROUNDTRIP
360
B32F
  0
DICTIONARY
  5
B33C
330
9D93
100
AcDbDictionary
280
     1
281
     1
  3
ACAD_XREC_ROUNDTRIP
360
B33D
  0
DICTIONARY
  5
B344
330
9D97
100
AcDbDictionary
280
     1
281
     1
  3
ACAD_XREC_ROUNDTRIP
360
B345
  0
DICTIONARY
  5
B336
330
9D90
100
AcDbDictionary
280
     1
281
     1
  3
ACAD_XREC_ROUNDTRIP
360
B337
  0
DICTIONARY
  5
B33A
330
9D92
100
AcDbDictionary
280
     1
281
     1
  3
ACAD_XREC_ROUNDTRIP
360
B33B
  0
DICTIONARY
  5
B358
330
9E8E
100
AcDbDictionary
280
     1
281
     1
  3
ACAD_XREC_ROUNDTRIP
360
B359
  0
DICTIONARY
  5
B342
330
9D96
100
AcDbDictionary
280
     1
281
     1
  3
ACAD_XREC_ROUNDTRIP
360
B343
  0
DICTIONARY
  5
B326
330
9D88
100
AcDbDictionary
280
     1
281
     1
  3
ACAD_XREC_ROUNDTRIP
360
B327
  0
DICTIONARY
  5
B328
330
9D89
100
AcDbDictionary
280
     1
281
     1
  3
ACAD_XREC_ROUNDTRIP
360
B329
  0
DICTIONARY
  5
B32A
330
9D8A
100
AcDbDictionary
280
     1
281
     1
  3
ACAD_XREC_ROUNDTRIP
360
B32B
  0
DICTIONARY
  5
B32C
330
9D8B
100
AcDbDictionary
280
     1
281
     1
  3
ACAD_XREC_ROUNDTRIP
360
B32D
  0
DICTIONARY
  5
B348
330
9E86
100
AcDbDictionary
280
     1
281
     1
  3
ACAD_XREC_ROUNDTRIP
360
B349
  0
DICTIONARY
  5
B354
330
9E8C
100
AcDbDictionary
280
     1
281
     1
  3
ACAD_XREC_ROUNDTRIP
360
B355
  0
DICTIONARY
  5
B340
330
9D95
100
AcDbDictionary
280
     1
281
     1
  3
ACAD_XREC_ROUNDTRIP
360
B341
  0
DICTIONARY
  5
B356
330
9E8D
100
AcDbDictionary
280
     1
281
     1
  3
ACAD_XREC_ROUNDTRIP
360
B357
  0
DICTIONARY
  5
B338
330
9D91
100
AcDbDictionary
280
     1
281
     1
  3
ACAD_XREC_ROUNDTRIP
360
B339
  0
DICTIONARY
  5
B352
330
9E8B
100
AcDbDictionary
280
     1
281
     1
  3
ACAD_XREC_ROUNDTRIP
360
B353
  0
DICTIONARY
  5
B350
330
9E8A
100
AcDbDictionary
280
     1
281
     1
  3
ACAD_XREC_ROUNDTRIP
360
B351
  0
DICTIONARY
  5
B34A
330
9E87
100
AcDbDictionary
280
     1
281
     1
  3
ACAD_XREC_ROUNDTRIP
360
B34B
  0
DICTIONARY
  5
B34C
330
9E88
100
AcDbDictionary
280
     1
281
     1
  3
ACAD_XREC_ROUNDTRIP
360
B34D
  0
DICTIONARY
  5
B33E
330
9D94
100
AcDbDictionary
280
     1
281
     1
  3
ACAD_XREC_ROUNDTRIP
360
B33F
  0
DICTIONARY
  5
B346
330
9E85
100
AcDbDictionary
280
     1
281
     1
  3
ACAD_XREC_ROUNDTRIP
360
B347
  0
DICTIONARY
  5
B34E
330
9E89
100
AcDbDictionary
280
     1
281
     1
  3
ACAD_XREC_ROUNDTRIP
360
B34F
  0
XRECORD
  5
B320
102
{ACAD_REACTORS
330
B31F
102
}
330
B31F
100
AcDbXrecord
280
     1
102
SHADEPLOT
 70
     0
102
SHADEPLOTRESLEVEL
 70
     2
102
SHADEPLOTCUSTOMDPI
 70
   300
  0
XRECORD
  5
B322
102
{ACAD_REACTORS
330
B321
102
}
330
B321
100
AcDbXrecord
280
     1
102
SHADEPLOT
 70
     0
102
SHADEPLOTRESLEVEL
 70
     2
102
SHADEPLOTCUSTOMDPI
 70
   300
  0
XRECORD
  5
B324
102
{ACAD_REACTORS
330
9D78
102
}
330
9D78
100
AcDbXrecord
280
     1
102
MATERIAL
148
0.0
149
0.0
149
0.0
 93
        0
 94
      127
282
     0
 72
     0
 77
     0
171
     0
175
     0
179
     0
273
     0
  0
XRECORD
  5
9D7A
102
{ACAD_REACTORS
330
9D78
102
}
330
9D78
100
AcDbXrecord
280
     1
270
     1
271
     1
  0
XRECORD
  5
9D79
102
{ACAD_REACTORS
330
9D78
102
}
330
9D78
100
AcDbXrecord
280
     1
270
     1
271
     1
  0
XRECORD
  5
9D7D
102
{ACAD_REACTORS
330
9D78
102
}
330
9D78
100
AcDbXrecord
280
     1
270
     1
271
     1
  0
XRECORD
  5
9D7C
102
{ACAD_REACTORS
330
9D78
102
}
330
9D78
100
AcDbXrecord
280
     1
270
     1
271
     1
  0
XRECORD
  5
9D7E
102
{ACAD_REACTORS
330
9D78
102
}
330
9D78
100
AcDbXrecord
280
     1
270
     1
271
     1
  0
XRECORD
  5
9D7B
102
{ACAD_REACTORS
330
9D78
102
}
330
9D78
100
AcDbXrecord
280
     1
270
     1
271
     1
  0
XRECORD
  5
B323
102
{ACAD_REACTORS
330
9D70
102
}
330
9D70
100
AcDbXrecord
280
     1
102
MATERIAL
148
0.0
149
0.0
149
0.0
 93
        0
 94
      127
282
     0
 72
     0
 77
     0
171
     0
175
     0
179
     0
273
     0
  0
XRECORD
  5
9D72
102
{ACAD_REACTORS
330
9D70
102
}
330
9D70
100
AcDbXrecord
280
     1
270
     1
271
     1
  0
XRECORD
  5
9D71
102
{ACAD_REACTORS
330
9D70
102
}
330
9D70
100
AcDbXrecord
280
     1
270
     1
271
     1
  0
XRECORD
  5
9D75
102
{ACAD_REACTORS
330
9D70
102
}
330
9D70
100
AcDbXrecord
280
     1
270
     1
271
     1
  0
XRECORD
  5
9D74
102
{ACAD_REACTORS
330
9D70
102
}
330
9D70
100
AcDbXrecord
280
     1
270
     1
271
     1
  0
XRECORD
  5
9D76
102
{ACAD_REACTORS
330
9D70
102
}
330
9D70
100
AcDbXrecord
280
     1
270
     1
271
     1
  0
XRECORD
  5
9D73
102
{ACAD_REACTORS
330
9D70
102
}
330
9D70
100
AcDbXrecord
280
     1
270
     1
271
     1
  0
XRECORD
  5
B325
102
{ACAD_REACTORS
330
9D80
102
}
330
9D80
100
AcDbXrecord
280
     1
102
MATERIAL
148
0.0
149
0.0
149
0.0
 93
        0
 94
      127
282
     0
 72
     0
 77
     0
171
     0
175
     0
179
     0
273
     0
  0
XRECORD
  5
9D82
102
{ACAD_REACTORS
330
9D80
102
}
330
9D80
100
AcDbXrecord
280
     1
270
     1
271
     1
  0
XRECORD
  5
9D81
102
{ACAD_REACTORS
330
9D80
102
}
330
9D80
100
AcDbXrecord
280
     1
270
     1
271
     1
  0
XRECORD
  5
9D85
102
{ACAD_REACTORS
330
9D80
102
}
330
9D80
100
AcDbXrecord
280
     1
270
     1
271
     1
  0
XRECORD
  5
9D84
102
{ACAD_REACTORS
330
9D80
102
}
330
9D80
100
AcDbXrecord
280
     1
270
     1
271
     1
  0
XRECORD
  5
9D86
102
{ACAD_REACTORS
330
9D80
102
}
330
9D80
100
AcDbXrecord
280
     1
270
     1
271
     1
  0
XRECORD
  5
9D83
102
{ACAD_REACTORS
330
9D80
102
}
330
9D80
100
AcDbXrecord
280
     1
270
     1
271
     1
  0
CELLSTYLEMAP
  5
B31B
102
{ACAD_REACTORS
330
9E6E
102
}
330
9E6E
100
AcDbCellStyleMap
 90
        3
300
CELLSTYLE
  1
TABLEFORMAT_BEGIN
 90
        5
170
     1
 91
        0
 92
    32768
 62
   257
 93
        1
300
CONTENTFORMAT
  1
CONTENTFORMAT_BEGIN
 90
        0
 91
        0
 92
        4
 93
        0
300

 40
0.0
140
1.0
 94
        5
 62
     0
340
10
144
0.25
309
CONTENTFORMAT_END
171
     1
301
MARGIN
  1
CELLMARGIN_BEGIN
 40
0.06
 40
0.06
 40
0.06
 40
0.06
 40
0.18
 40
0.18
309
CELLMARGIN_END
 94
        6
 95
        1
302
GRIDFORMAT
  1
GRIDFORMAT_BEGIN
 90
        0
 91
        1
 62
     0
 92
       -2
340
0
 93
        0
 40
0.045
309
GRIDFORMAT_END
 95
        2
302
GRIDFORMAT
  1
GRIDFORMAT_BEGIN
 90
        0
 91
        1
 62
     0
 92
       -2
340
0
 93
        0
 40
0.045
309
GRIDFORMAT_END
 95
        4
302
GRIDFORMAT
  1
GRIDFORMAT_BEGIN
 90
        0
 91
        1
 62
     0
 92
       -2
340
0
 93
        0
 40
0.045
309
GRIDFORMAT_END
 95
        8
302
GRIDFORMAT
  1
GRIDFORMAT_BEGIN
 90
        0
 91
        1
 62
     0
 92
       -2
340
0
 93
        0
 40
0.045
309
GRIDFORMAT_END
 95
       16
302
GRIDFORMAT
  1
GRIDFORMAT_BEGIN
 90
        0
 91
        1
 62
     0
 92
       -2
340
0
 93
        0
 40
0.045
309
GRIDFORMAT_END
 95
       32
302
GRIDFORMAT
  1
GRIDFORMAT_BEGIN
 90
        0
 91
        1
 62
     0
 92
       -2
340
0
 93
        0
 40
0.045
309
GRIDFORMAT_END
309
TABLEFORMAT_END
  1
CELLSTYLE_BEGIN
 90
        1
 91
        1
300
_TITLE
309
CELLSTYLE_END
300
CELLSTYLE
  1
TABLEFORMAT_BEGIN
 90
        5
170
     1
 91
        0
 92
        0
 62
   257
 93
        1
300
CONTENTFORMAT
  1
CONTENTFORMAT_BEGIN
 90
        0
 91
        0
 92
        4
 93
        0
300

 40
0.0
140
1.0
 94
        5
 62
     0
340
10
144
0.18
309
CONTENTFORMAT_END
171
     1
301
MARGIN
  1
CELLMARGIN_BEGIN
 40
0.06
 40
0.06
 40
0.06
 40
0.06
 40
0.18
 40
0.18
309
CELLMARGIN_END
 94
        6
 95
        1
302
GRIDFORMAT
  1
GRIDFORMAT_BEGIN
 90
        0
 91
        1
 62
     0
 92
       -2
340
0
 93
        0
 40
0.045
309
GRIDFORMAT_END
 95
        2
302
GRIDFORMAT
  1
GRIDFORMAT_BEGIN
 90
        0
 91
        1
 62
     0
 92
       -2
340
0
 93
        0
 40
0.045
309
GRIDFORMAT_END
 95
        4
302
GRIDFORMAT
  1
GRIDFORMAT_BEGIN
 90
        0
 91
        1
 62
     0
 92
       -2
340
0
 93
        0
 40
0.045
309
GRIDFORMAT_END
 95
        8
302
GRIDFORMAT
  1
GRIDFORMAT_BEGIN
 90
        0
 91
        1
 62
     0
 92
       -2
340
0
 93
        0
 40
0.045
309
GRIDFORMAT_END
 95
       16
302
GRIDFORMAT
  1
GRIDFORMAT_BEGIN
 90
        0
 91
        1
 62
     0
 92
       -2
340
0
 93
        0
 40
0.045
309
GRIDFORMAT_END
 95
       32
302
GRIDFORMAT
  1
GRIDFORMAT_BEGIN
 90
        0
 91
        1
 62
     0
 92
       -2
340
0
 93
        0
 40
0.045
309
GRIDFORMAT_END
309
TABLEFORMAT_END
  1
CELLSTYLE_BEGIN
 90
        2
 91
        1
300
_HEADER
309
CELLSTYLE_END
300
CELLSTYLE
  1
TABLEFORMAT_BEGIN
 90
        5
170
     1
 91
        0
 92
        0
 62
   257
 93
        1
300
CONTENTFORMAT
  1
CONTENTFORMAT_BEGIN
 90
        0
 91
        0
 92
        4
 93
        0
300

 40
0.0
140
1.0
 94
        2
 62
     0
340
10
144
0.18
309
CONTENTFORMAT_END
171
     1
301
MARGIN
  1
CELLMARGIN_BEGIN
 40
0.06
 40
0.06
 40
0.06
 40
0.06
 40
0.18
 40
0.18
309
CELLMARGIN_END
 94
        6
 95
        1
302
GRIDFORMAT
  1
GRIDFORMAT_BEGIN
 90
        0
 91
        1
 62
     0
 92
       -2
340
0
 93
        0
 40
0.045
309
GRIDFORMAT_END
 95
        2
302
GRIDFORMAT
  1
GRIDFORMAT_BEGIN
 90
        0
 91
        1
 62
     0
 92
       -2
340
0
 93
        0
 40
0.045
309
GRIDFORMAT_END
 95
        4
302
GRIDFORMAT
  1
GRIDFORMAT_BEGIN
 90
        0
 91
        1
 62
     0
 92
       -2
340
0
 93
        0
 40
0.045
309
GRIDFORMAT_END
 95
        8
302
GRIDFORMAT
  1
GRIDFORMAT_BEGIN
 90
        0
 91
        1
 62
     0
 92
       -2
340
0
 93
        0
 40
0.045
309
GRIDFORMAT_END
 95
       16
302
GRIDFORMAT
  1
GRIDFORMAT_BEGIN
 90
        0
 91
        1
 62
     0
 92
       -2
340
0
 93
        0
 40
0.045
309
GRIDFORMAT_END
 95
       32
302
GRIDFORMAT
  1
GRIDFORMAT_BEGIN
 90
        0
 91
        1
 62
     0
 92
       -2
340
0
 93
        0
 40
0.045
309
GRIDFORMAT_END
309
TABLEFORMAT_END
  1
CELLSTYLE_BEGIN
 90
        3
 91
        2
300
_DATA
309
CELLSTYLE_END
  0
XRECORD
  5
B31E
102
{ACAD_REACTORS
330
9E6E
102
}
330
9E6E
100
AcDbXrecord
280
     1
102
ACAD_ROUNDTRIP_PRE2007_TABLESTYLE
 90
        4
 91
        0
  1

 92
        4
 93
        0
  2

 94
        4
 95
        0
  3

  0
XRECORD
  5
B331
102
{ACAD_REACTORS
330
B330
102
}
330
B330
100
AcDbXrecord
280
     1
102
RTVSPropertyOp0
 70
     1
102
RTVSPropertyOp1
 70
     1
102
RTVSPropertyOp2
 70
     1
102
RTVSPropertyOp3
 70
     1
102
RTVSPropertyOp4
 70
     1
102
RTVSPropertyOp5
 70
     1
102
RTVSPropertyOp6
 70
     1
102
RTVSPropertyOp7
 70
     1
102
RTVSPropertyOp8
 70
     1
102
RTVSPropertyOp9
 70
     1
102
RTVSPropertyOp10
 70
     1
102
RTVSPropertyOp11
 70
     1
102
RTVSPropertyOp12
 70
     1
102
RTVSPropertyOp13
 70
     1
102
RTVSPropertyOp14
 70
     1
102
RTVSPropertyOp15
 70
     1
102
RTVSPropertyOp16
 70
     1
102
RTVSPropertyOp17
 70
     1
102
RTVSPropertyOp18
 70
     1
102
RTVSPropertyOp19
 70
     1
102
RTVSPropertyOp20
 70
     1
102
RTVSPropertyOp21
 70
     1
102
RTVSPropertyOp22
 70
     1
102
RTVSPropertyOp23
 70
     1
102
RTVSPropertyOp24
 70
     1
102
RTVSPropertyOp25
 70
     1
102
RTVSPropertyOp26
 70
     1
102
RTVSPropertyOp27
 70
     1
102
RTVSPropertyOp28
 70
     1
102
RTVSPropertyOp29
 70
     1
102
RTVSPropertyOp30
 70
     1
102
RTVSPropertyOp31
 70
     1
102
RTVSPropertyOp32
 70
     1
  0
XRECORD
  5
B335
102
{ACAD_REACTORS
330
B334
102
}
330
B334
100
AcDbXrecord
280
     1
102
RTVSPropertyOp0
 70
     1
102
RTVSPropertyOp1
 70
     1
102
RTVSPropertyOp2
 70
     1
102
RTVSPropertyOp3
 70
     1
102
RTVSPropertyOp4
 70
     1
102
RTVSPropertyOp5
 70
     1
102
RTVSPropertyOp6
 70
     1
102
RTVSPropertyOp7
 70
     1
102
RTVSPropertyOp8
 70
     1
102
RTVSPropertyOp9
 70
     1
102
RTVSPropertyOp10
 70
     1
102
RTVSPropertyOp11
 70
     1
102
RTVSPropertyOp12
 70
     1
102
RTVSPropertyOp13
 70
     1
102
RTVSPropertyOp14
 70
     1
102
RTVSPropertyOp15
 70
     1
102
RTVSPropertyOp16
 70
     1
102
RTVSPropertyOp17
 70
     1
102
RTVSPropertyOp18
 70
     1
102
RTVSPropertyOp19
 70
     1
102
RTVSPropertyOp20
 70
     1
102
RTVSPropertyOp21
 70
     1
102
RTVSPropertyOp22
 70
     1
102
RTVSPropertyOp23
 70
     1
102
RTVSPropertyOp24
 70
     1
102
RTVSPropertyOp25
 70
     1
102
RTVSPropertyOp26
 70
     1
102
RTVSPropertyOp27
 70
     1
102
RTVSPropertyOp28
 70
     1
102
RTVSPropertyOp29
 70
     1
102
RTVSPropertyOp30
 70
     1
102
RTVSPropertyOp31
 70
     1
102
RTVSPropertyOp32
 70
     1
  0
XRECORD
  5
B333
102
{ACAD_REACTORS
330
B332
102
}
330
B332
100
AcDbXrecord
280
     1
102
RTVSPropertyOp0
 70
     1
102
RTVSPropertyOp1
 70
     1
102
RTVSPropertyOp2
 70
     1
102
RTVSPropertyOp3
 70
     1
102
RTVSPropertyOp4
 70
     1
102
RTVSPropertyOp5
 70
     1
102
RTVSPropertyOp6
 70
     1
102
RTVSPropertyOp7
 70
     1
102
RTVSPropertyOp8
 70
     1
102
RTVSPropertyOp9
 70
     1
102
RTVSPropertyOp10
 70
     1
102
RTVSPropertyOp11
 70
     1
102
RTVSPropertyOp12
 70
     1
102
RTVSPropertyOp13
 70
     1
102
RTVSPropertyOp14
 70
     1
102
RTVSPropertyOp15
 70
     1
102
RTVSPropertyOp16
 70
     1
102
RTVSPropertyOp17
 70
     1
102
RTVSPropertyOp18
 70
     1
102
RTVSPropertyOp19
 70
     1
102
RTVSPropertyOp20
 70
     1
102
RTVSPropertyOp21
 70
     1
102
RTVSPropertyOp22
 70
     1
102
RTVSPropertyOp23
 70
     1
102
RTVSPropertyOp24
 70
     1
102
RTVSPropertyOp25
 70
     1
102
RTVSPropertyOp26
 70
     1
102
RTVSPropertyOp27
 70
     1
102
RTVSPropertyOp28
 70
     1
102
RTVSPropertyOp29
 70
     1
102
RTVSPropertyOp30
 70
     1
102
RTVSPropertyOp31
 70
     1
102
RTVSPropertyOp32
 70
     1
  0
XRECORD
  5
B32F
102
{ACAD_REACTORS
330
B32E
102
}
330
B32E
100
AcDbXrecord
280
     1
102
RTVSPropertyOp0
 70
     1
102
RTVSPropertyOp1
 70
     1
102
RTVSPropertyOp2
 70
     1
102
RTVSPropertyOp3
 70
     1
102
RTVSPropertyOp4
 70
     1
102
RTVSPropertyOp5
 70
     1
102
RTVSPropertyOp6
 70
     1
102
RTVSPropertyOp7
 70
     1
102
RTVSPropertyOp8
 70
     1
102
RTVSPropertyOp9
 70
     1
102
RTVSPropertyOp10
 70
     1
102
RTVSPropertyOp11
 70
     1
102
RTVSPropertyOp12
 70
     1
102
RTVSPropertyOp13
 70
     1
102
RTVSPropertyOp14
 70
     1
102
RTVSPropertyOp15
 70
     1
102
RTVSPropertyOp16
 70
     1
102
RTVSPropertyOp17
 70
     1
102
RTVSPropertyOp18
 70
     1
102
RTVSPropertyOp19
 70
     1
102
RTVSPropertyOp20
 70
     1
102
RTVSPropertyOp21
 70
     1
102
RTVSPropertyOp22
 70
     1
102
RTVSPropertyOp23
 70
     1
102
RTVSPropertyOp24
 70
     1
102
RTVSPropertyOp25
 70
     1
102
RTVSPropertyOp26
 70
     1
102
RTVSPropertyOp27
 70
     1
102
RTVSPropertyOp28
 70
     1
102
RTVSPropertyOp29
 70
     1
102
RTVSPropertyOp30
 70
     1
102
RTVSPropertyOp31
 70
     1
102
RTVSPropertyOp32
 70
     1
  0
XRECORD
  5
B33D
102
{ACAD_REACTORS
330
B33C
102
}
330
B33C
100
AcDbXrecord
280
     1
102
RTVSPropertyOp0
 70
     1
102
RTVSPropertyOp1
 70
     1
102
RTVSPropertyOp2
 70
     1
102
RTVSPropertyOp3
 70
     1
102
RTVSPropertyOp4
 70
     1
102
RTVSPropertyOp5
 70
     1
102
RTVSPropertyOp6
 70
     1
102
RTVSPropertyOp7
 70
     1
102
RTVSPropertyOp8
 70
     1
102
RTVSPropertyOp9
 70
     1
102
RTVSPropertyOp10
 70
     1
102
RTVSPropertyOp11
 70
     1
102
RTVSPropertyOp12
 70
     1
102
RTVSPropertyOp13
 70
     1
102
RTVSPropertyOp14
 70
     1
102
RTVSPropertyOp15
 70
     1
102
RTVSPropertyOp16
 70
     1
102
RTVSPropertyOp17
 70
     1
102
RTVSPropertyOp18
 70
     1
102
RTVSPropertyOp19
 70
     1
102
RTVSPropertyOp20
 70
     1
102
RTVSPropertyOp21
 70
     1
102
RTVSPropertyOp22
 70
     1
102
RTVSPropertyOp23
 70
     1
102
RTVSPropertyOp24
 70
     1
102
RTVSPropertyOp25
 70
     1
102
RTVSPropertyOp26
 70
     1
102
RTVSPropertyOp27
 70
     1
102
RTVSPropertyOp28
 70
     1
102
RTVSPropertyOp29
 70
     1
102
RTVSPropertyOp30
 70
     1
102
RTVSPropertyOp31
 70
     1
102
RTVSPropertyOp32
 70
     1
  0
XRECORD
  5
B345
102
{ACAD_REACTORS
330
B344
102
}
330
B344
100
AcDbXrecord
280
     1
102
RTVSPropertyOp0
 70
     1
102
RTVSPropertyOp1
 70
     1
102
RTVSPropertyOp2
 70
     1
102
RTVSPropertyOp3
 70
     1
102
RTVSPropertyOp4
 70
     1
102
RTVSPropertyOp5
 70
     1
102
RTVSPropertyOp6
 70
     1
102
RTVSPropertyOp7
 70
     1
102
RTVSPropertyOp8
 70
     1
102
RTVSPropertyOp9
 70
     1
102
RTVSPropertyOp10
 70
     1
102
RTVSPropertyOp11
 70
     1
102
RTVSPropertyOp12
 70
     1
102
RTVSPropertyOp13
 70
     1
102
RTVSPropertyOp14
 70
     1
102
RTVSPropertyOp15
 70
     1
102
RTVSPropertyOp16
 70
     1
102
RTVSPropertyOp17
 70
     1
102
RTVSPropertyOp18
 70
     1
102
RTVSPropertyOp19
 70
     1
102
RTVSPropertyOp20
 70
     1
102
RTVSPropertyOp21
 70
     1
102
RTVSPropertyOp22
 70
     1
102
RTVSPropertyOp23
 70
     1
102
RTVSPropertyOp24
 70
     1
102
RTVSPropertyOp25
 70
     1
102
RTVSPropertyOp26
 70
     1
102
RTVSPropertyOp27
 70
     1
102
RTVSPropertyOp28
 70
     1
102
RTVSPropertyOp29
 70
     1
102
RTVSPropertyOp30
 70
     1
102
RTVSPropertyOp31
 70
     1
102
RTVSPropertyOp32
 70
     1
  0
XRECORD
  5
B337
102
{ACAD_REACTORS
330
B336
102
}
330
B336
100
AcDbXrecord
280
     1
102
RTVSPropertyOp0
 70
     1
102
RTVSPropertyOp1
 70
     1
102
RTVSPropertyOp2
 70
     1
102
RTVSPropertyOp3
 70
     1
102
RTVSPropertyOp4
 70
     1
102
RTVSPropertyOp5
 70
     1
102
RTVSPropertyOp6
 70
     1
102
RTVSPropertyOp7
 70
     1
102
RTVSPropertyOp8
 70
     1
102
RTVSPropertyOp9
 70
     1
102
RTVSPropertyOp10
 70
     1
102
RTVSPropertyOp11
 70
     1
102
RTVSPropertyOp12
 70
     1
102
RTVSPropertyOp13
 70
     1
102
RTVSPropertyOp14
 70
     1
102
RTVSPropertyOp15
 70
     1
102
RTVSPropertyOp16
 70
     1
102
RTVSPropertyOp17
 70
     1
102
RTVSPropertyOp18
 70
     1
102
RTVSPropertyOp19
 70
     1
102
RTVSPropertyOp20
 70
     1
102
RTVSPropertyOp21
 70
     1
102
RTVSPropertyOp22
 70
     1
102
RTVSPropertyOp23
 70
     1
102
RTVSPropertyOp24
 70
     1
102
RTVSPropertyOp25
 70
     1
102
RTVSPropertyOp26
 70
     1
102
RTVSPropertyOp27
 70
     1
102
RTVSPropertyOp28
 70
     1
102
RTVSPropertyOp29
 70
     1
102
RTVSPropertyOp30
 70
     1
102
RTVSPropertyOp31
 70
     1
102
RTVSPropertyOp32
 70
     1
  0
XRECORD
  5
B33B
102
{ACAD_REACTORS
330
B33A
102
}
330
B33A
100
AcDbXrecord
280
     1
102
RTVSPropertyOp0
 70
     1
102
RTVSPropertyOp1
 70
     1
102
RTVSPropertyOp2
 70
     1
102
RTVSPropertyOp3
 70
     1
102
RTVSPropertyOp4
 70
     1
102
RTVSPropertyOp5
 70
     1
102
RTVSPropertyOp6
 70
     1
102
RTVSPropertyOp7
 70
     1
102
RTVSPropertyOp8
 70
     1
102
RTVSPropertyOp9
 70
     1
102
RTVSPropertyOp10
 70
     1
102
RTVSPropertyOp11
 70
     1
102
RTVSPropertyOp12
 70
     1
102
RTVSPropertyOp13
 70
     1
102
RTVSPropertyOp14
 70
     1
102
RTVSPropertyOp15
 70
     1
102
RTVSPropertyOp16
 70
     1
102
RTVSPropertyOp17
 70
     1
102
RTVSPropertyOp18
 70
     1
102
RTVSPropertyOp19
 70
     1
102
RTVSPropertyOp20
 70
     1
102
RTVSPropertyOp21
 70
     1
102
RTVSPropertyOp22
 70
     1
102
RTVSPropertyOp23
 70
     1
102
RTVSPropertyOp24
 70
     1
102
RTVSPropertyOp25
 70
     1
102
RTVSPropertyOp26
 70
     1
102
RTVSPropertyOp27
 70
     1
102
RTVSPropertyOp28
 70
     1
102
RTVSPropertyOp29
 70
     1
102
RTVSPropertyOp30
 70
     1
102
RTVSPropertyOp31
 70
     1
102
RTVSPropertyOp32
 70
     1
  0
XRECORD
  5
B359
102
{ACAD_REACTORS
330
B358
102
}
330
B358
100
AcDbXrecord
280
     1
102
RTVSPropertyOp0
 70
     0
102
RTVSPropertyOp1
 70
     0
102
RTVSPropertyOp2
 70
     0
102
RTVSPropertyOp3
 70
     0
102
RTVSPropertyOp4
 70
     0
102
RTVSPropertyOp5
 70
     0
102
RTVSPropertyOp6
 70
     0
102
RTVSPropertyOp7
 70
     0
102
RTVSPropertyOp8
 70
     0
102
RTVSPropertyOp9
 70
     0
102
RTVSPropertyOp10
 70
     0
102
RTVSPropertyOp11
 70
     0
102
RTVSPropertyOp12
 70
     0
102
RTVSPropertyOp13
 70
     0
102
RTVSPropertyOp14
 70
     2
102
RTVSPropertyOp15
 70
     0
102
RTVSPropertyOp16
 70
     0
102
RTVSPropertyOp17
 70
     0
102
RTVSPropertyOp18
 70
     0
102
RTVSPropertyOp19
 70
     0
102
RTVSPropertyOp20
 70
     0
102
RTVSPropertyOp21
 70
     0
102
RTVSPropertyOp22
 70
     0
102
RTVSPropertyOp23
 70
     0
102
RTVSPropertyOp24
 70
     0
102
RTVSPropertyOp25
 70
     0
102
RTVSPropertyOp26
 70
     0
102
RTVSPropertyOp27
 70
     0
102
RTVSPropertyOp28
 70
     0
102
RTVSPropertyOp29
 70
     0
102
RTVSPropertyOp30
 70
     0
102
RTVSPropertyOp31
 70
     0
102
RTVSPropertyOp32
 70
     0
  0
XRECORD
  5
B343
102
{ACAD_REACTORS
330
B342
102
}
330
B342
100
AcDbXrecord
280
     1
102
RTVSPropertyOp0
 70
     1
102
RTVSPropertyOp1
 70
     1
102
RTVSPropertyOp2
 70
     1
102
RTVSPropertyOp3
 70
     1
102
RTVSPropertyOp4
 70
     1
102
RTVSPropertyOp5
 70
     1
102
RTVSPropertyOp6
 70
     1
102
RTVSPropertyOp7
 70
     1
102
RTVSPropertyOp8
 70
     1
102
RTVSPropertyOp9
 70
     1
102
RTVSPropertyOp10
 70
     1
102
RTVSPropertyOp11
 70
     1
102
RTVSPropertyOp12
 70
     1
102
RTVSPropertyOp13
 70
     1
102
RTVSPropertyOp14
 70
     1
102
RTVSPropertyOp15
 70
     1
102
RTVSPropertyOp16
 70
     1
102
RTVSPropertyOp17
 70
     1
102
RTVSPropertyOp18
 70
     1
102
RTVSPropertyOp19
 70
     1
102
RTVSPropertyOp20
 70
     1
102
RTVSPropertyOp21
 70
     1
102
RTVSPropertyOp22
 70
     1
102
RTVSPropertyOp23
 70
     1
102
RTVSPropertyOp24
 70
     1
102
RTVSPropertyOp25
 70
     1
102
RTVSPropertyOp26
 70
     1
102
RTVSPropertyOp27
 70
     1
102
RTVSPropertyOp28
 70
     1
102
RTVSPropertyOp29
 70
     1
102
RTVSPropertyOp30
 70
     1
102
RTVSPropertyOp31
 70
     1
102
RTVSPropertyOp32
 70
     1
  0
XRECORD
  5
B327
102
{ACAD_REACTORS
330
B326
102
}
330
B326
100
AcDbXrecord
280
     1
102
RTVSPropertyOp0
 70
     1
102
RTVSPropertyOp1
 70
     1
102
RTVSPropertyOp2
 70
     1
102
RTVSPropertyOp3
 70
     1
102
RTVSPropertyOp4
 70
     1
102
RTVSPropertyOp5
 70
     1
102
RTVSPropertyOp6
 70
     1
102
RTVSPropertyOp7
 70
     1
102
RTVSPropertyOp8
 70
     1
102
RTVSPropertyOp9
 70
     1
102
RTVSPropertyOp10
 70
     1
102
RTVSPropertyOp11
 70
     1
102
RTVSPropertyOp12
 70
     1
102
RTVSPropertyOp13
 70
     1
102
RTVSPropertyOp14
 70
     1
102
RTVSPropertyOp15
 70
     1
102
RTVSPropertyOp16
 70
     1
102
RTVSPropertyOp17
 70
     1
102
RTVSPropertyOp18
 70
     1
102
RTVSPropertyOp19
 70
     1
102
RTVSPropertyOp20
 70
     1
102
RTVSPropertyOp21
 70
     1
102
RTVSPropertyOp22
 70
     1
102
RTVSPropertyOp23
 70
     1
102
RTVSPropertyOp24
 70
     1
102
RTVSPropertyOp25
 70
     1
102
RTVSPropertyOp26
 70
     1
102
RTVSPropertyOp27
 70
     1
102
RTVSPropertyOp28
 70
     1
102
RTVSPropertyOp29
 70
     1
102
RTVSPropertyOp30
 70
     1
102
RTVSPropertyOp31
 70
     1
102
RTVSPropertyOp32
 70
     1
  0
XRECORD
  5
B329
102
{ACAD_REACTORS
330
B328
102
}
330
B328
100
AcDbXrecord
280
     1
102
RTVSPropertyOp0
 70
     1
102
RTVSPropertyOp1
 70
     1
102
RTVSPropertyOp2
 70
     1
102
RTVSPropertyOp3
 70
     1
102
RTVSPropertyOp4
 70
     1
102
RTVSPropertyOp5
 70
     1
102
RTVSPropertyOp6
 70
     1
102
RTVSPropertyOp7
 70
     1
102
RTVSPropertyOp8
 70
     1
102
RTVSPropertyOp9
 70
     1
102
RTVSPropertyOp10
 70
     1
102
RTVSPropertyOp11
 70
     1
102
RTVSPropertyOp12
 70
     1
102
RTVSPropertyOp13
 70
     1
102
RTVSPropertyOp14
 70
     1
102
RTVSPropertyOp15
 70
     1
102
RTVSPropertyOp16
 70
     1
102
RTVSPropertyOp17
 70
     1
102
RTVSPropertyOp18
 70
     1
102
RTVSPropertyOp19
 70
     1
102
RTVSPropertyOp20
 70
     1
102
RTVSPropertyOp21
 70
     1
102
RTVSPropertyOp22
 70
     1
102
RTVSPropertyOp23
 70
     1
102
RTVSPropertyOp24
 70
     1
102
RTVSPropertyOp25
 70
     1
102
RTVSPropertyOp26
 70
     1
102
RTVSPropertyOp27
 70
     1
102
RTVSPropertyOp28
 70
     1
102
RTVSPropertyOp29
 70
     1
102
RTVSPropertyOp30
 70
     1
102
RTVSPropertyOp31
 70
     1
102
RTVSPropertyOp32
 70
     1
  0
XRECORD
  5
B32B
102
{ACAD_REACTORS
330
B32A
102
}
330
B32A
100
AcDbXrecord
280
     1
102
RTVSPropertyOp0
 70
     1
102
RTVSPropertyOp1
 70
     1
102
RTVSPropertyOp2
 70
     1
102
RTVSPropertyOp3
 70
     1
102
RTVSPropertyOp4
 70
     1
102
RTVSPropertyOp5
 70
     1
102
RTVSPropertyOp6
 70
     1
102
RTVSPropertyOp7
 70
     1
102
RTVSPropertyOp8
 70
     1
102
RTVSPropertyOp9
 70
     1
102
RTVSPropertyOp10
 70
     1
102
RTVSPropertyOp11
 70
     1
102
RTVSPropertyOp12
 70
     1
102
RTVSPropertyOp13
 70
     1
102
RTVSPropertyOp14
 70
     1
102
RTVSPropertyOp15
 70
     1
102
RTVSPropertyOp16
 70
     1
102
RTVSPropertyOp17
 70
     1
102
RTVSPropertyOp18
 70
     1
102
RTVSPropertyOp19
 70
     1
102
RTVSPropertyOp20
 70
     1
102
RTVSPropertyOp21
 70
     1
102
RTVSPropertyOp22
 70
     1
102
RTVSPropertyOp23
 70
     1
102
RTVSPropertyOp24
 70
     1
102
RTVSPropertyOp25
 70
     1
102
RTVSPropertyOp26
 70
     1
102
RTVSPropertyOp27
 70
     1
102
RTVSPropertyOp28
 70
     1
102
RTVSPropertyOp29
 70
     1
102
RTVSPropertyOp30
 70
     1
102
RTVSPropertyOp31
 70
     1
102
RTVSPropertyOp32
 70
     1
  0
XRECORD
  5
B32D
102
{ACAD_REACTORS
330
B32C
102
}
330
B32C
100
AcDbXrecord
280
     1
102
RTVSPropertyOp0
 70
     1
102
RTVSPropertyOp1
 70
     1
102
RTVSPropertyOp2
 70
     1
102
RTVSPropertyOp3
 70
     1
102
RTVSPropertyOp4
 70
     1
102
RTVSPropertyOp5
 70
     1
102
RTVSPropertyOp6
 70
     1
102
RTVSPropertyOp7
 70
     1
102
RTVSPropertyOp8
 70
     1
102
RTVSPropertyOp9
 70
     1
102
RTVSPropertyOp10
 70
     1
102
RTVSPropertyOp11
 70
     1
102
RTVSPropertyOp12
 70
     1
102
RTVSPropertyOp13
 70
     1
102
RTVSPropertyOp14
 70
     1
102
RTVSPropertyOp15
 70
     1
102
RTVSPropertyOp16
 70
     1
102
RTVSPropertyOp17
 70
     1
102
RTVSPropertyOp18
 70
     1
102
RTVSPropertyOp19
 70
     1
102
RTVSPropertyOp20
 70
     1
102
RTVSPropertyOp21
 70
     1
102
RTVSPropertyOp22
 70
     1
102
RTVSPropertyOp23
 70
     1
102
RTVSPropertyOp24
 70
     1
102
RTVSPropertyOp25
 70
     1
102
RTVSPropertyOp26
 70
     1
102
RTVSPropertyOp27
 70
     1
102
RTVSPropertyOp28
 70
     1
102
RTVSPropertyOp29
 70
     1
102
RTVSPropertyOp30
 70
     1
102
RTVSPropertyOp31
 70
     1
102
RTVSPropertyOp32
 70
     1
  0
XRECORD
  5
B349
102
{ACAD_REACTORS
330
B348
102
}
330
B348
100
AcDbXrecord
280
     1
102
RTVSPropertyOp0
 70
     1
102
RTVSPropertyOp1
 70
     1
102
RTVSPropertyOp2
 70
     1
102
RTVSPropertyOp3
 70
     1
102
RTVSPropertyOp4
 70
     1
102
RTVSPropertyOp5
 70
     1
102
RTVSPropertyOp6
 70
     1
102
RTVSPropertyOp7
 70
     1
102
RTVSPropertyOp8
 70
     1
102
RTVSPropertyOp9
 70
     1
102
RTVSPropertyOp10
 70
     1
102
RTVSPropertyOp11
 70
     1
102
RTVSPropertyOp12
 70
     1
102
RTVSPropertyOp13
 70
     1
102
RTVSPropertyOp14
 70
     1
102
RTVSPropertyOp15
 70
     1
102
RTVSPropertyOp16
 70
     1
102
RTVSPropertyOp17
 70
     1
102
RTVSPropertyOp18
 70
     1
102
RTVSPropertyOp19
 70
     1
102
RTVSPropertyOp20
 70
     1
102
RTVSPropertyOp21
 70
     1
102
RTVSPropertyOp22
 70
     1
102
RTVSPropertyOp23
 70
     1
102
RTVSPropertyOp24
 70
     1
102
RTVSPropertyOp25
 70
     1
102
RTVSPropertyOp26
 70
     1
102
RTVSPropertyOp27
 70
     1
102
RTVSPropertyOp28
 70
     1
102
RTVSPropertyOp29
 70
     1
102
RTVSPropertyOp30
 70
     1
102
RTVSPropertyOp31
 70
     1
102
RTVSPropertyOp32
 70
     1
  0
XRECORD
  5
B355
102
{ACAD_REACTORS
330
B354
102
}
330
B354
100
AcDbXrecord
280
     1
102
RTVSPropertyOp0
 70
     0
102
RTVSPropertyOp1
 70
     0
102
RTVSPropertyOp2
 70
     0
102
RTVSPropertyOp3
 70
     0
102
RTVSPropertyOp4
 70
     0
102
RTVSPropertyOp5
 70
     0
102
RTVSPropertyOp6
 70
     0
102
RTVSPropertyOp7
 70
     0
102
RTVSPropertyOp8
 70
     0
102
RTVSPropertyOp9
 70
     0
102
RTVSPropertyOp10
 70
     0
102
RTVSPropertyOp11
 70
     0
102
RTVSPropertyOp12
 70
     0
102
RTVSPropertyOp13
 70
     0
102
RTVSPropertyOp14
 70
     2
102
RTVSPropertyOp15
 70
     0
102
RTVSPropertyOp16
 70
     0
102
RTVSPropertyOp17
 70
     0
102
RTVSPropertyOp18
 70
     0
102
RTVSPropertyOp19
 70
     0
102
RTVSPropertyOp20
 70
     0
102
RTVSPropertyOp21
 70
     0
102
RTVSPropertyOp22
 70
     0
102
RTVSPropertyOp23
 70
     0
102
RTVSPropertyOp24
 70
     0
102
RTVSPropertyOp25
 70
     0
102
RTVSPropertyOp26
 70
     0
102
RTVSPropertyOp27
 70
     0
102
RTVSPropertyOp28
 70
     0
102
RTVSPropertyOp29
 70
     0
102
RTVSPropertyOp30
 70
     0
102
RTVSPropertyOp31
 70
     0
102
RTVSPropertyOp32
 70
     0
  0
XRECORD
  5
B341
102
{ACAD_REACTORS
330
B340
102
}
330
B340
100
AcDbXrecord
280
     1
102
RTVSPropertyOp0
 70
     1
102
RTVSPropertyOp1
 70
     1
102
RTVSPropertyOp2
 70
     1
102
RTVSPropertyOp3
 70
     1
102
RTVSPropertyOp4
 70
     1
102
RTVSPropertyOp5
 70
     1
102
RTVSPropertyOp6
 70
     1
102
RTVSPropertyOp7
 70
     1
102
RTVSPropertyOp8
 70
     1
102
RTVSPropertyOp9
 70
     1
102
RTVSPropertyOp10
 70
     1
102
RTVSPropertyOp11
 70
     1
102
RTVSPropertyOp12
 70
     1
102
RTVSPropertyOp13
 70
     1
102
RTVSPropertyOp14
 70
     1
102
RTVSPropertyOp15
 70
     1
102
RTVSPropertyOp16
 70
     1
102
RTVSPropertyOp17
 70
     1
102
RTVSPropertyOp18
 70
     1
102
RTVSPropertyOp19
 70
     1
102
RTVSPropertyOp20
 70
     1
102
RTVSPropertyOp21
 70
     1
102
RTVSPropertyOp22
 70
     1
102
RTVSPropertyOp23
 70
     1
102
RTVSPropertyOp24
 70
     1
102
RTVSPropertyOp25
 70
     1
102
RTVSPropertyOp26
 70
     1
102
RTVSPropertyOp27
 70
     1
102
RTVSPropertyOp28
 70
     1
102
RTVSPropertyOp29
 70
     1
102
RTVSPropertyOp30
 70
     1
102
RTVSPropertyOp31
 70
     1
102
RTVSPropertyOp32
 70
     1
  0
XRECORD
  5
B357
102
{ACAD_REACTORS
330
B356
102
}
330
B356
100
AcDbXrecord
280
     1
102
RTVSPropertyOp0
 70
     0
102
RTVSPropertyOp1
 70
     0
102
RTVSPropertyOp2
 70
     0
102
RTVSPropertyOp3
 70
     0
102
RTVSPropertyOp4
 70
     0
102
RTVSPropertyOp5
 70
     0
102
RTVSPropertyOp6
 70
     0
102
RTVSPropertyOp7
 70
     0
102
RTVSPropertyOp8
 70
     0
102
RTVSPropertyOp9
 70
     0
102
RTVSPropertyOp10
 70
     0
102
RTVSPropertyOp11
 70
     0
102
RTVSPropertyOp12
 70
     0
102
RTVSPropertyOp13
 70
     0
102
RTVSPropertyOp14
 70
     2
102
RTVSPropertyOp15
 70
     0
102
RTVSPropertyOp16
 70
     0
102
RTVSPropertyOp17
 70
     0
102
RTVSPropertyOp18
 70
     0
102
RTVSPropertyOp19
 70
     0
102
RTVSPropertyOp20
 70
     0
102
RTVSPropertyOp21
 70
     0
102
RTVSPropertyOp22
 70
     0
102
RTVSPropertyOp23
 70
     0
102
RTVSPropertyOp24
 70
     0
102
RTVSPropertyOp25
 70
     0
102
RTVSPropertyOp26
 70
     0
102
RTVSPropertyOp27
 70
     0
102
RTVSPropertyOp28
 70
     0
102
RTVSPropertyOp29
 70
     0
102
RTVSPropertyOp30
 70
     0
102
RTVSPropertyOp31
 70
     0
102
RTVSPropertyOp32
 70
     0
  0
XRECORD
  5
B339
102
{ACAD_REACTORS
330
B338
102
}
330
B338
100
AcDbXrecord
280
     1
102
RTVSPropertyOp0
 70
     1
102
RTVSPropertyOp1
 70
     1
102
RTVSPropertyOp2
 70
     1
102
RTVSPropertyOp3
 70
     1
102
RTVSPropertyOp4
 70
     1
102
RTVSPropertyOp5
 70
     1
102
RTVSPropertyOp6
 70
     1
102
RTVSPropertyOp7
 70
     1
102
RTVSPropertyOp8
 70
     1
102
RTVSPropertyOp9
 70
     1
102
RTVSPropertyOp10
 70
     1
102
RTVSPropertyOp11
 70
     1
102
RTVSPropertyOp12
 70
     1
102
RTVSPropertyOp13
 70
     1
102
RTVSPropertyOp14
 70
     1
102
RTVSPropertyOp15
 70
     1
102
RTVSPropertyOp16
 70
     1
102
RTVSPropertyOp17
 70
     1
102
RTVSPropertyOp18
 70
     1
102
RTVSPropertyOp19
 70
     1
102
RTVSPropertyOp20
 70
     1
102
RTVSPropertyOp21
 70
     1
102
RTVSPropertyOp22
 70
     1
102
RTVSPropertyOp23
 70
     1
102
RTVSPropertyOp24
 70
     1
102
RTVSPropertyOp25
 70
     1
102
RTVSPropertyOp26
 70
     1
102
RTVSPropertyOp27
 70
     1
102
RTVSPropertyOp28
 70
     1
102
RTVSPropertyOp29
 70
     1
102
RTVSPropertyOp30
 70
     1
102
RTVSPropertyOp31
 70
     1
102
RTVSPropertyOp32
 70
     1
  0
XRECORD
  5
B353
102
{ACAD_REACTORS
330
B352
102
}
330
B352
100
AcDbXrecord
280
     1
102
RTVSPropertyOp0
 70
     1
102
RTVSPropertyOp1
 70
     1
102
RTVSPropertyOp2
 70
     1
102
RTVSPropertyOp3
 70
     1
102
RTVSPropertyOp4
 70
     1
102
RTVSPropertyOp5
 70
     1
102
RTVSPropertyOp6
 70
     1
102
RTVSPropertyOp7
 70
     1
102
RTVSPropertyOp8
 70
     1
102
RTVSPropertyOp9
 70
     1
102
RTVSPropertyOp10
 70
     1
102
RTVSPropertyOp11
 70
     1
102
RTVSPropertyOp12
 70
     1
102
RTVSPropertyOp13
 70
     1
102
RTVSPropertyOp14
 70
     1
102
RTVSPropertyOp15
 70
     1
102
RTVSPropertyOp16
 70
     1
102
RTVSPropertyOp17
 70
     1
102
RTVSPropertyOp18
 70
     1
102
RTVSPropertyOp19
 70
     1
102
RTVSPropertyOp20
 70
     1
102
RTVSPropertyOp21
 70
     1
102
RTVSPropertyOp22
 70
     1
102
RTVSPropertyOp23
 70
     1
102
RTVSPropertyOp24
 70
     1
102
RTVSPropertyOp25
 70
     1
102
RTVSPropertyOp26
 70
     1
102
RTVSPropertyOp27
 70
     1
102
RTVSPropertyOp28
 70
     1
102
RTVSPropertyOp29
 70
     1
102
RTVSPropertyOp30
 70
     1
102
RTVSPropertyOp31
 70
     1
102
RTVSPropertyOp32
 70
     1
  0
XRECORD
  5
B351
102
{ACAD_REACTORS
330
B350
102
}
330
B350
100
AcDbXrecord
280
     1
102
RTVSPropertyOp0
 70
     1
102
RTVSPropertyOp1
 70
     1
102
RTVSPropertyOp2
 70
     1
102
RTVSPropertyOp3
 70
     1
102
RTVSPropertyOp4
 70
     1
102
RTVSPropertyOp5
 70
     1
102
RTVSPropertyOp6
 70
     1
102
RTVSPropertyOp7
 70
     1
102
RTVSPropertyOp8
 70
     1
102
RTVSPropertyOp9
 70
     1
102
RTVSPropertyOp10
 70
     1
102
RTVSPropertyOp11
 70
     1
102
RTVSPropertyOp12
 70
     1
102
RTVSPropertyOp13
 70
     1
102
RTVSPropertyOp14
 70
     1
102
RTVSPropertyOp15
 70
     1
102
RTVSPropertyOp16
 70
     1
102
RTVSPropertyOp17
 70
     1
102
RTVSPropertyOp18
 70
     1
102
RTVSPropertyOp19
 70
     1
102
RTVSPropertyOp20
 70
     1
102
RTVSPropertyOp21
 70
     1
102
RTVSPropertyOp22
 70
     1
102
RTVSPropertyOp23
 70
     1
102
RTVSPropertyOp24
 70
     1
102
RTVSPropertyOp25
 70
     1
102
RTVSPropertyOp26
 70
     1
102
RTVSPropertyOp27
 70
     1
102
RTVSPropertyOp28
 70
     1
102
RTVSPropertyOp29
 70
     1
102
RTVSPropertyOp30
 70
     1
102
RTVSPropertyOp31
 70
     1
102
RTVSPropertyOp32
 70
     1
  0
XRECORD
  5
B34B
102
{ACAD_REACTORS
330
B34A
102
}
330
B34A
100
AcDbXrecord
280
     1
102
RTVSPropertyOp0
 70
     1
102
RTVSPropertyOp1
 70
     1
102
RTVSPropertyOp2
 70
     1
102
RTVSPropertyOp3
 70
     1
102
RTVSPropertyOp4
 70
     1
102
RTVSPropertyOp5
 70
     1
102
RTVSPropertyOp6
 70
     1
102
RTVSPropertyOp7
 70
     1
102
RTVSPropertyOp8
 70
     1
102
RTVSPropertyOp9
 70
     1
102
RTVSPropertyOp10
 70
     1
102
RTVSPropertyOp11
 70
     1
102
RTVSPropertyOp12
 70
     1
102
RTVSPropertyOp13
 70
     1
102
RTVSPropertyOp14
 70
     1
102
RTVSPropertyOp15
 70
     1
102
RTVSPropertyOp16
 70
     1
102
RTVSPropertyOp17
 70
     1
102
RTVSPropertyOp18
 70
     1
102
RTVSPropertyOp19
 70
     1
102
RTVSPropertyOp20
 70
     1
102
RTVSPropertyOp21
 70
     1
102
RTVSPropertyOp22
 70
     1
102
RTVSPropertyOp23
 70
     1
102
RTVSPropertyOp24
 70
     1
102
RTVSPropertyOp25
 70
     1
102
RTVSPropertyOp26
 70
     1
102
RTVSPropertyOp27
 70
     1
102
RTVSPropertyOp28
 70
     1
102
RTVSPropertyOp29
 70
     1
102
RTVSPropertyOp30
 70
     1
102
RTVSPropertyOp31
 70
     1
102
RTVSPropertyOp32
 70
     1
  0
XRECORD
  5
B34D
102
{ACAD_REACTORS
330
B34C
102
}
330
B34C
100
AcDbXrecord
280
     1
102
RTVSPropertyOp0
 70
     1
102
RTVSPropertyOp1
 70
     1
102
RTVSPropertyOp2
 70
     1
102
RTVSPropertyOp3
 70
     1
102
RTVSPropertyOp4
 70
     1
102
RTVSPropertyOp5
 70
     1
102
RTVSPropertyOp6
 70
     1
102
RTVSPropertyOp7
 70
     1
102
RTVSPropertyOp8
 70
     1
102
RTVSPropertyOp9
 70
     1
102
RTVSPropertyOp10
 70
     1
102
RTVSPropertyOp11
 70
     1
102
RTVSPropertyOp12
 70
     1
102
RTVSPropertyOp13
 70
     1
102
RTVSPropertyOp14
 70
     1
102
RTVSPropertyOp15
 70
     1
102
RTVSPropertyOp16
 70
     1
102
RTVSPropertyOp17
 70
     1
102
RTVSPropertyOp18
 70
     1
102
RTVSPropertyOp19
 70
     1
102
RTVSPropertyOp20
 70
     1
102
RTVSPropertyOp21
 70
     1
102
RTVSPropertyOp22
 70
     1
102
RTVSPropertyOp23
 70
     1
102
RTVSPropertyOp24
 70
     1
102
RTVSPropertyOp25
 70
     1
102
RTVSPropertyOp26
 70
     1
102
RTVSPropertyOp27
 70
     1
102
RTVSPropertyOp28
 70
     1
102
RTVSPropertyOp29
 70
     1
102
RTVSPropertyOp30
 70
     1
102
RTVSPropertyOp31
 70
     1
102
RTVSPropertyOp32
 70
     1
  0
XRECORD
  5
B33F
102
{ACAD_REACTORS
330
B33E
102
}
330
B33E
100
AcDbXrecord
280
     1
102
RTVSPropertyOp0
 70
     1
102
RTVSPropertyOp1
 70
     1
102
RTVSPropertyOp2
 70
     1
102
RTVSPropertyOp3
 70
     1
102
RTVSPropertyOp4
 70
     1
102
RTVSPropertyOp5
 70
     1
102
RTVSPropertyOp6
 70
     1
102
RTVSPropertyOp7
 70
     1
102
RTVSPropertyOp8
 70
     1
102
RTVSPropertyOp9
 70
     1
102
RTVSPropertyOp10
 70
     1
102
RTVSPropertyOp11
 70
     1
102
RTVSPropertyOp12
 70
     1
102
RTVSPropertyOp13
 70
     1
102
RTVSPropertyOp14
 70
     1
102
RTVSPropertyOp15
 70
     1
102
RTVSPropertyOp16
 70
     1
102
RTVSPropertyOp17
 70
     1
102
RTVSPropertyOp18
 70
     1
102
RTVSPropertyOp19
 70
     1
102
RTVSPropertyOp20
 70
     1
102
RTVSPropertyOp21
 70
     1
102
RTVSPropertyOp22
 70
     1
102
RTVSPropertyOp23
 70
     1
102
RTVSPropertyOp24
 70
     1
102
RTVSPropertyOp25
 70
     1
102
RTVSPropertyOp26
 70
     1
102
RTVSPropertyOp27
 70
     1
102
RTVSPropertyOp28
 70
     1
102
RTVSPropertyOp29
 70
     1
102
RTVSPropertyOp30
 70
     1
102
RTVSPropertyOp31
 70
     1
102
RTVSPropertyOp32
 70
     1
  0
XRECORD
  5
B347
102
{ACAD_REACTORS
330
B346
102
}
330
B346
100
AcDbXrecord
280
     1
102
RTVSPropertyOp0
 70
     1
102
RTVSPropertyOp1
 70
     1
102
RTVSPropertyOp2
 70
     1
102
RTVSPropertyOp3
 70
     1
102
RTVSPropertyOp4
 70
     1
102
RTVSPropertyOp5
 70
     1
102
RTVSPropertyOp6
 70
     1
102
RTVSPropertyOp7
 70
     1
102
RTVSPropertyOp8
 70
     1
102
RTVSPropertyOp9
 70
     1
102
RTVSPropertyOp10
 70
     1
102
RTVSPropertyOp11
 70
     1
102
RTVSPropertyOp12
 70
     1
102
RTVSPropertyOp13
 70
     1
102
RTVSPropertyOp14
 70
     1
102
RTVSPropertyOp15
 70
     1
102
RTVSPropertyOp16
 70
     1
102
RTVSPropertyOp17
 70
     1
102
RTVSPropertyOp18
 70
     1
102
RTVSPropertyOp19
 70
     1
102
RTVSPropertyOp20
 70
     1
102
RTVSPropertyOp21
 70
     1
102
RTVSPropertyOp22
 70
     1
102
RTVSPropertyOp23
 70
     1
102
RTVSPropertyOp24
 70
     1
102
RTVSPropertyOp25
 70
     1
102
RTVSPropertyOp26
 70
     1
102
RTVSPropertyOp27
 70
     1
102
RTVSPropertyOp28
 70
     1
102
RTVSPropertyOp29
 70
     1
102
RTVSPropertyOp30
 70
     1
102
RTVSPropertyOp31
 70
     1
102
RTVSPropertyOp32
 70
     1
  0
XRECORD
  5
B34F
102
{ACAD_REACTORS
330
B34E
102
}
330
B34E
100
AcDbXrecord
280
     1
102
RTVSPropertyOp0
 70
     1
102
RTVSPropertyOp1
 70
     1
102
RTVSPropertyOp2
 70
     1
102
RTVSPropertyOp3
 70
     1
102
RTVSPropertyOp4
 70
     1
102
RTVSPropertyOp5
 70
     1
102
RTVSPropertyOp6
 70
     1
102
RTVSPropertyOp7
 70
     1
102
RTVSPropertyOp8
 70
     1
102
RTVSPropertyOp9
 70
     1
102
RTVSPropertyOp10
 70
     1
102
RTVSPropertyOp11
 70
     1
102
RTVSPropertyOp12
 70
     1
102
RTVSPropertyOp13
 70
     1
102
RTVSPropertyOp14
 70
     1
102
RTVSPropertyOp15
 70
     1
102
RTVSPropertyOp16
 70
     1
102
RTVSPropertyOp17
 70
     1
102
RTVSPropertyOp18
 70
     1
102
RTVSPropertyOp19
 70
     1
102
RTVSPropertyOp20
 70
     1
102
RTVSPropertyOp21
 70
     1
102
RTVSPropertyOp22
 70
     1
102
RTVSPropertyOp23
 70
     1
102
RTVSPropertyOp24
 70
     1
102
RTVSPropertyOp25
 70
     1
102
RTVSPropertyOp26
 70
     1
102
RTVSPropertyOp27
 70
     1
102
RTVSPropertyOp28
 70
     1
102
RTVSPropertyOp29
 70
     1
102
RTVSPropertyOp30
 70
     1
102
RTVSPropertyOp31
 70
     1
102
RTVSPropertyOp32
 70
     1
  0
ENDSEC
  0
EOF
