  0
SECTION
  2
HEADER
  9
$ACADVER
  1
AC1015
  9
$ACADMAINTVER
 70
    20
  9
$DWGCODEPAGE
  3
ANSI_949
  9
$INSBASE
 10
0.0
 20
0.0
 30
0.0
  9
$EXTMIN
 10
0.0000012230724858
 20
-0.0000002096502385
 30
0.0
  9
$EXTMAX
 10
429.0000013230718
 20
128.2525967559173
 30
0.0
  9
$LIMMIN
 10
0.0
 20
0.0
  9
$LIMMAX
 10
420.0
 20
297.0
  9
$ORTHOMODE
 70
     1
  9
$REGENMODE
 70
     1
  9
$FILLMODE
 70
     1
  9
$QTEXTMODE
 70
     0
  9
$MIRRTEXT
 70
     1
  9
$LTSCALE
 40
10.0
  9
$ATTMODE
 70
     1
  9
$TEXTSIZE
 40
3.0
  9
$TRACEWID
 40
0.05
  9
$TEXTSTYLE
  7
STANDARD
  9
$CLAYER
  8
0
  9
$CELTYPE
  6
BYLAYER
  9
$CECOLOR
 62
   256
  9
$CELTSCALE
 40
1.0
  9
$DISPSILH
 70
     0
  9
$DIMSCALE
 40
1.5
  9
$DIMASZ
 40
2.5
  9
$DIMEXO
 40
0.8
  9
$DIMDLI
 40
0.8
  9
$DIMRND
 40
0.0
  9
$DIMDLE
 40
0.0
  9
$DIMEXE
 40
0.8
  9
$DIMTP
 40
0.0
  9
$DIMTM
 40
0.0
  9
$DIMTXT
 40
3.0
  9
$DIMCEN
 40
-1.0
  9
$DIMTSZ
 40
0.0
  9
$DIMTOL
 70
     0
  9
$DIMLIM
 70
     0
  9
$DIMTIH
 70
     0
  9
$DIMTOH
 70
     0
  9
$DIMSE1
 70
     0
  9
$DIMSE2
 70
     0
  9
$DIMTAD
 70
     3
  9
$DIMZIN
 70
     8
  9
$DIMBLK
  1

  9
$DIMASO
 70
     1
  9
$DIMSHO
 70
     1
  9
$DIMPOST
  1

  9
$DIMAPOST
  1

  9
$DIMALT
 70
     0
  9
$DIMALTD
 70
     2
  9
$DIMALTF
 40
25.4
  9
$DIMLFAC
 40
1.0
  9
$DIMTOFL
 70
     1
  9
$DIMTVP
 40
0.0
  9
$DIMTIX
 70
     0
  9
$DIMSOXD
 70
     0
  9
$DIMSAH
 70
     0
  9
$DIMBLK1
  1

  9
$DIMBLK2
  1

  9
$DIMSTYLE
  2
STANDARD
  9
$DIMCLRD
 70
   115
  9
$DIMCLRE
 70
   115
  9
$DIMCLRT
 70
     7
  9
$DIMTFAC
 40
1.0
  9
$DIMGAP
 40
1.0
  9
$DIMJUST
 70
     0
  9
$DIMSD1
 70
     0
  9
$DIMSD2
 70
     0
  9
$DIMTOLJ
 70
     1
  9
$DIMTZIN
 70
     0
  9
$DIMALTZ
 70
     0
  9
$DIMALTTZ
 70
     0
  9
$DIMUPT
 70
     0
  9
$DIMDEC
 70
     3
  9
$DIMTDEC
 70
     4
  9
$DIMALTU
 70
     2
  9
$DIMALTTD
 70
     2
  9
$DIMTXSTY
  7
STANDARD
  9
$DIMAUNIT
 70
     0
  9
$DIMADEC
 70
     0
  9
$DIMALTRND
 40
0.0
  9
$DIMAZIN
 70
     0
  9
$DIMDSEP
 70
    46
  9
$DIMATFIT
 70
     3
  9
$DIMFRAC
 70
     0
  9
$DIMLDRBLK
  1

  9
$DIMLUNIT
 70
     2
  9
$DIMLWD
 70
    -2
  9
$DIMLWE
 70
    -2
  9
$DIMTMOVE
 70
     0
  9
$LUNITS
 70
     2
  9
$LUPREC
 70
     4
  9
$SKETCHINC
 40
0.1
  9
$FILLETRAD
 40
0.0
  9
$AUNITS
 70
     0
  9
$AUPREC
 70
     0
  9
$MENU
  1
.
  9
$ELEVATION
 40
0.0
  9
$PELEVATION
 40
0.0
  9
$THICKNESS
 40
0.0
  9
$LIMCHECK
 70
     0
  9
$CHAMFERA
 40
1.0
  9
$CHAMFERB
 40
1.0
  9
$CHAMFERC
 40
1.0
  9
$CHAMFERD
 40
0.0
  9
$SKPOLY
 70
     1
  9
$TDCREATE
 40
2452464.575009942
  9
$TDUCREATE
 40
2452464.200009942
  9
$TDUPDATE
 40
2456842.718571216
  9
$TDUUPDATE
 40
2456842.343571215
  9
$TDINDWG
 40
0.4892854745
  9
$TDUSRTIMER
 40
0.4892852778
  9
$USRTIMER
 70
     1
  9
$ANGBASE
 50
0.0
  9
$ANGDIR
 70
     0
  9
$PDMODE
 70
     0
  9
$PDSIZE
 40
0.0
  9
$PLINEWID
 40
0.5
  9
$SPLFRAME
 70
     0
  9
$SPLINETYPE
 70
     6
  9
$SPLINESEGS
 70
     8
  9
$HANDSEED
  5
9D70
  9
$SURFTAB1
 70
     6
  9
$SURFTAB2
 70
     6
  9
$SURFTYPE
 70
     6
  9
$SURFU
 70
     6
  9
$SURFV
 70
     6
  9
$UCSBASE
  2

  9
$UCSNAME
  2

  9
$UCSORG
 10
0.0
 20
0.0
 30
0.0
  9
$UCSXDIR
 10
1.0
 20
0.0
 30
0.0
  9
$UCSYDIR
 10
0.0
 20
1.0
 30
0.0
  9
$UCSORTHOREF
  2

  9
$UCSORTHOVIEW
 70
     0
  9
$UCSORGTOP
 10
0.0
 20
0.0
 30
0.0
  9
$UCSORGBOTTOM
 10
0.0
 20
0.0
 30
0.0
  9
$UCSORGLEFT
 10
0.0
 20
0.0
 30
0.0
  9
$UCSORGRIGHT
 10
0.0
 20
0.0
 30
0.0
  9
$UCSORGFRONT
 10
0.0
 20
0.0
 30
0.0
  9
$UCSORGBACK
 10
0.0
 20
0.0
 30
0.0
  9
$PUCSBASE
  2

  9
$PUCSNAME
  2

  9
$PUCSORG
 10
0.0
 20
0.0
 30
0.0
  9
$PUCSXDIR
 10
1.0
 20
0.0
 30
0.0
  9
$PUCSYDIR
 10
0.0
 20
1.0
 30
0.0
  9
$PUCSORTHOREF
  2

  9
$PUCSORTHOVIEW
 70
     0
  9
$PUCSORGTOP
 10
0.0
 20
0.0
 30
0.0
  9
$PUCSORGBOTTOM
 10
0.0
 20
0.0
 30
0.0
  9
$PUCSORGLEFT
 10
0.0
 20
0.0
 30
0.0
  9
$PUCSORGRIGHT
 10
0.0
 20
0.0
 30
0.0
  9
$PUCSORGFRONT
 10
0.0
 20
0.0
 30
0.0
  9
$PUCSORGBACK
 10
0.0
 20
0.0
 30
0.0
  9
$USERI1
 70
     0
  9
$USERI2
 70
   452
  9
$USERI3
 70
     1
  9
$USERI4
 70
     0
  9
$USERI5
 70
     0
  9
$USERR1
 40
0.0
  9
$USERR2
 40
0.0
  9
$USERR3
 40
0.0
  9
$USERR4
 40
0.0
  9
$USERR5
 40
0.0
  9
$WORLDVIEW
 70
     1
  9
$SHADEDGE
 70
     3
  9
$SHADEDIF
 70
    70
  9
$TILEMODE
 70
     1
  9
$MAXACTVP
 70
    48
  9
$PINSBASE
 10
0.0
 20
0.0
 30
0.0
  9
$PLIMCHECK
 70
     0
  9
$PEXTMIN
 10
1.000000000000000E+20
 20
1.000000000000000E+20
 30
1.000000000000000E+20
  9
$PEXTMAX
 10
-1.000000000000000E+20
 20
-1.000000000000000E+20
 30
-1.000000000000000E+20
  9
$PLIMMIN
 10
0.0
 20
0.0
  9
$PLIMMAX
 10
12.0
 20
9.0
  9
$UNITMODE
 70
     0
  9
$VISRETAIN
 70
     1
  9
$PLINEGEN
 70
     0
  9
$PSLTSCALE
 70
     1
  9
$TREEDEPTH
 70
  3020
  9
$CMLSTYLE
  2
STANDARD
  9
$CMLJUST
 70
     0
  9
$CMLSCALE
 40
1.0
  9
$PROXYGRAPHICS
 70
     1
  9
$MEASUREMENT
 70
     0
  9
$CELWEIGHT
370
    -1
  9
$ENDCAPS
280
     0
  9
$JOINSTYLE
280
     0
  9
$LWDISPLAY
290
     0
  9
$INSUNITS
 70
     0
  9
$HYPERLINKBASE
  1

  9
$STYLESHEET
  1
SBC.ctb
  9
$XEDIT
290
     1
  9
$CEPSNTYPE
380
     0
  9
$PSTYLEMODE
290
     1
  9
$FINGERPRINTGUID
  2
{5F3AA2EA-72A1-4B88-A6C1-24C1646F59A1}
  9
$VERSIONGUID
  2
{AC610164-8736-4686-8001-F2B8567C9016}
  9
$EXTNAMES
290
     1
  9
$PSVPSCALE
 40
0.0
  9
$OLESTARTUP
290
     0
  0
ENDSEC
  0
SECTION
  2
CLASSES
  0
CLASS
  1
DICTIONARYVAR
  2
AcDbDictionaryVar
  3
ObjectDBX Classes
 90
        0
280
     0
281
     0
  0
CLASS
  1
ACDBDICTIONARYWDFLT
  2
AcDbDictionaryWithDefault
  3
ObjectDBX Classes
 90
        0
280
     0
281
     0
  0
CLASS
  1
TABLESTYLE
  2
AcDbTableStyle
  3
ObjectDBX Classes
 90
     4095
280
     0
281
     0
  0
CLASS
  1
ACDBPLACEHOLDER
  2
AcDbPlaceHolder
  3
ObjectDBX Classes
 90
        0
280
     0
281
     0
  0
CLASS
  1
LAYOUT
  2
AcDbLayout
  3
ObjectDBX Classes
 90
        0
280
     0
281
     0
  0
CLASS
  1
MATERIAL
  2
AcDbMaterial
  3
ObjectDBX Classes
 90
     1153
280
     0
281
     0
  0
CLASS
  1
VISUALSTYLE
  2
AcDbVisualStyle
  3
ObjectDBX Classes
 90
     4095
280
     0
281
     0
  0
CLASS
  1
SCALE
  2
AcDbScale
  3
ObjectDBX Classes
 90
     1153
280
     0
281
     0
  0
CLASS
  1
MLEADERSTYLE
  2
AcDbMLeaderStyle
  3
ACDB_MLEADERSTYLE_CLASS
 90
     4095
280
     0
281
     0
  0
CLASS
  1
CELLSTYLEMAP
  2
AcDbCellStyleMap
  3
ObjectDBX Classes
 90
     1152
280
     0
281
     0
  0
CLASS
  1
SORTENTSTABLE
  2
AcDbSortentsTable
  3
ObjectDBX Classes
 90
        0
280
     0
281
     0
  0
CLASS
  1
ACAD_EVALUATION_GRAPH
  2
AcDbEvalGraph
  3
ObjectDBX Classes
 90
    33921
280
     0
281
     0
  0
CLASS
  1
ACAECUSTOBJ
  2
AcAeEditorObj
  3
AcAeEditorObj
 90
    33792
280
     0
281
     0
  0
CLASS
  1
ACDB_DYNAMICBLOCKPURGEPREVENTER_VERSION
  2
AcDbDynamicBlockPurgePreventer
  3
ObjectDBX Classes
 90
    33921
280
     0
281
     0
  0
ENDSEC
  0
SECTION
  2
TABLES
  0
TABLE
  2
VPORT
  5
8
102
{ACAD_XDICTIONARY
360
9320
102
}
330
0
100
AcDbSymbolTable
 70
     1
  0
VPORT
  5
8B74
330
8
100
AcDbSymbolTableRecord
100
AcDbViewportTableRecord
  2
*Active
 70
     0
 10
0.0
 20
0.0
 11
1.0
 21
1.0
 12
214.5000016603795
 22
64.12809033368775
 13
0.0
 23
0.0
 14
0.5
 24
0.5
 15
0.5
 25
0.5
 16
0.0
 26
0.0
 36
1.0
 17
0.0
 27
0.0
 37
0.0
 40
190.7021858182047
 41
2.257287705956907
 42
50.0
 43
0.0
 44
0.0
 50
0.0
 51
0.0
 71
     0
 72
   100
 73
     1
 74
     1
 75
     0
 76
     0
 77
     0
 78
     0
281
     0
 65
     1
110
0.0
120
0.0
130
0.0
111
1.0
121
0.0
131
0.0
112
0.0
122
1.0
132
0.0
 79
     0
146
0.0
1001
ACAD_NAV_VCDISPLAY
1070
     3
  0
ENDTAB
  0
TABLE
  2
LTYPE
  5
5
330
0
100
AcDbSymbolTable
 70
     3
  0
LTYPE
  5
13
330
5
100
AcDbSymbolTableRecord
100
AcDbLinetypeTableRecord
  2
BYBLOCK
 70
     0
  3

 72
    65
 73
     0
 40
0.0
  0
LTYPE
  5
14
330
5
100
AcDbSymbolTableRecord
100
AcDbLinetypeTableRecord
  2
BYLAYER
 70
     0
  3

 72
    65
 73
     0
 40
0.0
  0
LTYPE
  5
15
330
5
100
AcDbSymbolTableRecord
100
AcDbLinetypeTableRecord
  2
CONTINUOUS
 70
     0
  3
Solid line
 72
    65
 73
     0
 40
0.0
  0
LTYPE
  5
96F9
330
5
100
AcDbSymbolTableRecord
100
AcDbLinetypeTableRecord
  2
CENTER
 70
     0
  3
Center ____ _ ____ _ ____ _ ____ _ ____ _ ____
 72
    65
 73
     4
 40
2.0
 49
1.25
 74
     0
 49
-0.25
 74
     0
 49
0.25
 74
     0
 49
-0.25
 74
     0
  0
LTYPE
  5
96FA
330
5
100
AcDbSymbolTableRecord
100
AcDbLinetypeTableRecord
  2
HIDDEN
 70
     0
  3
Hidden __ __ __ __ __ __ __ __ __ __ __ __ __ _
 72
    65
 73
     2
 40
0.375
 49
0.25
 74
     0
 49
-0.125
 74
     0
  0
ENDTAB
  0
TABLE
  2
LAYER
  5
2
330
0
100
AcDbSymbolTable
 70
     5
  0
LAYER
  5
F
102
{ACAD_XDICTIONARY
360
8C6A
102
}
330
2
100
AcDbSymbolTableRecord
100
AcDbLayerTableRecord
  2
0
 70
     0
 62
     7
  6
CONTINUOUS
370
    -3
390
8A96
  0
LAYER
  5
24EF
330
2
100
AcDbSymbolTableRecord
100
AcDbLayerTableRecord
  2
DEFPOINTS
 70
     0
 62
     7
  6
CONTINUOUS
290
     0
370
    -3
390
8A96
  0
LAYER
  5
96FB
102
{ACAD_XDICTIONARY
360
96FC
102
}
330
2
100
AcDbSymbolTableRecord
100
AcDbLayerTableRecord
  2
9
 70
     0
 62
     3
  6
CONTINUOUS
370
    -3
390
8A96
  0
LAYER
  5
96FD
102
{ACAD_XDICTIONARY
360
96FE
102
}
330
2
100
AcDbSymbolTableRecord
100
AcDbLayerTableRecord
  2
1
 70
     0
 62
     1
  6
CENTER
370
    -3
390
8A96
  0
LAYER
  5
96FF
102
{ACAD_XDICTIONARY
360
9700
102
}
330
2
100
AcDbSymbolTableRecord
100
AcDbLayerTableRecord
  2
2
 70
     0
 62
     2
  6
HIDDEN
370
    -3
390
8A96
  0
ENDTAB
  0
TABLE
  2
STYLE
  5
3
330
0
100
AcDbSymbolTable
 70
     1
  0
STYLE
  5
10
330
3
100
AcDbSymbolTableRecord
100
AcDbTextStyleTableRecord
  2
STANDARD
 70
     0
 40
0.0
 41
1.0
 50
0.0
 71
     0
 42
3.0
  3
romans.shx
  4

  0
ENDTAB
  0
TABLE
  2
VIEW
  5
6
330
0
100
AcDbSymbolTable
 70
     0
  0
ENDTAB
  0
TABLE
  2
UCS
  5
7
330
0
100
AcDbSymbolTable
 70
     0
  0
ENDTAB
  0
TABLE
  2
APPID
  5
9
330
0
100
AcDbSymbolTable
 70
    11
  0
APPID
  5
11
330
9
100
AcDbSymbolTableRecord
100
AcDbRegAppTableRecord
  2
ACAD
 70
     0
  0
APPID
  5
2325
330
9
100
AcDbSymbolTableRecord
100
AcDbRegAppTableRecord
  2
MCLBOMATTRIB
 70
     0
  0
APPID
  5
2326
330
9
100
AcDbSymbolTableRecord
100
AcDbRegAppTableRecord
  2
MCLBOM
 70
     0
  0
APPID
  5
8BCE
330
9
100
AcDbSymbolTableRecord
100
AcDbRegAppTableRecord
  2
ACAD_MLEADERVER
 70
     0
  0
APPID
  5
8C9B
330
9
100
AcDbSymbolTableRecord
100
AcDbRegAppTableRecord
  2
ACAD_NAV_VCDISPLAY
 70
     0
  0
APPID
  5
91B4
330
9
100
AcDbSymbolTableRecord
100
AcDbRegAppTableRecord
  2
ACAD_EXEMPT_FROM_CAD_STANDARDS
 70
     0
  0
APPID
  5
936A
330
9
100
AcDbSymbolTableRecord
100
AcDbRegAppTableRecord
  2
ACAD_DSTYLE_DIMRADIAL_EXTENSION
 70
     0
  0
APPID
  5
9404
330
9
100
AcDbSymbolTableRecord
100
AcDbRegAppTableRecord
  2
ACAD_PSEXT
 70
     0
  0
APPID
  5
9AD6
330
9
100
AcDbSymbolTableRecord
100
AcDbRegAppTableRecord
  2
ACAUTHENVIRON
 70
     0
  0
APPID
  5
9AE1
330
9
100
AcDbSymbolTableRecord
100
AcDbRegAppTableRecord
  2
AcDbDynamicBlockTrueName
 70
     0
  0
APPID
  5
9AE2
330
9
100
AcDbSymbolTableRecord
100
AcDbRegAppTableRecord
  2
AcDbDynamicBlockGUID
 70
     0
  0
ENDTAB
  0
TABLE
  2
DIMSTYLE
  5
A
330
0
100
AcDbSymbolTable
 70
     1
100
AcDbDimStyleTable
 71
     1
340
1D
  0
DIMSTYLE
105
1D
102
{ACAD_REACTORS
330
9729
330
972A
330
972B
330
972C
330
972D
330
972E
330
972F
330
9730
330
9731
330
9732
330
9733
330
9734
330
9735
330
9737
330
9738
330
9739
330
973A
330
973B
102
}
330
A
100
AcDbSymbolTableRecord
100
AcDbDimStyleTableRecord
  2
STANDARD
 70
     0
 41
2.0
140
3.0
176
     2
177
     2
178
     4
340
10
  0
ENDTAB
  0
TABLE
  2
BLOCK_RECORD
  5
1
330
0
100
AcDbSymbolTable
 70
    22
  0
BLOCK_RECORD
  5
19
102
{ACAD_XDICTIONARY
360
9091
102
}
330
1
100
AcDbSymbolTableRecord
100
AcDbBlockTableRecord
  2
*MODEL_SPACE
340
8A9D
  0
BLOCK_RECORD
  5
16
330
1
100
AcDbSymbolTableRecord
100
AcDbBlockTableRecord
  2
*PAPER_SPACE
340
8A9E
  0
BLOCK_RECORD
  5
96AB
102
{ACAD_XDICTIONARY
360
96AC
102
}
330
1
100
AcDbSymbolTableRecord
100
AcDbBlockTableRecord
  2
A$C58543E1D
340
0
102
{BLKREFS
331
973D
102
}
  0
BLOCK_RECORD
  5
96E0
102
{ACAD_XDICTIONARY
360
96E1
102
}
330
1
100
AcDbSymbolTableRecord
100
AcDbBlockTableRecord
  2
A$C3CEC27BD
340
0
102
{BLKREFS
331
973F
102
}
  0
BLOCK_RECORD
  5
9749
330
1
100
AcDbSymbolTableRecord
100
AcDbBlockTableRecord
  2
*D3
340
0
  0
BLOCK_RECORD
  5
9755
330
1
100
AcDbSymbolTableRecord
100
AcDbBlockTableRecord
  2
*D4
340
0
  0
BLOCK_RECORD
  5
9761
330
1
100
AcDbSymbolTableRecord
100
AcDbBlockTableRecord
  2
*D5
340
0
  0
BLOCK_RECORD
  5
976D
330
1
100
AcDbSymbolTableRecord
100
AcDbBlockTableRecord
  2
*D6
340
0
  0
BLOCK_RECORD
  5
9779
330
1
100
AcDbSymbolTableRecord
100
AcDbBlockTableRecord
  2
*D7
340
0
  0
BLOCK_RECORD
  5
9785
330
1
100
AcDbSymbolTableRecord
100
AcDbBlockTableRecord
  2
*D8
340
0
  0
BLOCK_RECORD
  5
9791
330
1
100
AcDbSymbolTableRecord
100
AcDbBlockTableRecord
  2
*D9
340
0
  0
BLOCK_RECORD
  5
979D
330
1
100
AcDbSymbolTableRecord
100
AcDbBlockTableRecord
  2
*D10
340
0
  0
BLOCK_RECORD
  5
97AB
330
1
100
AcDbSymbolTableRecord
100
AcDbBlockTableRecord
  2
*D11
340
0
  0
BLOCK_RECORD
  5
97B7
330
1
100
AcDbSymbolTableRecord
100
AcDbBlockTableRecord
  2
*D12
340
0
  0
BLOCK_RECORD
  5
97C3
330
1
100
AcDbSymbolTableRecord
100
AcDbBlockTableRecord
  2
*D13
340
0
  0
BLOCK_RECORD
  5
97CF
330
1
100
AcDbSymbolTableRecord
100
AcDbBlockTableRecord
  2
*D14
340
0
  0
BLOCK_RECORD
  5
97DC
330
1
100
AcDbSymbolTableRecord
100
AcDbBlockTableRecord
  2
*D15
340
0
  0
BLOCK_RECORD
  5
97F4
330
1
100
AcDbSymbolTableRecord
100
AcDbBlockTableRecord
  2
*D16
340
0
  0
BLOCK_RECORD
  5
9802
330
1
100
AcDbSymbolTableRecord
100
AcDbBlockTableRecord
  2
*D17
340
0
  0
BLOCK_RECORD
  5
980E
330
1
100
AcDbSymbolTableRecord
100
AcDbBlockTableRecord
  2
*D18
340
0
  0
BLOCK_RECORD
  5
981A
330
1
100
AcDbSymbolTableRecord
100
AcDbBlockTableRecord
  2
*D19
340
0
  0
BLOCK_RECORD
  5
9828
330
1
100
AcDbSymbolTableRecord
100
AcDbBlockTableRecord
  2
*D20
340
0
  0
BLOCK_RECORD
  5
999A
102
{ACAD_XDICTIONARY
360
9C51
102
}
330
1
100
AcDbSymbolTableRecord
100
AcDbBlockTableRecord
  2
3210SDK
340
0
310
2800000020000000200000000100080000000000000400000000000000000000000000000000000000000000000080000080000000808000800000008000800080800000C0C0C000C0DCC000F0CAA6000020400000206000002080000020A0000020C0000020E00000400000004020000040400000406000004080000040A0
310
000040C0000040E00000600000006020000060400000606000006080000060A0000060C0000060E00000800000008020000080400000806000008080000080A0000080C0000080E00000A0000000A0200000A0400000A0600000A0800000A0A00000A0C00000A0E00000C0000000C0200000C0400000C0600000C0800000C0
310
A00000C0C00000C0E00000E0000000E0200000E0400000E0600000E0800000E0A00000E0C00000E0E00040000000400020004000400040006000400080004000A0004000C0004000E00040200000402020004020400040206000402080004020A0004020C0004020E000404000004040200040404000404060004040800040
310
40A0004040C0004040E00040600000406020004060400040606000406080004060A0004060C0004060E00040800000408020004080400040806000408080004080A0004080C0004080E00040A0000040A0200040A0400040A0600040A0800040A0A00040A0C00040A0E00040C0000040C0200040C0400040C0600040C08000
310
40C0A00040C0C00040C0E00040E0000040E0200040E0400040E0600040E0800040E0A00040E0C00040E0E00080000000800020008000400080006000800080008000A0008000C0008000E00080200000802020008020400080206000802080008020A0008020C0008020E00080400000804020008040400080406000804080
310
008040A0008040C0008040E00080600000806020008060400080606000806080008060A0008060C0008060E00080800000808020008080400080806000808080008080A0008080C0008080E00080A0000080A0200080A0400080A0600080A0800080A0A00080A0C00080A0E00080C0000080C0200080C0400080C0600080C0
310
800080C0A00080C0C00080C0E00080E0000080E0200080E0400080E0600080E0800080E0A00080E0C00080E0E000C0000000C0002000C0004000C0006000C0008000C000A000C000C000C000E000C0200000C0202000C0204000C0206000C0208000C020A000C020C000C020E000C0400000C0402000C0404000C0406000C0
310
408000C040A000C040C000C040E000C0600000C0602000C0604000C0606000C0608000C060A000C060C000C060E000C0800000C0802000C0804000C0806000C0808000C080A000C080C000C080E000C0A00000C0A02000C0A04000C0A06000C0A08000C0A0A000C0A0C000C0A0E000C0C00000C0C02000C0C04000C0C06000
310
C0C08000C0C0A000F0FBFF00A4A0A000808080000000FF0000FF000000FFFF00FF000000FF00FF00FFFF0000FFFFFF00494949494949494949494949494949494949494949494949494949494949494949494949494949494949494949494949494949494949FFFFFFFFFF4949494949494949494949494949494949494949
310
49494949494949FF494949FF494949494949494949494949494949494949494949494949494949FF494949FF494949494949494949494949494949494949494949494949494949FF494949FF494949494949494949494949494949494949494949494949494949FF494949FF49494949494949494949494949494949494949
310
4949494949494949FF494949FF4949494949494949FFFFFFFFFFFFFFFFFFFFFFFFFFFFFFFFFFFFFFFFFFFFFFFFFFFF494949494949FF494949494949494949494949494949494949FF494949FA49FF494949494949FF494949494949494949494949494949494949FF494949FA49FF494949494949FBFBFBFBFBFBFBFBFBFB
310
FBFBFBFBFBFBFBFBFBFBFBFBFBFBFBFB494949494949FF494949494949494949494949494949494949FFFA49FAFF49FF494949494949FF494949494949494949494949494949494949FFFA49FAFF49FF494949494949FF494949494949494949494949494949494949FFFA49FAFF49FF494949494949FF4949494949494949
310
49494949494949494949FF49FA49FF49FF494949494949FF49494949FFFFFFFFFFFFFFFFFFFFFF494949FF49FA49FF49FF494949494949FF4949494949FFFFFFFFFFFFFFFFFFFF494949FF49FA49FF49FF494949494949FF494949494949494949494949494949494949FF49FA49FF49FF494949494949FF49494949494949
310
4949494949494949494949FFFA49FAFF49FF494949494949FF494949494949494949494949494949494949FFFA49FAFF49FF494949494949FF494949494949494949494949494949494949FFFA49FAFF49FF494949494949FBFBFBFBFBFBFBFBFBFBFBFBFBFBFBFBFBFBFBFBFBFBFBFBFBFB494949494949FF494949494949
310
494949494949494949494949FF494949FA49FF494949494949FF494949494949494949494949494949494949FF494949FA49FF494949494949FFFFFFFFFFFFFFFFFFFFFFFFFFFFFFFFFFFFFFFFFFFFFFFFFFFF49494949494949494949494949494949494949494949494949FF494949FF4949494949494949494949494949
310
49494949494949494949494949FF494949FF494949494949494949494949494949494949494949494949494949FF494949FF494949494949494949494949494949494949494949494949494949FFFFFFFFFF494949494949494949494949494949494949494949494949494949FF49FFFAFF49494949494949494949494949
310
4949494949494949494949494949FFFFFFFFFF49494949494949494949494949494949494949494949494949494949494949494949494949
102
{BLKREFS
331
99BE
102
}
1001
AcDbDynamicBlockGUID
1000
{52AE8B34-3210-4E59-A52B-DEBA08334404}
  0
ENDTAB
  0
ENDSEC
  0
SECTION
  2
BLOCKS
  0
BLOCK
  5
1A
330
19
100
AcDbEntity
  8
0
100
AcDbBlockBegin
  2
*MODEL_SPACE
 70
     0
 10
0.0
 20
0.0
 30
0.0
  3
*MODEL_SPACE
  1

  0
ENDBLK
  5
1B
330
19
100
AcDbEntity
  8
0
100
AcDbBlockEnd
  0
BLOCK
  5
17
330
16
100
AcDbEntity
 67
     1
  8
0
100
AcDbBlockBegin
  2
*PAPER_SPACE
 70
     0
 10
0.0
 20
0.0
 30
0.0
  3
*PAPER_SPACE
  1

  0
ENDBLK
  5
18
330
16
100
AcDbEntity
 67
     1
  8
0
100
AcDbBlockEnd
  0
BLOCK
  5
96AE
330
96AB
100
AcDbEntity
  8
0
100
AcDbBlockBegin
  2
A$C58543E1D
 70
     0
 10
0.0
 20
0.0
 30
0.0
  3
A$C58543E1D
  1

  0
LINE
  5
96AF
330
96AB
100
AcDbEntity
  8
0
  6
Continuous
100
AcDbLine
 10
-0.0000002335354594
 20
0.000000233909077
 30
0.0
 11
299.9999997664645
 21
0.000000233909077
 31
0.0
  0
LINE
  5
96B0
330
96AB
100
AcDbEntity
  8
0
  6
Continuous
100
AcDbLine
 10
-0.0000002335352605
 20
31.60000023390921
 30
0.0
 11
299.9999997664647
 21
31.60000023390921
 31
0.0
  0
LINE
  5
96B1
330
96AB
100
AcDbEntity
  8
9
  6
Continuous
100
AcDbLine
 10
-0.0000002335354452
 20
2.250000233909076
 30
0.0
 11
299.9999997664645
 21
2.250000233909076
 31
0.0
  0
LINE
  5
96B2
330
96AB
100
AcDbEntity
  8
9
  6
Continuous
100
AcDbLine
 10
-0.0000002335352747
 20
29.35000023390922
 30
0.0
 11
299.9999997664647
 21
29.35000023390922
 31
0.0
  0
LINE
  5
96B3
330
96AB
100
AcDbEntity
  8
0
100
AcDbLine
 10
-0.0000002335354594
 20
0.000000233909077
 30
0.0
 11
-0.0000002335352605
 21
31.60000023390921
 31
0.0
  0
LINE
  5
96B4
330
96AB
100
AcDbEntity
  8
0
100
AcDbLine
 10
299.9999997664645
 20
0.000000233909077
 30
0.0
 11
299.9999997664647
 21
31.60000023390921
 31
0.0
  0
TEXT
  5
96B5
330
96AB
100
AcDbEntity
  8
0
100
AcDbText
 10
32.25000276646464
 20
13.80000023390914
 30
0.0
 40
4.0
  1
RM3210
 72
     4
 11
44.25000276646463
 21
15.80000023390914
 31
0.0
100
AcDbText
  0
ENDBLK
  5
96B6
330
96AB
100
AcDbEntity
  8
0
100
AcDbBlockEnd
  0
BLOCK
  5
96E3
330
96E0
100
AcDbEntity
  8
0
100
AcDbBlockBegin
  2
A$C3CEC27BD
 70
     0
 10
0.0
 20
0.0
 30
0.0
  3
A$C3CEC27BD
  1

  0
CIRCLE
  5
96E4
330
96E0
100
AcDbEntity
  8
0
100
AcDbCircle
 10
8.019029899432212
 20
16.88913827818157
 30
0.0
 40
4.5
  0
CIRCLE
  5
96E5
330
96E0
100
AcDbEntity
  8
0
100
AcDbCircle
 10
53.98097039943218
 20
16.88913827818157
 30
0.0
 40
4.5
  0
CIRCLE
  5
96E6
330
96E0
100
AcDbEntity
  8
0
100
AcDbCircle
 10
30.99999999943202
 20
7.370108578181543
 30
0.0
 40
4.5
  0
CIRCLE
  5
96E7
330
96E0
100
AcDbEntity
  8
0
100
AcDbCircle
 10
30.99999999943213
 20
39.87010837818161
 30
0.0
 40
25.0
  0
CIRCLE
  5
96E8
330
96E0
100
AcDbEntity
  8
0
100
AcDbCircle
 10
53.98097039943218
 20
62.85107937818157
 30
0.0
 40
4.5
  0
LWPOLYLINE
  5
96E9
330
96E0
100
AcDbEntity
  8
2
100
AcDbPolyline
 90
        4
 70
     0
 43
0.0
 10
18.8469847994321
 20
77.0494603781816
 10
21.90845219943208
 20
69.65842437818162
 10
16.36517499943204
 20
67.3623233781816
 10
13.30370759943207
 20
74.75336037818158
  0
LWPOLYLINE
  5
96EA
330
96E0
100
AcDbEntity
  8
2
100
AcDbPolyline
 90
        2
 70
     0
 43
0.0
 10
27.33946964535681
 20
55.24022605915252
 10
18.38504499943212
 20
76.85811937818153
  0
LWPOLYLINE
  5
96EB
330
96E0
100
AcDbEntity
  8
2
100
AcDbPolyline
 90
        2
 70
     0
 43
0.0
 10
13.76564739943205
 20
74.94470137818154
 10
22.72007163390719
 20
53.32680880071382
  0
CIRCLE
  5
96EC
330
96E0
100
AcDbEntity
  8
0
100
AcDbCircle
 10
30.99999999943213
 20
72.37010837818161
 30
0.0
 40
4.5
  0
CIRCLE
  5
96ED
330
96E0
100
AcDbEntity
  8
0
100
AcDbCircle
 10
8.019029899432212
 20
62.85107937818157
 30
0.0
 40
4.5
  0
ARC
  5
96EE
330
96E0
100
AcDbEntity
  8
0
100
AcDbCircle
 10
30.99999999943213
 20
39.87010837818161
 30
0.0
 40
40.0
100
AcDbArc
 50
39.19496742598525
 51
99.66143185901817
  0
LINE
  5
96EF
330
96E0
100
AcDbEntity
  8
0
100
AcDbLine
 10
-0.0000001005679451
 20
14.59165918128656
 30
0.0
 11
-0.0000001005679451
 21
65.14855757507644
 31
0.0
  0
LINE
  5
96F0
330
96E0
100
AcDbEntity
  8
0
100
AcDbLine
 10
61.99999999943213
 20
14.59165905865245
 30
0.0
 11
61.99999999943213
 21
65.14855769771054
 31
0.0
  0
ARC
  5
96F1
330
96E0
100
AcDbEntity
  8
0
100
AcDbCircle
 10
30.99999999943213
 20
39.87010837818161
 30
0.0
 40
40.0
100
AcDbArc
 50
219.1949671993231
 51
320.8050325740148
  0
ARC
  5
96F2
330
96E0
100
AcDbEntity
  8
0
100
AcDbCircle
 10
30.99999999943213
 20
39.87010837818161
 30
0.0
 40
39.0
100
AcDbArc
 50
217.3568517307882
 51
322.6431480270893
  0
ARC
  5
96F3
330
96E0
100
AcDbEntity
  8
0
100
AcDbCircle
 10
30.99999999943213
 20
39.87010837818161
 30
0.0
 40
39.0
100
AcDbArc
 50
37.35685197291072
 51
142.6431482692118
  0
LINE
  5
96F4
330
96E0
100
AcDbEntity
  8
0
100
AcDbLine
 10
24.28696704033257
 20
79.30277489326829
 30
0.0
 11
7.863725234054641
 21
72.50004539897521
 31
0.0
  0
ARC
  5
96F5
330
96E0
100
AcDbEntity
  8
0
100
AcDbCircle
 10
30.99999999943213
 20
39.87010837818161
 30
0.0
 40
40.0
100
AcDbArc
 50
125.3385681409844
 51
140.8050328006768
  0
ARC
  5
96F6
330
96E0
100
AcDbEntity
  8
9
100
AcDbCircle
 10
30.99999999943213
 20
39.87010837818161
 30
0.0
 40
13.55000000000007
100
AcDbArc
 50
180.0
 51
90.0
  0
CIRCLE
  5
96F7
330
96E0
100
AcDbEntity
  8
0
100
AcDbCircle
 10
30.99999999943213
 20
39.87010837818161
 30
0.0
 40
15.80000000000007
  0
ENDBLK
  5
96F8
330
96E0
100
AcDbEntity
  8
0
100
AcDbBlockEnd
  0
BLOCK
  5
974A
330
9749
100
AcDbEntity
  8
0
100
AcDbBlockBegin
  2
*D3
 70
     1
 10
0.0
 20
0.0
 30
0.0
  3
*D3
  1

  0
LINE
  5
9836
330
9749
100
AcDbEntity
  8
0
 62
   115
370
    -2
100
AcDbLine
 10
21.00000122307262
 20
53.4499997903497
 30
0.0
 11
11.00000122307252
 21
53.4499997903497
 31
0.0
  0
LINE
  5
9837
330
9749
100
AcDbEntity
  8
0
 62
   115
370
    -2
100
AcDbLine
 10
21.00000122307279
 20
80.54999979034983
 30
0.0
 11
11.00000122307253
 21
80.54999979034983
 31
0.0
  0
LINE
  5
9838
330
9749
100
AcDbEntity
  8
0
 62
   115
370
    -2
100
AcDbLine
 10
12.00000122307252
 20
56.4499997903497
 30
0.0
 11
12.00000122307253
 21
77.54999979034983
 31
0.0
  0
SOLID
  5
9839
330
9749
100
AcDbEntity
  8
0
 62
   115
100
AcDbTrace
 10
11.50000122307252
 20
56.4499997903497
 30
0.0
 11
12.50000122307252
 21
56.4499997903497
 31
0.0
 12
12.00000122307252
 22
53.4499997903497
 32
0.0
 13
12.00000122307252
 23
53.4499997903497
 33
0.0
  0
SOLID
  5
983A
330
9749
100
AcDbEntity
  8
0
 62
   115
100
AcDbTrace
 10
11.50000122307253
 20
77.54999979034983
 30
0.0
 11
12.50000122307253
 21
77.54999979034983
 31
0.0
 12
12.00000122307253
 22
80.54999979034983
 32
0.0
 13
12.00000122307253
 23
80.54999979034983
 33
0.0
  0
MTEXT
  5
983B
330
9749
100
AcDbEntity
  8
0
 62
     7
100
AcDbMText
 10
9.500001223072516
 20
66.99999979034976
 30
0.0
 40
3.0
 41
0.0
 71
     5
 72
     1
  1
\A1;%%C27.1
 11
0.0000000000000001
 21
1.0
 31
0.0
 73
     1
 44
1.0
1001
ACAD
1000
MTEXTBEGIN
1070
    73
1070
     1
1070
    44
1040
1.0
1070
    74
1070
     0
1000
MTEXTEND
  0
POINT
  5
983C
330
9749
100
AcDbEntity
  8
DEFPOINTS
 62
     0
100
AcDbPoint
 10
22.00000122307262
 20
53.4499997903497
 30
0.0
  0
POINT
  5
983D
330
9749
100
AcDbEntity
  8
DEFPOINTS
 62
     0
100
AcDbPoint
 10
22.00000122307279
 20
80.54999979034983
 30
0.0
  0
POINT
  5
983E
330
9749
100
AcDbEntity
  8
DEFPOINTS
 62
     0
100
AcDbPoint
 10
12.00000122307253
 20
80.54999979034983
 30
0.0
  0
ENDBLK
  5
974B
330
9749
100
AcDbEntity
  8
0
100
AcDbBlockEnd
  0
BLOCK
  5
9756
330
9755
100
AcDbEntity
  8
0
100
AcDbBlockBegin
  2
*D4
 70
     1
 10
0.0
 20
0.0
 30
0.0
  3
*D4
  1

  0
LINE
  5
983F
330
9755
100
AcDbEntity
  8
0
 62
   115
370
    -2
100
AcDbLine
 10
21.0000012230726
 20
51.19999979034969
 30
0.0
 11
3.000001223072495
 21
51.1999997903497
 31
0.0
  0
LINE
  5
9840
330
9755
100
AcDbEntity
  8
0
 62
   115
370
    -2
100
AcDbLine
 10
21.0000012230728
 20
82.79999979034982
 30
0.0
 11
3.000001223072502
 21
82.79999979034982
 31
0.0
  0
LINE
  5
9841
330
9755
100
AcDbEntity
  8
0
 62
   115
370
    -2
100
AcDbLine
 10
4.000001223072495
 20
54.1999997903497
 30
0.0
 11
4.000001223072501
 21
79.79999979034983
 31
0.0
  0
SOLID
  5
9842
330
9755
100
AcDbEntity
  8
0
 62
   115
100
AcDbTrace
 10
3.500001223072495
 20
54.1999997903497
 30
0.0
 11
4.500001223072495
 21
54.1999997903497
 31
0.0
 12
4.000001223072494
 22
51.1999997903497
 32
0.0
 13
4.000001223072494
 23
51.1999997903497
 33
0.0
  0
SOLID
  5
9843
330
9755
100
AcDbEntity
  8
0
 62
   115
100
AcDbTrace
 10
3.500001223072501
 20
79.79999979034983
 30
0.0
 11
4.500001223072501
 21
79.79999979034983
 31
0.0
 12
4.000001223072501
 22
82.79999979034982
 32
0.0
 13
4.000001223072501
 23
82.79999979034982
 33
0.0
  0
MTEXT
  5
9844
330
9755
100
AcDbEntity
  8
0
 62
     7
100
AcDbMText
 10
1.500001223072487
 20
66.99999979034976
 30
0.0
 40
3.0
 41
0.0
 71
     5
 72
     1
  1
\A1;%%C31.6
 11
0.0000000000000001
 21
1.0
 31
0.0
 73
     1
 44
1.0
1001
ACAD
1000
MTEXTBEGIN
1070
    73
1070
     1
1070
    44
1040
1.0
1070
    74
1070
     0
1000
MTEXTEND
  0
POINT
  5
9845
330
9755
100
AcDbEntity
  8
DEFPOINTS
 62
     0
100
AcDbPoint
 10
22.0000012230726
 20
51.19999979034969
 30
0.0
  0
POINT
  5
9846
330
9755
100
AcDbEntity
  8
DEFPOINTS
 62
     0
100
AcDbPoint
 10
22.0000012230728
 20
82.79999979034982
 30
0.0
  0
POINT
  5
9847
330
9755
100
AcDbEntity
  8
DEFPOINTS
 62
     0
100
AcDbPoint
 10
4.000001223072501
 20
82.79999979034982
 30
0.0
  0
ENDBLK
  5
9757
330
9755
100
AcDbEntity
  8
0
100
AcDbBlockEnd
  0
BLOCK
  5
9762
330
9761
100
AcDbEntity
  8
0
100
AcDbBlockBegin
  2
*D5
 70
     1
 10
0.0
 20
0.0
 30
0.0
  3
*D5
  1

  0
LINE
  5
9BDC
330
9761
100
AcDbEntity
  8
0
 62
   115
370
    -2
100
AcDbLine
 10
135.5000010730728
 20
42.00000759034984
 30
0.0
 11
124.5000010730726
 21
42.00000759034984
 31
0.0
  0
LINE
  5
9BDD
330
9761
100
AcDbEntity
  8
0
 62
   115
370
    -2
100
AcDbLine
 10
135.5000010730727
 20
91.99999979034988
 30
0.0
 11
124.5000010730726
 21
91.99999979034988
 31
0.0
  0
LINE
  5
9BDE
330
9761
100
AcDbEntity
  8
0
 62
   115
370
    -2
100
AcDbLine
 10
125.5000010730726
 20
45.00000759034984
 30
0.0
 11
125.5000010730726
 21
88.99999979034987
 31
0.0
  0
SOLID
  5
9BDF
330
9761
100
AcDbEntity
  8
0
 62
   115
100
AcDbTrace
 10
125.0000010730726
 20
45.00000759034984
 30
0.0
 11
126.0000010730726
 21
45.00000759034984
 31
0.0
 12
125.5000010730726
 22
42.00000759034984
 32
0.0
 13
125.5000010730726
 23
42.00000759034984
 33
0.0
  0
SOLID
  5
9BE0
330
9761
100
AcDbEntity
  8
0
 62
   115
100
AcDbTrace
 10
125.0000010730726
 20
88.99999979034987
 30
0.0
 11
126.0000010730726
 21
88.99999979034987
 31
0.0
 12
125.5000010730726
 22
91.99999979034988
 32
0.0
 13
125.5000010730726
 23
91.99999979034988
 33
0.0
  0
MTEXT
  5
9BE1
330
9761
100
AcDbEntity
  8
0
 62
     7
100
AcDbMText
 10
122.2142867873583
 20
67.00000369034987
 30
0.0
 40
3.0
 41
0.0
 71
     5
 72
     1
  1
\A1;%%C50 g6 ({\H0.5x;\S-0.009^ -0.025;})
 11
0.0000000000000001
 21
1.0
 31
0.0
 73
     1
 44
1.0
1001
ACAD
1000
MTEXTBEGIN
1070
    73
1070
     1
1070
    44
1040
1.0
1070
    74
1070
     0
1000
MTEXTEND
  0
POINT
  5
9BE2
330
9761
100
AcDbEntity
  8
DEFPOINTS
 62
     0
100
AcDbPoint
 10
136.5000010730728
 20
42.00000759034984
 30
0.0
  0
POINT
  5
9BE3
330
9761
100
AcDbEntity
  8
DEFPOINTS
 62
     0
100
AcDbPoint
 10
136.5000010730727
 20
91.99999979034988
 30
0.0
  0
POINT
  5
9BE4
330
9761
100
AcDbEntity
  8
DEFPOINTS
 62
     0
100
AcDbPoint
 10
125.5000010730726
 20
91.99999979034988
 30
0.0
  0
ENDBLK
  5
9763
330
9761
100
AcDbEntity
  8
0
100
AcDbBlockEnd
  0
BLOCK
  5
976E
330
976D
100
AcDbEntity
  8
0
100
AcDbBlockBegin
  2
*D6
 70
     1
 10
0.0
 20
0.0
 30
0.0
  3
*D6
  1

  0
LINE
  5
9B81
330
976D
100
AcDbEntity
  8
0
 62
   115
370
    -2
100
AcDbLine
 10
190.5000073730729
 20
26.99999979034976
 30
0.0
 11
190.5000073730729
 21
15.99999979034976
 31
0.0
  0
LINE
  5
9B82
330
976D
100
AcDbEntity
  8
0
 62
   115
370
    -2
100
AcDbLine
 10
135.5000010730728
 20
42.00000759034984
 30
0.0
 11
135.5000010730728
 21
15.99999979034976
 31
0.0
  0
LINE
  5
9B83
330
976D
100
AcDbEntity
  8
0
 62
   115
370
    -2
100
AcDbLine
 10
187.5000073730729
 20
16.99999979034976
 30
0.0
 11
138.5000010730728
 21
16.99999979034976
 31
0.0
  0
SOLID
  5
9B84
330
976D
100
AcDbEntity
  8
0
 62
   115
100
AcDbTrace
 10
187.5000073730729
 20
17.49999979034976
 30
0.0
 11
187.5000073730729
 21
16.49999979034976
 31
0.0
 12
190.5000073730729
 22
16.99999979034976
 32
0.0
 13
190.5000073730729
 23
16.99999979034976
 33
0.0
  0
SOLID
  5
9B85
330
976D
100
AcDbEntity
  8
0
 62
   115
100
AcDbTrace
 10
138.5000010730728
 20
17.49999979034976
 30
0.0
 11
138.5000010730728
 21
16.49999979034976
 31
0.0
 12
135.5000010730728
 22
16.99999979034976
 32
0.0
 13
135.5000010730728
 23
16.99999979034976
 33
0.0
  0
MTEXT
  5
9B86
330
976D
100
AcDbEntity
  8
0
 62
     7
100
AcDbMText
 10
163.0000042230729
 20
19.49999979034976
 30
0.0
 40
3.0
 41
0.0
 71
     5
 72
     1
  1
\A1;55
 73
     1
 44
1.0
1001
ACAD
1000
MTEXTBEGIN
1070
    73
1070
     1
1070
    44
1040
1.0
1070
    74
1070
     0
1000
MTEXTEND
  0
POINT
  5
9B87
330
976D
100
AcDbEntity
  8
DEFPOINTS
 62
     0
100
AcDbPoint
 10
190.5000073730729
 20
27.99999979034976
 30
0.0
  0
POINT
  5
9B88
330
976D
100
AcDbEntity
  8
DEFPOINTS
 62
     0
100
AcDbPoint
 10
135.5000010730728
 20
43.00000759034984
 30
0.0
  0
POINT
  5
9B89
330
976D
100
AcDbEntity
  8
DEFPOINTS
 62
     0
100
AcDbPoint
 10
135.5000010730728
 20
16.99999979034976
 30
0.0
  0
ENDBLK
  5
976F
330
976D
100
AcDbEntity
  8
0
100
AcDbBlockEnd
  0
BLOCK
  5
977A
330
9779
100
AcDbEntity
  8
0
100
AcDbBlockBegin
  2
*D7
 70
     1
 10
0.0
 20
0.0
 30
0.0
  3
*D7
  1

  0
LINE
  5
9B8A
330
9779
100
AcDbEntity
  8
0
 62
   115
370
    -2
100
AcDbLine
 10
190.5000073730729
 20
26.99999979034976
 30
0.0
 11
190.5000073730729
 21
15.99999979034976
 31
0.0
  0
LINE
  5
9B8B
330
9779
100
AcDbEntity
  8
0
 62
   115
370
    -2
100
AcDbLine
 10
202.5000073730728
 20
26.99999979034978
 30
0.0
 11
202.5000073730728
 21
15.99999979034976
 31
0.0
  0
LINE
  5
9B8C
330
9779
100
AcDbEntity
  8
0
 62
   115
370
    -2
100
AcDbLine
 10
193.5000073730729
 20
16.99999979034976
 30
0.0
 11
199.5000073730728
 21
16.99999979034976
 31
0.0
  0
SOLID
  5
9B8D
330
9779
100
AcDbEntity
  8
0
 62
   115
100
AcDbTrace
 10
193.5000073730729
 20
17.49999979034976
 30
0.0
 11
193.5000073730729
 21
16.49999979034976
 31
0.0
 12
190.5000073730729
 22
16.99999979034976
 32
0.0
 13
190.5000073730729
 23
16.99999979034976
 33
0.0
  0
SOLID
  5
9B8E
330
9779
100
AcDbEntity
  8
0
 62
   115
100
AcDbTrace
 10
199.5000073730728
 20
17.49999979034976
 30
0.0
 11
199.5000073730728
 21
16.49999979034976
 31
0.0
 12
202.5000073730728
 22
16.99999979034976
 32
0.0
 13
202.5000073730728
 23
16.99999979034976
 33
0.0
  0
MTEXT
  5
9B8F
330
9779
100
AcDbEntity
  8
0
 62
     7
100
AcDbMText
 10
196.5000073730728
 20
19.49999979034976
 30
0.0
 40
3.0
 41
0.0
 71
     5
 72
     1
  1
\A1;12
 73
     1
 44
1.0
1001
ACAD
1000
MTEXTBEGIN
1070
    73
1070
     1
1070
    44
1040
1.0
1070
    74
1070
     0
1000
MTEXTEND
  0
POINT
  5
9B90
330
9779
100
AcDbEntity
  8
DEFPOINTS
 62
     0
100
AcDbPoint
 10
190.5000073730729
 20
27.99999979034976
 30
0.0
  0
POINT
  5
9B91
330
9779
100
AcDbEntity
  8
DEFPOINTS
 62
     0
100
AcDbPoint
 10
202.5000073730728
 20
27.99999979034978
 30
0.0
  0
POINT
  5
9B92
330
9779
100
AcDbEntity
  8
DEFPOINTS
 62
     0
100
AcDbPoint
 10
202.5000073730728
 20
16.99999979034976
 30
0.0
  0
ENDBLK
  5
977B
330
9779
100
AcDbEntity
  8
0
100
AcDbBlockEnd
  0
BLOCK
  5
9786
330
9785
100
AcDbEntity
  8
0
100
AcDbBlockBegin
  2
*D8
 70
     1
 10
0.0
 20
0.0
 30
0.0
  3
*D8
  1

  0
LINE
  5
9B11
330
9785
100
AcDbEntity
  8
0
 62
   115
370
    -2
100
AcDbLine
 10
135.5000010730728
 20
42.00000759034984
 30
0.0
 11
135.5000010730728
 21
7.999999790349761
 31
0.0
  0
LINE
  5
9B12
330
9785
100
AcDbEntity
  8
0
 62
   115
370
    -2
100
AcDbLine
 10
208.5000013730727
 20
42.0000075903498
 30
0.0
 11
208.5000013730727
 21
7.999999790349761
 31
0.0
  0
LINE
  5
9B13
330
9785
100
AcDbEntity
  8
0
 62
   115
370
    -2
100
AcDbLine
 10
138.5000010730728
 20
8.999999790349761
 30
0.0
 11
205.5000013730727
 21
8.999999790349761
 31
0.0
  0
SOLID
  5
9B14
330
9785
100
AcDbEntity
  8
0
 62
   115
100
AcDbTrace
 10
138.5000010730728
 20
9.499999790349761
 30
0.0
 11
138.5000010730728
 21
8.499999790349761
 31
0.0
 12
135.5000010730728
 22
8.999999790349761
 32
0.0
 13
135.5000010730728
 23
8.999999790349761
 33
0.0
  0
SOLID
  5
9B15
330
9785
100
AcDbEntity
  8
0
 62
   115
100
AcDbTrace
 10
205.5000013730727
 20
9.499999790349761
 30
0.0
 11
205.5000013730727
 21
8.499999790349761
 31
0.0
 12
208.5000013730727
 22
8.999999790349761
 32
0.0
 13
208.5000013730727
 23
8.999999790349761
 33
0.0
  0
MTEXT
  5
9B16
330
9785
100
AcDbEntity
  8
0
 62
     7
100
AcDbMText
 10
172.0000012230728
 20
11.49999979034976
 30
0.0
 40
3.0
 41
0.0
 71
     5
 72
     1
  1
\A1;73
 73
     1
 44
1.0
1001
ACAD
1000
MTEXTBEGIN
1070
    73
1070
     1
1070
    44
1040
1.0
1070
    74
1070
     0
1000
MTEXTEND
  0
POINT
  5
9B17
330
9785
100
AcDbEntity
  8
DEFPOINTS
 62
     0
100
AcDbPoint
 10
135.5000010730728
 20
43.00000759034984
 30
0.0
  0
POINT
  5
9B18
330
9785
100
AcDbEntity
  8
DEFPOINTS
 62
     0
100
AcDbPoint
 10
208.5000013730727
 20
43.00000759034981
 30
0.0
  0
POINT
  5
9B19
330
9785
100
AcDbEntity
  8
DEFPOINTS
 62
     0
100
AcDbPoint
 10
208.5000013730727
 20
8.999999790349761
 30
0.0
  0
ENDBLK
  5
9787
330
9785
100
AcDbEntity
  8
0
100
AcDbBlockEnd
  0
BLOCK
  5
9792
330
9791
100
AcDbEntity
  8
0
100
AcDbBlockBegin
  2
*D9
 70
     1
 10
0.0
 20
0.0
 30
0.0
  3
*D9
  1

  0
LINE
  5
986C
330
9791
100
AcDbEntity
  8
0
 62
   115
370
    -2
100
AcDbLine
 10
348.0000012230713
 20
40.72155059345663
 30
0.0
 11
348.0000012230713
 21
-0.0000002096502385
 31
0.0
  0
LINE
  5
986D
330
9791
100
AcDbEntity
  8
0
 62
   115
370
    -2
100
AcDbLine
 10
410.0000013230727
 20
40.72155047082071
 30
0.0
 11
410.0000013230727
 21
-0.0000002096502385
 31
0.0
  0
LINE
  5
986E
330
9791
100
AcDbEntity
  8
0
 62
   115
370
    -2
100
AcDbLine
 10
351.0000012230713
 20
0.9999997903497614
 30
0.0
 11
407.0000013230727
 21
0.9999997903497614
 31
0.0
  0
SOLID
  5
986F
330
9791
100
AcDbEntity
  8
0
 62
   115
100
AcDbTrace
 10
351.0000012230713
 20
1.499999790349761
 30
0.0
 11
351.0000012230713
 21
0.4999997903497615
 31
0.0
 12
348.0000012230713
 22
0.9999997903497614
 32
0.0
 13
348.0000012230713
 23
0.9999997903497614
 33
0.0
  0
SOLID
  5
9870
330
9791
100
AcDbEntity
  8
0
 62
   115
100
AcDbTrace
 10
407.0000013230727
 20
1.499999790349761
 30
0.0
 11
407.0000013230727
 21
0.4999997903497615
 31
0.0
 12
410.0000013230727
 22
0.9999997903497614
 32
0.0
 13
410.0000013230727
 23
0.9999997903497614
 33
0.0
  0
MTEXT
  5
9871
330
9791
100
AcDbEntity
  8
0
 62
     7
100
AcDbMText
 10
379.000001273072
 20
3.499999790349761
 30
0.0
 40
3.0
 41
0.0
 71
     5
 72
     1
  1
\A1;62
 73
     1
 44
1.0
1001
ACAD
1000
MTEXTBEGIN
1070
    73
1070
     1
1070
    44
1040
1.0
1070
    74
1070
     0
1000
MTEXTEND
  0
POINT
  5
9872
330
9791
100
AcDbEntity
  8
DEFPOINTS
 62
     0
100
AcDbPoint
 10
348.0000012230713
 20
41.72155059345664
 30
0.0
  0
POINT
  5
9873
330
9791
100
AcDbEntity
  8
DEFPOINTS
 62
     0
100
AcDbPoint
 10
410.0000013230727
 20
41.72155047082071
 30
0.0
  0
POINT
  5
9874
330
9791
100
AcDbEntity
  8
DEFPOINTS
 62
     0
100
AcDbPoint
 10
410.0000013230727
 20
0.9999997903497614
 30
0.0
  0
ENDBLK
  5
9793
330
9791
100
AcDbEntity
  8
0
100
AcDbBlockEnd
  0
BLOCK
  5
979E
330
979D
100
AcDbEntity
  8
0
100
AcDbBlockBegin
  2
*D10
 70
     1
 10
0.0
 20
0.0
 30
0.0
  3
*D10
  1

  0
LINE
  5
9875
330
979D
100
AcDbEntity
  8
0
 62
   115
370
    -2
100
AcDbLine
 10
350.0086235829872
 20
38.00862205026455
 30
0.0
 11
343.0337581555351
 21
31.03375662281247
 31
0.0
  0
LINE
  5
9876
330
979D
100
AcDbEntity
  8
0
 62
   115
370
    -2
100
AcDbLine
 10
407.9913790631583
 20
38.00862205026456
 30
0.0
 11
414.96624449061
 21
31.03375662281306
 31
0.0
  0
ARC
  5
9877
330
979D
100
AcDbEntity
  8
0
 62
   115
370
    -2
100
AcDbCircle
 10
379.0000013230723
 20
66.99999979034958
 30
0.0
 40
49.8639488751397
100
AcDbArc
 50
228.4476465857196
 51
311.5523534142814
  0
SOLID
  5
9878
330
979D
100
AcDbEntity
  8
0
 62
   115
100
AcDbTrace
 10
345.5822806555293
 20
29.32028740838804
 30
0.0
 11
346.267796344981
 21
30.04834526289924
 31
0.0
 12
343.7408649367216
 22
31.74086340399901
 32
0.0
 13
343.7408649367216
 23
31.74086340399901
 33
0.0
  0
SOLID
  5
9879
330
979D
100
AcDbEntity
  8
0
 62
   115
100
AcDbTrace
 10
411.732206301164
 20
30.04834526289978
 30
0.0
 11
412.4177219906158
 21
29.3202874083886
 31
0.0
 12
414.2591377094235
 22
31.7408634039996
 32
0.0
 13
414.2591377094235
 23
31.7408634039996
 33
0.0
  0
MTEXT
  5
987A
102
{ACAD_XDICTIONARY
360
9D6C
102
}
330
979D
100
AcDbEntity
  8
0
 62
     7
100
AcDbMText
 10
379.0000013230726
 20
19.63605091520988
 30
0.0
 40
3.0
 41
0.0
 71
     5
 72
     1
  1
\A1;90\U+00B0
 73
     1
 44
1.0
1001
ACAD
1000
MTEXTBEGIN
1070
    73
1070
     1
1070
    44
1040
1.0
1070
    74
1070
     0
1000
MTEXTEND
  0
POINT
  5
987B
330
979D
100
AcDbEntity
  8
DEFPOINTS
 62
     0
100
AcDbPoint
 10
366.094261690168
 20
18.83512377109433
 30
0.0
  0
POINT
  5
987C
330
979D
100
AcDbEntity
  8
DEFPOINTS
 62
     0
100
AcDbPoint
 10
350.7157303641737
 20
38.71572883145109
 30
0.0
  0
POINT
  5
987D
330
979D
100
AcDbEntity
  8
DEFPOINTS
 62
     0
100
AcDbPoint
 10
407.2842722819717
 20
38.71572883145109
 30
0.0
  0
POINT
  5
987E
330
979D
100
AcDbEntity
  8
DEFPOINTS
 62
     0
100
AcDbPoint
 10
396.6776705641735
 20
49.32233054924893
 30
0.0
  0
POINT
  5
987F
330
979D
100
AcDbEntity
  8
DEFPOINTS
 62
     0
100
AcDbPoint
 10
361.3223320819719
 20
49.32233054924927
 30
0.0
  0
ENDBLK
  5
979F
330
979D
100
AcDbEntity
  8
0
100
AcDbBlockEnd
  0
BLOCK
  5
97AC
330
97AB
100
AcDbEntity
  8
0
100
AcDbBlockBegin
  2
*D11
 70
     1
 10
0.0
 20
0.0
 30
0.0
  3
*D11
  1

  0
LINE
  5
9880
330
97AB
100
AcDbEntity
  8
0
 62
   115
370
    -2
100
AcDbLine
 10
355.0190312230729
 20
44.01902969034984
 30
0.0
 11
337.0000012230726
 21
44.01902969034984
 31
0.0
  0
LINE
  5
9881
330
97AB
100
AcDbEntity
  8
0
 62
   115
370
    -2
100
AcDbLine
 10
355.0190312230729
 20
89.98097079034982
 30
0.0
 11
337.0000012230726
 21
89.98097079034984
 31
0.0
  0
LINE
  5
9882
330
97AB
100
AcDbEntity
  8
0
 62
   115
370
    -2
100
AcDbLine
 10
338.0000012230726
 20
47.01902969034984
 30
0.0
 11
338.0000012230726
 21
86.98097079034985
 31
0.0
  0
SOLID
  5
9883
330
97AB
100
AcDbEntity
  8
0
 62
   115
100
AcDbTrace
 10
337.5000012230726
 20
47.01902969034984
 30
0.0
 11
338.5000012230725
 21
47.01902969034984
 31
0.0
 12
338.0000012230726
 22
44.01902969034984
 32
0.0
 13
338.0000012230726
 23
44.01902969034984
 33
0.0
  0
SOLID
  5
9884
330
97AB
100
AcDbEntity
  8
0
 62
   115
100
AcDbTrace
 10
337.5000012230726
 20
86.98097079034985
 30
0.0
 11
338.5000012230725
 21
86.98097079034985
 31
0.0
 12
338.0000012230726
 22
89.98097079034984
 32
0.0
 13
338.0000012230726
 23
89.98097079034984
 33
0.0
  0
MTEXT
  5
9885
330
97AB
100
AcDbEntity
  8
0
 62
     7
100
AcDbMText
 10
334.7142869373583
 20
67.00000024034991
 30
0.0
 40
3.0
 41
0.0
 71
     5
 72
     1
  1
\A1;(45.96)
 11
0.0000000000000001
 21
1.0
 31
0.0
 73
     1
 44
1.0
1001
ACAD
1000
MTEXTBEGIN
1070
    73
1070
     1
1070
    44
1040
1.0
1070
    74
1070
     0
1000
MTEXTEND
  0
POINT
  5
9886
330
97AB
100
AcDbEntity
  8
DEFPOINTS
 62
     0
100
AcDbPoint
 10
356.0190312230728
 20
44.01902969034984
 30
0.0
  0
POINT
  5
9887
330
97AB
100
AcDbEntity
  8
DEFPOINTS
 62
     0
100
AcDbPoint
 10
356.0190312230728
 20
89.98097079034982
 30
0.0
  0
POINT
  5
9888
330
97AB
100
AcDbEntity
  8
DEFPOINTS
 62
     0
100
AcDbPoint
 10
338.0000012230726
 20
89.98097079034984
 30
0.0
  0
ENDBLK
  5
97AD
330
97AB
100
AcDbEntity
  8
0
100
AcDbBlockEnd
  0
BLOCK
  5
97B8
330
97B7
100
AcDbEntity
  8
0
100
AcDbBlockBegin
  2
*D12
 70
     1
 10
0.0
 20
0.0
 30
0.0
  3
*D12
  1

  0
LINE
  5
9889
330
97B7
100
AcDbEntity
  8
0
 62
   115
370
    -2
100
AcDbLine
 10
356.0190312230728
 20
43.01902969035007
 30
0.0
 11
356.0190312230728
 21
7.999999790349647
 31
0.0
  0
LINE
  5
988A
330
97B7
100
AcDbEntity
  8
0
 62
   115
370
    -2
100
AcDbLine
 10
401.9809717230727
 20
43.01902969034995
 30
0.0
 11
401.9809717230727
 21
7.999999790349647
 31
0.0
  0
LINE
  5
988B
330
97B7
100
AcDbEntity
  8
0
 62
   115
370
    -2
100
AcDbLine
 10
359.0190312230728
 20
8.999999790349647
 30
0.0
 11
398.9809717230728
 21
8.999999790349647
 31
0.0
  0
SOLID
  5
988C
330
97B7
100
AcDbEntity
  8
0
 62
   115
100
AcDbTrace
 10
359.0190312230728
 20
9.499999790349647
 30
0.0
 11
359.0190312230728
 21
8.499999790349647
 31
0.0
 12
356.0190312230728
 22
8.999999790349647
 32
0.0
 13
356.0190312230728
 23
8.999999790349647
 33
0.0
  0
SOLID
  5
988D
330
97B7
100
AcDbEntity
  8
0
 62
   115
100
AcDbTrace
 10
398.9809717230728
 20
9.499999790349647
 30
0.0
 11
398.9809717230728
 21
8.499999790349647
 31
0.0
 12
401.9809717230727
 22
8.999999790349647
 32
0.0
 13
401.9809717230727
 23
8.999999790349647
 33
0.0
  0
MTEXT
  5
988E
330
97B7
100
AcDbEntity
  8
0
 62
     7
100
AcDbMText
 10
379.0000014730728
 20
12.28571407606393
 30
0.0
 40
3.0
 41
0.0
 71
     5
 72
     1
  1
\A1;(45.96)
 73
     1
 44
1.0
1001
ACAD
1000
MTEXTBEGIN
1070
    73
1070
     1
1070
    44
1040
1.0
1070
    74
1070
     0
1000
MTEXTEND
  0
POINT
  5
988F
330
97B7
100
AcDbEntity
  8
DEFPOINTS
 62
     0
100
AcDbPoint
 10
356.0190312230728
 20
44.01902969035006
 30
0.0
  0
POINT
  5
9890
330
97B7
100
AcDbEntity
  8
DEFPOINTS
 62
     0
100
AcDbPoint
 10
401.9809717230727
 20
44.01902969034995
 30
0.0
  0
POINT
  5
9891
330
97B7
100
AcDbEntity
  8
DEFPOINTS
 62
     0
100
AcDbPoint
 10
401.9809717230727
 20
8.999999790349647
 30
0.0
  0
ENDBLK
  5
97B9
330
97B7
100
AcDbEntity
  8
0
100
AcDbBlockEnd
  0
BLOCK
  5
97C4
330
97C3
100
AcDbEntity
  8
0
100
AcDbBlockBegin
  2
*D13
 70
     1
 10
0.0
 20
0.0
 30
0.0
  3
*D13
  1

  0
LINE
  5
9892
330
97C3
100
AcDbEntity
  8
0
 62
   115
370
    -2
100
AcDbLine
 10
380.0000013230727
 20
34.49999934991104
 30
0.0
 11
429.0000013230718
 21
34.49999934991103
 31
0.0
  0
LINE
  5
9893
330
97C3
100
AcDbEntity
  8
0
 62
   115
370
    -2
100
AcDbLine
 10
380.0000013230727
 20
99.5000002307886
 30
0.0
 11
429.0000013230718
 21
99.50000023078859
 31
0.0
  0
LINE
  5
9894
330
97C3
100
AcDbEntity
  8
0
 62
   115
370
    -2
100
AcDbLine
 10
428.0000013230718
 20
37.49999934991103
 30
0.0
 11
428.0000013230718
 21
96.5000002307886
 31
0.0
  0
SOLID
  5
9895
330
97C3
100
AcDbEntity
  8
0
 62
   115
100
AcDbTrace
 10
427.5000013230718
 20
37.49999934991103
 30
0.0
 11
428.5000013230718
 21
37.49999934991103
 31
0.0
 12
428.0000013230718
 22
34.49999934991103
 32
0.0
 13
428.0000013230718
 23
34.49999934991103
 33
0.0
  0
SOLID
  5
9896
330
97C3
100
AcDbEntity
  8
0
 62
   115
100
AcDbTrace
 10
427.5000013230718
 20
96.5000002307886
 30
0.0
 11
428.5000013230718
 21
96.5000002307886
 31
0.0
 12
428.0000013230718
 22
99.50000023078859
 32
0.0
 13
428.0000013230718
 23
99.50000023078859
 33
0.0
  0
MTEXT
  5
9897
330
97C3
100
AcDbEntity
  8
0
 62
     7
100
AcDbMText
 10
425.5000013230718
 20
66.99999979034988
 30
0.0
 40
3.0
 41
0.0
 71
     5
 72
     1
  1
\A1;PCD 65
 11
0.0000000000000001
 21
1.0
 31
0.0
 73
     1
 44
1.0
1001
ACAD
1000
MTEXTBEGIN
1070
    73
1070
     1
1070
    44
1040
1.0
1070
    74
1070
     0
1000
MTEXTEND
  0
POINT
  5
9898
330
97C3
100
AcDbEntity
  8
DEFPOINTS
 62
     0
100
AcDbPoint
 10
379.0000013230728
 20
34.49999934991104
 30
0.0
  0
POINT
  5
9899
330
97C3
100
AcDbEntity
  8
DEFPOINTS
 62
     0
100
AcDbPoint
 10
379.0000013230728
 20
99.5000002307886
 30
0.0
  0
POINT
  5
989A
330
97C3
100
AcDbEntity
  8
DEFPOINTS
 62
     0
100
AcDbPoint
 10
428.0000013230718
 20
99.50000023078859
 30
0.0
  0
ENDBLK
  5
97C5
330
97C3
100
AcDbEntity
  8
0
100
AcDbBlockEnd
  0
BLOCK
  5
97D0
330
97CF
100
AcDbEntity
  8
0
100
AcDbBlockBegin
  2
*D14
 70
     1
 10
0.0
 20
0.0
 30
0.0
  3
*D14
  1

  0
LINE
  5
989B
330
97CF
100
AcDbEntity
  8
0
 62
   115
370
    -2
100
AcDbLine
 10
402.9809717230728
 20
85.48097079034983
 30
0.0
 11
421.0000013230717
 21
85.48097079034981
 31
0.0
  0
LINE
  5
989C
330
97CF
100
AcDbEntity
  8
0
 62
   115
370
    -2
100
AcDbLine
 10
402.9809717230728
 20
94.48097079034983
 30
0.0
 11
421.0000013230717
 21
94.48097079034981
 31
0.0
  0
LINE
  5
989D
330
97CF
100
AcDbEntity
  8
0
 62
   115
370
    -2
100
AcDbLine
 10
420.0000013230718
 20
88.48097079034982
 30
0.0
 11
420.0000013230718
 21
91.48097079034981
 31
0.0
  0
LINE
  5
989E
330
97CF
100
AcDbEntity
  8
0
 62
   115
370
    -2
100
AcDbLine
 10
420.0000013230718
 20
94.48097079034981
 30
0.0
 11
420.0000013230718
 21
110.4809707903498
 31
0.0
  0
SOLID
  5
989F
330
97CF
100
AcDbEntity
  8
0
 62
   115
100
AcDbTrace
 10
419.5000013230718
 20
88.48097079034982
 30
0.0
 11
420.5000013230717
 21
88.48097079034982
 31
0.0
 12
420.0000013230718
 22
85.48097079034981
 32
0.0
 13
420.0000013230718
 23
85.48097079034981
 33
0.0
  0
SOLID
  5
98A0
330
97CF
100
AcDbEntity
  8
0
 62
   115
100
AcDbTrace
 10
419.5000013230718
 20
91.48097079034981
 30
0.0
 11
420.5000013230717
 21
91.48097079034981
 31
0.0
 12
420.0000013230718
 22
94.48097079034981
 32
0.0
 13
420.0000013230718
 23
94.48097079034981
 33
0.0
  0
MTEXT
  5
98A1
330
97CF
100
AcDbEntity
  8
0
 62
     7
100
AcDbMText
 10
417.5000013230717
 20
103.9809707903499
 30
0.0
 40
3.0
 41
0.0
 71
     5
 72
     1
  1
\A1;6-%%C9
 11
0.0000000000000001
 21
1.0
 31
0.0
 73
     1
 44
1.0
1001
ACAD
1000
MTEXTBEGIN
1070
    73
1070
     1
1070
    44
1040
1.0
1070
    74
1070
     0
1000
MTEXTEND
  0
POINT
  5
98A2
330
97CF
100
AcDbEntity
  8
DEFPOINTS
 62
     0
100
AcDbPoint
 10
401.9809717230727
 20
85.48097079034983
 30
0.0
  0
POINT
  5
98A3
330
97CF
100
AcDbEntity
  8
DEFPOINTS
 62
     0
100
AcDbPoint
 10
401.9809717230727
 20
94.48097079034983
 30
0.0
  0
POINT
  5
98A4
330
97CF
100
AcDbEntity
  8
DEFPOINTS
 62
     0
100
AcDbPoint
 10
420.0000013230718
 20
94.48097079034981
 30
0.0
  0
ENDBLK
  5
97D1
330
97CF
100
AcDbEntity
  8
0
100
AcDbBlockEnd
  0
BLOCK
  5
97DD
330
97DC
100
AcDbEntity
  8
0
100
AcDbBlockBegin
  2
*D15
 70
     1
 10
0.0
 20
0.0
 30
0.0
  3
*D15
  1

  0
LINE
  5
9B25
330
97DC
100
AcDbEntity
  8
0
 62
   115
370
    -2
100
AcDbLine
 10
208.5000013730727
 20
42.0000075903498
 30
0.0
 11
219.5000013730727
 21
42.0000075903498
 31
0.0
  0
LINE
  5
9B26
330
97DC
100
AcDbEntity
  8
0
 62
   115
370
    -2
100
AcDbLine
 10
208.5000013730728
 20
91.9999997903499
 30
0.0
 11
219.5000013730727
 21
91.9999997903499
 31
0.0
  0
LINE
  5
9B27
330
97DC
100
AcDbEntity
  8
0
 62
   115
370
    -2
100
AcDbLine
 10
218.5000013730727
 20
45.0000075903498
 30
0.0
 11
218.5000013730727
 21
88.99999979034991
 31
0.0
  0
SOLID
  5
9B28
330
97DC
100
AcDbEntity
  8
0
 62
   115
100
AcDbTrace
 10
218.0000013730727
 20
45.0000075903498
 30
0.0
 11
219.0000013730727
 21
45.0000075903498
 31
0.0
 12
218.5000013730727
 22
42.0000075903498
 32
0.0
 13
218.5000013730727
 23
42.0000075903498
 33
0.0
  0
SOLID
  5
9B29
330
97DC
100
AcDbEntity
  8
0
 62
   115
100
AcDbTrace
 10
218.0000013730727
 20
88.99999979034991
 30
0.0
 11
219.0000013730727
 21
88.99999979034991
 31
0.0
 12
218.5000013730727
 22
91.9999997903499
 32
0.0
 13
218.5000013730727
 23
91.9999997903499
 33
0.0
  0
MTEXT
  5
9B2A
330
97DC
100
AcDbEntity
  8
0
 62
     7
100
AcDbMText
 10
215.2142870873584
 20
67.00000369034988
 30
0.0
 40
3.0
 41
0.0
 71
     5
 72
     1
  1
\A1;%%C50 g6 ({\H0.5x;\S-0.009^ -0.025;})
 11
0.0000000000000001
 21
1.0
 31
0.0
 73
     1
 44
1.0
1001
ACAD
1000
MTEXTBEGIN
1070
    73
1070
     1
1070
    44
1040
1.0
1070
    74
1070
     0
1000
MTEXTEND
  0
POINT
  5
9B2B
330
97DC
100
AcDbEntity
  8
DEFPOINTS
 62
     0
100
AcDbPoint
 10
207.5000013730727
 20
42.0000075903498
 30
0.0
  0
POINT
  5
9B2C
330
97DC
100
AcDbEntity
  8
DEFPOINTS
 62
     0
100
AcDbPoint
 10
207.5000013730728
 20
91.9999997903499
 30
0.0
  0
POINT
  5
9B2D
330
97DC
100
AcDbEntity
  8
DEFPOINTS
 62
     0
100
AcDbPoint
 10
218.5000013730727
 20
91.9999997903499
 30
0.0
  0
ENDBLK
  5
97DE
330
97DC
100
AcDbEntity
  8
0
100
AcDbBlockEnd
  0
BLOCK
  5
97F5
330
97F4
100
AcDbEntity
  8
0
100
AcDbBlockBegin
  2
*D16
 70
     1
 10
0.0
 20
0.0
 30
0.0
  3
*D16
  1

  0
LINE
  5
9B6D
330
97F4
100
AcDbEntity
  8
0
 62
   115
370
    -2
100
AcDbLine
 10
202.5000073730728
 20
26.99999979034978
 30
0.0
 11
202.5000073730728
 21
15.99999979034976
 31
0.0
  0
LINE
  5
9B6E
330
97F4
100
AcDbEntity
  8
0
 62
   115
370
    -2
100
AcDbLine
 10
208.5000013730727
 20
42.0000075903498
 30
0.0
 11
208.5000013730727
 21
15.99999979034976
 31
0.0
  0
LINE
  5
9B6F
330
97F4
100
AcDbEntity
  8
0
 62
   115
370
    -2
100
AcDbLine
 10
199.5000073730728
 20
16.99999979034976
 30
0.0
 11
196.5000073730728
 21
16.99999979034976
 31
0.0
  0
LINE
  5
9B70
330
97F4
100
AcDbEntity
  8
0
 62
   115
370
    -2
100
AcDbLine
 10
211.5000013730727
 20
16.99999979034976
 30
0.0
 11
214.5000013730727
 21
16.99999979034976
 31
0.0
  0
LINE
  5
9B71
330
97F4
100
AcDbEntity
  8
0
 62
   115
370
    -2
100
AcDbLine
 10
202.5000073730728
 20
16.99999979034976
 30
0.0
 11
208.5000013730727
 21
16.99999979034976
 31
0.0
  0
SOLID
  5
9B72
330
97F4
100
AcDbEntity
  8
0
 62
   115
100
AcDbTrace
 10
199.5000073730728
 20
17.49999979034976
 30
0.0
 11
199.5000073730728
 21
16.49999979034976
 31
0.0
 12
202.5000073730728
 22
16.99999979034976
 32
0.0
 13
202.5000073730728
 23
16.99999979034976
 33
0.0
  0
SOLID
  5
9B73
330
97F4
100
AcDbEntity
  8
0
 62
   115
100
AcDbTrace
 10
211.5000013730727
 20
17.49999979034976
 30
0.0
 11
211.5000013730727
 21
16.49999979034976
 31
0.0
 12
208.5000013730727
 22
16.99999979034976
 32
0.0
 13
208.5000013730727
 23
16.99999979034976
 33
0.0
  0
MTEXT
  5
9B74
330
97F4
100
AcDbEntity
  8
0
 62
     7
100
AcDbMText
 10
205.5000043730728
 20
19.49999979034976
 30
0.0
 40
3.0
 41
0.0
 71
     5
 72
     1
  1
\A1;6
 73
     1
 44
1.0
1001
ACAD
1000
MTEXTBEGIN
1070
    73
1070
     1
1070
    44
1040
1.0
1070
    74
1070
     0
1000
MTEXTEND
  0
POINT
  5
9B75
330
97F4
100
AcDbEntity
  8
DEFPOINTS
 62
     0
100
AcDbPoint
 10
202.5000073730728
 20
27.99999979034978
 30
0.0
  0
POINT
  5
9B76
330
97F4
100
AcDbEntity
  8
DEFPOINTS
 62
     0
100
AcDbPoint
 10
208.5000013730727
 20
43.00000759034981
 30
0.0
  0
POINT
  5
9B77
330
97F4
100
AcDbEntity
  8
DEFPOINTS
 62
     0
100
AcDbPoint
 10
208.5000013730727
 20
16.99999979034976
 30
0.0
  0
ENDBLK
  5
97F6
330
97F4
100
AcDbEntity
  8
0
100
AcDbBlockEnd
  0
BLOCK
  5
9803
330
9802
100
AcDbEntity
  8
0
100
AcDbBlockBegin
  2
*D17
 70
     1
 10
0.0
 20
0.0
 30
0.0
  3
*D17
  1

  0
LINE
  5
9B78
330
9802
100
AcDbEntity
  8
0
 62
   115
370
    -2
100
AcDbLine
 10
202.5000073730728
 20
26.99999979034978
 30
0.0
 11
227.5000013730727
 21
26.99999979034978
 31
0.0
  0
LINE
  5
9B79
330
9802
100
AcDbEntity
  8
0
 62
   115
370
    -2
100
AcDbLine
 10
202.500007373073
 20
106.9999997903498
 30
0.0
 11
227.5000013730727
 21
106.9999997903497
 31
0.0
  0
LINE
  5
9B7A
330
9802
100
AcDbEntity
  8
0
 62
   115
370
    -2
100
AcDbLine
 10
226.5000013730727
 20
29.99999979034977
 30
0.0
 11
226.5000013730727
 21
103.9999997903497
 31
0.0
  0
SOLID
  5
9B7B
330
9802
100
AcDbEntity
  8
0
 62
   115
100
AcDbTrace
 10
226.0000013730727
 20
29.99999979034977
 30
0.0
 11
227.0000013730727
 21
29.99999979034977
 31
0.0
 12
226.5000013730727
 22
26.99999979034978
 32
0.0
 13
226.5000013730727
 23
26.99999979034978
 33
0.0
  0
SOLID
  5
9B7C
330
9802
100
AcDbEntity
  8
0
 62
   115
100
AcDbTrace
 10
226.0000013730727
 20
103.9999997903497
 30
0.0
 11
227.0000013730727
 21
103.9999997903497
 31
0.0
 12
226.5000013730727
 22
106.9999997903497
 32
0.0
 13
226.5000013730727
 23
106.9999997903497
 33
0.0
  0
MTEXT
  5
9B7D
330
9802
100
AcDbEntity
  8
0
 62
     7
100
AcDbMText
 10
224.0000013730727
 20
66.99999979034982
 30
0.0
 40
3.0
 41
0.0
 71
     5
 72
     1
  1
\A1;%%C80
 11
0.0000000000000001
 21
1.0
 31
0.0
 73
     1
 44
1.0
1001
ACAD
1000
MTEXTBEGIN
1070
    73
1070
     1
1070
    44
1040
1.0
1070
    74
1070
     0
1000
MTEXTEND
  0
POINT
  5
9B7E
330
9802
100
AcDbEntity
  8
DEFPOINTS
 62
     0
100
AcDbPoint
 10
201.5000073730728
 20
26.99999979034978
 30
0.0
  0
POINT
  5
9B7F
330
9802
100
AcDbEntity
  8
DEFPOINTS
 62
     0
100
AcDbPoint
 10
201.500007373073
 20
106.9999997903498
 30
0.0
  0
POINT
  5
9B80
330
9802
100
AcDbEntity
  8
DEFPOINTS
 62
     0
100
AcDbPoint
 10
226.5000013730727
 20
106.9999997903497
 30
0.0
  0
ENDBLK
  5
9804
330
9802
100
AcDbEntity
  8
0
100
AcDbBlockEnd
  0
BLOCK
  5
980F
330
980E
100
AcDbEntity
  8
0
100
AcDbBlockBegin
  2
*D18
 70
     1
 10
0.0
 20
0.0
 30
0.0
  3
*D18
  1

  0
LINE
  5
98CB
330
980E
100
AcDbEntity
  8
0
 62
   115
370
    -2
100
AcDbLine
 10
370.8323448003126
 20
97.17098796599998
 30
0.0
 11
403.4581359588237
 21
110.6850338038986
 31
0.0
  0
LINE
  5
98CC
330
980E
100
AcDbEntity
  8
0
 62
   115
370
    -2
100
AcDbLine
 10
372.2149566487588
 20
106.4028380949464
 30
0.0
 11
400.3966627662323
 21
118.0760835470302
 31
0.0
  0
LINE
  5
98CD
330
980E
100
AcDbEntity
  8
0
 62
   115
370
    -2
100
AcDbLine
 10
401.3862060881617
 20
113.0739889334602
 30
0.0
 11
400.6208335850249
 21
114.9217615209838
 31
0.0
  0
SOLID
  5
98CE
330
980E
100
AcDbEntity
  8
0
 62
   115
100
AcDbTrace
 10
401.848145851129
 20
113.2653306575814
 30
0.0
 11
400.9242663251944
 21
112.882647209339
 31
0.0
 12
402.534256432889
 22
110.3023503556562
 32
0.0
 13
402.534256432889
 23
110.3023503556562
 33
0.0
  0
SOLID
  5
98CF
330
980E
100
AcDbEntity
  8
0
 62
   115
100
AcDbTrace
 10
401.0827733479922
 20
115.113103245105
 30
0.0
 11
400.1588938220576
 21
114.7304197968626
 31
0.0
 12
399.4727832402976
 22
117.6934000987878
 32
0.0
 13
399.4727832402976
 23
117.6934000987878
 33
0.0
  0
MTEXT
  5
98D0
330
980E
100
AcDbEntity
  8
0
 62
     7
100
AcDbMText
 10
403.31321865143
 20
114.9545838478282
 30
0.0
 40
3.0
 41
0.0
 71
     5
 72
     1
  1
\A1;8
 11
0.382683448242454
 21
-0.923879525934667
 31
0.0
 73
     1
 44
1.0
1001
ACAD
1000
MTEXTBEGIN
1070
    73
1070
     1
1070
    44
1040
1.0
1070
    74
1070
     0
1000
MTEXTEND
  0
POINT
  5
98D1
330
980E
100
AcDbEntity
  8
DEFPOINTS
 62
     0
100
AcDbPoint
 10
369.9084652743779
 20
96.78830451775752
 30
0.0
  0
POINT
  5
98D2
330
980E
100
AcDbEntity
  8
DEFPOINTS
 62
     0
100
AcDbPoint
 10
371.2910771228242
 20
106.020154646704
 30
0.0
  0
POINT
  5
98D3
330
980E
100
AcDbEntity
  8
DEFPOINTS
 62
     0
100
AcDbPoint
 10
399.4727832402976
 20
117.6934000987878
 30
0.0
  0
ENDBLK
  5
9810
330
980E
100
AcDbEntity
  8
0
100
AcDbBlockEnd
  0
BLOCK
  5
981B
330
981A
100
AcDbEntity
  8
0
100
AcDbBlockBegin
  2
*D19
 70
     1
 10
0.0
 20
0.0
 30
0.0
  3
*D19
  1

  0
LINE
  5
98D4
330
981A
100
AcDbEntity
  8
0
 62
   115
370
    -2
100
AcDbLine
 10
366.4642985995822
 20
105.1032309712653
 30
0.0
 11
362.6374645397821
 21
114.342025210306
 31
0.0
  0
LINE
  5
98D5
330
981A
100
AcDbEntity
  8
0
 62
   115
370
    -2
100
AcDbLine
 10
360.9210220527368
 20
102.8071293944104
 30
0.0
 11
357.0941875900422
 21
112.0459246061247
 31
0.0
  0
LINE
  5
98D6
330
981A
100
AcDbEntity
  8
0
 62
   115
370
    -2
100
AcDbLine
 10
365.7917865658285
 20
114.5661960290988
 30
0.0
 11
368.5634251436325
 21
115.7142463738261
 31
0.0
  0
LINE
  5
98D7
330
981A
100
AcDbEntity
  8
0
 62
   115
370
    -2
100
AcDbLine
 10
354.7052324604807
 20
109.9739947354626
 30
0.0
 11
341.1110051502992
 21
104.343081139895
 31
0.0
  0
LINE
  5
98D8
330
981A
100
AcDbEntity
  8
0
 62
   115
370
    -2
100
AcDbLine
 10
363.0201479880246
 20
113.4181456843714
 30
0.0
 11
357.4768710382847
 21
111.12204508019
 31
0.0
  0
SOLID
  5
98D9
330
981A
100
AcDbEntity
  8
0
 62
   115
100
AcDbTrace
 10
365.6004448417073
 20
115.0281357920661
 30
0.0
 11
365.9831282899498
 21
114.1042562661314
 31
0.0
 12
363.0201479880246
 22
113.4181456843714
 32
0.0
 13
363.0201479880246
 23
113.4181456843714
 33
0.0
  0
SOLID
  5
98DA
330
981A
100
AcDbEntity
  8
0
 62
   115
100
AcDbTrace
 10
354.5138907363595
 20
110.43593449843
 30
0.0
 11
354.896574184602
 21
109.5120549724953
 31
0.0
 12
357.4768710382847
 22
111.12204508019
 32
0.0
 13
357.4768710382847
 23
111.12204508019
 33
0.0
  0
MTEXT
  5
98DB
330
981A
100
AcDbEntity
  8
0
 62
     7
100
AcDbMText
 10
345.5655908958818
 20
108.8942115801518
 30
0.0
 40
3.0
 41
0.0
 71
     5
 72
     1
  1
\A1;M6x1
 11
0.9238795259346643
 21
0.3826834482424605
 31
0.0
 73
     1
 44
1.0
1001
ACAD
1000
MTEXTBEGIN
1070
    73
1070
     1
1070
    44
1040
1.0
1070
    74
1070
     0
1000
MTEXTEND
  0
POINT
  5
98DC
330
981A
100
AcDbEntity
  8
DEFPOINTS
 62
     0
100
AcDbPoint
 10
366.8469820478246
 20
104.1793514453306
 30
0.0
  0
POINT
  5
98DD
330
981A
100
AcDbEntity
  8
DEFPOINTS
 62
     0
100
AcDbPoint
 10
361.3037055009793
 20
101.8832498684758
 30
0.0
  0
POINT
  5
98DE
330
981A
100
AcDbEntity
  8
DEFPOINTS
 62
     0
100
AcDbPoint
 10
357.4768710382847
 20
111.12204508019
 30
0.0
  0
ENDBLK
  5
981C
330
981A
100
AcDbEntity
  8
0
100
AcDbBlockEnd
  0
BLOCK
  5
9829
330
9828
100
AcDbEntity
  8
0
100
AcDbBlockBegin
  2
*D20
 70
     1
 10
0.0
 20
0.0
 30
0.0
  3
*D20
  1

  0
LINE
  5
98DF
330
9828
100
AcDbEntity
  8
0
 62
   115
370
    -2
100
AcDbLine
 10
379.0000011656661
 20
110.9999997251497
 30
0.0
 11
379.0000011656661
 21
125.4296281699354
 31
0.0
  0
LINE
  5
98E0
330
9828
100
AcDbEntity
  8
0
 62
   115
370
    -2
100
AcDbLine
 10
362.2749269374834
 20
107.3779012593936
 30
0.0
 11
356.6399506387978
 21
120.9819376375219
 31
0.0
  0
ARC
  5
98E1
330
9828
100
AcDbEntity
  8
0
 62
   115
370
    -2
100
AcDbCircle
 10
379.0000011656661
 20
66.9999997090067
 30
0.0
 40
57.42962846092874
100
AcDbArc
 50
92.99334842805428
 51
109.5066513125669
  0
SOLID
  5
98E2
330
9828
100
AcDbEntity
  8
0
 62
   115
100
AcDbTrace
 10
375.9879651762773
 20
124.8511008245959
 30
0.0
 11
376.0140840985166
 21
123.8514419818395
 31
0.0
 12
379.0000011656661
 22
124.4296281699354
 32
0.0
 13
379.0000011656661
 23
124.4296281699354
 33
0.0
  0
SOLID
  5
98E3
330
9828
100
AcDbEntity
  8
0
 62
   115
100
AcDbTrace
 10
360.0025240088573
 20
120.66654469664
 30
0.0
 11
359.6441018736116
 21
121.6001043213913
 31
0.0
 12
357.0226340669805
 22
120.0580581032782
 32
0.0
 13
357.0226340669805
 23
120.0580581032782
 33
0.0
  0
MTEXT
  5
98E4
102
{ACAD_XDICTIONARY
360
9D6E
102
}
330
9828
100
AcDbEntity
  8
0
 62
     7
100
AcDbMText
 10
367.3083107839612
 20
125.7780971899843
 30
0.0
 40
3.0
 41
0.0
 71
     5
 72
     1
  1
\A1;22.5\U+00B0
 11
0.9807852808448187
 21
0.1950903197961142
 31
0.0
 73
     1
 44
1.0
1001
ACAD
1000
MTEXTBEGIN
1070
    73
1070
     1
1070
    44
1040
1.0
1070
    74
1070
     0
1000
MTEXTEND
  0
POINT
  5
98E5
330
9828
100
AcDbEntity
  8
DEFPOINTS
 62
     0
100
AcDbPoint
 10
371.5039305279689
 20
123.9383097485132
 30
0.0
  0
POINT
  5
98E6
330
9828
100
AcDbEntity
  8
DEFPOINTS
 62
     0
100
AcDbPoint
 10
362.6576103656661
 20
106.4540217251499
 30
0.0
  0
POINT
  5
98E7
330
9828
100
AcDbEntity
  8
DEFPOINTS
 62
     0
100
AcDbPoint
 10
379.0000011656661
 20
23.99999972514968
 30
0.0
  0
POINT
  5
98E8
330
9828
100
AcDbEntity
  8
DEFPOINTS
 62
     0
100
AcDbPoint
 10
379.0000011656661
 20
109.9999997251497
 30
0.0
  0
POINT
  5
98E9
330
9828
100
AcDbEntity
  8
DEFPOINTS
 62
     0
100
AcDbPoint
 10
373.9856958656662
 20
79.10560372514978
 30
0.0
  0
ENDBLK
  5
982A
330
9828
100
AcDbEntity
  8
0
100
AcDbBlockEnd
  0
BLOCK
  5
999B
330
999A
100
AcDbEntity
  8
0
100
AcDbBlockBegin
  2
3210SDK
 70
     0
 10
0.0
 20
0.0
 30
0.0
  3
3210SDK
  1

  0
LINE
  5
9C30
330
999A
100
AcDbEntity
  8
0
100
AcDbLine
 10
191.5000073730728
 20
206.9999997903497
 30
0.0
 11
191.5000073730728
 21
192.1956054372447
 31
0.0
  0
LINE
  5
9C31
330
999A
100
AcDbEntity
  8
0
100
AcDbLine
 10
191.5000073730729
 20
141.6387070434549
 30
0.0
 11
191.5000073730729
 21
126.9999997903497
 31
0.0
  0
LINE
  5
9C32
330
999A
100
AcDbEntity
  8
0
100
AcDbLine
 10
190.5000073730728
 20
205.9999997903497
 30
0.0
 11
190.5000073730729
 21
127.9999997903497
 31
0.0
  0
LINE
  5
9C33
330
999A
100
AcDbEntity
  8
0
100
AcDbLine
 10
136.5000010730728
 20
142.0000075903498
 30
0.0
 11
136.5000010730728
 21
191.9999997903499
 31
0.0
  0
LINE
  5
9C34
330
999A
100
AcDbEntity
  8
0
100
AcDbLine
 10
207.5000013730728
 20
142.0000075903498
 30
0.0
 11
207.5000013730728
 21
191.9999997903499
 31
0.0
  0
LINE
  5
9C35
330
999A
100
AcDbEntity
  8
0
100
AcDbLine
 10
202.500007373073
 20
205.9999997903498
 30
0.0
 11
202.5000073730728
 21
127.9999997903497
 31
0.0
  0
LINE
  5
9C36
330
999A
100
AcDbEntity
  8
0
100
AcDbLine
 10
201.5000073730728
 20
126.9999997903497
 30
0.0
 11
201.5000073730727
 21
141.6387070434549
 31
0.0
  0
LINE
  5
9C37
330
999A
100
AcDbEntity
  8
0
100
AcDbLine
 10
201.500007373073
 20
192.1956054372448
 30
0.0
 11
201.500007373073
 21
206.9999997903498
 31
0.0
  0
LINE
  5
9C38
330
999A
100
AcDbEntity
  8
0
100
AcDbLine
 10
135.5000010730727
 20
190.9999997903499
 30
0.0
 11
135.5000010730728
 21
143.0000075903498
 31
0.0
  0
LINE
  5
9C39
330
999A
100
AcDbEntity
  8
0
100
AcDbLine
 10
136.5000010730728
 20
142.0000075903498
 30
0.0
 11
190.5000013730727
 21
142.0000075903498
 31
0.0
  0
LINE
  5
9C3A
330
999A
100
AcDbEntity
  8
0
100
AcDbLine
 10
191.5000073730729
 20
126.9999997903497
 30
0.0
 11
201.5000073730728
 21
126.9999997903497
 31
0.0
  0
LINE
  5
9C3B
330
999A
100
AcDbEntity
  8
0
100
AcDbLine
 10
202.5000013730728
 20
142.0000075903498
 30
0.0
 11
207.5000013730727
 21
142.0000075903498
 31
0.0
  0
LINE
  5
9C3C
330
999A
100
AcDbEntity
  8
0
100
AcDbLine
 10
208.5000013730727
 20
143.0000075903498
 30
0.0
 11
208.5000013730728
 21
190.9999997903499
 31
0.0
  0
LINE
  5
9C3D
330
999A
100
AcDbEntity
  8
0
100
AcDbLine
 10
207.5000013730728
 20
191.9999997903499
 30
0.0
 11
202.5000013730728
 21
191.9999997903499
 31
0.0
  0
LINE
  5
9C3E
330
999A
100
AcDbEntity
  8
0
100
AcDbLine
 10
201.500007373073
 20
206.9999997903498
 30
0.0
 11
191.5000073730728
 21
206.9999997903498
 31
0.0
  0
LINE
  5
9C3F
330
999A
100
AcDbEntity
  8
0
100
AcDbLine
 10
190.5000013730727
 20
191.9999997903499
 30
0.0
 11
136.5000010730727
 21
191.9999997903499
 31
0.0
  0
LINE
  5
9C40
330
999A
100
AcDbEntity
  8
0
100
AcDbLine
 10
190.5000073730728
 20
192.1956054372448
 30
0.0
 11
202.5000073730729
 21
192.1956054372448
 31
0.0
  0
LINE
  5
9C41
330
999A
100
AcDbEntity
  8
0
100
AcDbLine
 10
190.5000073730728
 20
141.6387070434549
 30
0.0
 11
202.5000073730728
 21
141.6387070434549
 31
0.0
  0
LINE
  5
9C42
330
999A
100
AcDbEntity
  8
9
100
AcDbLine
 10
190.5000073730728
 20
141.6387070434549
 30
0.0
 11
202.5000073730729
 21
192.1956054372448
 31
0.0
  0
LINE
  5
9C43
330
999A
100
AcDbEntity
  8
9
100
AcDbLine
 10
190.5000073730728
 20
192.1956054372448
 30
0.0
 11
202.5000073730728
 21
141.6387070434549
 31
0.0
  0
TEXT
  5
9C44
330
999A
100
AcDbEntity
  8
0
100
AcDbText
 10
151.3125442268407
 20
164.9999969903499
 30
0.0
 40
4.0
  1
SDK3210
 72
     4
 11
164.8363537506502
 21
166.9999969903499
 31
0.0
100
AcDbText
  0
LINE
  5
9C45
330
999A
100
AcDbEntity
  8
2
100
AcDbLine
 10
135.5000010730728
 20
182.7999997903499
 30
0.0
 11
208.5000013730728
 21
182.7999997903499
 31
0.0
  0
LINE
  5
9C46
330
999A
100
AcDbEntity
  8
2
100
AcDbLine
 10
208.5000013730728
 20
151.1999997903498
 30
0.0
 11
135.5000010730728
 21
151.1999997903498
 31
0.0
  0
ELLIPSE
  5
9C47
330
999A
100
AcDbEntity
  8
9
100
AcDbEllipse
 10
196.5000073730729
 20
203.0314291234897
 30
0.0
 11
2.999463687718955
 21
-0.0000000000000945
 31
0.0
210
0.0
220
0.0
230
-1.0
 40
0.3827521957271129
 41
3.141592653589758
 42
7.853981633974454
  0
ELLIPSE
  5
9C48
330
999A
100
AcDbEntity
  8
0
100
AcDbEllipse
 10
196.5000073730729
 20
203.0313016234897
 30
0.0
 11
-2.499554249533093
 21
-0.0000000000001227
 31
0.0
210
0.0
220
0.0
230
-1.0
 40
0.3828033789051975
 41
0.0
 42
6.283185307179584
  0
LINE
  5
9C49
330
999A
100
AcDbEntity
  8
0
100
AcDbLine
 10
135.5000010730728
 20
143.0000075903498
 30
0.0
 11
136.5000010730728
 21
142.0000075903498
 31
0.0
  0
LINE
  5
9C4A
330
999A
100
AcDbEntity
  8
0
100
AcDbLine
 10
207.5000013730727
 20
142.0000075903498
 30
0.0
 11
208.5000013730727
 21
143.0000075903498
 31
0.0
  0
LINE
  5
9C4B
330
999A
100
AcDbEntity
  8
0
100
AcDbLine
 10
208.5000013730728
 20
190.9999997903499
 30
0.0
 11
207.5000013730728
 21
191.9999997903499
 31
0.0
  0
LINE
  5
9C4C
330
999A
100
AcDbEntity
  8
0
100
AcDbLine
 10
135.5000010730727
 20
190.9999997903499
 30
0.0
 11
136.5000010730727
 21
191.9999997903499
 31
0.0
  0
LINE
  5
9C4D
330
999A
100
AcDbEntity
  8
0
100
AcDbLine
 10
191.5000073730728
 20
206.9999997903498
 30
0.0
 11
190.5000073730728
 21
205.9999997903497
 31
0.0
  0
LINE
  5
9C4E
330
999A
100
AcDbEntity
  8
0
100
AcDbLine
 10
202.500007373073
 20
205.9999997903498
 30
0.0
 11
201.500007373073
 21
206.9999997903498
 31
0.0
  0
LINE
  5
9C4F
330
999A
100
AcDbEntity
  8
0
100
AcDbLine
 10
191.5000073730729
 20
126.9999997903497
 30
0.0
 11
190.5000073730729
 21
127.9999997903497
 31
0.0
  0
LINE
  5
9C50
330
999A
100
AcDbEntity
  8
0
100
AcDbLine
 10
202.5000073730728
 20
127.9999997903497
 30
0.0
 11
201.5000073730728
 21
126.9999997903497
 31
0.0
  0
ENDBLK
  5
999C
330
999A
100
AcDbEntity
  8
0
100
AcDbBlockEnd
  0
ENDSEC
  0
SECTION
  2
ENTITIES
  0
LINE
  5
9728
330
19
100
AcDbEntity
  8
1
100
AcDbLine
 10
19.00000122307273
 20
66.99999979034976
 30
0.0
 11
325.0000012230727
 21
66.99999979034976
 31
0.0
  0
DIMENSION
  5
9729
330
19
100
AcDbEntity
  8
0
100
AcDbDimension
  2
*D3
 10
12.00000122307253
 20
80.54999979034983
 30
0.0
 11
9.500001223072516
 21
66.99999979034976
 31
0.0
 70
    32
  1
%%C<>
 71
     5
 42
27.10000000000013
  3
STANDARD
100
AcDbAlignedDimension
 13
22.00000122307262
 23
53.4499997903497
 33
0.0
 14
22.00000122307279
 24
80.54999979034983
 34
0.0
 50
90.0
100
AcDbRotatedDimension
1001
ACAD
1000
DSTYLE
1002
{
1070
    41
1040
3.0
1070
    42
1040
1.0
1070
    43
1040
1.0
1070
    44
1040
1.0
1070
    73
1070
     0
1070
    74
1070
     0
1070
    77
1070
     3
1070
    78
1070
     8
1070
   141
1040
-1.0
1070
   147
1040
1.0
1070
   172
1070
     1
1070
   176
1070
   115
1070
   177
1070
   115
1070
   178
1070
     7
1070
   271
1070
     2
1070
   272
1070
     2
1002
}
  0
DIMENSION
  5
972A
330
19
100
AcDbEntity
  8
0
100
AcDbDimension
  2
*D4
 10
4.000001223072501
 20
82.79999979034982
 30
0.0
 11
1.500001223072487
 21
66.99999979034976
 31
0.0
 70
    32
  1
%%C<>
 71
     5
 42
31.60000000000013
  3
STANDARD
100
AcDbAlignedDimension
 13
22.0000012230726
 23
51.19999979034969
 33
0.0
 14
22.0000012230728
 24
82.79999979034982
 34
0.0
 50
90.0
100
AcDbRotatedDimension
1001
ACAD
1000
DSTYLE
1002
{
1070
    41
1040
3.0
1070
    42
1040
1.0
1070
    43
1040
1.0
1070
    44
1040
1.0
1070
    73
1070
     0
1070
    74
1070
     0
1070
    77
1070
     3
1070
    78
1070
     8
1070
   141
1040
-1.0
1070
   147
1040
1.0
1070
   172
1070
     1
1070
   176
1070
   115
1070
   177
1070
   115
1070
   178
1070
     7
1070
   271
1070
     2
1070
   272
1070
     2
1002
}
  0
DIMENSION
  5
972B
330
19
100
AcDbEntity
  8
0
100
AcDbDimension
  2
*D5
 10
125.5000010730726
 20
91.99999979034988
 30
0.0
 11
122.2142867873583
 21
67.00000369034987
 31
0.0
 70
    32
  1
%%C<> g6 ({\H0.5x;\S-0.009^ -0.025;})
 71
     5
 42
49.99999220000003
  3
STANDARD
100
AcDbAlignedDimension
 13
136.5000010730728
 23
42.00000759034984
 33
0.0
 14
136.5000010730727
 24
91.99999979034988
 34
0.0
 50
90.0
100
AcDbRotatedDimension
1001
ACAD
1000
DSTYLE
1002
{
1070
   998
1000
1,1,-0.009,-0.025,0,0,2,H7,g6,256
1070
    48
1040
0.025
1070
    47
1040
-0.009
1070
    71
1070
     0
1070
    72
1070
     0
1070
   284
1070
     8
1070
   283
1070
     1
1070
   146
1040
1.0
1070
     3
1000

1070
    41
1040
3.0
1070
    42
1040
1.0
1070
    43
1040
1.0
1070
    44
1040
1.0
1070
    73
1070
     0
1070
    74
1070
     0
1070
    77
1070
     3
1070
    78
1070
     8
1070
   141
1040
-1.0
1070
   147
1040
1.0
1070
   172
1070
     1
1070
   176
1070
   115
1070
   177
1070
   115
1070
   178
1070
     7
1070
   271
1070
     2
1070
   272
1070
     3
1002
}
  0
DIMENSION
  5
972C
330
19
100
AcDbEntity
  8
0
100
AcDbDimension
  2
*D6
 10
135.5000010730728
 20
16.99999979034976
 30
0.0
 11
163.0000042230729
 21
19.49999979034976
 31
0.0
 70
    32
 71
     5
 42
55.00000630000005
  3
STANDARD
100
AcDbAlignedDimension
 13
190.5000073730729
 23
27.99999979034976
 33
0.0
 14
135.5000010730728
 24
43.00000759034984
 34
0.0
100
AcDbRotatedDimension
1001
ACAD
1000
DSTYLE
1002
{
1070
    41
1040
3.0
1070
    42
1040
1.0
1070
    43
1040
1.0
1070
    44
1040
1.0
1070
    47
1040
1.0
1070
    48
1040
1.0
1070
    73
1070
     0
1070
    74
1070
     0
1070
    77
1070
     3
1070
    78
1070
     8
1070
   141
1040
-1.0
1070
   147
1040
1.0
1070
   172
1070
     1
1070
   176
1070
   115
1070
   177
1070
   115
1070
   178
1070
     7
1070
   271
1070
     2
1070
   272
1070
     3
1070
   284
1070
     8
1002
}
  0
DIMENSION
  5
972D
330
19
100
AcDbEntity
  8
0
100
AcDbDimension
  2
*D7
 10
202.5000073730728
 20
16.99999979034976
 30
0.0
 11
196.5000073730728
 21
19.49999979034976
 31
0.0
 70
    32
 71
     5
 42
11.99999999999985
  3
STANDARD
100
AcDbAlignedDimension
 13
190.5000073730729
 23
27.99999979034976
 33
0.0
 14
202.5000073730728
 24
27.99999979034978
 34
0.0
100
AcDbRotatedDimension
1001
ACAD
1000
DSTYLE
1002
{
1070
    41
1040
3.0
1070
    42
1040
1.0
1070
    43
1040
1.0
1070
    44
1040
1.0
1070
    73
1070
     0
1070
    74
1070
     0
1070
    77
1070
     3
1070
    78
1070
     8
1070
   141
1040
-1.0
1070
   147
1040
1.0
1070
   172
1070
     1
1070
   176
1070
   115
1070
   177
1070
   115
1070
   178
1070
     7
1070
   271
1070
     2
1070
   272
1070
     2
1002
}
  0
DIMENSION
  5
972E
330
19
100
AcDbEntity
  8
0
100
AcDbDimension
  2
*D8
 10
208.5000013730727
 20
8.999999790349761
 30
0.0
 11
172.0000012230728
 21
11.49999979034976
 31
0.0
 70
    32
 71
     5
 42
73.00000029999987
  3
STANDARD
100
AcDbAlignedDimension
 13
135.5000010730728
 23
43.00000759034984
 33
0.0
 14
208.5000013730727
 24
43.00000759034981
 34
0.0
100
AcDbRotatedDimension
1001
ACAD
1000
DSTYLE
1002
{
1070
    41
1040
3.0
1070
    42
1040
1.0
1070
    43
1040
1.0
1070
    44
1040
1.0
1070
    47
1040
1.0
1070
    48
1040
1.0
1070
    73
1070
     0
1070
    74
1070
     0
1070
    77
1070
     3
1070
    78
1070
     8
1070
   141
1040
-1.0
1070
   147
1040
1.0
1070
   172
1070
     1
1070
   176
1070
   115
1070
   177
1070
   115
1070
   178
1070
     7
1070
   271
1070
     2
1070
   272
1070
     3
1070
   284
1070
     8
1002
}
  0
DIMENSION
  5
972F
330
19
100
AcDbEntity
  8
0
100
AcDbDimension
  2
*D9
 10
410.0000013230727
 20
0.9999997903497614
 30
0.0
 11
379.000001273072
 21
3.499999790349761
 31
0.0
 70
    32
 71
     5
 42
62.00000010000144
  3
STANDARD
100
AcDbAlignedDimension
 13
348.0000012230713
 23
41.72155059345664
 33
0.0
 14
410.0000013230727
 24
41.72155047082071
 34
0.0
100
AcDbRotatedDimension
1001
ACAD
1000
DSTYLE
1002
{
1070
    41
1040
3.0
1070
    42
1040
1.0
1070
    43
1040
1.0
1070
    44
1040
1.0
1070
    73
1070
     0
1070
    74
1070
     0
1070
    77
1070
     3
1070
    78
1070
     8
1070
   141
1040
-1.0
1070
   147
1040
1.0
1070
   172
1070
     1
1070
   176
1070
   115
1070
   177
1070
   115
1070
   178
1070
     7
1070
   271
1070
     2
1070
   272
1070
     2
1002
}
  0
DIMENSION
  5
9730
330
19
100
AcDbEntity
  8
0
100
AcDbDimension
  2
*D10
 10
361.3223320819719
 20
49.32233054924927
 30
0.0
 11
379.0000013230726
 21
19.63605091520988
 31
0.0
 70
    34
 71
     5
 42
1.570796326794915
  3
STANDARD
100
AcDb2LineAngularDimension
 13
407.2842722819717
 23
38.71572883145109
 33
0.0
 14
396.6776705641735
 24
49.32233054924893
 34
0.0
 15
350.7157303641737
 25
38.71572883145109
 35
0.0
 16
366.094261690168
 26
18.83512377109433
 36
0.0
1001
ACAD
1000
DSTYLE
1002
{
1070
    41
1040
3.0
1070
    42
1040
1.0
1070
    43
1040
1.0
1070
    44
1040
1.0
1070
    73
1070
     0
1070
    74
1070
     0
1070
    77
1070
     3
1070
    78
1070
     8
1070
    79
1070
     2
1070
   141
1040
-1.0
1070
   147
1040
1.0
1070
   172
1070
     1
1070
   176
1070
   115
1070
   177
1070
   115
1070
   178
1070
     7
1070
   271
1070
     2
1070
   272
1070
     2
1002
}
  0
DIMENSION
  5
9731
330
19
100
AcDbEntity
  8
0
100
AcDbDimension
  2
*D11
 10
338.0000012230726
 20
89.98097079034984
 30
0.0
 11
334.7142869373583
 21
67.00000024034991
 31
0.0
 70
    32
  1
(<>)
 71
     5
 42
45.96194109999999
  3
STANDARD
100
AcDbAlignedDimension
 13
356.0190312230728
 23
44.01902969034984
 33
0.0
 14
356.0190312230728
 24
89.98097079034982
 34
0.0
 50
90.0
100
AcDbRotatedDimension
1001
ACAD
1000
DSTYLE
1002
{
1070
    41
1040
3.0
1070
    42
1040
1.0
1070
    43
1040
1.0
1070
    44
1040
1.0
1070
    73
1070
     0
1070
    74
1070
     0
1070
    77
1070
     3
1070
    78
1070
     8
1070
   141
1040
-1.0
1070
   147
1040
1.0
1070
   172
1070
     1
1070
   176
1070
   115
1070
   177
1070
   115
1070
   178
1070
     7
1070
   271
1070
     2
1070
   272
1070
     2
1002
}
  0
DIMENSION
  5
9732
330
19
100
AcDbEntity
  8
0
100
AcDbDimension
  2
*D12
 10
401.9809717230727
 20
8.999999790349647
 30
0.0
 11
379.0000014730728
 21
12.28571407606393
 31
0.0
 70
    32
  1
(<>)
 71
     5
 42
45.96194049999996
  3
STANDARD
100
AcDbAlignedDimension
 13
356.0190312230728
 23
44.01902969035006
 33
0.0
 14
401.9809717230727
 24
44.01902969034995
 34
0.0
100
AcDbRotatedDimension
1001
ACAD
1000
DSTYLE
1002
{
1070
    41
1040
3.0
1070
    42
1040
1.0
1070
    43
1040
1.0
1070
    44
1040
1.0
1070
    73
1070
     0
1070
    74
1070
     0
1070
    77
1070
     3
1070
    78
1070
     8
1070
   141
1040
-1.0
1070
   147
1040
1.0
1070
   172
1070
     1
1070
   176
1070
   115
1070
   177
1070
   115
1070
   178
1070
     7
1070
   271
1070
     2
1070
   272
1070
     2
1002
}
  0
DIMENSION
  5
9733
330
19
100
AcDbEntity
  8
0
100
AcDbDimension
  2
*D13
 10
428.0000013230718
 20
99.50000023078859
 30
0.0
 11
425.5000013230718
 21
66.99999979034988
 31
0.0
 70
    32
  1
PCD <>
 71
     5
 42
65.00000088087756
  3
STANDARD
100
AcDbAlignedDimension
 13
379.0000013230728
 23
34.49999934991104
 33
0.0
 14
379.0000013230728
 24
99.5000002307886
 34
0.0
 50
90.0
100
AcDbRotatedDimension
1001
ACAD
1000
DSTYLE
1002
{
1070
    41
1040
3.0
1070
    42
1040
1.0
1070
    43
1040
1.0
1070
    44
1040
1.0
1070
    73
1070
     0
1070
    74
1070
     0
1070
    77
1070
     3
1070
    78
1070
     8
1070
   141
1040
-1.0
1070
   147
1040
1.0
1070
   172
1070
     1
1070
   176
1070
   115
1070
   177
1070
   115
1070
   178
1070
     7
1070
   271
1070
     2
1070
   272
1070
     2
1002
}
  0
DIMENSION
  5
9734
330
19
100
AcDbEntity
  8
0
100
AcDbDimension
  2
*D14
 10
420.0000013230718
 20
94.48097079034981
 30
0.0
 11
417.5000013230717
 21
103.9809707903499
 31
0.0
 70
    32
  1
6-%%C<>
 71
     5
 42
9.0
  3
STANDARD
100
AcDbAlignedDimension
 13
401.9809717230727
 23
85.48097079034983
 33
0.0
 14
401.9809717230727
 24
94.48097079034983
 34
0.0
 50
90.0
100
AcDbRotatedDimension
1001
ACAD
1000
DSTYLE
1002
{
1070
    41
1040
3.0
1070
    42
1040
1.0
1070
    43
1040
1.0
1070
    44
1040
1.0
1070
    73
1070
     0
1070
    74
1070
     0
1070
    77
1070
     3
1070
    78
1070
     8
1070
   141
1040
-1.0
1070
   147
1040
1.0
1070
   172
1070
     1
1070
   176
1070
   115
1070
   177
1070
   115
1070
   178
1070
     7
1070
   271
1070
     2
1070
   272
1070
     2
1002
}
  0
DIMENSION
  5
9735
330
19
100
AcDbEntity
  8
0
100
AcDbDimension
  2
*D15
 10
218.5000013730727
 20
91.9999997903499
 30
0.0
 11
215.2142870873584
 21
67.00000369034988
 31
0.0
 70
    32
  1
%%C<> g6 ({\H0.5x;\S-0.009^ -0.025;})
 71
     5
 42
49.9999922000001
  3
STANDARD
100
AcDbAlignedDimension
 13
207.5000013730727
 23
42.0000075903498
 33
0.0
 14
207.5000013730728
 24
91.9999997903499
 34
0.0
 50
90.0
100
AcDbRotatedDimension
1001
ACAD
1000
DSTYLE
1002
{
1070
   998
1000
1,1,-0.009,-0.025,0,0,2,H7,g6,256
1070
    47
1040
-0.009
1070
    71
1070
     0
1070
    72
1070
     0
1070
   283
1070
     1
1070
   146
1040
1.0
1070
     3
1000

1070
    41
1040
3.0
1070
    42
1040
1.0
1070
    43
1040
1.0
1070
    44
1040
1.0
1070
    48
1040
0.025
1070
    73
1070
     0
1070
    74
1070
     0
1070
    77
1070
     3
1070
    78
1070
     8
1070
   141
1040
-1.0
1070
   147
1040
1.0
1070
   172
1070
     1
1070
   176
1070
   115
1070
   177
1070
   115
1070
   178
1070
     7
1070
   271
1070
     2
1070
   272
1070
     3
1070
   284
1070
     8
1002
}
  0
DIMENSION
  5
9737
330
19
100
AcDbEntity
  8
0
100
AcDbDimension
  2
*D16
 10
208.5000013730727
 20
16.99999979034976
 30
0.0
 11
205.5000043730728
 21
19.49999979034976
 31
0.0
 70
    32
 71
     5
 42
5.999993999999958
  3
STANDARD
100
AcDbAlignedDimension
 13
202.5000073730728
 23
27.99999979034978
 33
0.0
 14
208.5000013730727
 24
43.00000759034981
 34
0.0
100
AcDbRotatedDimension
1001
ACAD
1000
DSTYLE
1002
{
1070
    41
1040
3.0
1070
    42
1040
1.0
1070
    43
1040
1.0
1070
    44
1040
1.0
1070
    73
1070
     0
1070
    74
1070
     0
1070
    77
1070
     3
1070
    78
1070
     8
1070
   141
1040
-1.0
1070
   147
1040
1.0
1070
   172
1070
     1
1070
   176
1070
   115
1070
   177
1070
   115
1070
   178
1070
     7
1070
   271
1070
     2
1070
   272
1070
     2
1002
}
  0
DIMENSION
  5
9738
330
19
100
AcDbEntity
  8
0
100
AcDbDimension
  2
*D17
 10
226.5000013730727
 20
106.9999997903497
 30
0.0
 11
224.0000013730727
 21
66.99999979034982
 31
0.0
 70
    32
  1
%%C<>
 71
     5
 42
80.00000000000001
  3
STANDARD
100
AcDbAlignedDimension
 13
201.5000073730728
 23
26.99999979034978
 33
0.0
 14
201.500007373073
 24
106.9999997903498
 34
0.0
 50
90.0
100
AcDbRotatedDimension
1001
ACAD
1000
DSTYLE
1002
{
1070
   998
1000
1,1,-0.007,-0.02,0,0,2,H7,g6,256
1070
    47
1040
-0.007
1070
    71
1070
     0
1070
    72
1070
     0
1070
   283
1070
     1
1070
   146
1040
1.0
1070
     3
1000

1070
    41
1040
3.0
1070
    42
1040
1.0
1070
    43
1040
1.0
1070
    44
1040
1.0
1070
    48
1040
0.02
1070
    73
1070
     0
1070
    74
1070
     0
1070
    77
1070
     3
1070
    78
1070
     8
1070
   141
1040
-1.0
1070
   147
1040
1.0
1070
   172
1070
     1
1070
   176
1070
   115
1070
   177
1070
   115
1070
   178
1070
     7
1070
   271
1070
     2
1070
   272
1070
     3
1070
   284
1070
     8
1002
}
  0
DIMENSION
  5
9739
330
19
100
AcDbEntity
  8
0
100
AcDbDimension
  2
*D18
 10
399.4727832402976
 20
117.6934000987878
 30
0.0
 11
403.31321865143
 21
114.9545838478282
 31
0.0
 70
    32
 71
     5
 42
8.000014650886683
  3
STANDARD
100
AcDbAlignedDimension
 13
369.9084652743779
 23
96.78830451775752
 33
0.0
 14
371.2910771228242
 24
106.020154646704
 34
0.0
 50
112.5000009846586
100
AcDbRotatedDimension
1001
ACAD
1000
DSTYLE
1002
{
1070
    41
1040
3.0
1070
    42
1040
1.0
1070
    43
1040
1.0
1070
    44
1040
1.0
1070
    73
1070
     0
1070
    74
1070
     0
1070
    77
1070
     3
1070
    78
1070
     8
1070
   141
1040
-1.0
1070
   147
1040
1.0
1070
   172
1070
     1
1070
   176
1070
   115
1070
   177
1070
   115
1070
   178
1070
     7
1070
   271
1070
     2
1070
   272
1070
     2
1002
}
  0
DIMENSION
  5
973A
330
19
100
AcDbEntity
  8
0
100
AcDbDimension
  2
*D19
 10
357.4768710382847
 20
111.12204508019
 30
0.0
 11
345.5655908958818
 21
108.8942115801518
 31
0.0
 70
    32
  1
M<>x1
 71
     5
 42
5.999999777169932
  3
STANDARD
100
AcDbAlignedDimension
 13
366.8469820478246
 23
104.1793514453306
 33
0.0
 14
361.3037055009793
 24
101.8832498684758
 34
0.0
 50
202.500000984659
100
AcDbRotatedDimension
1001
ACAD
1000
DSTYLE
1002
{
1070
    41
1040
3.0
1070
    42
1040
1.0
1070
    43
1040
1.0
1070
    44
1040
1.0
1070
    73
1070
     0
1070
    74
1070
     0
1070
    77
1070
     3
1070
    78
1070
     8
1070
   141
1040
-1.0
1070
   147
1040
1.0
1070
   172
1070
     1
1070
   176
1070
   115
1070
   177
1070
   115
1070
   178
1070
     7
1070
   271
1070
     2
1070
   272
1070
     2
1002
}
  0
DIMENSION
  5
973B
330
19
100
AcDbEntity
  8
0
100
AcDbDimension
  2
*D20
 10
373.9856958656661
 20
79.10560372514976
 30
0.0
 11
367.3083107839612
 21
125.7780971899843
 31
0.0
 70
    34
 71
     5
 42
0.3926990771717134
  3
STANDARD
100
AcDb2LineAngularDimension
 13
379.0000011656661
 23
23.99999972514968
 33
0.0
 14
379.0000011656661
 24
109.9999997251497
 34
0.0
 15
362.6576103656661
 25
106.4540217251499
 35
0.0
 16
371.5039305279689
 26
123.9383097485132
 36
0.0
1001
ACAD
1000
DSTYLE
1002
{
1070
    41
1040
3.0
1070
    42
1040
1.0
1070
    43
1040
1.0
1070
    44
1040
1.0
1070
    73
1070
     0
1070
    74
1070
     0
1070
    77
1070
     3
1070
    78
1070
     8
1070
   141
1040
-1.0
1070
   147
1040
1.0
1070
   172
1070
     1
1070
   176
1070
   115
1070
   177
1070
   115
1070
   178
1070
     7
1070
   179
1070
     1
1070
   271
1070
     2
1070
   272
1070
     2
1002
}
  0
LINE
  5
973C
330
19
100
AcDbEntity
  8
1
100
AcDbLine
 10
373.9856958656661
 20
79.10560372514976
 30
0.0
 11
362.6576103656661
 21
106.4540217251499
 31
0.0
  0
INSERT
  5
973D
330
19
100
AcDbEntity
  8
0
100
AcDbBlockReference
  2
A$C58543E1D
 10
22.00000145660806
 20
51.19999955644061
 30
0.0
  0
INSERT
  5
973F
330
19
100
AcDbEntity
  8
0
100
AcDbBlockReference
  2
A$C3CEC27BD
 10
348.0000013236406
 20
27.12989141216826
 30
0.0
  0
LINE
  5
9740
330
19
100
AcDbEntity
  8
1
100
AcDbLine
 10
350.7157303641738
 20
38.71572883145075
 30
0.0
 11
361.322332081972
 21
49.32233054924893
 31
0.0
  0
LINE
  5
9741
330
19
100
AcDbEntity
  8
1
100
AcDbLine
 10
190.5005436853539
 20
103.0313016234897
 30
0.0
 11
202.4994710607919
 21
103.0313016234897
 31
0.0
  0
LINE
  5
9742
330
19
100
AcDbEntity
  8
1
100
AcDbLine
 10
196.5000073730729
 20
98.88325031101159
 30
0.0
 11
196.5000073730729
 21
107.1793529359679
 31
0.0
  0
LINE
  5
9743
330
19
100
AcDbEntity
  8
1
100
AcDbLine
 10
379.0000013230728
 20
23.99999979034987
 30
0.0
 11
379.0000013230728
 21
109.9999997903498
 31
0.0
  0
LINE
  5
9744
330
19
100
AcDbEntity
  8
1
100
AcDbLine
 10
345.0000012230727
 20
66.99999979034976
 30
0.0
 11
413.0000013230727
 21
66.99999979034976
 31
0.0
  0
LINE
  5
9745
330
19
100
AcDbEntity
  8
1
100
AcDbLine
 10
407.2842722819717
 20
38.71572883145075
 30
0.0
 11
396.6776705641735
 21
49.32233054924893
 31
0.0
  0
LINE
  5
9746
330
19
100
AcDbEntity
  8
1
100
AcDbLine
 10
350.7157303641738
 20
95.28427074924877
 30
0.0
 11
361.322332081972
 21
84.6776690314506
 31
0.0
  0
LINE
  5
9747
330
19
100
AcDbEntity
  8
1
100
AcDbLine
 10
407.2842722819717
 20
95.28427074924877
 30
0.0
 11
396.6776705641735
 21
84.6776690314506
 31
0.0
  0
CIRCLE
  5
9748
330
19
100
AcDbEntity
  8
1
100
AcDbCircle
 10
379.0000013230728
 20
66.99999979034988
 30
0.0
 40
32.5000002283066
  0
INSERT
  5
99BE
330
19
100
AcDbEntity
  8
0
100
AcDbBlockReference
  2
3210SDK
 10
0.0
 20
-100.0
 30
0.0
  0
ENDSEC
  0
SECTION
  2
OBJECTS
  0
DICTIONARY
  5
C
330
0
100
AcDbDictionary
281
     1
  3
ACAD_CIP_PREVIOUS_PRODUCT_INFO
350
8C9A
  3
ACAD_COLOR
350
8A98
  3
ACAD_GROUP
350
D
  3
ACAD_LAYOUT
350
8A9B
  3
ACAD_MATERIAL
350
8A97
  3
ACAD_MLEADERSTYLE
350
8BCC
  3
ACAD_MLINESTYLE
350
E
  3
ACAD_PLOTSETTINGS
350
8A9C
  3
ACAD_PLOTSTYLENAME
350
8A95
  3
ACAD_SCALELIST
350
8BAA
  3
ACAD_TABLESTYLE
350
8A99
  3
ACAD_VISUALSTYLE
350
8B99
  3
ACDB_RECOMPOSE_DATA
350
9D2E
  3
ACDBVARIABLEDICTIONARY
350
1BF
  3
DWGPROPS
350
9D2F
  0
DICTIONARY
  5
9320
330
8
100
AcDbDictionary
280
     1
281
     1
  0
DICTIONARY
  5
8C6A
330
F
100
AcDbDictionary
280
     1
281
     1
  3
ADSK_XREC_LAYER_RECONCILED
360
8C6B
  0
DICTIONARY
  5
96FC
330
96FB
100
AcDbDictionary
280
     1
281
     1
  0
DICTIONARY
  5
96FE
330
96FD
100
AcDbDictionary
280
     1
281
     1
  0
DICTIONARY
  5
9700
330
96FF
100
AcDbDictionary
280
     1
281
     1
  0
DICTIONARY
  5
9091
330
19
100
AcDbDictionary
280
     1
281
     1
  3
ACAD_SORTENTS
360
9092
  0
DICTIONARY
  5
96AC
330
96AB
100
AcDbDictionary
280
     1
281
     1
  3
ACAD_SORTENTS
360
96AD
  0
DICTIONARY
  5
96E1
330
96E0
100
AcDbDictionary
280
     1
281
     1
  3
ACAD_SORTENTS
360
96E2
  0
DICTIONARY
  5
9C51
330
999A
100
AcDbDictionary
280
     1
281
     1
  3
ACAD_SORTENTS
360
9C52
  0
DICTIONARY
  5
9D6C
330
987A
100
AcDbDictionary
280
     1
281
     1
  3
ACAD_MTEXT_RT
360
9D6D
  0
DICTIONARY
  5
9D6E
330
98E4
100
AcDbDictionary
280
     1
281
     1
  3
ACAD_MTEXT_RT
360
9D6F
  0
XRECORD
  5
8C9A
102
{ACAD_REACTORS
330
C
102
}
330
C
100
AcDbXrecord
280
     1
300
ACDLT
300
2012
300
ACDLT_F_S
  0
DICTIONARY
  5
8A98
102
{ACAD_REACTORS
330
C
102
}
330
C
100
AcDbDictionary
281
     1
  0
DICTIONARY
  5
D
102
{ACAD_REACTORS
330
C
102
}
330
C
100
AcDbDictionary
281
     1
  0
DICTIONARY
  5
8A9B
102
{ACAD_REACTORS
330
C
102
}
330
C
100
AcDbDictionary
281
     1
  3
Model
350
8A9D
  3
배치1
350
8A9E
  0
DICTIONARY
  5
8A97
102
{ACAD_REACTORS
330
C
102
}
330
C
100
AcDbDictionary
281
     1
  3
ByBlock
350
8B89
  3
ByLayer
350
8B81
  3
Global
350
8B91
  0
DICTIONARY
  5
8BCC
102
{ACAD_REACTORS
330
C
102
}
330
C
100
AcDbDictionary
281
     1
  3
Standard
350
8BCD
  0
DICTIONARY
  5
E
102
{ACAD_REACTORS
330
C
102
}
330
C
100
AcDbDictionary
281
     1
  3
STANDARD
350
1C
  0
DICTIONARY
  5
8A9C
102
{ACAD_REACTORS
330
C
102
}
330
C
100
AcDbDictionary
281
     1
  0
ACDBDICTIONARYWDFLT
  5
8A95
102
{ACAD_REACTORS
330
C
102
}
330
C
100
AcDbDictionary
281
     1
  3
Normal
350
8A96
100
AcDbDictionaryWithDefault
340
8A96
  0
DICTIONARY
  5
8BAA
102
{ACAD_REACTORS
330
C
102
}
330
C
100
AcDbDictionary
281
     1
  3
A0
350
8BAB
  3
A1
350
8BAC
  3
A2
350
8BAD
  3
A3
350
8BAE
  3
A4
350
8BAF
  3
A5
350
8BB0
  3
A6
350
8BB1
  3
A7
350
8BB2
  3
A8
350
8BB3
  3
A9
350
8BB4
  3
B0
350
8BB5
  3
B1
350
8BB6
  3
B2
350
8BB7
  3
B3
350
8BB8
  3
B4
350
8BB9
  3
B5
350
8BBA
  3
B6
350
8BBB
  3
B7
350
8BBC
  3
B8
350
8BBD
  3
B9
350
8BBE
  3
C0
350
8BBF
  3
C1
350
8BC0
  3
C2
350
8BC1
  3
C3
350
8BC2
  3
C4
350
8BC3
  3
C5
350
8BC4
  3
C6
350
8BC5
  3
C7
350
8BC6
  3
C8
350
8BC7
  3
C9
350
8BC8
  3
D0
350
8BC9
  3
D1
350
8BCA
  3
D2
350
8BCB
  0
DICTIONARY
  5
8A99
102
{ACAD_REACTORS
330
C
102
}
330
C
100
AcDbDictionary
281
     1
  3
Standard
350
8A9A
  0
DICTIONARY
  5
8B99
102
{ACAD_REACTORS
330
C
102
}
330
C
100
AcDbDictionary
281
     1
  3
2dWireframe
350
8B9F
  3
3D Hidden
350
8BA1
  3
3dWireframe
350
8BA0
  3
Basic
350
8B9E
  3
Brighten
350
8BA5
  3
ColorChange
350
8BA9
  3
Conceptual
350
8BA2
  3
Dim
350
8BA4
  3
EdgeColorOff
350
8C97
  3
Facepattern
350
8BA8
  3
Flat
350
8B9A
  3
FlatWithEdges
350
8B9B
  3
Gouraud
350
8B9C
  3
GouraudWithEdges
350
8B9D
  3
Hidden
350
8C8F
  3
JitterOff
350
8C95
  3
Linepattern
350
8BA7
  3
OverhangOff
350
8C96
  3
Realistic
350
8BA3
  3
Shaded
350
8C94
  3
Shaded with edges
350
8C93
  3
Shades of Gray
350
8C90
  3
Sketchy
350
8C91
  3
Thicken
350
8BA6
  3
Wireframe
350
8C8E
  3
X-Ray
350
8C92
  0
XRECORD
  5
9D2E
102
{ACAD_REACTORS
330
C
102
}
330
C
100
AcDbXrecord
280
     1
 90
        1
330
8A9A
  0
DICTIONARY
  5
1BF
102
{ACAD_REACTORS
330
C
102
}
330
C
100
AcDbDictionary
281
     1
  3
CANNOSCALE
350
8C77
  3
CMLEADERSTYLE
350
8C76
  3
CTABLESTYLE
350
8B64
  3
DIMASSOC
350
8B65
  3
INDEXCTL
350
8C78
  3
PROJECTNAME
350
8B66
  3
SORTENTS
350
1C0
  3
XCLIPFRAME
350
9D2C
  0
XRECORD
  5
9D2F
102
{ACAD_REACTORS
330
C
102
}
330
C
100
AcDbXrecord
280
     1
  1
DWGPROPS COOKIE
  2

  3

  4

  6

  7

  8
woni
  9

300
=
301
=
302
=
303
=
304
=
305
=
306
=
307
=
308
=
309
=
 40
0.4892853587962964
 41
2452464.575009942
 42
2456842.718571216
  1

 90
        0
  0
XRECORD
  5
8C6B
102
{ACAD_REACTORS
330
8C6A
102
}
330
8C6A
100
AcDbXrecord
280
     1
290
     1
  0
SORTENTSTABLE
  5
9092
102
{ACAD_REACTORS
330
9091
102
}
330
9091
100
AcDbSortentsTable
330
19
331
9731
  5
9731
331
9739
  5
9739
331
9741
  5
9991
331
972A
  5
972A
331
9732
  5
9732
331
973A
  5
973A
331
9742
  5
9992
331
972B
  5
972B
331
9733
  5
9733
331
973B
  5
973B
331
9743
  5
9993
331
972C
  5
972C
331
9734
  5
9734
331
973C
  5
973C
331
9744
  5
9994
331
972D
  5
972D
331
9735
  5
9735
331
973D
  5
973D
331
9745
  5
9995
331
972E
  5
972E
331
9746
  5
9996
331
972F
  5
972F
331
9737
  5
9737
331
973F
  5
998F
331
9747
  5
9998
331
9728
  5
9728
331
9730
  5
9730
331
9738
  5
9738
331
9748
  5
9999
331
9740
  5
9990
331
9729
  5
9729
  0
SORTENTSTABLE
  5
96AD
102
{ACAD_REACTORS
330
96AC
102
}
330
96AC
100
AcDbSortentsTable
330
96AB
  0
SORTENTSTABLE
  5
96E2
102
{ACAD_REACTORS
330
96E1
102
}
330
96E1
100
AcDbSortentsTable
330
96E0
  0
SORTENTSTABLE
  5
9C52
102
{ACAD_REACTORS
330
9C51
102
}
330
9C51
100
AcDbSortentsTable
330
999A
331
9C4A
  5
9C41
331
9C43
  5
9C4B
331
9C34
  5
9C36
331
9C4E
  5
9C45
331
9C47
  5
9C4F
331
9C38
  5
9C3A
331
9C3C
  5
9C40
331
9C40
  5
9C48
331
9C4B
  5
9C43
331
9C44
  5
9C4C
331
9C35
  5
9C37
331
9C4F
  5
9C33
331
9C39
  5
9C3B
331
9C3D
  5
9C42
331
9C48
  5
9C50
331
9C41
  5
9C49
331
9C4C
  5
9C47
331
9C45
  5
9C4D
331
9C36
  5
9C38
331
9C50
  5
9C3E
331
9C3A
  5
9C3D
331
9C3E
  5
9C44
331
9C49
  5
9C3C
331
9C42
  5
9C4A
331
9C33
  5
9C35
331
9C4D
  5
9C34
331
9C46
  5
9C4E
331
9C37
  5
9C39
331
9C3B
  5
9C3F
331
9C3F
  5
9C46
  0
XRECORD
  5
9D6D
102
{ACAD_REACTORS
330
9D6C
102
}
330
9D6C
100
AcDbXrecord
280
     1
 40
5313.0
  1
\A1;90\U+00B0
  0
XRECORD
  5
9D6F
102
{ACAD_REACTORS
330
9D6E
102
}
330
9D6E
100
AcDbXrecord
280
     1
 40
6896.0
  1
\A1;22.5\U+00B0
  0
LAYOUT
  5
8A9D
102
{ACAD_XDICTIONARY
360
9D31
102
}
102
{ACAD_REACTORS
330
8A9B
102
}
330
8A9B
100
AcDbPlotSettings
  1

  2
none_device
  4
Letter_(8.50_x_11.00_Inches)
  6

 40
6.349999904632568
 41
6.349999904632568
 42
6.350006103515625
 43
6.350006103515625
 44
215.8999938964844
 45
279.3999938964844
 46
0.0
 47
0.0
 48
0.0
 49
0.0
140
0.0
141
0.0
142
1.0
143
146.8035225325133
 70
 11952
 72
     0
 73
     1
 74
     0
  7

 75
     0
147
0.0068118256479747
148
-10844.07302238304
149
-6485.250919054845
100
AcDbLayout
  1
Model
 70
     1
 71
     0
 10
0.0
 20
0.0
 11
12.0
 21
9.0
 12
0.0
 22
0.0
 32
0.0
 14
0.0
 24
0.0
 34
0.0
 15
0.0
 25
0.0
 35
0.0
146
0.0
 13
0.0
 23
0.0
 33
0.0
 16
1.0
 26
0.0
 36
0.0
 17
0.0
 27
1.0
 37
0.0
 76
     0
330
19
331
8B74
1001
ACAD_PSEXT
1000
없음
1000
없음
1000
해당 없음
1000
배치가 새 플로터 구성을 선택할 때까지 플롯되지 않습니다.
1070
     0
  0
LAYOUT
  5
8A9E
102
{ACAD_XDICTIONARY
360
9D33
102
}
102
{ACAD_REACTORS
330
8A9B
102
}
330
8A9B
100
AcDbPlotSettings
  1

  2
\\문광휘\HP LaserJet 5100 PCL 6
  4

  6

 40
0.0
 41
0.0
 42
0.0
 43
0.0
 44
0.0
 45
0.0
 46
0.0
 47
0.0
 48
0.0
 49
0.0
140
0.0
141
0.0
142
1.0
143
1.0
 70
   688
 72
     0
 73
     0
 74
     5
  7

 75
    16
147
1.0
148
0.0
149
0.0
100
AcDbLayout
  1
배치1
 70
     1
 71
     1
 10
0.0
 20
0.0
 11
12.0
 21
9.0
 12
0.0
 22
0.0
 32
0.0
 14
1.000000000000000E+20
 24
1.000000000000000E+20
 34
1.000000000000000E+20
 15
-1.000000000000000E+20
 25
-1.000000000000000E+20
 35
-1.000000000000000E+20
146
0.0
 13
0.0
 23
0.0
 33
0.0
 16
1.0
 26
0.0
 36
0.0
 17
0.0
 27
1.0
 37
0.0
 76
     0
330
16
  0
MATERIAL
  5
8B89
102
{ACAD_XDICTIONARY
360
8B8A
102
}
102
{ACAD_REACTORS
330
8A97
102
}
330
8A97
100
AcDbMaterial
  1
ByBlock
 72
     0
 43
0.0208333333333333
 43
0.0
 43
0.0
 43
0.0
 43
0.0
 43
0.0208333333333333
 43
0.0
 43
0.0
 43
0.0
 43
0.0
 43
1.0
 43
0.0
 43
0.0
 43
0.0
 43
0.0
 43
1.0
 77
     0
 47
0.0208333333333333
 47
0.0
 47
0.0
 47
0.0
 47
0.0
 47
0.0208333333333333
 47
0.0
 47
0.0
 47
0.0
 47
0.0
 47
1.0
 47
0.0
 47
0.0
 47
0.0
 47
0.0
 47
1.0
171
     0
 49
0.0208333333333333
 49
0.0
 49
0.0
 49
0.0
 49
0.0
 49
0.0208333333333333
 49
0.0
 49
0.0
 49
0.0
 49
0.0
 49
1.0
 49
0.0
 49
0.0
 49
0.0
 49
0.0
 49
1.0
175
     0
142
0.0208333333333333
142
0.0
142
0.0
142
0.0
142
0.0
142
0.0208333333333333
142
0.0
142
0.0
142
0.0
142
0.0
142
1.0
142
0.0
142
0.0
142
0.0
142
0.0
142
1.0
179
     0
144
0.0208333333333333
144
0.0
144
0.0
144
0.0
144
0.0
144
0.0208333333333333
144
0.0
144
0.0
144
0.0
144
0.0
144
1.0
144
0.0
144
0.0
144
0.0
144
0.0
144
1.0
147
0.0208333333333333
147
0.0
147
0.0
147
0.0
147
0.0
147
0.0208333333333333
147
0.0
147
0.0
147
0.0
147
0.0
147
1.0
147
0.0
147
0.0
147
0.0
147
0.0
147
1.0
  0
MATERIAL
  5
8B81
102
{ACAD_XDICTIONARY
360
8B82
102
}
102
{ACAD_REACTORS
330
8A97
102
}
330
8A97
100
AcDbMaterial
  1
ByLayer
 72
     0
 43
0.0208333333333333
 43
0.0
 43
0.0
 43
0.0
 43
0.0
 43
0.0208333333333333
 43
0.0
 43
0.0
 43
0.0
 43
0.0
 43
1.0
 43
0.0
 43
0.0
 43
0.0
 43
0.0
 43
1.0
 77
     0
 47
0.0208333333333333
 47
0.0
 47
0.0
 47
0.0
 47
0.0
 47
0.0208333333333333
 47
0.0
 47
0.0
 47
0.0
 47
0.0
 47
1.0
 47
0.0
 47
0.0
 47
0.0
 47
0.0
 47
1.0
171
     0
 49
0.0208333333333333
 49
0.0
 49
0.0
 49
0.0
 49
0.0
 49
0.0208333333333333
 49
0.0
 49
0.0
 49
0.0
 49
0.0
 49
1.0
 49
0.0
 49
0.0
 49
0.0
 49
0.0
 49
1.0
175
     0
142
0.0208333333333333
142
0.0
142
0.0
142
0.0
142
0.0
142
0.0208333333333333
142
0.0
142
0.0
142
0.0
142
0.0
142
1.0
142
0.0
142
0.0
142
0.0
142
0.0
142
1.0
179
     0
144
0.0208333333333333
144
0.0
144
0.0
144
0.0
144
0.0
144
0.0208333333333333
144
0.0
144
0.0
144
0.0
144
0.0
144
1.0
144
0.0
144
0.0
144
0.0
144
0.0
144
1.0
147
0.0208333333333333
147
0.0
147
0.0
147
0.0
147
0.0
147
0.0208333333333333
147
0.0
147
0.0
147
0.0
147
0.0
147
1.0
147
0.0
147
0.0
147
0.0
147
0.0
147
1.0
  0
MATERIAL
  5
8B91
102
{ACAD_XDICTIONARY
360
8B92
102
}
102
{ACAD_REACTORS
330
8A97
102
}
330
8A97
100
AcDbMaterial
  1
Global
 72
     0
 43
0.0208333333333333
 43
0.0
 43
0.0
 43
0.0
 43
0.0
 43
0.0208333333333333
 43
0.0
 43
0.0
 43
0.0
 43
0.0
 43
1.0
 43
0.0
 43
0.0
 43
0.0
 43
0.0
 43
1.0
 77
     0
 47
0.0208333333333333
 47
0.0
 47
0.0
 47
0.0
 47
0.0
 47
0.0208333333333333
 47
0.0
 47
0.0
 47
0.0
 47
0.0
 47
1.0
 47
0.0
 47
0.0
 47
0.0
 47
0.0
 47
1.0
171
     0
 49
0.0208333333333333
 49
0.0
 49
0.0
 49
0.0
 49
0.0
 49
0.0208333333333333
 49
0.0
 49
0.0
 49
0.0
 49
0.0
 49
1.0
 49
0.0
 49
0.0
 49
0.0
 49
0.0
 49
1.0
175
     0
142
0.0208333333333333
142
0.0
142
0.0
142
0.0
142
0.0
142
0.0208333333333333
142
0.0
142
0.0
142
0.0
142
0.0
142
1.0
142
0.0
142
0.0
142
0.0
142
0.0
142
1.0
179
     0
144
0.0208333333333333
144
0.0
144
0.0
144
0.0
144
0.0
144
0.0208333333333333
144
0.0
144
0.0
144
0.0
144
0.0
144
1.0
144
0.0
144
0.0
144
0.0
144
0.0
144
1.0
147
0.0208333333333333
147
0.0
147
0.0
147
0.0
147
0.0
147
0.0208333333333333
147
0.0
147
0.0
147
0.0
147
0.0
147
1.0
147
0.0
147
0.0
147
0.0
147
0.0
147
1.0
  0
MLEADERSTYLE
  5
8BCD
102
{ACAD_REACTORS
330
8BCC
102
}
330
8BCC
100
AcDbMLeaderStyle
170
     2
171
     1
172
     0
 90
        2
 40
0.0
 41
0.0
173
     1
 91
-1056964608
340
13
 92
       -2
290
     1
 42
0.09
291
     1
 43
0.36
  3
Standard
 44
0.18
300

342
10
174
     1
178
     6
175
     1
176
     0
 93
-1056964608
 45
0.18
292
     0
297
     0
 46
0.18
 94
-1056964608
 47
1.0
 49
1.0
140
1.0
293
     1
141
0.0
294
     1
177
     0
142
1.0
295
     0
296
     0
143
0.125
1001
ACAD_MLEADERVER
1070
     2
  0
MLINESTYLE
  5
1C
102
{ACAD_REACTORS
330
E
102
}
330
E
100
AcDbMlineStyle
  2
STANDARD
 70
     0
  3

 62
     0
 51
90.0
 52
90.0
 71
     2
 49
0.5
 62
   256
  6
BYLAYER
 49
-0.5
 62
   256
  6
BYLAYER
  0
ACDBPLACEHOLDER
  5
8A96
102
{ACAD_REACTORS
330
8A95
102
}
330
8A95
  0
SCALE
  5
8BAB
102
{ACAD_REACTORS
330
8BAA
102
}
330
8BAA
100
AcDbScale
 70
     0
300
1:1
140
1.0
141
1.0
290
     1
  0
SCALE
  5
8BAC
102
{ACAD_REACTORS
330
8BAA
102
}
330
8BAA
100
AcDbScale
 70
     0
300
1:2
140
1.0
141
2.0
290
     0
  0
SCALE
  5
8BAD
102
{ACAD_REACTORS
330
8BAA
102
}
330
8BAA
100
AcDbScale
 70
     0
300
1:4
140
1.0
141
4.0
290
     0
  0
SCALE
  5
8BAE
102
{ACAD_REACTORS
330
8BAA
102
}
330
8BAA
100
AcDbScale
 70
     0
300
1:5
140
1.0
141
5.0
290
     0
  0
SCALE
  5
8BAF
102
{ACAD_REACTORS
330
8BAA
102
}
330
8BAA
100
AcDbScale
 70
     0
300
1:8
140
1.0
141
8.0
290
     0
  0
SCALE
  5
8BB0
102
{ACAD_REACTORS
330
8BAA
102
}
330
8BAA
100
AcDbScale
 70
     0
300
1:10
140
1.0
141
10.0
290
     0
  0
SCALE
  5
8BB1
102
{ACAD_REACTORS
330
8BAA
102
}
330
8BAA
100
AcDbScale
 70
     0
300
1:16
140
1.0
141
16.0
290
     0
  0
SCALE
  5
8BB2
102
{ACAD_REACTORS
330
8BAA
102
}
330
8BAA
100
AcDbScale
 70
     0
300
1:20
140
1.0
141
20.0
290
     0
  0
SCALE
  5
8BB3
102
{ACAD_REACTORS
330
8BAA
102
}
330
8BAA
100
AcDbScale
 70
     0
300
1:30
140
1.0
141
30.0
290
     0
  0
SCALE
  5
8BB4
102
{ACAD_REACTORS
330
8BAA
102
}
330
8BAA
100
AcDbScale
 70
     0
300
1:40
140
1.0
141
40.0
290
     0
  0
SCALE
  5
8BB5
102
{ACAD_REACTORS
330
8BAA
102
}
330
8BAA
100
AcDbScale
 70
     0
300
1:50
140
1.0
141
50.0
290
     0
  0
SCALE
  5
8BB6
102
{ACAD_REACTORS
330
8BAA
102
}
330
8BAA
100
AcDbScale
 70
     0
300
1:100
140
1.0
141
100.0
290
     0
  0
SCALE
  5
8BB7
102
{ACAD_REACTORS
330
8BAA
102
}
330
8BAA
100
AcDbScale
 70
     0
300
2:1
140
2.0
141
1.0
290
     0
  0
SCALE
  5
8BB8
102
{ACAD_REACTORS
330
8BAA
102
}
330
8BAA
100
AcDbScale
 70
     0
300
4:1
140
4.0
141
1.0
290
     0
  0
SCALE
  5
8BB9
102
{ACAD_REACTORS
330
8BAA
102
}
330
8BAA
100
AcDbScale
 70
     0
300
8:1
140
8.0
141
1.0
290
     0
  0
SCALE
  5
8BBA
102
{ACAD_REACTORS
330
8BAA
102
}
330
8BAA
100
AcDbScale
 70
     0
300
10:1
140
10.0
141
1.0
290
     0
  0
SCALE
  5
8BBB
102
{ACAD_REACTORS
330
8BAA
102
}
330
8BAA
100
AcDbScale
 70
     0
300
100:1
140
100.0
141
1.0
290
     0
  0
SCALE
  5
8BBC
102
{ACAD_REACTORS
330
8BAA
102
}
330
8BAA
100
AcDbScale
 70
     0
300
1/128" = 1'-0"
140
0.0078125
141
12.0
290
     0
  0
SCALE
  5
8BBD
102
{ACAD_REACTORS
330
8BAA
102
}
330
8BAA
100
AcDbScale
 70
     0
300
1/64" = 1'-0"
140
0.015625
141
12.0
290
     0
  0
SCALE
  5
8BBE
102
{ACAD_REACTORS
330
8BAA
102
}
330
8BAA
100
AcDbScale
 70
     0
300
1/32" = 1'-0"
140
0.03125
141
12.0
290
     0
  0
SCALE
  5
8BBF
102
{ACAD_REACTORS
330
8BAA
102
}
330
8BAA
100
AcDbScale
 70
     0
300
1/16" = 1'-0"
140
0.0625
141
12.0
290
     0
  0
SCALE
  5
8BC0
102
{ACAD_REACTORS
330
8BAA
102
}
330
8BAA
100
AcDbScale
 70
     0
300
3/32" = 1'-0"
140
0.09375
141
12.0
290
     0
  0
SCALE
  5
8BC1
102
{ACAD_REACTORS
330
8BAA
102
}
330
8BAA
100
AcDbScale
 70
     0
300
1/8" = 1'-0"
140
0.125
141
12.0
290
     0
  0
SCALE
  5
8BC2
102
{ACAD_REACTORS
330
8BAA
102
}
330
8BAA
100
AcDbScale
 70
     0
300
3/16" = 1'-0"
140
0.1875
141
12.0
290
     0
  0
SCALE
  5
8BC3
102
{ACAD_REACTORS
330
8BAA
102
}
330
8BAA
100
AcDbScale
 70
     0
300
1/4" = 1'-0"
140
0.25
141
12.0
290
     0
  0
SCALE
  5
8BC4
102
{ACAD_REACTORS
330
8BAA
102
}
330
8BAA
100
AcDbScale
 70
     0
300
3/8" = 1'-0"
140
0.375
141
12.0
290
     0
  0
SCALE
  5
8BC5
102
{ACAD_REACTORS
330
8BAA
102
}
330
8BAA
100
AcDbScale
 70
     0
300
1/2" = 1'-0"
140
0.5
141
12.0
290
     0
  0
SCALE
  5
8BC6
102
{ACAD_REACTORS
330
8BAA
102
}
330
8BAA
100
AcDbScale
 70
     0
300
3/4" = 1'-0"
140
0.75
141
12.0
290
     0
  0
SCALE
  5
8BC7
102
{ACAD_REACTORS
330
8BAA
102
}
330
8BAA
100
AcDbScale
 70
     0
300
1" = 1'-0"
140
1.0
141
12.0
290
     0
  0
SCALE
  5
8BC8
102
{ACAD_REACTORS
330
8BAA
102
}
330
8BAA
100
AcDbScale
 70
     0
300
1-1/2" = 1'-0"
140
1.5
141
12.0
290
     0
  0
SCALE
  5
8BC9
102
{ACAD_REACTORS
330
8BAA
102
}
330
8BAA
100
AcDbScale
 70
     0
300
3" = 1'-0"
140
3.0
141
12.0
290
     0
  0
SCALE
  5
8BCA
102
{ACAD_REACTORS
330
8BAA
102
}
330
8BAA
100
AcDbScale
 70
     0
300
6" = 1'-0"
140
6.0
141
12.0
290
     0
  0
SCALE
  5
8BCB
102
{ACAD_REACTORS
330
8BAA
102
}
330
8BAA
100
AcDbScale
 70
     0
300
1'-0" = 1'-0"
140
12.0
141
12.0
290
     0
  0
TABLESTYLE
  5
8A9A
102
{ACAD_XDICTIONARY
360
8C79
102
}
102
{ACAD_REACTORS
330
8A99
102
}
330
8A99
100
AcDbTableStyle
  3
Standard
 70
     0
 71
     0
 40
0.06
 41
0.06
280
     0
281
     0
  7
STANDARD
140
0.18
170
     2
 62
     0
 63
     7
283
     0
274
    -2
284
     1
 64
     0
275
    -2
285
     1
 65
     0
276
    -2
286
     1
 66
     0
277
    -2
287
     1
 67
     0
278
    -2
288
     1
 68
     0
279
    -2
289
     1
 69
     0
  7
STANDARD
140
0.25
170
     5
 62
     0
 63
     7
283
     0
274
    -2
284
     1
 64
     0
275
    -2
285
     1
 65
     0
276
    -2
286
     1
 66
     0
277
    -2
287
     1
 67
     0
278
    -2
288
     1
 68
     0
279
    -2
289
     1
 69
     0
  7
STANDARD
140
0.18
170
     5
 62
     0
 63
     7
283
     0
274
    -2
284
     1
 64
     0
275
    -2
285
     1
 65
     0
276
    -2
286
     1
 66
     0
277
    -2
287
     1
 67
     0
278
    -2
288
     1
 68
     0
279
    -2
289
     1
 69
     0
  0
VISUALSTYLE
  5
8B9F
102
{ACAD_XDICTIONARY
360
9D42
102
}
102
{ACAD_REACTORS
330
8B99
102
}
330
8B99
100
AcDbVisualStyle
  2

 70
     4
 71
     0
 72
     2
 73
     0
 90
        0
 40
-0.6
 41
-30.0
 62
     5
 63
     7
 74
     1
 91
        4
 64
     7
 65
   257
 75
     1
175
     1
 42
1.0
 92
        0
 66
   257
 43
1.0
 76
     1
 77
     6
 78
     2
 67
     7
 79
     5
170
     0
171
     0
290
     0
174
     0
 93
        1
 44
0.0
173
     0
291
     0
 45
0.0
1001
ACAD
1000
AcDbSavedByObjectVersion
1070
     0
  0
VISUALSTYLE
  5
8BA1
102
{ACAD_XDICTIONARY
360
9D46
102
}
102
{ACAD_REACTORS
330
8B99
102
}
330
8B99
100
AcDbVisualStyle
  2

 70
     6
 71
     1
 72
     2
 73
     2
 90
        0
 40
-0.6
 41
-30.0
 62
     5
 63
     7
 74
     2
 91
        2
 64
     7
 65
   257
 75
     2
175
     1
 42
40.0
 92
        0
 66
   257
 43
1.0
 76
     1
 77
     6
 78
     2
 67
     7
 79
     3
170
     0
171
     0
290
     0
174
     0
 93
        1
 44
0.0
173
     0
291
     0
 45
0.0
1001
ACAD
1000
AcDbSavedByObjectVersion
1070
     0
  0
VISUALSTYLE
  5
8BA0
102
{ACAD_XDICTIONARY
360
9D44
102
}
102
{ACAD_REACTORS
330
8B99
102
}
330
8B99
100
AcDbVisualStyle
  2

 70
     5
 71
     0
 72
     2
 73
     0
 90
        0
 40
-0.6
 41
-30.0
 62
     5
 63
     7
 74
     1
 91
        4
 64
     7
 65
   257
 75
     1
175
     1
 42
1.0
 92
        0
 66
   257
 43
1.0
 76
     1
 77
     6
 78
     2
 67
     7
 79
     5
170
     0
171
     0
290
     0
174
     0
 93
        1
 44
0.0
173
     0
291
     0
 45
0.0
1001
ACAD
1000
AcDbSavedByObjectVersion
1070
     0
  0
VISUALSTYLE
  5
8B9E
102
{ACAD_XDICTIONARY
360
9D40
102
}
102
{ACAD_REACTORS
330
8B99
102
}
330
8B99
100
AcDbVisualStyle
  2

 70
     7
 71
     1
 72
     0
 73
     1
 90
        0
 40
-0.6
 41
-30.0
 62
     5
 63
     7
 74
     0
 91
        4
 64
     7
 65
   257
 75
     1
175
     1
 42
1.0
 92
        8
 66
     7
 43
1.0
 76
     1
 77
     6
 78
     2
 67
     7
 79
     5
170
     0
171
     0
290
     0
174
     0
 93
        1
 44
0.0
173
     0
291
     1
 45
0.0
1001
ACAD
1000
AcDbSavedByObjectVersion
1070
     0
  0
VISUALSTYLE
  5
8BA5
102
{ACAD_XDICTIONARY
360
9D4E
102
}
102
{ACAD_REACTORS
330
8B99
102
}
330
8B99
100
AcDbVisualStyle
  2

 70
    12
 71
     2
 72
     2
 73
     0
 90
        0
 40
-0.6
 41
-30.0
 62
     5
 63
     7
 74
     1
 91
        4
 64
     7
 65
   257
 75
     1
175
     1
 42
1.0
 92
        8
 66
     7
 43
1.0
 76
     1
 77
     6
 78
     2
 67
     7
 79
     5
170
     0
171
     0
290
     0
174
     0
 93
        1
 44
50.0
173
     0
291
     1
 45
0.0
1001
ACAD
1000
AcDbSavedByObjectVersion
1070
     0
  0
VISUALSTYLE
  5
8BA9
102
{ACAD_XDICTIONARY
360
9D56
102
}
102
{ACAD_REACTORS
330
8B99
102
}
330
8B99
100
AcDbVisualStyle
  2

 70
    16
 71
     2
 72
     2
 73
     3
 90
        0
 40
-0.6
 41
-30.0
 62
     5
 63
     8
 74
     1
 91
        4
 64
     7
 65
   257
 75
     1
175
     1
 42
1.0
 92
        8
 66
     8
 43
1.0
 76
     1
 77
     6
 78
     2
 67
     7
 79
     5
170
     0
171
     0
290
     0
174
     0
 93
        1
 44
0.0
173
     0
291
     1
 45
0.0
1001
ACAD
1000
AcDbSavedByObjectVersion
1070
     0
  0
VISUALSTYLE
  5
8BA2
102
{ACAD_XDICTIONARY
360
9D48
102
}
102
{ACAD_REACTORS
330
8B99
102
}
330
8B99
100
AcDbVisualStyle
  2

 70
     9
 71
     3
 72
     2
 73
     0
 90
        0
 40
-0.6
 41
-30.0
 62
     5
 63
     7
 74
     2
 91
        2
 64
     7
 65
   257
 75
     1
175
     1
 42
40.0
 92
        8
 66
     7
 43
1.0
 76
     1
 77
     6
 78
     2
 67
     7
 79
     3
170
     0
171
     0
290
     0
174
     0
 93
        1
 44
0.0
173
     0
291
     0
 45
0.0
1001
ACAD
1000
AcDbSavedByObjectVersion
1070
     0
  0
VISUALSTYLE
  5
8BA4
102
{ACAD_XDICTIONARY
360
9D4C
102
}
102
{ACAD_REACTORS
330
8B99
102
}
330
8B99
100
AcDbVisualStyle
  2

 70
    11
 71
     2
 72
     2
 73
     0
 90
        0
 40
-0.6
 41
-30.0
 62
     5
 63
     7
 74
     1
 91
        4
 64
     7
 65
   257
 75
     1
175
     1
 42
1.0
 92
        8
 66
     7
 43
1.0
 76
     1
 77
     6
 78
     2
 67
     7
 79
     5
170
     0
171
     0
290
     0
174
     0
 93
        1
 44
-50.0
173
     0
291
     1
 45
0.0
1001
ACAD
1000
AcDbSavedByObjectVersion
1070
     0
  0
VISUALSTYLE
  5
8C97
102
{ACAD_XDICTIONARY
360
9D6A
102
}
102
{ACAD_REACTORS
330
8B99
102
}
330
8B99
100
AcDbVisualStyle
  2
EdgeColorOff
 70
    22
 71
     2
 72
     2
 73
     0
 90
        0
 40
-0.6
 41
-30.0
 62
     5
 63
     7
 74
     1
 91
        4
 64
     7
 65
   257
 75
     1
175
     1
 42
1.0
 92
        8
 66
     7
 43
1.0
 76
     1
 77
     6
 78
     2
 67
     7
 79
     5
170
     0
171
     0
290
     0
174
     0
 93
        1
 44
0.0
173
     0
291
     1
 45
0.0
1001
ACAD
1000
AcDbSavedByObjectVersion
1070
     0
  0
VISUALSTYLE
  5
8BA8
102
{ACAD_XDICTIONARY
360
9D54
102
}
102
{ACAD_REACTORS
330
8B99
102
}
330
8B99
100
AcDbVisualStyle
  2

 70
    15
 71
     2
 72
     2
 73
     0
 90
        0
 40
-0.6
 41
-30.0
 62
     5
 63
     7
 74
     1
 91
        4
 64
     7
 65
   257
 75
     1
175
     1
 42
1.0
 92
        8
 66
     7
 43
1.0
 76
     1
 77
     6
 78
     2
 67
     7
 79
     5
170
     0
171
     0
290
     0
174
     0
 93
        1
 44
0.0
173
     0
291
     1
 45
0.0
1001
ACAD
1000
AcDbSavedByObjectVersion
1070
     0
  0
VISUALSTYLE
  5
8B9A
102
{ACAD_XDICTIONARY
360
9D38
102
}
102
{ACAD_REACTORS
330
8B99
102
}
330
8B99
100
AcDbVisualStyle
  2

 70
     0
 71
     2
 72
     1
 73
     1
 90
        2
 40
-0.6
 41
30.0
 62
     5
 63
     7
 74
     0
 91
        4
 64
     7
 65
   257
 75
     1
175
     1
 42
1.0
 92
        8
 66
     7
 43
1.0
 76
     1
 77
     6
 78
     2
 67
     7
 79
     5
170
     0
171
     0
290
     0
174
     0
 93
       13
 44
0.0
173
     0
291
     1
 45
0.0
1001
ACAD
1000
AcDbSavedByObjectVersion
1070
     0
  0
VISUALSTYLE
  5
8B9B
102
{ACAD_XDICTIONARY
360
9D3A
102
}
102
{ACAD_REACTORS
330
8B99
102
}
330
8B99
100
AcDbVisualStyle
  2

 70
     1
 71
     2
 72
     1
 73
     1
 90
        2
 40
-0.6
 41
30.0
 62
     5
 63
     7
 74
     1
 91
        4
 64
     7
 65
   257
 75
     1
175
     1
 42
1.0
 92
        0
 66
   257
 43
1.0
 76
     1
 77
     6
 78
     2
 67
     7
 79
     5
170
     0
171
     0
290
     0
174
     0
 93
       13
 44
0.0
173
     0
291
     1
 45
0.0
1001
ACAD
1000
AcDbSavedByObjectVersion
1070
     0
  0
VISUALSTYLE
  5
8B9C
102
{ACAD_XDICTIONARY
360
9D3C
102
}
102
{ACAD_REACTORS
330
8B99
102
}
330
8B99
100
AcDbVisualStyle
  2

 70
     2
 71
     2
 72
     2
 73
     1
 90
        2
 40
-0.6
 41
30.0
 62
     5
 63
     7
 74
     0
 91
        4
 64
     7
 65
   257
 75
     1
175
     1
 42
1.0
 92
        0
 66
     7
 43
1.0
 76
     1
 77
     6
 78
     2
 67
     7
 79
     5
170
     0
171
     0
290
     0
174
     0
 93
       13
 44
0.0
173
     0
291
     1
 45
0.0
1001
ACAD
1000
AcDbSavedByObjectVersion
1070
     0
  0
VISUALSTYLE
  5
8B9D
102
{ACAD_XDICTIONARY
360
9D3E
102
}
102
{ACAD_REACTORS
330
8B99
102
}
330
8B99
100
AcDbVisualStyle
  2

 70
     3
 71
     2
 72
     2
 73
     1
 90
        2
 40
-0.6
 41
30.0
 62
     5
 63
     7
 74
     1
 91
        4
 64
     7
 65
   257
 75
     1
175
     1
 42
1.0
 92
        0
 66
   257
 43
1.0
 76
     1
 77
     6
 78
     2
 67
     7
 79
     5
170
     0
171
     0
290
     0
174
     0
 93
       13
 44
0.0
173
     0
291
     1
 45
0.0
1001
ACAD
1000
AcDbSavedByObjectVersion
1070
     0
  0
VISUALSTYLE
  5
8C8F
102
{ACAD_XDICTIONARY
360
9D5A
102
}
102
{ACAD_REACTORS
330
8B99
102
}
330
8B99
100
AcDbVisualStyle
  2
Hidden
 70
     6
 71
     1
 72
     2
 73
     2
 90
        0
 40
-0.6
 41
-30.0
 62
     5
 63
     7
 74
     2
 91
        2
 64
     7
 65
   257
 75
     2
175
     1
 42
40.0
 92
        0
 66
   257
 43
1.0
 76
     1
 77
     6
 78
     2
 67
     7
 79
     3
170
     0
171
     0
290
     0
174
     0
 93
        1
 44
0.0
173
     0
291
     0
 45
0.0
1001
ACAD
1000
AcDbSavedByObjectVersion
1070
     0
  0
VISUALSTYLE
  5
8C95
102
{ACAD_XDICTIONARY
360
9D66
102
}
102
{ACAD_REACTORS
330
8B99
102
}
330
8B99
100
AcDbVisualStyle
  2
JitterOff
 70
    20
 71
     2
 72
     2
 73
     0
 90
        0
 40
-0.6
 41
-30.0
 62
     5
 63
     7
 74
     1
 91
        4
 64
     7
 65
   257
 75
     1
175
     1
 42
1.0
 92
       10
 66
     7
 43
1.0
 76
     1
 77
     6
 78
     2
 67
     7
 79
     5
170
     0
171
     0
290
     0
174
     0
 93
        1
 44
0.0
173
     0
291
     1
 45
0.0
1001
ACAD
1000
AcDbSavedByObjectVersion
1070
     0
  0
VISUALSTYLE
  5
8BA7
102
{ACAD_XDICTIONARY
360
9D52
102
}
102
{ACAD_REACTORS
330
8B99
102
}
330
8B99
100
AcDbVisualStyle
  2

 70
    14
 71
     2
 72
     2
 73
     0
 90
        0
 40
-0.6
 41
-30.0
 62
     5
 63
     7
 74
     1
 91
        4
 64
     7
 65
   257
 75
     7
175
     7
 42
1.0
 92
        8
 66
     7
 43
1.0
 76
     1
 77
     6
 78
     2
 67
     7
 79
     5
170
     0
171
     0
290
     0
174
     0
 93
        1
 44
0.0
173
     0
291
     1
 45
0.0
1001
ACAD
1000
AcDbSavedByObjectVersion
1070
     0
  0
VISUALSTYLE
  5
8C96
102
{ACAD_XDICTIONARY
360
9D68
102
}
102
{ACAD_REACTORS
330
8B99
102
}
330
8B99
100
AcDbVisualStyle
  2
OverhangOff
 70
    21
 71
     2
 72
     2
 73
     0
 90
        0
 40
-0.6
 41
-30.0
 62
     5
 63
     7
 74
     1
 91
        4
 64
     7
 65
   257
 75
     1
175
     1
 42
1.0
 92
        9
 66
     7
 43
1.0
 76
     1
 77
     6
 78
     2
 67
     7
 79
     5
170
     0
171
     0
290
     0
174
     0
 93
        1
 44
0.0
173
     0
291
     1
 45
0.0
1001
ACAD
1000
AcDbSavedByObjectVersion
1070
     0
  0
VISUALSTYLE
  5
8BA3
102
{ACAD_XDICTIONARY
360
9D4A
102
}
102
{ACAD_REACTORS
330
8B99
102
}
330
8B99
100
AcDbVisualStyle
  2

 70
     8
 71
     2
 72
     2
 73
     0
 90
        0
 40
-0.6
 41
-30.0
 62
     5
 63
     7
 74
     1
 91
        0
 64
     7
 65
   257
 75
     1
175
     1
 42
1.0
 92
        8
 66
     8
 43
1.0
 76
     1
 77
     6
 78
     2
 67
     7
 79
     5
170
     0
171
     0
290
     0
174
     0
 93
       13
 44
0.0
173
     0
291
     0
 45
0.0
1001
ACAD
1000
AcDbSavedByObjectVersion
1070
     0
  0
VISUALSTYLE
  5
8C94
102
{ACAD_XDICTIONARY
360
9D64
102
}
102
{ACAD_REACTORS
330
8B99
102
}
330
8B99
100
AcDbVisualStyle
  2
Shaded
 70
    27
 71
     2
 72
     2
 73
     1
 90
        2
 40
-0.6
 41
30.0
 62
     5
 63
     7
 74
     0
 91
        4
 64
     7
 65
   257
 75
     1
175
     1
 42
1.0
 92
        8
 66
   257
 43
1.0
 76
     1
 77
     6
 78
     2
 67
     8
 79
     3
170
     0
171
     0
290
     0
174
     0
 93
        5
 44
0.0
173
     0
291
     0
 45
0.0
1001
ACAD
1000
AcDbSavedByObjectVersion
1070
     0
  0
VISUALSTYLE
  5
8C93
102
{ACAD_XDICTIONARY
360
9D62
102
}
102
{ACAD_REACTORS
330
8B99
102
}
330
8B99
100
AcDbVisualStyle
  2
Shaded with edges
 70
    26
 71
     2
 72
     2
 73
     1
 90
        2
 40
-0.6
 41
30.0
 62
     5
 63
     7
 74
     1
 91
       10
 64
     7
 65
   257
 75
     2
175
     1
 42
1.0
 92
        8
 66
   257
 43
1.0
 76
     1
 77
     6
 78
     2
 67
     7
 79
     3
170
     0
171
     0
290
     0
174
     0
 93
        5
 44
0.0
173
     0
291
     0
 45
0.0
1001
ACAD
1000
AcDbSavedByObjectVersion
1070
     0
  0
VISUALSTYLE
  5
8C90
102
{ACAD_XDICTIONARY
360
9D5C
102
}
102
{ACAD_REACTORS
330
8B99
102
}
330
8B99
100
AcDbVisualStyle
  2
Shades of Gray
 70
    23
 71
     2
 72
     2
 73
     3
 90
        0
 40
-0.6
 41
-30.0
 62
     5
 63
     7
 74
     2
 91
        2
 64
     7
 65
     7
 75
     1
175
     1
 42
40.0
 92
        8
 66
     7
 43
1.0
 76
     1
 77
     6
 78
     2
 67
     7
 79
     3
170
     0
171
     0
290
     0
174
     0
 93
        1
 44
0.0
173
     0
291
     0
 45
0.0
1001
ACAD
1000
AcDbSavedByObjectVersion
1070
     0
  0
VISUALSTYLE
  5
8C91
102
{ACAD_XDICTIONARY
360
9D5E
102
}
102
{ACAD_REACTORS
330
8B99
102
}
330
8B99
100
AcDbVisualStyle
  2
Sketchy
 70
    24
 71
     1
 72
     2
 73
     2
 90
        0
 40
-0.6
 41
-30.0
 62
     5
 63
     7
 74
     2
 91
        2
 64
     7
 65
     7
 75
     1
175
     1
 42
40.0
 92
       11
 66
     7
 43
1.0
 76
     1
 77
     6
 78
     2
 67
     7
 79
     6
170
     0
171
     0
290
     0
174
     0
 93
        1
 44
0.0
173
     0
291
     0
 45
0.0
1001
ACAD
1000
AcDbSavedByObjectVersion
1070
     0
  0
VISUALSTYLE
  5
8BA6
102
{ACAD_XDICTIONARY
360
9D50
102
}
102
{ACAD_REACTORS
330
8B99
102
}
330
8B99
100
AcDbVisualStyle
  2

 70
    13
 71
     2
 72
     2
 73
     0
 90
        0
 40
-0.6
 41
-30.0
 62
     5
 63
     7
 74
     1
 91
        4
 64
     7
 65
   257
 75
     1
175
     1
 42
1.0
 92
       12
 66
     7
 43
1.0
 76
     1
 77
     6
 78
     2
 67
     7
 79
     5
170
     0
171
     0
290
     0
174
     0
 93
        1
 44
0.0
173
     0
291
     1
 45
0.0
1001
ACAD
1000
AcDbSavedByObjectVersion
1070
     0
  0
VISUALSTYLE
  5
8C8E
102
{ACAD_XDICTIONARY
360
9D58
102
}
102
{ACAD_REACTORS
330
8B99
102
}
330
8B99
100
AcDbVisualStyle
  2
Wireframe
 70
     5
 71
     0
 72
     2
 73
     0
 90
        0
 40
-0.6
 41
-30.0
 62
     5
 63
     7
 74
     1
 91
        4
 64
     7
 65
   257
 75
     1
175
     1
 42
1.0
 92
        0
 66
   257
 43
1.0
 76
     1
 77
     6
 78
     2
 67
     7
 79
     3
170
     0
171
     0
290
     0
174
     0
 93
        1
 44
0.0
173
     0
291
     0
 45
0.0
1001
ACAD
1000
AcDbSavedByObjectVersion
1070
     0
  0
VISUALSTYLE
  5
8C92
102
{ACAD_XDICTIONARY
360
9D60
102
}
102
{ACAD_REACTORS
330
8B99
102
}
330
8B99
100
AcDbVisualStyle
  2
X-Ray
 70
    25
 71
     2
 72
     2
 73
     1
 90
        1
 40
0.5
 41
-30.0
 62
     5
 63
     7
 74
     1
 91
        0
 64
     7
 65
   257
 75
     1
175
     1
 42
1.0
 92
        8
 66
     7
 43
1.0
 76
     1
 77
     6
 78
     2
 67
     7
 79
     3
170
     0
171
     0
290
     0
174
     0
 93
       13
 44
0.0
173
     0
291
     0
 45
0.0
1001
ACAD
1000
AcDbSavedByObjectVersion
1070
     0
  0
DICTIONARYVAR
  5
8C77
102
{ACAD_REACTORS
330
1BF
102
}
330
1BF
100
DictionaryVariables
280
     0
  1
1:1
  0
DICTIONARYVAR
  5
8C76
102
{ACAD_REACTORS
330
1BF
102
}
330
1BF
100
DictionaryVariables
280
     0
  1
STANDARD
  0
DICTIONARYVAR
  5
8B64
102
{ACAD_REACTORS
330
1BF
102
}
330
1BF
100
DictionaryVariables
280
     0
  1
STANDARD
  0
DICTIONARYVAR
  5
8B65
102
{ACAD_REACTORS
330
1BF
102
}
330
1BF
100
DictionaryVariables
280
     0
  1
1
  0
DICTIONARYVAR
  5
8C78
102
{ACAD_REACTORS
330
1BF
102
}
330
1BF
100
DictionaryVariables
280
     0
  1
0
  0
DICTIONARYVAR
  5
8B66
102
{ACAD_REACTORS
330
1BF
102
}
330
1BF
100
DictionaryVariables
280
     0
  1

  0
DICTIONARYVAR
  5
1C0
102
{ACAD_REACTORS
330
1BF
102
}
330
1BF
100
DictionaryVariables
280
     0
  1
96
  0
DICTIONARYVAR
  5
9D2C
102
{ACAD_REACTORS
330
1BF
102
}
330
1BF
100
DictionaryVariables
280
     0
  1
2
  0
DICTIONARY
  5
9D31
330
8A9D
100
AcDbDictionary
280
     1
281
     1
  3
ACAD_XREC_ROUNDTRIP
360
9D32
  0
DICTIONARY
  5
9D33
330
8A9E
100
AcDbDictionary
280
     1
281
     1
  3
ACAD_XREC_ROUNDTRIP
360
9D34
  0
DICTIONARY
  5
8B8A
330
8B89
100
AcDbDictionary
280
     1
281
     1
  3
ACAD_XREC_ROUNDTRIP
360
9D36
  3
BUMPTILE
360
8B8C
  3
DIFFUSETILE
360
8B8B
  3
OPACITYTILE
360
8B8F
  3
REFLECTIONTILE
360
8B8E
  3
REFRACTIONTILE
360
8B90
  3
SPECULARTILE
360
8B8D
  0
DICTIONARY
  5
8B82
330
8B81
100
AcDbDictionary
280
     1
281
     1
  3
ACAD_XREC_ROUNDTRIP
360
9D35
  3
BUMPTILE
360
8B84
  3
DIFFUSETILE
360
8B83
  3
OPACITYTILE
360
8B87
  3
REFLECTIONTILE
360
8B86
  3
REFRACTIONTILE
360
8B88
  3
SPECULARTILE
360
8B85
  0
DICTIONARY
  5
8B92
330
8B91
100
AcDbDictionary
280
     1
281
     1
  3
ACAD_XREC_ROUNDTRIP
360
9D37
  3
BUMPTILE
360
8B94
  3
DIFFUSETILE
360
8B93
  3
OPACITYTILE
360
8B97
  3
REFLECTIONTILE
360
8B96
  3
REFRACTIONTILE
360
8B98
  3
SPECULARTILE
360
8B95
  0
DICTIONARY
  5
8C79
330
8A9A
100
AcDbDictionary
280
     1
281
     1
  3
ACAD_ROUNDTRIP_2008_TABLESTYLE_CELLSTYLEMAP
360
9D2D
  3
ACAD_XREC_ROUNDTRIP
360
9D30
  0
DICTIONARY
  5
9D42
330
8B9F
100
AcDbDictionary
280
     1
281
     1
  3
ACAD_XREC_ROUNDTRIP
360
9D43
  0
DICTIONARY
  5
9D46
330
8BA1
100
AcDbDictionary
280
     1
281
     1
  3
ACAD_XREC_ROUNDTRIP
360
9D47
  0
DICTIONARY
  5
9D44
330
8BA0
100
AcDbDictionary
280
     1
281
     1
  3
ACAD_XREC_ROUNDTRIP
360
9D45
  0
DICTIONARY
  5
9D40
330
8B9E
100
AcDbDictionary
280
     1
281
     1
  3
ACAD_XREC_ROUNDTRIP
360
9D41
  0
DICTIONARY
  5
9D4E
330
8BA5
100
AcDbDictionary
280
     1
281
     1
  3
ACAD_XREC_ROUNDTRIP
360
9D4F
  0
DICTIONARY
  5
9D56
330
8BA9
100
AcDbDictionary
280
     1
281
     1
  3
ACAD_XREC_ROUNDTRIP
360
9D57
  0
DICTIONARY
  5
9D48
330
8BA2
100
AcDbDictionary
280
     1
281
     1
  3
ACAD_XREC_ROUNDTRIP
360
9D49
  0
DICTIONARY
  5
9D4C
330
8BA4
100
AcDbDictionary
280
     1
281
     1
  3
ACAD_XREC_ROUNDTRIP
360
9D4D
  0
DICTIONARY
  5
9D6A
330
8C97
100
AcDbDictionary
280
     1
281
     1
  3
ACAD_XREC_ROUNDTRIP
360
9D6B
  0
DICTIONARY
  5
9D54
330
8BA8
100
AcDbDictionary
280
     1
281
     1
  3
ACAD_XREC_ROUNDTRIP
360
9D55
  0
DICTIONARY
  5
9D38
330
8B9A
100
AcDbDictionary
280
     1
281
     1
  3
ACAD_XREC_ROUNDTRIP
360
9D39
  0
DICTIONARY
  5
9D3A
330
8B9B
100
AcDbDictionary
280
     1
281
     1
  3
ACAD_XREC_ROUNDTRIP
360
9D3B
  0
DICTIONARY
  5
9D3C
330
8B9C
100
AcDbDictionary
280
     1
281
     1
  3
ACAD_XREC_ROUNDTRIP
360
9D3D
  0
DICTIONARY
  5
9D3E
330
8B9D
100
AcDbDictionary
280
     1
281
     1
  3
ACAD_XREC_ROUNDTRIP
360
9D3F
  0
DICTIONARY
  5
9D5A
330
8C8F
100
AcDbDictionary
280
     1
281
     1
  3
ACAD_XREC_ROUNDTRIP
360
9D5B
  0
DICTIONARY
  5
9D66
330
8C95
100
AcDbDictionary
280
     1
281
     1
  3
ACAD_XREC_ROUNDTRIP
360
9D67
  0
DICTIONARY
  5
9D52
330
8BA7
100
AcDbDictionary
280
     1
281
     1
  3
ACAD_XREC_ROUNDTRIP
360
9D53
  0
DICTIONARY
  5
9D68
330
8C96
100
AcDbDictionary
280
     1
281
     1
  3
ACAD_XREC_ROUNDTRIP
360
9D69
  0
DICTIONARY
  5
9D4A
330
8BA3
100
AcDbDictionary
280
     1
281
     1
  3
ACAD_XREC_ROUNDTRIP
360
9D4B
  0
DICTIONARY
  5
9D64
330
8C94
100
AcDbDictionary
280
     1
281
     1
  3
ACAD_XREC_ROUNDTRIP
360
9D65
  0
DICTIONARY
  5
9D62
330
8C93
100
AcDbDictionary
280
     1
281
     1
  3
ACAD_XREC_ROUNDTRIP
360
9D63
  0
DICTIONARY
  5
9D5C
330
8C90
100
AcDbDictionary
280
     1
281
     1
  3
ACAD_XREC_ROUNDTRIP
360
9D5D
  0
DICTIONARY
  5
9D5E
330
8C91
100
AcDbDictionary
280
     1
281
     1
  3
ACAD_XREC_ROUNDTRIP
360
9D5F
  0
DICTIONARY
  5
9D50
330
8BA6
100
AcDbDictionary
280
     1
281
     1
  3
ACAD_XREC_ROUNDTRIP
360
9D51
  0
DICTIONARY
  5
9D58
330
8C8E
100
AcDbDictionary
280
     1
281
     1
  3
ACAD_XREC_ROUNDTRIP
360
9D59
  0
DICTIONARY
  5
9D60
330
8C92
100
AcDbDictionary
280
     1
281
     1
  3
ACAD_XREC_ROUNDTRIP
360
9D61
  0
XRECORD
  5
9D32
102
{ACAD_REACTORS
330
9D31
102
}
330
9D31
100
AcDbXrecord
280
     1
102
SHADEPLOT
 70
     0
102
SHADEPLOTRESLEVEL
 70
     2
102
SHADEPLOTCUSTOMDPI
 70
   300
  0
XRECORD
  5
9D34
102
{ACAD_REACTORS
330
9D33
102
}
330
9D33
100
AcDbXrecord
280
     1
102
SHADEPLOT
 70
     0
102
SHADEPLOTRESLEVEL
 70
     2
102
SHADEPLOTCUSTOMDPI
 70
   300
  0
XRECORD
  5
9D36
102
{ACAD_REACTORS
330
8B8A
102
}
330
8B8A
100
AcDbXrecord
280
     1
102
MATERIAL
148
0.0
149
0.0
149
0.0
 93
        0
 94
      127
282
     0
 72
     0
 77
     0
171
     0
175
     0
179
     0
273
     0
  0
XRECORD
  5
8B8C
102
{ACAD_REACTORS
330
8B8A
102
}
330
8B8A
100
AcDbXrecord
280
     1
270
     1
271
     1
  0
XRECORD
  5
8B8B
102
{ACAD_REACTORS
330
8B8A
102
}
330
8B8A
100
AcDbXrecord
280
     1
270
     1
271
     1
  0
XRECORD
  5
8B8F
102
{ACAD_REACTORS
330
8B8A
102
}
330
8B8A
100
AcDbXrecord
280
     1
270
     1
271
     1
  0
XRECORD
  5
8B8E
102
{ACAD_REACTORS
330
8B8A
102
}
330
8B8A
100
AcDbXrecord
280
     1
270
     1
271
     1
  0
XRECORD
  5
8B90
102
{ACAD_REACTORS
330
8B8A
102
}
330
8B8A
100
AcDbXrecord
280
     1
270
     1
271
     1
  0
XRECORD
  5
8B8D
102
{ACAD_REACTORS
330
8B8A
102
}
330
8B8A
100
AcDbXrecord
280
     1
270
     1
271
     1
  0
XRECORD
  5
9D35
102
{ACAD_REACTORS
330
8B82
102
}
330
8B82
100
AcDbXrecord
280
     1
102
MATERIAL
148
0.0
149
0.0
149
0.0
 93
        0
 94
      127
282
     0
 72
     0
 77
     0
171
     0
175
     0
179
     0
273
     0
  0
XRECORD
  5
8B84
102
{ACAD_REACTORS
330
8B82
102
}
330
8B82
100
AcDbXrecord
280
     1
270
     1
271
     1
  0
XRECORD
  5
8B83
102
{ACAD_REACTORS
330
8B82
102
}
330
8B82
100
AcDbXrecord
280
     1
270
     1
271
     1
  0
XRECORD
  5
8B87
102
{ACAD_REACTORS
330
8B82
102
}
330
8B82
100
AcDbXrecord
280
     1
270
     1
271
     1
  0
XRECORD
  5
8B86
102
{ACAD_REACTORS
330
8B82
102
}
330
8B82
100
AcDbXrecord
280
     1
270
     1
271
     1
  0
XRECORD
  5
8B88
102
{ACAD_REACTORS
330
8B82
102
}
330
8B82
100
AcDbXrecord
280
     1
270
     1
271
     1
  0
XRECORD
  5
8B85
102
{ACAD_REACTORS
330
8B82
102
}
330
8B82
100
AcDbXrecord
280
     1
270
     1
271
     1
  0
XRECORD
  5
9D37
102
{ACAD_REACTORS
330
8B92
102
}
330
8B92
100
AcDbXrecord
280
     1
102
MATERIAL
148
0.0
149
0.0
149
0.0
 93
        0
 94
      127
282
     0
 72
     0
 77
     0
171
     0
175
     0
179
     0
273
     0
  0
XRECORD
  5
8B94
102
{ACAD_REACTORS
330
8B92
102
}
330
8B92
100
AcDbXrecord
280
     1
270
     1
271
     1
  0
XRECORD
  5
8B93
102
{ACAD_REACTORS
330
8B92
102
}
330
8B92
100
AcDbXrecord
280
     1
270
     1
271
     1
  0
XRECORD
  5
8B97
102
{ACAD_REACTORS
330
8B92
102
}
330
8B92
100
AcDbXrecord
280
     1
270
     1
271
     1
  0
XRECORD
  5
8B96
102
{ACAD_REACTORS
330
8B92
102
}
330
8B92
100
AcDbXrecord
280
     1
270
     1
271
     1
  0
XRECORD
  5
8B98
102
{ACAD_REACTORS
330
8B92
102
}
330
8B92
100
AcDbXrecord
280
     1
270
     1
271
     1
  0
XRECORD
  5
8B95
102
{ACAD_REACTORS
330
8B92
102
}
330
8B92
100
AcDbXrecord
280
     1
270
     1
271
     1
  0
CELLSTYLEMAP
  5
9D2D
102
{ACAD_REACTORS
330
8C79
102
}
330
8C79
100
AcDbCellStyleMap
 90
        3
300
CELLSTYLE
  1
TABLEFORMAT_BEGIN
 90
        5
170
     1
 91
        0
 92
    32768
 62
   257
 93
        1
300
CONTENTFORMAT
  1
CONTENTFORMAT_BEGIN
 90
        0
 91
        0
 92
        4
 93
        0
300

 40
0.0
140
1.0
 94
        5
 62
     0
340
10
144
0.25
309
CONTENTFORMAT_END
171
     1
301
MARGIN
  1
CELLMARGIN_BEGIN
 40
0.06
 40
0.06
 40
0.06
 40
0.06
 40
0.18
 40
0.18
309
CELLMARGIN_END
 94
        6
 95
        1
302
GRIDFORMAT
  1
GRIDFORMAT_BEGIN
 90
        0
 91
        1
 62
     0
 92
       -2
340
0
 93
        0
 40
0.045
309
GRIDFORMAT_END
 95
        2
302
GRIDFORMAT
  1
GRIDFORMAT_BEGIN
 90
        0
 91
        1
 62
     0
 92
       -2
340
0
 93
        0
 40
0.045
309
GRIDFORMAT_END
 95
        4
302
GRIDFORMAT
  1
GRIDFORMAT_BEGIN
 90
        0
 91
        1
 62
     0
 92
       -2
340
0
 93
        0
 40
0.045
309
GRIDFORMAT_END
 95
        8
302
GRIDFORMAT
  1
GRIDFORMAT_BEGIN
 90
        0
 91
        1
 62
     0
 92
       -2
340
0
 93
        0
 40
0.045
309
GRIDFORMAT_END
 95
       16
302
GRIDFORMAT
  1
GRIDFORMAT_BEGIN
 90
        0
 91
        1
 62
     0
 92
       -2
340
0
 93
        0
 40
0.045
309
GRIDFORMAT_END
 95
       32
302
GRIDFORMAT
  1
GRIDFORMAT_BEGIN
 90
        0
 91
        1
 62
     0
 92
       -2
340
0
 93
        0
 40
0.045
309
GRIDFORMAT_END
309
TABLEFORMAT_END
  1
CELLSTYLE_BEGIN
 90
        1
 91
        1
300
_TITLE
309
CELLSTYLE_END
300
CELLSTYLE
  1
TABLEFORMAT_BEGIN
 90
        5
170
     1
 91
        0
 92
        0
 62
   257
 93
        1
300
CONTENTFORMAT
  1
CONTENTFORMAT_BEGIN
 90
        0
 91
        0
 92
        4
 93
        0
300

 40
0.0
140
1.0
 94
        5
 62
     0
340
10
144
0.18
309
CONTENTFORMAT_END
171
     1
301
MARGIN
  1
CELLMARGIN_BEGIN
 40
0.06
 40
0.06
 40
0.06
 40
0.06
 40
0.18
 40
0.18
309
CELLMARGIN_END
 94
        6
 95
        1
302
GRIDFORMAT
  1
GRIDFORMAT_BEGIN
 90
        0
 91
        1
 62
     0
 92
       -2
340
0
 93
        0
 40
0.045
309
GRIDFORMAT_END
 95
        2
302
GRIDFORMAT
  1
GRIDFORMAT_BEGIN
 90
        0
 91
        1
 62
     0
 92
       -2
340
0
 93
        0
 40
0.045
309
GRIDFORMAT_END
 95
        4
302
GRIDFORMAT
  1
GRIDFORMAT_BEGIN
 90
        0
 91
        1
 62
     0
 92
       -2
340
0
 93
        0
 40
0.045
309
GRIDFORMAT_END
 95
        8
302
GRIDFORMAT
  1
GRIDFORMAT_BEGIN
 90
        0
 91
        1
 62
     0
 92
       -2
340
0
 93
        0
 40
0.045
309
GRIDFORMAT_END
 95
       16
302
GRIDFORMAT
  1
GRIDFORMAT_BEGIN
 90
        0
 91
        1
 62
     0
 92
       -2
340
0
 93
        0
 40
0.045
309
GRIDFORMAT_END
 95
       32
302
GRIDFORMAT
  1
GRIDFORMAT_BEGIN
 90
        0
 91
        1
 62
     0
 92
       -2
340
0
 93
        0
 40
0.045
309
GRIDFORMAT_END
309
TABLEFORMAT_END
  1
CELLSTYLE_BEGIN
 90
        2
 91
        1
300
_HEADER
309
CELLSTYLE_END
300
CELLSTYLE
  1
TABLEFORMAT_BEGIN
 90
        5
170
     1
 91
        0
 92
        0
 62
   257
 93
        1
300
CONTENTFORMAT
  1
CONTENTFORMAT_BEGIN
 90
        0
 91
        0
 92
        4
 93
        0
300

 40
0.0
140
1.0
 94
        2
 62
     0
340
10
144
0.18
309
CONTENTFORMAT_END
171
     1
301
MARGIN
  1
CELLMARGIN_BEGIN
 40
0.06
 40
0.06
 40
0.06
 40
0.06
 40
0.18
 40
0.18
309
CELLMARGIN_END
 94
        6
 95
        1
302
GRIDFORMAT
  1
GRIDFORMAT_BEGIN
 90
        0
 91
        1
 62
     0
 92
       -2
340
0
 93
        0
 40
0.045
309
GRIDFORMAT_END
 95
        2
302
GRIDFORMAT
  1
GRIDFORMAT_BEGIN
 90
        0
 91
        1
 62
     0
 92
       -2
340
0
 93
        0
 40
0.045
309
GRIDFORMAT_END
 95
        4
302
GRIDFORMAT
  1
GRIDFORMAT_BEGIN
 90
        0
 91
        1
 62
     0
 92
       -2
340
0
 93
        0
 40
0.045
309
GRIDFORMAT_END
 95
        8
302
GRIDFORMAT
  1
GRIDFORMAT_BEGIN
 90
        0
 91
        1
 62
     0
 92
       -2
340
0
 93
        0
 40
0.045
309
GRIDFORMAT_END
 95
       16
302
GRIDFORMAT
  1
GRIDFORMAT_BEGIN
 90
        0
 91
        1
 62
     0
 92
       -2
340
0
 93
        0
 40
0.045
309
GRIDFORMAT_END
 95
       32
302
GRIDFORMAT
  1
GRIDFORMAT_BEGIN
 90
        0
 91
        1
 62
     0
 92
       -2
340
0
 93
        0
 40
0.045
309
GRIDFORMAT_END
309
TABLEFORMAT_END
  1
CELLSTYLE_BEGIN
 90
        3
 91
        2
300
_DATA
309
CELLSTYLE_END
  0
XRECORD
  5
9D30
102
{ACAD_REACTORS
330
8C79
102
}
330
8C79
100
AcDbXrecord
280
     1
102
ACAD_ROUNDTRIP_PRE2007_TABLESTYLE
 90
        4
 91
        0
  1

 92
        4
 93
        0
  2

 94
        4
 95
        0
  3

  0
XRECORD
  5
9D43
102
{ACAD_REACTORS
330
9D42
102
}
330
9D42
100
AcDbXrecord
280
     1
102
RTVSPropertyOp0
 70
     1
102
RTVSPropertyOp1
 70
     1
102
RTVSPropertyOp2
 70
     1
102
RTVSPropertyOp3
 70
     1
102
RTVSPropertyOp4
 70
     1
102
RTVSPropertyOp5
 70
     1
102
RTVSPropertyOp6
 70
     1
102
RTVSPropertyOp7
 70
     1
102
RTVSPropertyOp8
 70
     1
102
RTVSPropertyOp9
 70
     1
102
RTVSPropertyOp10
 70
     1
102
RTVSPropertyOp11
 70
     1
102
RTVSPropertyOp12
 70
     1
102
RTVSPropertyOp13
 70
     1
102
RTVSPropertyOp14
 70
     1
102
RTVSPropertyOp15
 70
     1
102
RTVSPropertyOp16
 70
     1
102
RTVSPropertyOp17
 70
     1
102
RTVSPropertyOp18
 70
     1
102
RTVSPropertyOp19
 70
     1
102
RTVSPropertyOp20
 70
     1
102
RTVSPropertyOp21
 70
     1
102
RTVSPropertyOp22
 70
     1
102
RTVSPropertyOp23
 70
     1
102
RTVSPropertyOp24
 70
     1
102
RTVSPropertyOp25
 70
     1
102
RTVSPropertyOp26
 70
     1
102
RTVSPropertyOp27
 70
     1
102
RTVSPropertyOp28
 70
     1
102
RTVSPropertyOp29
 70
     1
102
RTVSPropertyOp30
 70
     1
102
RTVSPropertyOp31
 70
     1
102
RTVSPropertyOp32
 70
     1
  0
XRECORD
  5
9D47
102
{ACAD_REACTORS
330
9D46
102
}
330
9D46
100
AcDbXrecord
280
     1
102
RTVSPropertyOp0
 70
     1
102
RTVSPropertyOp1
 70
     1
102
RTVSPropertyOp2
 70
     1
102
RTVSPropertyOp3
 70
     1
102
RTVSPropertyOp4
 70
     1
102
RTVSPropertyOp5
 70
     1
102
RTVSPropertyOp6
 70
     1
102
RTVSPropertyOp7
 70
     1
102
RTVSPropertyOp8
 70
     1
102
RTVSPropertyOp9
 70
     1
102
RTVSPropertyOp10
 70
     1
102
RTVSPropertyOp11
 70
     1
102
RTVSPropertyOp12
 70
     1
102
RTVSPropertyOp13
 70
     1
102
RTVSPropertyOp14
 70
     1
102
RTVSPropertyOp15
 70
     1
102
RTVSPropertyOp16
 70
     1
102
RTVSPropertyOp17
 70
     1
102
RTVSPropertyOp18
 70
     1
102
RTVSPropertyOp19
 70
     1
102
RTVSPropertyOp20
 70
     1
102
RTVSPropertyOp21
 70
     1
102
RTVSPropertyOp22
 70
     1
102
RTVSPropertyOp23
 70
     1
102
RTVSPropertyOp24
 70
     1
102
RTVSPropertyOp25
 70
     1
102
RTVSPropertyOp26
 70
     1
102
RTVSPropertyOp27
 70
     1
102
RTVSPropertyOp28
 70
     1
102
RTVSPropertyOp29
 70
     1
102
RTVSPropertyOp30
 70
     1
102
RTVSPropertyOp31
 70
     1
102
RTVSPropertyOp32
 70
     1
  0
XRECORD
  5
9D45
102
{ACAD_REACTORS
330
9D44
102
}
330
9D44
100
AcDbXrecord
280
     1
102
RTVSPropertyOp0
 70
     1
102
RTVSPropertyOp1
 70
     1
102
RTVSPropertyOp2
 70
     1
102
RTVSPropertyOp3
 70
     1
102
RTVSPropertyOp4
 70
     1
102
RTVSPropertyOp5
 70
     1
102
RTVSPropertyOp6
 70
     1
102
RTVSPropertyOp7
 70
     1
102
RTVSPropertyOp8
 70
     1
102
RTVSPropertyOp9
 70
     1
102
RTVSPropertyOp10
 70
     1
102
RTVSPropertyOp11
 70
     1
102
RTVSPropertyOp12
 70
     1
102
RTVSPropertyOp13
 70
     1
102
RTVSPropertyOp14
 70
     1
102
RTVSPropertyOp15
 70
     1
102
RTVSPropertyOp16
 70
     1
102
RTVSPropertyOp17
 70
     1
102
RTVSPropertyOp18
 70
     1
102
RTVSPropertyOp19
 70
     1
102
RTVSPropertyOp20
 70
     1
102
RTVSPropertyOp21
 70
     1
102
RTVSPropertyOp22
 70
     1
102
RTVSPropertyOp23
 70
     1
102
RTVSPropertyOp24
 70
     1
102
RTVSPropertyOp25
 70
     1
102
RTVSPropertyOp26
 70
     1
102
RTVSPropertyOp27
 70
     1
102
RTVSPropertyOp28
 70
     1
102
RTVSPropertyOp29
 70
     1
102
RTVSPropertyOp30
 70
     1
102
RTVSPropertyOp31
 70
     1
102
RTVSPropertyOp32
 70
     1
  0
XRECORD
  5
9D41
102
{ACAD_REACTORS
330
9D40
102
}
330
9D40
100
AcDbXrecord
280
     1
102
RTVSPropertyOp0
 70
     1
102
RTVSPropertyOp1
 70
     1
102
RTVSPropertyOp2
 70
     1
102
RTVSPropertyOp3
 70
     1
102
RTVSPropertyOp4
 70
     1
102
RTVSPropertyOp5
 70
     1
102
RTVSPropertyOp6
 70
     1
102
RTVSPropertyOp7
 70
     1
102
RTVSPropertyOp8
 70
     1
102
RTVSPropertyOp9
 70
     1
102
RTVSPropertyOp10
 70
     1
102
RTVSPropertyOp11
 70
     1
102
RTVSPropertyOp12
 70
     1
102
RTVSPropertyOp13
 70
     1
102
RTVSPropertyOp14
 70
     1
102
RTVSPropertyOp15
 70
     1
102
RTVSPropertyOp16
 70
     1
102
RTVSPropertyOp17
 70
     1
102
RTVSPropertyOp18
 70
     1
102
RTVSPropertyOp19
 70
     1
102
RTVSPropertyOp20
 70
     1
102
RTVSPropertyOp21
 70
     1
102
RTVSPropertyOp22
 70
     1
102
RTVSPropertyOp23
 70
     1
102
RTVSPropertyOp24
 70
     1
102
RTVSPropertyOp25
 70
     1
102
RTVSPropertyOp26
 70
     1
102
RTVSPropertyOp27
 70
     1
102
RTVSPropertyOp28
 70
     1
102
RTVSPropertyOp29
 70
     1
102
RTVSPropertyOp30
 70
     1
102
RTVSPropertyOp31
 70
     1
102
RTVSPropertyOp32
 70
     1
  0
XRECORD
  5
9D4F
102
{ACAD_REACTORS
330
9D4E
102
}
330
9D4E
100
AcDbXrecord
280
     1
102
RTVSPropertyOp0
 70
     1
102
RTVSPropertyOp1
 70
     1
102
RTVSPropertyOp2
 70
     1
102
RTVSPropertyOp3
 70
     1
102
RTVSPropertyOp4
 70
     1
102
RTVSPropertyOp5
 70
     1
102
RTVSPropertyOp6
 70
     1
102
RTVSPropertyOp7
 70
     1
102
RTVSPropertyOp8
 70
     1
102
RTVSPropertyOp9
 70
     1
102
RTVSPropertyOp10
 70
     1
102
RTVSPropertyOp11
 70
     1
102
RTVSPropertyOp12
 70
     1
102
RTVSPropertyOp13
 70
     1
102
RTVSPropertyOp14
 70
     1
102
RTVSPropertyOp15
 70
     1
102
RTVSPropertyOp16
 70
     1
102
RTVSPropertyOp17
 70
     1
102
RTVSPropertyOp18
 70
     1
102
RTVSPropertyOp19
 70
     1
102
RTVSPropertyOp20
 70
     1
102
RTVSPropertyOp21
 70
     1
102
RTVSPropertyOp22
 70
     1
102
RTVSPropertyOp23
 70
     1
102
RTVSPropertyOp24
 70
     1
102
RTVSPropertyOp25
 70
     1
102
RTVSPropertyOp26
 70
     1
102
RTVSPropertyOp27
 70
     1
102
RTVSPropertyOp28
 70
     1
102
RTVSPropertyOp29
 70
     1
102
RTVSPropertyOp30
 70
     1
102
RTVSPropertyOp31
 70
     1
102
RTVSPropertyOp32
 70
     1
  0
XRECORD
  5
9D57
102
{ACAD_REACTORS
330
9D56
102
}
330
9D56
100
AcDbXrecord
280
     1
102
RTVSPropertyOp0
 70
     1
102
RTVSPropertyOp1
 70
     1
102
RTVSPropertyOp2
 70
     1
102
RTVSPropertyOp3
 70
     1
102
RTVSPropertyOp4
 70
     1
102
RTVSPropertyOp5
 70
     1
102
RTVSPropertyOp6
 70
     1
102
RTVSPropertyOp7
 70
     1
102
RTVSPropertyOp8
 70
     1
102
RTVSPropertyOp9
 70
     1
102
RTVSPropertyOp10
 70
     1
102
RTVSPropertyOp11
 70
     1
102
RTVSPropertyOp12
 70
     1
102
RTVSPropertyOp13
 70
     1
102
RTVSPropertyOp14
 70
     1
102
RTVSPropertyOp15
 70
     1
102
RTVSPropertyOp16
 70
     1
102
RTVSPropertyOp17
 70
     1
102
RTVSPropertyOp18
 70
     1
102
RTVSPropertyOp19
 70
     1
102
RTVSPropertyOp20
 70
     1
102
RTVSPropertyOp21
 70
     1
102
RTVSPropertyOp22
 70
     1
102
RTVSPropertyOp23
 70
     1
102
RTVSPropertyOp24
 70
     1
102
RTVSPropertyOp25
 70
     1
102
RTVSPropertyOp26
 70
     1
102
RTVSPropertyOp27
 70
     1
102
RTVSPropertyOp28
 70
     1
102
RTVSPropertyOp29
 70
     1
102
RTVSPropertyOp30
 70
     1
102
RTVSPropertyOp31
 70
     1
102
RTVSPropertyOp32
 70
     1
  0
XRECORD
  5
9D49
102
{ACAD_REACTORS
330
9D48
102
}
330
9D48
100
AcDbXrecord
280
     1
102
RTVSPropertyOp0
 70
     1
102
RTVSPropertyOp1
 70
     1
102
RTVSPropertyOp2
 70
     1
102
RTVSPropertyOp3
 70
     1
102
RTVSPropertyOp4
 70
     1
102
RTVSPropertyOp5
 70
     1
102
RTVSPropertyOp6
 70
     1
102
RTVSPropertyOp7
 70
     1
102
RTVSPropertyOp8
 70
     1
102
RTVSPropertyOp9
 70
     1
102
RTVSPropertyOp10
 70
     1
102
RTVSPropertyOp11
 70
     1
102
RTVSPropertyOp12
 70
     1
102
RTVSPropertyOp13
 70
     1
102
RTVSPropertyOp14
 70
     1
102
RTVSPropertyOp15
 70
     1
102
RTVSPropertyOp16
 70
     1
102
RTVSPropertyOp17
 70
     1
102
RTVSPropertyOp18
 70
     1
102
RTVSPropertyOp19
 70
     1
102
RTVSPropertyOp20
 70
     1
102
RTVSPropertyOp21
 70
     1
102
RTVSPropertyOp22
 70
     1
102
RTVSPropertyOp23
 70
     1
102
RTVSPropertyOp24
 70
     1
102
RTVSPropertyOp25
 70
     1
102
RTVSPropertyOp26
 70
     1
102
RTVSPropertyOp27
 70
     1
102
RTVSPropertyOp28
 70
     1
102
RTVSPropertyOp29
 70
     1
102
RTVSPropertyOp30
 70
     1
102
RTVSPropertyOp31
 70
     1
102
RTVSPropertyOp32
 70
     1
  0
XRECORD
  5
9D4D
102
{ACAD_REACTORS
330
9D4C
102
}
330
9D4C
100
AcDbXrecord
280
     1
102
RTVSPropertyOp0
 70
     1
102
RTVSPropertyOp1
 70
     1
102
RTVSPropertyOp2
 70
     1
102
RTVSPropertyOp3
 70
     1
102
RTVSPropertyOp4
 70
     1
102
RTVSPropertyOp5
 70
     1
102
RTVSPropertyOp6
 70
     1
102
RTVSPropertyOp7
 70
     1
102
RTVSPropertyOp8
 70
     1
102
RTVSPropertyOp9
 70
     1
102
RTVSPropertyOp10
 70
     1
102
RTVSPropertyOp11
 70
     1
102
RTVSPropertyOp12
 70
     1
102
RTVSPropertyOp13
 70
     1
102
RTVSPropertyOp14
 70
     1
102
RTVSPropertyOp15
 70
     1
102
RTVSPropertyOp16
 70
     1
102
RTVSPropertyOp17
 70
     1
102
RTVSPropertyOp18
 70
     1
102
RTVSPropertyOp19
 70
     1
102
RTVSPropertyOp20
 70
     1
102
RTVSPropertyOp21
 70
     1
102
RTVSPropertyOp22
 70
     1
102
RTVSPropertyOp23
 70
     1
102
RTVSPropertyOp24
 70
     1
102
RTVSPropertyOp25
 70
     1
102
RTVSPropertyOp26
 70
     1
102
RTVSPropertyOp27
 70
     1
102
RTVSPropertyOp28
 70
     1
102
RTVSPropertyOp29
 70
     1
102
RTVSPropertyOp30
 70
     1
102
RTVSPropertyOp31
 70
     1
102
RTVSPropertyOp32
 70
     1
  0
XRECORD
  5
9D6B
102
{ACAD_REACTORS
330
9D6A
102
}
330
9D6A
100
AcDbXrecord
280
     1
102
RTVSPropertyOp0
 70
     0
102
RTVSPropertyOp1
 70
     0
102
RTVSPropertyOp2
 70
     0
102
RTVSPropertyOp3
 70
     0
102
RTVSPropertyOp4
 70
     0
102
RTVSPropertyOp5
 70
     0
102
RTVSPropertyOp6
 70
     0
102
RTVSPropertyOp7
 70
     0
102
RTVSPropertyOp8
 70
     0
102
RTVSPropertyOp9
 70
     0
102
RTVSPropertyOp10
 70
     0
102
RTVSPropertyOp11
 70
     0
102
RTVSPropertyOp12
 70
     0
102
RTVSPropertyOp13
 70
     0
102
RTVSPropertyOp14
 70
     2
102
RTVSPropertyOp15
 70
     0
102
RTVSPropertyOp16
 70
     0
102
RTVSPropertyOp17
 70
     0
102
RTVSPropertyOp18
 70
     0
102
RTVSPropertyOp19
 70
     0
102
RTVSPropertyOp20
 70
     0
102
RTVSPropertyOp21
 70
     0
102
RTVSPropertyOp22
 70
     0
102
RTVSPropertyOp23
 70
     0
102
RTVSPropertyOp24
 70
     0
102
RTVSPropertyOp25
 70
     0
102
RTVSPropertyOp26
 70
     0
102
RTVSPropertyOp27
 70
     0
102
RTVSPropertyOp28
 70
     0
102
RTVSPropertyOp29
 70
     0
102
RTVSPropertyOp30
 70
     0
102
RTVSPropertyOp31
 70
     0
102
RTVSPropertyOp32
 70
     0
  0
XRECORD
  5
9D55
102
{ACAD_REACTORS
330
9D54
102
}
330
9D54
100
AcDbXrecord
280
     1
102
RTVSPropertyOp0
 70
     1
102
RTVSPropertyOp1
 70
     1
102
RTVSPropertyOp2
 70
     1
102
RTVSPropertyOp3
 70
     1
102
RTVSPropertyOp4
 70
     1
102
RTVSPropertyOp5
 70
     1
102
RTVSPropertyOp6
 70
     1
102
RTVSPropertyOp7
 70
     1
102
RTVSPropertyOp8
 70
     1
102
RTVSPropertyOp9
 70
     1
102
RTVSPropertyOp10
 70
     1
102
RTVSPropertyOp11
 70
     1
102
RTVSPropertyOp12
 70
     1
102
RTVSPropertyOp13
 70
     1
102
RTVSPropertyOp14
 70
     1
102
RTVSPropertyOp15
 70
     1
102
RTVSPropertyOp16
 70
     1
102
RTVSPropertyOp17
 70
     1
102
RTVSPropertyOp18
 70
     1
102
RTVSPropertyOp19
 70
     1
102
RTVSPropertyOp20
 70
     1
102
RTVSPropertyOp21
 70
     1
102
RTVSPropertyOp22
 70
     1
102
RTVSPropertyOp23
 70
     1
102
RTVSPropertyOp24
 70
     1
102
RTVSPropertyOp25
 70
     1
102
RTVSPropertyOp26
 70
     1
102
RTVSPropertyOp27
 70
     1
102
RTVSPropertyOp28
 70
     1
102
RTVSPropertyOp29
 70
     1
102
RTVSPropertyOp30
 70
     1
102
RTVSPropertyOp31
 70
     1
102
RTVSPropertyOp32
 70
     1
  0
XRECORD
  5
9D39
102
{ACAD_REACTORS
330
9D38
102
}
330
9D38
100
AcDbXrecord
280
     1
102
RTVSPropertyOp0
 70
     1
102
RTVSPropertyOp1
 70
     1
102
RTVSPropertyOp2
 70
     1
102
RTVSPropertyOp3
 70
     1
102
RTVSPropertyOp4
 70
     1
102
RTVSPropertyOp5
 70
     1
102
RTVSPropertyOp6
 70
     1
102
RTVSPropertyOp7
 70
     1
102
RTVSPropertyOp8
 70
     1
102
RTVSPropertyOp9
 70
     1
102
RTVSPropertyOp10
 70
     1
102
RTVSPropertyOp11
 70
     1
102
RTVSPropertyOp12
 70
     1
102
RTVSPropertyOp13
 70
     1
102
RTVSPropertyOp14
 70
     1
102
RTVSPropertyOp15
 70
     1
102
RTVSPropertyOp16
 70
     1
102
RTVSPropertyOp17
 70
     1
102
RTVSPropertyOp18
 70
     1
102
RTVSPropertyOp19
 70
     1
102
RTVSPropertyOp20
 70
     1
102
RTVSPropertyOp21
 70
     1
102
RTVSPropertyOp22
 70
     1
102
RTVSPropertyOp23
 70
     1
102
RTVSPropertyOp24
 70
     1
102
RTVSPropertyOp25
 70
     1
102
RTVSPropertyOp26
 70
     1
102
RTVSPropertyOp27
 70
     1
102
RTVSPropertyOp28
 70
     1
102
RTVSPropertyOp29
 70
     1
102
RTVSPropertyOp30
 70
     1
102
RTVSPropertyOp31
 70
     1
102
RTVSPropertyOp32
 70
     1
  0
XRECORD
  5
9D3B
102
{ACAD_REACTORS
330
9D3A
102
}
330
9D3A
100
AcDbXrecord
280
     1
102
RTVSPropertyOp0
 70
     1
102
RTVSPropertyOp1
 70
     1
102
RTVSPropertyOp2
 70
     1
102
RTVSPropertyOp3
 70
     1
102
RTVSPropertyOp4
 70
     1
102
RTVSPropertyOp5
 70
     1
102
RTVSPropertyOp6
 70
     1
102
RTVSPropertyOp7
 70
     1
102
RTVSPropertyOp8
 70
     1
102
RTVSPropertyOp9
 70
     1
102
RTVSPropertyOp10
 70
     1
102
RTVSPropertyOp11
 70
     1
102
RTVSPropertyOp12
 70
     1
102
RTVSPropertyOp13
 70
     1
102
RTVSPropertyOp14
 70
     1
102
RTVSPropertyOp15
 70
     1
102
RTVSPropertyOp16
 70
     1
102
RTVSPropertyOp17
 70
     1
102
RTVSPropertyOp18
 70
     1
102
RTVSPropertyOp19
 70
     1
102
RTVSPropertyOp20
 70
     1
102
RTVSPropertyOp21
 70
     1
102
RTVSPropertyOp22
 70
     1
102
RTVSPropertyOp23
 70
     1
102
RTVSPropertyOp24
 70
     1
102
RTVSPropertyOp25
 70
     1
102
RTVSPropertyOp26
 70
     1
102
RTVSPropertyOp27
 70
     1
102
RTVSPropertyOp28
 70
     1
102
RTVSPropertyOp29
 70
     1
102
RTVSPropertyOp30
 70
     1
102
RTVSPropertyOp31
 70
     1
102
RTVSPropertyOp32
 70
     1
  0
XRECORD
  5
9D3D
102
{ACAD_REACTORS
330
9D3C
102
}
330
9D3C
100
AcDbXrecord
280
     1
102
RTVSPropertyOp0
 70
     1
102
RTVSPropertyOp1
 70
     1
102
RTVSPropertyOp2
 70
     1
102
RTVSPropertyOp3
 70
     1
102
RTVSPropertyOp4
 70
     1
102
RTVSPropertyOp5
 70
     1
102
RTVSPropertyOp6
 70
     1
102
RTVSPropertyOp7
 70
     1
102
RTVSPropertyOp8
 70
     1
102
RTVSPropertyOp9
 70
     1
102
RTVSPropertyOp10
 70
     1
102
RTVSPropertyOp11
 70
     1
102
RTVSPropertyOp12
 70
     1
102
RTVSPropertyOp13
 70
     1
102
RTVSPropertyOp14
 70
     1
102
RTVSPropertyOp15
 70
     1
102
RTVSPropertyOp16
 70
     1
102
RTVSPropertyOp17
 70
     1
102
RTVSPropertyOp18
 70
     1
102
RTVSPropertyOp19
 70
     1
102
RTVSPropertyOp20
 70
     1
102
RTVSPropertyOp21
 70
     1
102
RTVSPropertyOp22
 70
     1
102
RTVSPropertyOp23
 70
     1
102
RTVSPropertyOp24
 70
     1
102
RTVSPropertyOp25
 70
     1
102
RTVSPropertyOp26
 70
     1
102
RTVSPropertyOp27
 70
     1
102
RTVSPropertyOp28
 70
     1
102
RTVSPropertyOp29
 70
     1
102
RTVSPropertyOp30
 70
     1
102
RTVSPropertyOp31
 70
     1
102
RTVSPropertyOp32
 70
     1
  0
XRECORD
  5
9D3F
102
{ACAD_REACTORS
330
9D3E
102
}
330
9D3E
100
AcDbXrecord
280
     1
102
RTVSPropertyOp0
 70
     1
102
RTVSPropertyOp1
 70
     1
102
RTVSPropertyOp2
 70
     1
102
RTVSPropertyOp3
 70
     1
102
RTVSPropertyOp4
 70
     1
102
RTVSPropertyOp5
 70
     1
102
RTVSPropertyOp6
 70
     1
102
RTVSPropertyOp7
 70
     1
102
RTVSPropertyOp8
 70
     1
102
RTVSPropertyOp9
 70
     1
102
RTVSPropertyOp10
 70
     1
102
RTVSPropertyOp11
 70
     1
102
RTVSPropertyOp12
 70
     1
102
RTVSPropertyOp13
 70
     1
102
RTVSPropertyOp14
 70
     1
102
RTVSPropertyOp15
 70
     1
102
RTVSPropertyOp16
 70
     1
102
RTVSPropertyOp17
 70
     1
102
RTVSPropertyOp18
 70
     1
102
RTVSPropertyOp19
 70
     1
102
RTVSPropertyOp20
 70
     1
102
RTVSPropertyOp21
 70
     1
102
RTVSPropertyOp22
 70
     1
102
RTVSPropertyOp23
 70
     1
102
RTVSPropertyOp24
 70
     1
102
RTVSPropertyOp25
 70
     1
102
RTVSPropertyOp26
 70
     1
102
RTVSPropertyOp27
 70
     1
102
RTVSPropertyOp28
 70
     1
102
RTVSPropertyOp29
 70
     1
102
RTVSPropertyOp30
 70
     1
102
RTVSPropertyOp31
 70
     1
102
RTVSPropertyOp32
 70
     1
  0
XRECORD
  5
9D5B
102
{ACAD_REACTORS
330
9D5A
102
}
330
9D5A
100
AcDbXrecord
280
     1
102
RTVSPropertyOp0
 70
     1
102
RTVSPropertyOp1
 70
     1
102
RTVSPropertyOp2
 70
     1
102
RTVSPropertyOp3
 70
     1
102
RTVSPropertyOp4
 70
     1
102
RTVSPropertyOp5
 70
     1
102
RTVSPropertyOp6
 70
     1
102
RTVSPropertyOp7
 70
     1
102
RTVSPropertyOp8
 70
     1
102
RTVSPropertyOp9
 70
     1
102
RTVSPropertyOp10
 70
     1
102
RTVSPropertyOp11
 70
     1
102
RTVSPropertyOp12
 70
     1
102
RTVSPropertyOp13
 70
     1
102
RTVSPropertyOp14
 70
     1
102
RTVSPropertyOp15
 70
     1
102
RTVSPropertyOp16
 70
     1
102
RTVSPropertyOp17
 70
     1
102
RTVSPropertyOp18
 70
     1
102
RTVSPropertyOp19
 70
     1
102
RTVSPropertyOp20
 70
     1
102
RTVSPropertyOp21
 70
     1
102
RTVSPropertyOp22
 70
     1
102
RTVSPropertyOp23
 70
     1
102
RTVSPropertyOp24
 70
     1
102
RTVSPropertyOp25
 70
     1
102
RTVSPropertyOp26
 70
     1
102
RTVSPropertyOp27
 70
     1
102
RTVSPropertyOp28
 70
     1
102
RTVSPropertyOp29
 70
     1
102
RTVSPropertyOp30
 70
     1
102
RTVSPropertyOp31
 70
     1
102
RTVSPropertyOp32
 70
     1
  0
XRECORD
  5
9D67
102
{ACAD_REACTORS
330
9D66
102
}
330
9D66
100
AcDbXrecord
280
     1
102
RTVSPropertyOp0
 70
     0
102
RTVSPropertyOp1
 70
     0
102
RTVSPropertyOp2
 70
     0
102
RTVSPropertyOp3
 70
     0
102
RTVSPropertyOp4
 70
     0
102
RTVSPropertyOp5
 70
     0
102
RTVSPropertyOp6
 70
     0
102
RTVSPropertyOp7
 70
     0
102
RTVSPropertyOp8
 70
     0
102
RTVSPropertyOp9
 70
     0
102
RTVSPropertyOp10
 70
     0
102
RTVSPropertyOp11
 70
     0
102
RTVSPropertyOp12
 70
     0
102
RTVSPropertyOp13
 70
     0
102
RTVSPropertyOp14
 70
     2
102
RTVSPropertyOp15
 70
     0
102
RTVSPropertyOp16
 70
     0
102
RTVSPropertyOp17
 70
     0
102
RTVSPropertyOp18
 70
     0
102
RTVSPropertyOp19
 70
     0
102
RTVSPropertyOp20
 70
     0
102
RTVSPropertyOp21
 70
     0
102
RTVSPropertyOp22
 70
     0
102
RTVSPropertyOp23
 70
     0
102
RTVSPropertyOp24
 70
     0
102
RTVSPropertyOp25
 70
     0
102
RTVSPropertyOp26
 70
     0
102
RTVSPropertyOp27
 70
     0
102
RTVSPropertyOp28
 70
     0
102
RTVSPropertyOp29
 70
     0
102
RTVSPropertyOp30
 70
     0
102
RTVSPropertyOp31
 70
     0
102
RTVSPropertyOp32
 70
     0
  0
XRECORD
  5
9D53
102
{ACAD_REACTORS
330
9D52
102
}
330
9D52
100
AcDbXrecord
280
     1
102
RTVSPropertyOp0
 70
     1
102
RTVSPropertyOp1
 70
     1
102
RTVSPropertyOp2
 70
     1
102
RTVSPropertyOp3
 70
     1
102
RTVSPropertyOp4
 70
     1
102
RTVSPropertyOp5
 70
     1
102
RTVSPropertyOp6
 70
     1
102
RTVSPropertyOp7
 70
     1
102
RTVSPropertyOp8
 70
     1
102
RTVSPropertyOp9
 70
     1
102
RTVSPropertyOp10
 70
     1
102
RTVSPropertyOp11
 70
     1
102
RTVSPropertyOp12
 70
     1
102
RTVSPropertyOp13
 70
     1
102
RTVSPropertyOp14
 70
     1
102
RTVSPropertyOp15
 70
     1
102
RTVSPropertyOp16
 70
     1
102
RTVSPropertyOp17
 70
     1
102
RTVSPropertyOp18
 70
     1
102
RTVSPropertyOp19
 70
     1
102
RTVSPropertyOp20
 70
     1
102
RTVSPropertyOp21
 70
     1
102
RTVSPropertyOp22
 70
     1
102
RTVSPropertyOp23
 70
     1
102
RTVSPropertyOp24
 70
     1
102
RTVSPropertyOp25
 70
     1
102
RTVSPropertyOp26
 70
     1
102
RTVSPropertyOp27
 70
     1
102
RTVSPropertyOp28
 70
     1
102
RTVSPropertyOp29
 70
     1
102
RTVSPropertyOp30
 70
     1
102
RTVSPropertyOp31
 70
     1
102
RTVSPropertyOp32
 70
     1
  0
XRECORD
  5
9D69
102
{ACAD_REACTORS
330
9D68
102
}
330
9D68
100
AcDbXrecord
280
     1
102
RTVSPropertyOp0
 70
     0
102
RTVSPropertyOp1
 70
     0
102
RTVSPropertyOp2
 70
     0
102
RTVSPropertyOp3
 70
     0
102
RTVSPropertyOp4
 70
     0
102
RTVSPropertyOp5
 70
     0
102
RTVSPropertyOp6
 70
     0
102
RTVSPropertyOp7
 70
     0
102
RTVSPropertyOp8
 70
     0
102
RTVSPropertyOp9
 70
     0
102
RTVSPropertyOp10
 70
     0
102
RTVSPropertyOp11
 70
     0
102
RTVSPropertyOp12
 70
     0
102
RTVSPropertyOp13
 70
     0
102
RTVSPropertyOp14
 70
     2
102
RTVSPropertyOp15
 70
     0
102
RTVSPropertyOp16
 70
     0
102
RTVSPropertyOp17
 70
     0
102
RTVSPropertyOp18
 70
     0
102
RTVSPropertyOp19
 70
     0
102
RTVSPropertyOp20
 70
     0
102
RTVSPropertyOp21
 70
     0
102
RTVSPropertyOp22
 70
     0
102
RTVSPropertyOp23
 70
     0
102
RTVSPropertyOp24
 70
     0
102
RTVSPropertyOp25
 70
     0
102
RTVSPropertyOp26
 70
     0
102
RTVSPropertyOp27
 70
     0
102
RTVSPropertyOp28
 70
     0
102
RTVSPropertyOp29
 70
     0
102
RTVSPropertyOp30
 70
     0
102
RTVSPropertyOp31
 70
     0
102
RTVSPropertyOp32
 70
     0
  0
XRECORD
  5
9D4B
102
{ACAD_REACTORS
330
9D4A
102
}
330
9D4A
100
AcDbXrecord
280
     1
102
RTVSPropertyOp0
 70
     1
102
RTVSPropertyOp1
 70
     1
102
RTVSPropertyOp2
 70
     1
102
RTVSPropertyOp3
 70
     1
102
RTVSPropertyOp4
 70
     1
102
RTVSPropertyOp5
 70
     1
102
RTVSPropertyOp6
 70
     1
102
RTVSPropertyOp7
 70
     1
102
RTVSPropertyOp8
 70
     1
102
RTVSPropertyOp9
 70
     1
102
RTVSPropertyOp10
 70
     1
102
RTVSPropertyOp11
 70
     1
102
RTVSPropertyOp12
 70
     1
102
RTVSPropertyOp13
 70
     1
102
RTVSPropertyOp14
 70
     1
102
RTVSPropertyOp15
 70
     1
102
RTVSPropertyOp16
 70
     1
102
RTVSPropertyOp17
 70
     1
102
RTVSPropertyOp18
 70
     1
102
RTVSPropertyOp19
 70
     1
102
RTVSPropertyOp20
 70
     1
102
RTVSPropertyOp21
 70
     1
102
RTVSPropertyOp22
 70
     1
102
RTVSPropertyOp23
 70
     1
102
RTVSPropertyOp24
 70
     1
102
RTVSPropertyOp25
 70
     1
102
RTVSPropertyOp26
 70
     1
102
RTVSPropertyOp27
 70
     1
102
RTVSPropertyOp28
 70
     1
102
RTVSPropertyOp29
 70
     1
102
RTVSPropertyOp30
 70
     1
102
RTVSPropertyOp31
 70
     1
102
RTVSPropertyOp32
 70
     1
  0
XRECORD
  5
9D65
102
{ACAD_REACTORS
330
9D64
102
}
330
9D64
100
AcDbXrecord
280
     1
102
RTVSPropertyOp0
 70
     1
102
RTVSPropertyOp1
 70
     1
102
RTVSPropertyOp2
 70
     1
102
RTVSPropertyOp3
 70
     1
102
RTVSPropertyOp4
 70
     1
102
RTVSPropertyOp5
 70
     1
102
RTVSPropertyOp6
 70
     1
102
RTVSPropertyOp7
 70
     1
102
RTVSPropertyOp8
 70
     1
102
RTVSPropertyOp9
 70
     1
102
RTVSPropertyOp10
 70
     1
102
RTVSPropertyOp11
 70
     1
102
RTVSPropertyOp12
 70
     1
102
RTVSPropertyOp13
 70
     1
102
RTVSPropertyOp14
 70
     1
102
RTVSPropertyOp15
 70
     1
102
RTVSPropertyOp16
 70
     1
102
RTVSPropertyOp17
 70
     1
102
RTVSPropertyOp18
 70
     1
102
RTVSPropertyOp19
 70
     1
102
RTVSPropertyOp20
 70
     1
102
RTVSPropertyOp21
 70
     1
102
RTVSPropertyOp22
 70
     1
102
RTVSPropertyOp23
 70
     1
102
RTVSPropertyOp24
 70
     1
102
RTVSPropertyOp25
 70
     1
102
RTVSPropertyOp26
 70
     1
102
RTVSPropertyOp27
 70
     1
102
RTVSPropertyOp28
 70
     1
102
RTVSPropertyOp29
 70
     1
102
RTVSPropertyOp30
 70
     1
102
RTVSPropertyOp31
 70
     1
102
RTVSPropertyOp32
 70
     1
  0
XRECORD
  5
9D63
102
{ACAD_REACTORS
330
9D62
102
}
330
9D62
100
AcDbXrecord
280
     1
102
RTVSPropertyOp0
 70
     1
102
RTVSPropertyOp1
 70
     1
102
RTVSPropertyOp2
 70
     1
102
RTVSPropertyOp3
 70
     1
102
RTVSPropertyOp4
 70
     1
102
RTVSPropertyOp5
 70
     1
102
RTVSPropertyOp6
 70
     1
102
RTVSPropertyOp7
 70
     1
102
RTVSPropertyOp8
 70
     1
102
RTVSPropertyOp9
 70
     1
102
RTVSPropertyOp10
 70
     1
102
RTVSPropertyOp11
 70
     1
102
RTVSPropertyOp12
 70
     1
102
RTVSPropertyOp13
 70
     1
102
RTVSPropertyOp14
 70
     1
102
RTVSPropertyOp15
 70
     1
102
RTVSPropertyOp16
 70
     1
102
RTVSPropertyOp17
 70
     1
102
RTVSPropertyOp18
 70
     1
102
RTVSPropertyOp19
 70
     1
102
RTVSPropertyOp20
 70
     1
102
RTVSPropertyOp21
 70
     1
102
RTVSPropertyOp22
 70
     1
102
RTVSPropertyOp23
 70
     1
102
RTVSPropertyOp24
 70
     1
102
RTVSPropertyOp25
 70
     1
102
RTVSPropertyOp26
 70
     1
102
RTVSPropertyOp27
 70
     1
102
RTVSPropertyOp28
 70
     1
102
RTVSPropertyOp29
 70
     1
102
RTVSPropertyOp30
 70
     1
102
RTVSPropertyOp31
 70
     1
102
RTVSPropertyOp32
 70
     1
  0
XRECORD
  5
9D5D
102
{ACAD_REACTORS
330
9D5C
102
}
330
9D5C
100
AcDbXrecord
280
     1
102
RTVSPropertyOp0
 70
     1
102
RTVSPropertyOp1
 70
     1
102
RTVSPropertyOp2
 70
     1
102
RTVSPropertyOp3
 70
     1
102
RTVSPropertyOp4
 70
     1
102
RTVSPropertyOp5
 70
     1
102
RTVSPropertyOp6
 70
     1
102
RTVSPropertyOp7
 70
     1
102
RTVSPropertyOp8
 70
     1
102
RTVSPropertyOp9
 70
     1
102
RTVSPropertyOp10
 70
     1
102
RTVSPropertyOp11
 70
     1
102
RTVSPropertyOp12
 70
     1
102
RTVSPropertyOp13
 70
     1
102
RTVSPropertyOp14
 70
     1
102
RTVSPropertyOp15
 70
     1
102
RTVSPropertyOp16
 70
     1
102
RTVSPropertyOp17
 70
     1
102
RTVSPropertyOp18
 70
     1
102
RTVSPropertyOp19
 70
     1
102
RTVSPropertyOp20
 70
     1
102
RTVSPropertyOp21
 70
     1
102
RTVSPropertyOp22
 70
     1
102
RTVSPropertyOp23
 70
     1
102
RTVSPropertyOp24
 70
     1
102
RTVSPropertyOp25
 70
     1
102
RTVSPropertyOp26
 70
     1
102
RTVSPropertyOp27
 70
     1
102
RTVSPropertyOp28
 70
     1
102
RTVSPropertyOp29
 70
     1
102
RTVSPropertyOp30
 70
     1
102
RTVSPropertyOp31
 70
     1
102
RTVSPropertyOp32
 70
     1
  0
XRECORD
  5
9D5F
102
{ACAD_REACTORS
330
9D5E
102
}
330
9D5E
100
AcDbXrecord
280
     1
102
RTVSPropertyOp0
 70
     1
102
RTVSPropertyOp1
 70
     1
102
RTVSPropertyOp2
 70
     1
102
RTVSPropertyOp3
 70
     1
102
RTVSPropertyOp4
 70
     1
102
RTVSPropertyOp5
 70
     1
102
RTVSPropertyOp6
 70
     1
102
RTVSPropertyOp7
 70
     1
102
RTVSPropertyOp8
 70
     1
102
RTVSPropertyOp9
 70
     1
102
RTVSPropertyOp10
 70
     1
102
RTVSPropertyOp11
 70
     1
102
RTVSPropertyOp12
 70
     1
102
RTVSPropertyOp13
 70
     1
102
RTVSPropertyOp14
 70
     1
102
RTVSPropertyOp15
 70
     1
102
RTVSPropertyOp16
 70
     1
102
RTVSPropertyOp17
 70
     1
102
RTVSPropertyOp18
 70
     1
102
RTVSPropertyOp19
 70
     1
102
RTVSPropertyOp20
 70
     1
102
RTVSPropertyOp21
 70
     1
102
RTVSPropertyOp22
 70
     1
102
RTVSPropertyOp23
 70
     1
102
RTVSPropertyOp24
 70
     1
102
RTVSPropertyOp25
 70
     1
102
RTVSPropertyOp26
 70
     1
102
RTVSPropertyOp27
 70
     1
102
RTVSPropertyOp28
 70
     1
102
RTVSPropertyOp29
 70
     1
102
RTVSPropertyOp30
 70
     1
102
RTVSPropertyOp31
 70
     1
102
RTVSPropertyOp32
 70
     1
  0
XRECORD
  5
9D51
102
{ACAD_REACTORS
330
9D50
102
}
330
9D50
100
AcDbXrecord
280
     1
102
RTVSPropertyOp0
 70
     1
102
RTVSPropertyOp1
 70
     1
102
RTVSPropertyOp2
 70
     1
102
RTVSPropertyOp3
 70
     1
102
RTVSPropertyOp4
 70
     1
102
RTVSPropertyOp5
 70
     1
102
RTVSPropertyOp6
 70
     1
102
RTVSPropertyOp7
 70
     1
102
RTVSPropertyOp8
 70
     1
102
RTVSPropertyOp9
 70
     1
102
RTVSPropertyOp10
 70
     1
102
RTVSPropertyOp11
 70
     1
102
RTVSPropertyOp12
 70
     1
102
RTVSPropertyOp13
 70
     1
102
RTVSPropertyOp14
 70
     1
102
RTVSPropertyOp15
 70
     1
102
RTVSPropertyOp16
 70
     1
102
RTVSPropertyOp17
 70
     1
102
RTVSPropertyOp18
 70
     1
102
RTVSPropertyOp19
 70
     1
102
RTVSPropertyOp20
 70
     1
102
RTVSPropertyOp21
 70
     1
102
RTVSPropertyOp22
 70
     1
102
RTVSPropertyOp23
 70
     1
102
RTVSPropertyOp24
 70
     1
102
RTVSPropertyOp25
 70
     1
102
RTVSPropertyOp26
 70
     1
102
RTVSPropertyOp27
 70
     1
102
RTVSPropertyOp28
 70
     1
102
RTVSPropertyOp29
 70
     1
102
RTVSPropertyOp30
 70
     1
102
RTVSPropertyOp31
 70
     1
102
RTVSPropertyOp32
 70
     1
  0
XRECORD
  5
9D59
102
{ACAD_REACTORS
330
9D58
102
}
330
9D58
100
AcDbXrecord
280
     1
102
RTVSPropertyOp0
 70
     1
102
RTVSPropertyOp1
 70
     1
102
RTVSPropertyOp2
 70
     1
102
RTVSPropertyOp3
 70
     1
102
RTVSPropertyOp4
 70
     1
102
RTVSPropertyOp5
 70
     1
102
RTVSPropertyOp6
 70
     1
102
RTVSPropertyOp7
 70
     1
102
RTVSPropertyOp8
 70
     1
102
RTVSPropertyOp9
 70
     1
102
RTVSPropertyOp10
 70
     1
102
RTVSPropertyOp11
 70
     1
102
RTVSPropertyOp12
 70
     1
102
RTVSPropertyOp13
 70
     1
102
RTVSPropertyOp14
 70
     1
102
RTVSPropertyOp15
 70
     1
102
RTVSPropertyOp16
 70
     1
102
RTVSPropertyOp17
 70
     1
102
RTVSPropertyOp18
 70
     1
102
RTVSPropertyOp19
 70
     1
102
RTVSPropertyOp20
 70
     1
102
RTVSPropertyOp21
 70
     1
102
RTVSPropertyOp22
 70
     1
102
RTVSPropertyOp23
 70
     1
102
RTVSPropertyOp24
 70
     1
102
RTVSPropertyOp25
 70
     1
102
RTVSPropertyOp26
 70
     1
102
RTVSPropertyOp27
 70
     1
102
RTVSPropertyOp28
 70
     1
102
RTVSPropertyOp29
 70
     1
102
RTVSPropertyOp30
 70
     1
102
RTVSPropertyOp31
 70
     1
102
RTVSPropertyOp32
 70
     1
  0
XRECORD
  5
9D61
102
{ACAD_REACTORS
330
9D60
102
}
330
9D60
100
AcDbXrecord
280
     1
102
RTVSPropertyOp0
 70
     1
102
RTVSPropertyOp1
 70
     1
102
RTVSPropertyOp2
 70
     1
102
RTVSPropertyOp3
 70
     1
102
RTVSPropertyOp4
 70
     1
102
RTVSPropertyOp5
 70
     1
102
RTVSPropertyOp6
 70
     1
102
RTVSPropertyOp7
 70
     1
102
RTVSPropertyOp8
 70
     1
102
RTVSPropertyOp9
 70
     1
102
RTVSPropertyOp10
 70
     1
102
RTVSPropertyOp11
 70
     1
102
RTVSPropertyOp12
 70
     1
102
RTVSPropertyOp13
 70
     1
102
RTVSPropertyOp14
 70
     1
102
RTVSPropertyOp15
 70
     1
102
RTVSPropertyOp16
 70
     1
102
RTVSPropertyOp17
 70
     1
102
RTVSPropertyOp18
 70
     1
102
RTVSPropertyOp19
 70
     1
102
RTVSPropertyOp20
 70
     1
102
RTVSPropertyOp21
 70
     1
102
RTVSPropertyOp22
 70
     1
102
RTVSPropertyOp23
 70
     1
102
RTVSPropertyOp24
 70
     1
102
RTVSPropertyOp25
 70
     1
102
RTVSPropertyOp26
 70
     1
102
RTVSPropertyOp27
 70
     1
102
RTVSPropertyOp28
 70
     1
102
RTVSPropertyOp29
 70
     1
102
RTVSPropertyOp30
 70
     1
102
RTVSPropertyOp31
 70
     1
102
RTVSPropertyOp32
 70
     1
  0
ENDSEC
  0
EOF
