  0
SECTION
  2
HEADER
  9
$ACADVER
  1
AC1015
  9
$ACADMAINTVER
 70
    20
  9
$DWGCODEPAGE
  3
ANSI_949
  9
$INSBASE
 10
0.0
 20
0.0
 30
0.0
  9
$EXTMIN
 10
-0.0128164049386896
 20
-0.0090630292066862
 30
-0.0015258207003583
  9
$EXTMAX
 10
415.0140390580218
 20
110.2510991069151
 30
0.0000000349246037
  9
$LIMMIN
 10
0.0
 20
0.0
  9
$LIMMAX
 10
420.0
 20
297.0
  9
$ORTHOMODE
 70
     1
  9
$REGENMODE
 70
     1
  9
$FILLMODE
 70
     1
  9
$QTEXTMODE
 70
     0
  9
$MIRRTEXT
 70
     1
  9
$LTSCALE
 40
10.0
  9
$ATTMODE
 70
     1
  9
$TEXTSIZE
 40
3.0
  9
$TRACEWID
 40
0.05
  9
$TEXTSTYLE
  7
STANDARD
  9
$CLAYER
  8
0
  9
$CELTYPE
  6
BYLAYER
  9
$CECOLOR
 62
   256
  9
$CELTSCALE
 40
1.0
  9
$DISPSILH
 70
     0
  9
$DIMSCALE
 40
1.0
  9
$DIMASZ
 40
3.0
  9
$DIMEXO
 40
1.0
  9
$DIMDLI
 40
1.0
  9
$DIMRND
 40
0.0
  9
$DIMDLE
 40
0.0
  9
$DIMEXE
 40
1.0
  9
$DIMTP
 40
0.0
  9
$DIMTM
 40
0.0
  9
$DIMTXT
 40
3.0
  9
$DIMCEN
 40
-1.0
  9
$DIMTSZ
 40
0.0
  9
$DIMTOL
 70
     0
  9
$DIMLIM
 70
     0
  9
$DIMTIH
 70
     0
  9
$DIMTOH
 70
     0
  9
$DIMSE1
 70
     0
  9
$DIMSE2
 70
     0
  9
$DIMTAD
 70
     3
  9
$DIMZIN
 70
     8
  9
$DIMBLK
  1

  9
$DIMASO
 70
     1
  9
$DIMSHO
 70
     1
  9
$DIMPOST
  1

  9
$DIMAPOST
  1

  9
$DIMALT
 70
     0
  9
$DIMALTD
 70
     2
  9
$DIMALTF
 40
25.4
  9
$DIMLFAC
 40
1.0
  9
$DIMTOFL
 70
     1
  9
$DIMTVP
 40
0.0
  9
$DIMTIX
 70
     0
  9
$DIMSOXD
 70
     0
  9
$DIMSAH
 70
     0
  9
$DIMBLK1
  1

  9
$DIMBLK2
  1

  9
$DIMSTYLE
  2
STANDARD
  9
$DIMCLRD
 70
   115
  9
$DIMCLRE
 70
   115
  9
$DIMCLRT
 70
     7
  9
$DIMTFAC
 40
1.0
  9
$DIMGAP
 40
1.0
  9
$DIMJUST
 70
     0
  9
$DIMSD1
 70
     0
  9
$DIMSD2
 70
     0
  9
$DIMTOLJ
 70
     1
  9
$DIMTZIN
 70
     0
  9
$DIMALTZ
 70
     0
  9
$DIMALTTZ
 70
     0
  9
$DIMUPT
 70
     0
  9
$DIMDEC
 70
     2
  9
$DIMTDEC
 70
     2
  9
$DIMALTU
 70
     2
  9
$DIMALTTD
 70
     2
  9
$DIMTXSTY
  7
STANDARD
  9
$DIMAUNIT
 70
     0
  9
$DIMADEC
 70
     0
  9
$DIMALTRND
 40
0.0
  9
$DIMAZIN
 70
     0
  9
$DIMDSEP
 70
    46
  9
$DIMATFIT
 70
     3
  9
$DIMFRAC
 70
     0
  9
$DIMLDRBLK
  1

  9
$DIMLUNIT
 70
     2
  9
$DIMLWD
 70
    -2
  9
$DIMLWE
 70
    -2
  9
$DIMTMOVE
 70
     0
  9
$LUNITS
 70
     2
  9
$LUPREC
 70
     4
  9
$SKETCHINC
 40
0.1
  9
$FILLETRAD
 40
0.0
  9
$AUNITS
 70
     0
  9
$AUPREC
 70
     0
  9
$MENU
  1
.
  9
$ELEVATION
 40
0.0
  9
$PELEVATION
 40
0.0
  9
$THICKNESS
 40
0.0
  9
$LIMCHECK
 70
     0
  9
$CHAMFERA
 40
1.0
  9
$CHAMFERB
 40
1.0
  9
$CHAMFERC
 40
1.0
  9
$CHAMFERD
 40
0.0
  9
$SKPOLY
 70
     1
  9
$TDCREATE
 40
2452464.575009942
  9
$TDUCREATE
 40
2452464.200009942
  9
$TDUPDATE
 40
2456846.554462709
  9
$TDUUPDATE
 40
2456846.179462709
  9
$TDINDWG
 40
0.9294798380
  9
$TDUSRTIMER
 40
0.9294796296
  9
$USRTIMER
 70
     1
  9
$ANGBASE
 50
0.0
  9
$ANGDIR
 70
     0
  9
$PDMODE
 70
     0
  9
$PDSIZE
 40
0.0
  9
$PLINEWID
 40
0.5
  9
$SPLFRAME
 70
     0
  9
$SPLINETYPE
 70
     6
  9
$SPLINESEGS
 70
     8
  9
$HANDSEED
  5
61E2
  9
$SURFTAB1
 70
     6
  9
$SURFTAB2
 70
     6
  9
$SURFTYPE
 70
     6
  9
$SURFU
 70
     6
  9
$SURFV
 70
     6
  9
$UCSBASE
  2

  9
$UCSNAME
  2

  9
$UCSORG
 10
0.0
 20
0.0
 30
0.0
  9
$UCSXDIR
 10
1.0
 20
0.0
 30
0.0
  9
$UCSYDIR
 10
0.0
 20
1.0
 30
0.0
  9
$UCSORTHOREF
  2

  9
$UCSORTHOVIEW
 70
     0
  9
$UCSORGTOP
 10
0.0
 20
0.0
 30
0.0
  9
$UCSORGBOTTOM
 10
0.0
 20
0.0
 30
0.0
  9
$UCSORGLEFT
 10
0.0
 20
0.0
 30
0.0
  9
$UCSORGRIGHT
 10
0.0
 20
0.0
 30
0.0
  9
$UCSORGFRONT
 10
0.0
 20
0.0
 30
0.0
  9
$UCSORGBACK
 10
0.0
 20
0.0
 30
0.0
  9
$PUCSBASE
  2

  9
$PUCSNAME
  2

  9
$PUCSORG
 10
0.0
 20
0.0
 30
0.0
  9
$PUCSXDIR
 10
1.0
 20
0.0
 30
0.0
  9
$PUCSYDIR
 10
0.0
 20
1.0
 30
0.0
  9
$PUCSORTHOREF
  2

  9
$PUCSORTHOVIEW
 70
     0
  9
$PUCSORGTOP
 10
0.0
 20
0.0
 30
0.0
  9
$PUCSORGBOTTOM
 10
0.0
 20
0.0
 30
0.0
  9
$PUCSORGLEFT
 10
0.0
 20
0.0
 30
0.0
  9
$PUCSORGRIGHT
 10
0.0
 20
0.0
 30
0.0
  9
$PUCSORGFRONT
 10
0.0
 20
0.0
 30
0.0
  9
$PUCSORGBACK
 10
0.0
 20
0.0
 30
0.0
  9
$USERI1
 70
     0
  9
$USERI2
 70
   452
  9
$USERI3
 70
     1
  9
$USERI4
 70
     0
  9
$USERI5
 70
     0
  9
$USERR1
 40
0.0
  9
$USERR2
 40
0.0
  9
$USERR3
 40
0.0
  9
$USERR4
 40
0.0
  9
$USERR5
 40
0.0
  9
$WORLDVIEW
 70
     1
  9
$SHADEDGE
 70
     3
  9
$SHADEDIF
 70
    70
  9
$TILEMODE
 70
     1
  9
$MAXACTVP
 70
    48
  9
$PINSBASE
 10
0.0
 20
0.0
 30
0.0
  9
$PLIMCHECK
 70
     0
  9
$PEXTMIN
 10
1.000000000000000E+20
 20
1.000000000000000E+20
 30
1.000000000000000E+20
  9
$PEXTMAX
 10
-1.000000000000000E+20
 20
-1.000000000000000E+20
 30
-1.000000000000000E+20
  9
$PLIMMIN
 10
0.0
 20
0.0
  9
$PLIMMAX
 10
12.0
 20
9.0
  9
$UNITMODE
 70
     0
  9
$VISRETAIN
 70
     1
  9
$PLINEGEN
 70
     0
  9
$PSLTSCALE
 70
     1
  9
$TREEDEPTH
 70
  3020
  9
$CMLSTYLE
  2
STANDARD
  9
$CMLJUST
 70
     0
  9
$CMLSCALE
 40
1.0
  9
$PROXYGRAPHICS
 70
     1
  9
$MEASUREMENT
 70
     0
  9
$CELWEIGHT
370
    -1
  9
$ENDCAPS
280
     0
  9
$JOINSTYLE
280
     0
  9
$LWDISPLAY
290
     0
  9
$INSUNITS
 70
     0
  9
$HYPERLINKBASE
  1

  9
$STYLESHEET
  1
1.CTB
  9
$XEDIT
290
     1
  9
$CEPSNTYPE
380
     0
  9
$PSTYLEMODE
290
     1
  9
$FINGERPRINTGUID
  2
{3172CC46-24FC-4775-9257-50F4EA4939B8}
  9
$VERSIONGUID
  2
{267B6D4E-7D0B-4BDC-B617-A5EA12603D47}
  9
$EXTNAMES
290
     1
  9
$PSVPSCALE
 40
0.0
  9
$OLESTARTUP
290
     0
  0
ENDSEC
  0
SECTION
  2
CLASSES
  0
CLASS
  1
DICTIONARYVAR
  2
AcDbDictionaryVar
  3
ObjectDBX Classes
 90
        0
280
     0
281
     0
  0
CLASS
  1
ACDBDICTIONARYWDFLT
  2
AcDbDictionaryWithDefault
  3
ObjectDBX Classes
 90
        0
280
     0
281
     0
  0
CLASS
  1
TABLESTYLE
  2
AcDbTableStyle
  3
ObjectDBX Classes
 90
     4095
280
     0
281
     0
  0
CLASS
  1
SORTENTSTABLE
  2
AcDbSortentsTable
  3
ObjectDBX Classes
 90
        0
280
     0
281
     0
  0
CLASS
  1
MATERIAL
  2
AcDbMaterial
  3
ObjectDBX Classes
 90
     1153
280
     0
281
     0
  0
CLASS
  1
VISUALSTYLE
  2
AcDbVisualStyle
  3
ObjectDBX Classes
 90
     4095
280
     0
281
     0
  0
CLASS
  1
SCALE
  2
AcDbScale
  3
ObjectDBX Classes
 90
     1153
280
     0
281
     0
  0
CLASS
  1
MLEADERSTYLE
  2
AcDbMLeaderStyle
  3
ACDB_MLEADERSTYLE_CLASS
 90
     4095
280
     0
281
     0
  0
CLASS
  1
CELLSTYLEMAP
  2
AcDbCellStyleMap
  3
ObjectDBX Classes
 90
     1152
280
     0
281
     0
  0
CLASS
  1
ACDBPLACEHOLDER
  2
AcDbPlaceHolder
  3
ObjectDBX Classes
 90
        0
280
     0
281
     0
  0
CLASS
  1
LAYOUT
  2
AcDbLayout
  3
ObjectDBX Classes
 90
        0
280
     0
281
     0
  0
CLASS
  1
ACAD_EVALUATION_GRAPH
  2
AcDbEvalGraph
  3
ObjectDBX Classes
 90
     1153
280
     0
281
     0
  0
CLASS
  1
ACAECUSTOBJ
  2
AcAeEditorObj
  3
AcAeEditorObj
 90
     1024
280
     0
281
     0
  0
CLASS
  1
ACDB_DYNAMICBLOCKPURGEPREVENTER_VERSION
  2
AcDbDynamicBlockPurgePreventer
  3
ObjectDBX Classes
 90
     1153
280
     0
281
     0
  0
ENDSEC
  0
SECTION
  2
TABLES
  0
TABLE
  2
VPORT
  5
8
102
{ACAD_XDICTIONARY
360
5653
102
}
330
0
100
AcDbSymbolTable
 70
     1
  0
VPORT
  5
4853
330
8
100
AcDbSymbolTableRecord
100
AcDbViewportTableRecord
  2
*Active
 70
     0
 10
0.0
 20
0.0
 11
1.0
 21
1.0
 12
207.5006113265416
 22
55.12101803885423
 13
0.0
 23
0.0
 14
0.5
 24
0.5
 15
0.5
 25
0.5
 16
0.0
 26
0.0
 36
1.0
 17
0.0
 27
0.0
 37
0.0
 40
184.4794821446363
 41
2.257287705956907
 42
50.0
 43
0.0
 44
0.0
 50
0.0
 51
0.0
 71
     0
 72
   100
 73
     1
 74
     1
 75
     0
 76
     0
 77
     0
 78
     0
281
     0
 65
     1
110
0.0
120
0.0
130
0.0
111
1.0
121
0.0
131
0.0
112
0.0
122
1.0
132
0.0
 79
     0
146
0.0
1001
ACAD_NAV_VCDISPLAY
1070
     3
  0
ENDTAB
  0
TABLE
  2
LTYPE
  5
5
330
0
100
AcDbSymbolTable
 70
     4
  0
LTYPE
  5
13
330
5
100
AcDbSymbolTableRecord
100
AcDbLinetypeTableRecord
  2
BYBLOCK
 70
     0
  3

 72
    65
 73
     0
 40
0.0
  0
LTYPE
  5
14
330
5
100
AcDbSymbolTableRecord
100
AcDbLinetypeTableRecord
  2
BYLAYER
 70
     0
  3

 72
    65
 73
     0
 40
0.0
  0
LTYPE
  5
15
330
5
100
AcDbSymbolTableRecord
100
AcDbLinetypeTableRecord
  2
CONTINUOUS
 70
     0
  3
Solid line
 72
    65
 73
     0
 40
0.0
  0
LTYPE
  5
5D
330
5
100
AcDbSymbolTableRecord
100
AcDbLinetypeTableRecord
  2
CENTER
 70
     0
  3
Center ____ _ ____ _ ____ _ ____ _ ____ _ ____
 72
    65
 73
     4
 40
2.0
 49
1.25
 74
     0
 49
-0.25
 74
     0
 49
0.25
 74
     0
 49
-0.25
 74
     0
  0
LTYPE
  5
5E
330
5
100
AcDbSymbolTableRecord
100
AcDbLinetypeTableRecord
  2
HIDDEN
 70
     0
  3
Hidden __ __ __ __ __ __ __ __ __ __ __ __ __ _
 72
    65
 73
     2
 40
0.375
 49
0.25
 74
     0
 49
-0.125
 74
     0
  0
ENDTAB
  0
TABLE
  2
LAYER
  5
2
102
{ACAD_XDICTIONARY
360
5CEE
102
}
330
0
100
AcDbSymbolTable
 70
     5
  0
LAYER
  5
F
102
{ACAD_XDICTIONARY
360
48C9
102
}
330
2
100
AcDbSymbolTableRecord
100
AcDbLayerTableRecord
  2
0
 70
     0
 62
     7
  6
CONTINUOUS
370
    -3
390
4154
  0
LAYER
  5
55
102
{ACAD_XDICTIONARY
360
48CB
102
}
330
2
100
AcDbSymbolTableRecord
100
AcDbLayerTableRecord
  2
9
 70
     0
 62
     3
  6
CONTINUOUS
370
    -3
390
4154
  0
LAYER
  5
61
102
{ACAD_XDICTIONARY
360
48CD
102
}
330
2
100
AcDbSymbolTableRecord
100
AcDbLayerTableRecord
  2
1
 70
     0
 62
     1
  6
CENTER
370
    -3
390
4154
  0
LAYER
  5
62
102
{ACAD_XDICTIONARY
360
48CF
102
}
330
2
100
AcDbSymbolTableRecord
100
AcDbLayerTableRecord
  2
2
 70
     0
 62
     2
  6
HIDDEN
370
    -3
390
4154
  0
LAYER
  5
24EF
330
2
100
AcDbSymbolTableRecord
100
AcDbLayerTableRecord
  2
DEFPOINTS
 70
     0
 62
     7
  6
CONTINUOUS
290
     0
370
    -3
390
4154
  0
ENDTAB
  0
TABLE
  2
STYLE
  5
3
330
0
100
AcDbSymbolTable
 70
     2
  0
STYLE
  5
10
330
3
100
AcDbSymbolTableRecord
100
AcDbTextStyleTableRecord
  2
STANDARD
 70
     0
 40
0.0
 41
1.0
 50
0.0
 71
     0
 42
3.0
  3
romans.shx
  4

  0
STYLE
  5
167
330
3
100
AcDbSymbolTableRecord
100
AcDbTextStyleTableRecord
  2
STYLE1
 70
     0
 40
0.0
 41
1.0
 50
0.0
 71
     0
 42
3.149999999999999
  3

  4

1001
ACAD
1000
Gulim
1071
    33074
  0
ENDTAB
  0
TABLE
  2
VIEW
  5
6
330
0
100
AcDbSymbolTable
 70
     0
  0
ENDTAB
  0
TABLE
  2
UCS
  5
7
330
0
100
AcDbSymbolTable
 70
     0
  0
ENDTAB
  0
TABLE
  2
APPID
  5
9
330
0
100
AcDbSymbolTable
 70
    12
  0
APPID
  5
11
330
9
100
AcDbSymbolTableRecord
100
AcDbRegAppTableRecord
  2
ACAD
 70
     0
  0
APPID
  5
2325
330
9
100
AcDbSymbolTableRecord
100
AcDbRegAppTableRecord
  2
MCLBOMATTRIB
 70
     0
  0
APPID
  5
2326
330
9
100
AcDbSymbolTableRecord
100
AcDbRegAppTableRecord
  2
MCLBOM
 70
     0
  0
APPID
  5
455F
330
9
100
AcDbSymbolTableRecord
100
AcDbRegAppTableRecord
  2
ACAD_PSEXT
 70
     0
  0
APPID
  5
48AB
330
9
100
AcDbSymbolTableRecord
100
AcDbRegAppTableRecord
  2
ACAD_MLEADERVER
 70
     0
  0
APPID
  5
4911
330
9
100
AcDbSymbolTableRecord
100
AcDbRegAppTableRecord
  2
ACAD_NAV_VCDISPLAY
 70
     0
  0
APPID
  5
49F0
330
9
100
AcDbSymbolTableRecord
100
AcDbRegAppTableRecord
  2
ACAD_DSTYLE_DIMJAG
 70
     0
  0
APPID
  5
49F1
330
9
100
AcDbSymbolTableRecord
100
AcDbRegAppTableRecord
  2
ACAD_DSTYLE_DIMTALN
 70
     0
  0
APPID
  5
4A3E
330
9
100
AcDbSymbolTableRecord
100
AcDbRegAppTableRecord
  2
ACAD_EXEMPT_FROM_CAD_STANDARDS
 70
     0
  0
APPID
  5
5D64
330
9
100
AcDbSymbolTableRecord
100
AcDbRegAppTableRecord
  2
AcDbDynamicBlockGUID
 70
     0
  0
APPID
  5
5F6A
330
9
100
AcDbSymbolTableRecord
100
AcDbRegAppTableRecord
  2
ACAUTHENVIRON
 70
     0
  0
APPID
  5
5F6F
330
9
100
AcDbSymbolTableRecord
100
AcDbRegAppTableRecord
  2
AcDbDynamicBlockTrueName
 70
     0
  0
ENDTAB
  0
TABLE
  2
DIMSTYLE
  5
A
330
0
100
AcDbSymbolTable
 70
     2
100
AcDbDimStyleTable
 71
     1
340
1D
  0
DIMSTYLE
105
1D
102
{ACAD_REACTORS
330
4FF3
330
4FF4
330
4FF5
330
4FF6
330
4FF7
330
4FF8
330
5002
330
5003
330
5004
330
5005
330
5008
330
500B
330
500C
330
5422
330
5441
330
5E61
330
5E70
102
}
330
A
100
AcDbSymbolTableRecord
100
AcDbDimStyleTableRecord
  2
STANDARD
 70
     0
 41
2.0
140
3.0
176
     2
177
     2
178
     4
340
10
  0
ENDTAB
  0
TABLE
  2
BLOCK_RECORD
  5
1
330
0
100
AcDbSymbolTable
 70
    28
  0
BLOCK_RECORD
  5
19
102
{ACAD_XDICTIONARY
360
4A13
102
}
330
1
100
AcDbSymbolTableRecord
100
AcDbBlockTableRecord
  2
*MODEL_SPACE
340
4157
  0
BLOCK_RECORD
  5
16
102
{ACAD_XDICTIONARY
360
5657
102
}
330
1
100
AcDbSymbolTableRecord
100
AcDbBlockTableRecord
  2
*PAPER_SPACE
340
4158
  0
BLOCK_RECORD
  5
1B8B
330
1
100
AcDbSymbolTableRecord
100
AcDbBlockTableRecord
  2
MCLBOMATTRIB
340
0
102
{BLKREFS
331
247E
102
}
  0
BLOCK_RECORD
  5
4A2A
102
{ACAD_XDICTIONARY
360
4A38
102
}
330
1
100
AcDbSymbolTableRecord
100
AcDbBlockTableRecord
  2
A$C6CA7614F
340
0
102
{BLKREFS
331
4FF1
102
}
  0
BLOCK_RECORD
  5
4CA8
102
{ACAD_XDICTIONARY
360
4CF7
102
}
330
1
100
AcDbSymbolTableRecord
100
AcDbBlockTableRecord
  2
A$C7AC9173C
340
0
102
{BLKREFS
331
5007
102
}
  0
BLOCK_RECORD
  5
500E
330
1
100
AcDbSymbolTableRecord
100
AcDbBlockTableRecord
  2
*D3
340
0
  0
BLOCK_RECORD
  5
501A
330
1
100
AcDbSymbolTableRecord
100
AcDbBlockTableRecord
  2
*D4
340
0
  0
BLOCK_RECORD
  5
5026
330
1
100
AcDbSymbolTableRecord
100
AcDbBlockTableRecord
  2
*D5
340
0
  0
BLOCK_RECORD
  5
5032
330
1
100
AcDbSymbolTableRecord
100
AcDbBlockTableRecord
  2
*D6
340
0
  0
BLOCK_RECORD
  5
503E
330
1
100
AcDbSymbolTableRecord
100
AcDbBlockTableRecord
  2
*D7
340
0
  0
BLOCK_RECORD
  5
504A
330
1
100
AcDbSymbolTableRecord
100
AcDbBlockTableRecord
  2
*D8
340
0
  0
BLOCK_RECORD
  5
5056
330
1
100
AcDbSymbolTableRecord
100
AcDbBlockTableRecord
  2
*D9
340
0
  0
BLOCK_RECORD
  5
5062
330
1
100
AcDbSymbolTableRecord
100
AcDbBlockTableRecord
  2
*D10
340
0
  0
BLOCK_RECORD
  5
5070
330
1
100
AcDbSymbolTableRecord
100
AcDbBlockTableRecord
  2
*D11
340
0
  0
BLOCK_RECORD
  5
507E
330
1
100
AcDbSymbolTableRecord
100
AcDbBlockTableRecord
  2
*D12
340
0
  0
BLOCK_RECORD
  5
508C
330
1
100
AcDbSymbolTableRecord
100
AcDbBlockTableRecord
  2
*D13
340
0
  0
BLOCK_RECORD
  5
50A2
330
1
100
AcDbSymbolTableRecord
100
AcDbBlockTableRecord
  2
*D14
340
0
  0
BLOCK_RECORD
  5
50AE
330
1
100
AcDbSymbolTableRecord
100
AcDbBlockTableRecord
  2
*D15
340
0
  0
BLOCK_RECORD
  5
5423
330
1
100
AcDbSymbolTableRecord
100
AcDbBlockTableRecord
  2
*D16
340
0
  0
BLOCK_RECORD
  5
5442
330
1
100
AcDbSymbolTableRecord
100
AcDbBlockTableRecord
  2
*D17
340
0
  0
BLOCK_RECORD
  5
5DC4
102
{ACAD_XDICTIONARY
360
610D
102
}
330
1
100
AcDbSymbolTableRecord
100
AcDbBlockTableRecord
  2
2510SDK
340
0
310
2800000020000000200000000100080000000000000400000000000000000000000000000000000000000000000080000080000000808000800000008000800080800000C0C0C000C0DCC000F0CAA6000020400000206000002080000020A0000020C0000020E00000400000004020000040400000406000004080000040A0
310
000040C0000040E00000600000006020000060400000606000006080000060A0000060C0000060E00000800000008020000080400000806000008080000080A0000080C0000080E00000A0000000A0200000A0400000A0600000A0800000A0A00000A0C00000A0E00000C0000000C0200000C0400000C0600000C0800000C0
310
A00000C0C00000C0E00000E0000000E0200000E0400000E0600000E0800000E0A00000E0C00000E0E00040000000400020004000400040006000400080004000A0004000C0004000E00040200000402020004020400040206000402080004020A0004020C0004020E000404000004040200040404000404060004040800040
310
40A0004040C0004040E00040600000406020004060400040606000406080004060A0004060C0004060E00040800000408020004080400040806000408080004080A0004080C0004080E00040A0000040A0200040A0400040A0600040A0800040A0A00040A0C00040A0E00040C0000040C0200040C0400040C0600040C08000
310
40C0A00040C0C00040C0E00040E0000040E0200040E0400040E0600040E0800040E0A00040E0C00040E0E00080000000800020008000400080006000800080008000A0008000C0008000E00080200000802020008020400080206000802080008020A0008020C0008020E00080400000804020008040400080406000804080
310
008040A0008040C0008040E00080600000806020008060400080606000806080008060A0008060C0008060E00080800000808020008080400080806000808080008080A0008080C0008080E00080A0000080A0200080A0400080A0600080A0800080A0A00080A0C00080A0E00080C0000080C0200080C0400080C0600080C0
310
800080C0A00080C0C00080C0E00080E0000080E0200080E0400080E0600080E0800080E0A00080E0C00080E0E000C0000000C0002000C0004000C0006000C0008000C000A000C000C000C000E000C0200000C0202000C0204000C0206000C0208000C020A000C020C000C020E000C0400000C0402000C0404000C0406000C0
310
408000C040A000C040C000C040E000C0600000C0602000C0604000C0606000C0608000C060A000C060C000C060E000C0800000C0802000C0804000C0806000C0808000C080A000C080C000C080E000C0A00000C0A02000C0A04000C0A06000C0A08000C0A0A000C0A0C000C0A0E000C0C00000C0C02000C0C04000C0C06000
310
C0C08000C0C0A000F0FBFF00A4A0A000808080000000FF0000FF000000FFFF00FF000000FF00FF00FFFF0000FFFFFF0049494949494949494949494949494949494949494949494949494949494949494949494949494949494949494949494949494949494949494949494949494949494949494949494949494949494949
310
494949494949494949494949494949494949494949494949494949494949494949494949494949494949494949494949494949494949494949494949494949494949494949494949494949494949494949494949494949494949494949494949494949494949494949FFFFFFFF494949494949494949494949494949494949
310
49494949494949494949FF4949FF49494949494949494949494949494949494949494949494949494949FF4949FF494949494949FFFFFFFFFFFFFFFFFFFFFFFFFFFFFFFFFFFFFFFFFFFFFF4949FFFFFF494949FFFF494949494949494949494949494949494949494949FFFFFFFF49FFFF4949FFFF49494949494949494949
310
4949494949494949494949FF4949FF49FFFF4949FFFFFBFBFBFBFBFBFBFBFBFBFBFBFBFBFBFBFBFBFBFBFBFFFBFBFFFBFFFF4949FFFF494949494949494949494949494949494949494949FFFAFAFF49FFFF4949FFFF494949494949494949494949494949494949494949FFFAFAFF49FFFF4949FFFF494949494949494949
310
494949494949494949494949FFFAFAFF49FFFF4949FFFF4949494949FFFFFFFFFFFFFFFFFFFFFF4949494949FFFAFAFF49FFFF4949FFFF4949494949FFFFFFFFFFFFFFFFFFFFFF4949494949FFFAFAFF49FFFF4949FFFF494949494949494949494949494949494949494949FFFAFAFF49FFFF4949FFFF4949494949494949
310
49494949494949494949494949FFFAFAFF49FFFF4949FFFF494949494949494949494949494949494949494949FFFAFAFF49FFFF4949FFFFFBFBFBFBFBFBFBFBFBFBFBFBFBFBFBFBFBFBFBFBFBFFFBFBFFFBFFFF4949FFFF494949494949494949494949494949494949494949FF4949FF49FFFF4949FFFF49494949494949
310
4949494949494949494949494949FFFFFFFF49FFFF494949FFFFFFFFFFFFFFFFFFFFFFFFFFFFFFFFFFFFFFFFFFFFFF4949FFFFFF4949494949494949494949494949494949494949494949494949FFFFFFFF49494949494949494949494949494949494949494949494949494949FFFFFFFF49494949494949494949494949
310
494949494949494949494949494949FFFFFFFF494949494949494949494949494949494949494949494949494949494949494949494949494949494949494949494949494949494949494949494949494949494949494949494949494949494949494949494949494949494949494949494949494949494949494949494949
310
4949494949494949494949494949494949494949494949494949494949494949494949494949494949494949494949494949494949494949
102
{BLKREFS
331
5DEB
102
}
1001
AcDbDynamicBlockGUID
1000
{849A5D0F-8BC6-421D-BCAF-DC44A2DD7DA4}
  0
BLOCK_RECORD
  5
5E62
330
1
100
AcDbSymbolTableRecord
100
AcDbBlockTableRecord
  2
*D19
340
0
  0
BLOCK_RECORD
  5
5E71
330
1
100
AcDbSymbolTableRecord
100
AcDbBlockTableRecord
  2
*D20
340
0
  0
BLOCK_RECORD
  5
6091
330
1
100
AcDbSymbolTableRecord
100
AcDbBlockTableRecord
  2
*D23
340
0
  0
BLOCK_RECORD
  5
609E
330
1
100
AcDbSymbolTableRecord
100
AcDbBlockTableRecord
  2
*D24
340
0
  0
BLOCK_RECORD
  5
60AB
330
1
100
AcDbSymbolTableRecord
100
AcDbBlockTableRecord
  2
*D25
340
0
  0
ENDTAB
  0
ENDSEC
  0
SECTION
  2
BLOCKS
  0
BLOCK
  5
1A
330
19
100
AcDbEntity
  8
0
100
AcDbBlockBegin
  2
*MODEL_SPACE
 70
     0
 10
0.0
 20
0.0
 30
0.0
  3
*MODEL_SPACE
  1

  0
ENDBLK
  5
1B
330
19
100
AcDbEntity
  8
0
100
AcDbBlockEnd
  0
BLOCK
  5
17
330
16
100
AcDbEntity
 67
     1
  8
0
100
AcDbBlockBegin
  2
*PAPER_SPACE
 70
     0
 10
0.0
 20
0.0
 30
0.0
  3
*PAPER_SPACE
  1

  0
ENDBLK
  5
18
330
16
100
AcDbEntity
 67
     1
  8
0
100
AcDbBlockEnd
  0
BLOCK
  5
1B8C
330
1B8B
100
AcDbEntity
  8
0
100
AcDbBlockBegin
  2
MCLBOMATTRIB
 70
     2
 10
0.0
 20
0.0
 30
0.0
  3
MCLBOMATTRIB
  1
MCLBOMATTRIB
  0
ENDBLK
  5
1B8D
330
1B8B
100
AcDbEntity
  8
0
100
AcDbBlockEnd
  0
BLOCK
  5
4A3A
330
4A2A
100
AcDbEntity
  8
0
100
AcDbBlockBegin
  2
A$C6CA7614F
 70
     0
 10
0.0
 20
0.0
 30
0.0
  3
A$C6CA7614F
  1

  0
LINE
  5
4A2B
330
4A2A
100
AcDbEntity
  8
0
  6
Continuous
100
AcDbLine
 10
-0.0000007985996575
 20
24.59999979400597
 30
0.0
 11
299.9999992014001
 21
24.59999979400631
 31
0.0
  0
LINE
  5
4A2D
330
4A2A
100
AcDbEntity
  8
0
  6
Continuous
100
AcDbLine
 10
-0.000000798600027
 20
-0.0000002059940698
 30
0.0
 11
299.9999992014
 21
-0.0000002059941266
 31
0.0
  0
LINE
  5
4A2E
330
4A2A
100
AcDbEntity
  8
9
  6
Continuous
100
AcDbLine
 10
-0.0000007985997854
 20
23.14999979400591
 30
0.0
 11
299.9999992014002
 21
23.14999979400545
 31
0.0
  0
LINE
  5
4A2F
330
4A2A
100
AcDbEntity
  8
9
  6
Continuous
100
AcDbLine
 10
-0.0000007986000128
 20
1.449999794005918
 30
0.0
 11
299.9999992014005
 21
1.449999794005918
 31
0.0
  0
LINE
  5
4A35
330
4A2A
100
AcDbEntity
  8
0
100
AcDbLine
 10
299.9999992014
 20
-0.0000002059941266
 30
0.0
 11
299.9999992014001
 21
24.59999979400631
 31
0.0
  0
TEXT
  5
52D7
330
4A2A
100
AcDbEntity
  8
0
100
AcDbText
 10
32.25000220140024
 20
10.299999794006
 30
0.0
 40
4.0
  1
RM2510
 72
     4
 11
44.25000220140023
 21
12.299999794006
 31
0.0
100
AcDbText
  0
LINE
  5
5977
330
4A2A
100
AcDbEntity
  8
0
100
AcDbLine
 10
-0.000000798600027
 20
-0.0000002059940698
 30
0.0
 11
-0.0000007985996575
 21
24.59999979400597
 31
0.0
  0
ENDBLK
  5
4A3B
330
4A2A
100
AcDbEntity
  8
0
100
AcDbBlockEnd
  0
BLOCK
  5
4CF9
330
4CA8
100
AcDbEntity
  8
0
100
AcDbBlockBegin
  2
A$C7AC9173C
 70
     0
 10
0.0
 20
0.0
 30
0.0
  3
A$C7AC9173C
  1

  0
CIRCLE
  5
4CA9
330
4CA8
100
AcDbEntity
  8
0
100
AcDbCircle
 10
5.96877890771816
 20
49.0312233861256
 30
0.0
 40
3.29999542
  0
CIRCLE
  5
4CAA
330
4CA8
100
AcDbEntity
  8
0
100
AcDbCircle
 10
42.03123350771829
 20
49.0312233861256
 30
0.0
 40
3.29999542
  0
CIRCLE
  5
4CE2
330
4CA8
100
AcDbEntity
  8
2
100
AcDbCircle
 10
23.99999890771824
 20
31.00000038612552
 30
0.0
 40
19.9999962
  0
CIRCLE
  5
4CE3
330
4CA8
100
AcDbEntity
  8
0
100
AcDbCircle
 10
23.99999890771824
 20
31.00000038612552
 30
0.0
 40
12.2999992
  0
CIRCLE
  5
4CE4
330
4CA8
100
AcDbEntity
  8
0
100
AcDbCircle
 10
23.99999890771824
 20
5.500000286125608
 30
0.0
 40
3.29999924
  0
CIRCLE
  5
4CE5
330
4CA8
100
AcDbEntity
  8
0
100
AcDbCircle
 10
42.03123350771829
 20
12.96877738612556
 30
0.0
 40
3.29999924
  0
CIRCLE
  5
4CE6
330
4CA8
100
AcDbEntity
  8
0
100
AcDbCircle
 10
5.96877890771816
 20
12.96877738612556
 30
0.0
 40
3.29999924
  0
CIRCLE
  5
4CE7
330
4CA8
100
AcDbEntity
  8
0
100
AcDbCircle
 10
23.99999890771824
 20
56.49999638612555
 30
0.0
 40
3.300003049999998
  0
ARC
  5
4CE8
330
4CA8
100
AcDbEntity
  8
0
100
AcDbCircle
 10
23.99999890771824
 20
31.00000038612552
 30
0.0
 40
30.0
100
AcDbArc
 50
216.869897645844
 51
323.130102354156
  0
LINE
  5
4CE9
330
4CA8
100
AcDbEntity
  8
0
100
AcDbLine
 10
-0.0000010922817637
 20
50.62141725647416
 30
0.0
 11
-0.0000010922817637
 21
11.37858351577705
 31
0.0
  0
LINE
  5
4CEA
330
4CA8
100
AcDbEntity
  8
0
100
AcDbLine
 10
47.99999890771823
 20
50.62141725647416
 30
0.0
 11
47.99999890771823
 21
11.37858351577694
 31
0.0
  0
ARC
  5
4CEB
330
4CA8
100
AcDbEntity
  8
0
100
AcDbCircle
 10
23.99999890771824
 20
31.00000038612552
 30
0.0
 40
31.0
100
AcDbArc
 50
219.2680260017554
 51
320.7319739982444
  0
ARC
  5
4CEC
330
4CA8
100
AcDbEntity
  8
0
100
AcDbCircle
 10
23.99999890771824
 20
31.00000038612552
 30
0.0
 40
30.0
100
AcDbArc
 50
36.86989764584402
 51
143.130102354156
  0
ARC
  5
4CED
330
4CA8
100
AcDbEntity
  8
0
100
AcDbCircle
 10
23.99999890771824
 20
31.00000038612552
 30
0.0
 40
31.0
100
AcDbArc
 50
39.26802600175537
 51
97.78766838821494
  0
ARC
  5
4CEE
330
4CA8
100
AcDbEntity
  8
0
100
AcDbCircle
 10
19.86717773958435
 20
61.21869971604747
 30
0.0
 40
0.5
100
AcDbArc
 50
97.78766838820182
 51
112.5000000000199
  0
ARC
  5
4CEF
330
4CA8
100
AcDbEntity
  8
0
100
AcDbCircle
 10
23.99999890771824
 20
31.00000038612552
 30
0.0
 40
31.0
100
AcDbArc
 50
127.2123316117847
 51
140.7319739982445
  0
ARC
  5
4CF0
330
4CA8
100
AcDbEntity
  8
0
100
AcDbCircle
 10
5.554497566311965
 20
55.29019347436953
 30
0.0
 40
0.5
100
AcDbArc
 50
112.4999999999917
 51
127.2123316117808
  0
LINE
  5
4CF1
330
4CA8
100
AcDbEntity
  8
2
100
AcDbLine
 10
15.29113453429931
 20
59.86443665855938
 30
0.0
 11
17.58723512848973
 21
54.32115946349165
 31
0.0
  0
LINE
  5
4CF2
330
4CA8
100
AcDbEntity
  8
2
100
AcDbLine
 10
12.043957933422
 20
52.02505886930111
 30
0.0
 11
9.747857339231586
 21
57.56833606436885
 31
0.0
  0
LINE
  5
4CF3
330
4CA8
100
AcDbEntity
  8
2
100
AcDbLine
 10
17.58723512848973
 20
54.32115946349165
 30
0.0
 11
12.043957933422
 21
52.02505886930111
 31
0.0
  0
LINE
  5
4CF4
330
4CA8
100
AcDbEntity
  8
2
100
AcDbLine
 10
14.79107006855497
 20
59.65730317478715
 30
0.0
 11
21.65956911437001
 21
43.07527962523255
 31
0.0
  0
LINE
  5
4CF5
330
4CA8
100
AcDbEntity
  8
2
100
AcDbLine
 10
17.11642085079165
 20
41.19344599858641
 30
0.0
 11
10.24792180497593
 21
57.77546954814103
 31
0.0
  0
LINE
  5
4CF6
330
4CA8
100
AcDbEntity
  8
0
100
AcDbLine
 10
5.363155850129487
 20
55.7521332406252
 30
0.0
 11
19.67583602340164
 21
61.68063948230309
 31
0.0
  0
ARC
  5
5525
330
4CA8
100
AcDbEntity
  8
9
100
AcDbCircle
 10
23.99999890771818
 20
31.00000038612552
 30
0.0
 40
10.84999999999948
100
AcDbArc
 50
180.0
 51
90.0
  0
ENDBLK
  5
4CFA
330
4CA8
100
AcDbEntity
  8
0
100
AcDbBlockEnd
  0
BLOCK
  5
500F
330
500E
100
AcDbEntity
  8
0
100
AcDbBlockBegin
  2
*D3
 70
     1
 10
0.0
 20
0.0
 30
0.0
  3
*D3
  1

  0
LINE
  5
50C8
330
500E
100
AcDbEntity
  8
0
 62
   115
370
    -2
100
AcDbLine
 10
21.0000010712522
 20
47.14999978171232
 30
0.0
 11
11.00000107125219
 21
47.14999978171233
 31
0.0
  0
LINE
  5
50C9
330
500E
100
AcDbEntity
  8
0
 62
   115
370
    -2
100
AcDbLine
 10
21.00000107125243
 20
68.84999978171231
 30
0.0
 11
11.0000010712522
 21
68.84999978171231
 31
0.0
  0
LINE
  5
50CA
330
500E
100
AcDbEntity
  8
0
 62
   115
370
    -2
100
AcDbLine
 10
12.00000107125219
 20
50.14999978171233
 30
0.0
 11
12.0000010712522
 21
65.84999978171231
 31
0.0
  0
SOLID
  5
50CB
330
500E
100
AcDbEntity
  8
0
 62
   115
100
AcDbTrace
 10
11.50000107125219
 20
50.14999978171233
 30
0.0
 11
12.50000107125219
 21
50.14999978171233
 31
0.0
 12
12.00000107125219
 22
47.14999978171233
 32
0.0
 13
12.00000107125219
 23
47.14999978171233
 33
0.0
  0
SOLID
  5
50CC
330
500E
100
AcDbEntity
  8
0
 62
   115
100
AcDbTrace
 10
11.5000010712522
 20
65.84999978171231
 30
0.0
 11
12.5000010712522
 21
65.84999978171231
 31
0.0
 12
12.0000010712522
 22
68.84999978171231
 32
0.0
 13
12.0000010712522
 23
68.84999978171231
 33
0.0
  0
MTEXT
  5
50CD
330
500E
100
AcDbEntity
  8
0
 62
     7
100
AcDbMText
 10
9.500001071252187
 20
57.99999978171232
 30
0.0
 40
3.0
 41
0.0
 71
     5
 72
     1
  1
\A1;%%C21.7
 11
0.0000000000000001
 21
1.0
 31
0.0
 73
     1
 44
1.0
1001
ACAD
1000
MTEXTBEGIN
1070
    73
1070
     1
1070
    44
1040
1.0
1070
    74
1070
     0
1000
MTEXTEND
  0
POINT
  5
50CE
330
500E
100
AcDbEntity
  8
DEFPOINTS
 62
     0
100
AcDbPoint
 10
22.0000010712522
 20
47.14999978171232
 30
0.0
  0
POINT
  5
50CF
330
500E
100
AcDbEntity
  8
DEFPOINTS
 62
     0
100
AcDbPoint
 10
22.00000107125243
 20
68.84999978171231
 30
0.0
  0
POINT
  5
50D0
330
500E
100
AcDbEntity
  8
DEFPOINTS
 62
     0
100
AcDbPoint
 10
12.0000010712522
 20
68.84999978171231
 30
0.0
  0
ENDBLK
  5
5010
330
500E
100
AcDbEntity
  8
0
100
AcDbBlockEnd
  0
BLOCK
  5
501B
330
501A
100
AcDbEntity
  8
0
100
AcDbBlockBegin
  2
*D4
 70
     1
 10
0.0
 20
0.0
 30
0.0
  3
*D4
  1

  0
LINE
  5
5419
330
501A
100
AcDbEntity
  8
0
 62
   115
370
    -2
100
AcDbLine
 10
21.00000107125218
 20
45.69999978171232
 30
0.0
 11
3.000001071252192
 21
45.69999978171233
 31
0.0
  0
LINE
  5
541A
330
501A
100
AcDbEntity
  8
0
 62
   115
370
    -2
100
AcDbLine
 10
21.00000107125255
 20
70.29999978171236
 30
0.0
 11
3.000001071252197
 21
70.29999978171236
 31
0.0
  0
LINE
  5
541B
330
501A
100
AcDbEntity
  8
0
 62
   115
370
    -2
100
AcDbLine
 10
4.000001071252193
 20
48.69999978171232
 30
0.0
 11
4.000001071252198
 21
67.29999978171235
 31
0.0
  0
SOLID
  5
541C
330
501A
100
AcDbEntity
  8
0
 62
   115
100
AcDbTrace
 10
3.500001071252193
 20
48.69999978171232
 30
0.0
 11
4.500001071252193
 21
48.69999978171232
 31
0.0
 12
4.000001071252192
 22
45.69999978171233
 32
0.0
 13
4.000001071252192
 23
45.69999978171233
 33
0.0
  0
SOLID
  5
541D
330
501A
100
AcDbEntity
  8
0
 62
   115
100
AcDbTrace
 10
3.500001071252198
 20
67.29999978171235
 30
0.0
 11
4.500001071252198
 21
67.29999978171235
 31
0.0
 12
4.000001071252198
 22
70.29999978171236
 32
0.0
 13
4.000001071252198
 23
70.29999978171236
 33
0.0
  0
MTEXT
  5
541E
330
501A
100
AcDbEntity
  8
0
 62
     7
100
AcDbMText
 10
1.500001071252186
 20
57.99999978171235
 30
0.0
 40
3.0
 41
0.0
 71
     5
 72
     1
  1
\A1;%%C24.6
 11
0.0000000000000001
 21
1.0
 31
0.0
 73
     1
 44
1.0
1001
ACAD
1000
MTEXTBEGIN
1070
    73
1070
     1
1070
    44
1040
1.0
1070
    74
1070
     0
1000
MTEXTEND
  0
POINT
  5
541F
330
501A
100
AcDbEntity
  8
DEFPOINTS
 62
     0
100
AcDbPoint
 10
22.00000107125218
 20
45.69999978171232
 30
0.0
  0
POINT
  5
5420
330
501A
100
AcDbEntity
  8
DEFPOINTS
 62
     0
100
AcDbPoint
 10
22.00000107125255
 20
70.29999978171236
 30
0.0
  0
POINT
  5
5421
330
501A
100
AcDbEntity
  8
DEFPOINTS
 62
     0
100
AcDbPoint
 10
4.000001071252198
 20
70.29999978171236
 30
0.0
  0
ENDBLK
  5
501C
330
501A
100
AcDbEntity
  8
0
100
AcDbBlockEnd
  0
BLOCK
  5
5027
330
5026
100
AcDbEntity
  8
0
100
AcDbBlockBegin
  2
*D5
 70
     1
 10
0.0
 20
0.0
 30
0.0
  3
*D5
  1

  0
LINE
  5
5E2B
330
5026
100
AcDbEntity
  8
0
 62
   115
370
    -2
100
AcDbLine
 10
140.5000010712524
 20
38.0000026567123
 30
0.0
 11
129.5000010712523
 21
38.0000026567123
 31
0.0
  0
LINE
  5
5E2C
330
5026
100
AcDbEntity
  8
0
 62
   115
370
    -2
100
AcDbLine
 10
140.5000010712524
 20
77.9999977567123
 30
0.0
 11
129.5000010712524
 21
77.9999977567123
 31
0.0
  0
LINE
  5
5E2D
330
5026
100
AcDbEntity
  8
0
 62
   115
370
    -2
100
AcDbLine
 10
130.5000010712523
 20
41.00000265671229
 30
0.0
 11
130.5000010712524
 21
74.99999775671231
 31
0.0
  0
SOLID
  5
5E2E
330
5026
100
AcDbEntity
  8
0
 62
   115
100
AcDbTrace
 10
130.0000010712524
 20
41.00000265671229
 30
0.0
 11
131.0000010712524
 21
41.00000265671229
 31
0.0
 12
130.5000010712523
 22
38.0000026567123
 32
0.0
 13
130.5000010712523
 23
38.0000026567123
 33
0.0
  0
SOLID
  5
5E2F
330
5026
100
AcDbEntity
  8
0
 62
   115
100
AcDbTrace
 10
130.0000010712524
 20
74.99999775671231
 30
0.0
 11
131.0000010712524
 21
74.99999775671231
 31
0.0
 12
130.5000010712524
 22
77.9999977567123
 32
0.0
 13
130.5000010712524
 23
77.9999977567123
 33
0.0
  0
MTEXT
  5
5E30
330
5026
100
AcDbEntity
  8
0
 62
     7
100
AcDbMText
 10
127.214286785538
 20
58.00000020671232
 30
0.0
 40
3.0
 41
0.0
 71
     5
 72
     1
  1
\A1;%%C40 g6 ({\A0;\H0.5x;\S-0.009^ -0.025;})
 11
0.0000000000000001
 21
1.0
 31
0.0
 73
     1
 44
1.0
1001
ACAD
1000
MTEXTBEGIN
1070
    73
1070
     1
1070
    44
1040
1.0
1070
    74
1070
     0
1000
MTEXTEND
  0
POINT
  5
5E31
330
5026
100
AcDbEntity
  8
DEFPOINTS
 62
     0
100
AcDbPoint
 10
141.5000010712524
 20
38.0000026567123
 30
0.0
  0
POINT
  5
5E32
330
5026
100
AcDbEntity
  8
DEFPOINTS
 62
     0
100
AcDbPoint
 10
141.5000010712524
 20
77.9999977567123
 30
0.0
  0
POINT
  5
5E33
330
5026
100
AcDbEntity
  8
DEFPOINTS
 62
     0
100
AcDbPoint
 10
130.5000010712524
 20
77.9999977567123
 30
0.0
  0
ENDBLK
  5
5028
330
5026
100
AcDbEntity
  8
0
100
AcDbBlockEnd
  0
BLOCK
  5
5033
330
5032
100
AcDbEntity
  8
0
100
AcDbBlockBegin
  2
*D6
 70
     1
 10
0.0
 20
0.0
 30
0.0
  3
*D6
  1

  0
LINE
  5
5E58
330
5032
100
AcDbEntity
  8
0
 62
   115
370
    -2
100
AcDbLine
 10
204.5000070712525
 20
26.99999950671235
 30
0.0
 11
204.5000070712525
 21
15.99999950671235
 31
0.0
  0
LINE
  5
5E59
330
5032
100
AcDbEntity
  8
0
 62
   115
370
    -2
100
AcDbLine
 10
140.5000010712524
 20
38.0000026567123
 30
0.0
 11
140.5000010712524
 21
15.99999950671235
 31
0.0
  0
LINE
  5
5E5A
330
5032
100
AcDbEntity
  8
0
 62
   115
370
    -2
100
AcDbLine
 10
201.5000070712524
 20
16.99999950671235
 30
0.0
 11
143.5000010712524
 21
16.99999950671235
 31
0.0
  0
SOLID
  5
5E5B
330
5032
100
AcDbEntity
  8
0
 62
   115
100
AcDbTrace
 10
201.5000070712524
 20
17.49999950671235
 30
0.0
 11
201.5000070712524
 21
16.49999950671235
 31
0.0
 12
204.5000070712525
 22
16.99999950671235
 32
0.0
 13
204.5000070712525
 23
16.99999950671235
 33
0.0
  0
SOLID
  5
5E5C
330
5032
100
AcDbEntity
  8
0
 62
   115
100
AcDbTrace
 10
143.5000010712524
 20
17.49999950671235
 30
0.0
 11
143.5000010712524
 21
16.49999950671235
 31
0.0
 12
140.5000010712524
 22
16.99999950671235
 32
0.0
 13
140.5000010712524
 23
16.99999950671235
 33
0.0
  0
MTEXT
  5
5E5D
330
5032
100
AcDbEntity
  8
0
 62
     7
100
AcDbMText
 10
172.5000040712524
 20
19.49999950671235
 30
0.0
 40
3.0
 41
0.0
 71
     5
 72
     1
  1
\A1;64
 73
     1
 44
1.0
1001
ACAD
1000
MTEXTBEGIN
1070
    73
1070
     1
1070
    44
1040
1.0
1070
    74
1070
     0
1000
MTEXTEND
  0
POINT
  5
5E5E
330
5032
100
AcDbEntity
  8
DEFPOINTS
 62
     0
100
AcDbPoint
 10
204.5000070712525
 20
27.99999950671235
 30
0.0
  0
POINT
  5
5E5F
330
5032
100
AcDbEntity
  8
DEFPOINTS
 62
     0
100
AcDbPoint
 10
140.5000010712524
 20
39.0000026567123
 30
0.0
  0
POINT
  5
5E60
330
5032
100
AcDbEntity
  8
DEFPOINTS
 62
     0
100
AcDbPoint
 10
140.5000010712524
 20
16.99999950671235
 30
0.0
  0
ENDBLK
  5
5034
330
5032
100
AcDbEntity
  8
0
100
AcDbBlockEnd
  0
BLOCK
  5
503F
330
503E
100
AcDbEntity
  8
0
100
AcDbBlockBegin
  2
*D7
 70
     1
 10
0.0
 20
0.0
 30
0.0
  3
*D7
  1

  0
LINE
  5
5E4F
330
503E
100
AcDbEntity
  8
0
 62
   115
370
    -2
100
AcDbLine
 10
204.5000070712525
 20
26.99999950671235
 30
0.0
 11
204.5000070712525
 21
15.99999950671235
 31
0.0
  0
LINE
  5
5E50
330
503E
100
AcDbEntity
  8
0
 62
   115
370
    -2
100
AcDbLine
 10
214.5000010712525
 20
26.99999950671236
 30
0.0
 11
214.5000010712525
 21
15.99999950671235
 31
0.0
  0
LINE
  5
5E51
330
503E
100
AcDbEntity
  8
0
 62
   115
370
    -2
100
AcDbLine
 10
207.5000070712524
 20
16.99999950671235
 30
0.0
 11
211.5000010712524
 21
16.99999950671235
 31
0.0
  0
SOLID
  5
5E52
330
503E
100
AcDbEntity
  8
0
 62
   115
100
AcDbTrace
 10
207.5000070712524
 20
17.49999950671235
 30
0.0
 11
207.5000070712524
 21
16.49999950671235
 31
0.0
 12
204.5000070712525
 22
16.99999950671235
 32
0.0
 13
204.5000070712525
 23
16.99999950671235
 33
0.0
  0
SOLID
  5
5E53
330
503E
100
AcDbEntity
  8
0
 62
   115
100
AcDbTrace
 10
211.5000010712524
 20
17.49999950671235
 30
0.0
 11
211.5000010712524
 21
16.49999950671235
 31
0.0
 12
214.5000010712525
 22
16.99999950671235
 32
0.0
 13
214.5000010712525
 23
16.99999950671235
 33
0.0
  0
MTEXT
  5
5E54
330
503E
100
AcDbEntity
  8
0
 62
     7
100
AcDbMText
 10
209.5000040712525
 20
19.49999950671235
 30
0.0
 40
3.0
 41
0.0
 71
     5
 72
     1
  1
\A1;10
 73
     1
 44
1.0
1001
ACAD
1000
MTEXTBEGIN
1070
    73
1070
     1
1070
    44
1040
1.0
1070
    74
1070
     0
1000
MTEXTEND
  0
POINT
  5
5E55
330
503E
100
AcDbEntity
  8
DEFPOINTS
 62
     0
100
AcDbPoint
 10
204.5000070712525
 20
27.99999950671235
 30
0.0
  0
POINT
  5
5E56
330
503E
100
AcDbEntity
  8
DEFPOINTS
 62
     0
100
AcDbPoint
 10
214.5000010712525
 20
27.99999950671236
 30
0.0
  0
POINT
  5
5E57
330
503E
100
AcDbEntity
  8
DEFPOINTS
 62
     0
100
AcDbPoint
 10
214.5000010712525
 20
16.99999950671235
 30
0.0
  0
ENDBLK
  5
5040
330
503E
100
AcDbEntity
  8
0
100
AcDbBlockEnd
  0
BLOCK
  5
504B
330
504A
100
AcDbEntity
  8
0
100
AcDbBlockBegin
  2
*D8
 70
     1
 10
0.0
 20
0.0
 30
0.0
  3
*D8
  1

  0
LINE
  5
5E3D
330
504A
100
AcDbEntity
  8
0
 62
   115
370
    -2
100
AcDbLine
 10
140.5000010712524
 20
38.0000026567123
 30
0.0
 11
140.5000010712524
 21
7.999999506712356
 31
0.0
  0
LINE
  5
5E3E
330
504A
100
AcDbEntity
  8
0
 62
   115
370
    -2
100
AcDbLine
 10
220.4999950712524
 20
38.0519415326782
 30
0.0
 11
220.4999950712524
 21
7.999999506712356
 31
0.0
  0
LINE
  5
5E3F
330
504A
100
AcDbEntity
  8
0
 62
   115
370
    -2
100
AcDbLine
 10
143.5000010712524
 20
8.999999506712356
 30
0.0
 11
217.4999950712524
 21
8.999999506712356
 31
0.0
  0
SOLID
  5
5E40
330
504A
100
AcDbEntity
  8
0
 62
   115
100
AcDbTrace
 10
143.5000010712524
 20
9.499999506712356
 30
0.0
 11
143.5000010712524
 21
8.499999506712356
 31
0.0
 12
140.5000010712524
 22
8.999999506712356
 32
0.0
 13
140.5000010712524
 23
8.999999506712356
 33
0.0
  0
SOLID
  5
5E41
330
504A
100
AcDbEntity
  8
0
 62
   115
100
AcDbTrace
 10
217.4999950712524
 20
9.499999506712356
 30
0.0
 11
217.4999950712524
 21
8.499999506712356
 31
0.0
 12
220.4999950712524
 22
8.999999506712356
 32
0.0
 13
220.4999950712524
 23
8.999999506712356
 33
0.0
  0
MTEXT
  5
5E42
330
504A
100
AcDbEntity
  8
0
 62
     7
100
AcDbMText
 10
180.4999980712524
 20
11.49999950671235
 30
0.0
 40
3.0
 41
0.0
 71
     5
 72
     1
  1
\A1;80
 73
     1
 44
1.0
1001
ACAD
1000
MTEXTBEGIN
1070
    73
1070
     1
1070
    44
1040
1.0
1070
    74
1070
     0
1000
MTEXTEND
  0
POINT
  5
5E43
330
504A
100
AcDbEntity
  8
DEFPOINTS
 62
     0
100
AcDbPoint
 10
140.5000010712524
 20
39.0000026567123
 30
0.0
  0
POINT
  5
5E44
330
504A
100
AcDbEntity
  8
DEFPOINTS
 62
     0
100
AcDbPoint
 10
220.4999950712524
 20
39.0519415326782
 30
0.0
  0
POINT
  5
5E45
330
504A
100
AcDbEntity
  8
DEFPOINTS
 62
     0
100
AcDbPoint
 10
220.4999950712524
 20
8.999999506712356
 30
0.0
  0
ENDBLK
  5
504C
330
504A
100
AcDbEntity
  8
0
100
AcDbBlockEnd
  0
BLOCK
  5
5057
330
5056
100
AcDbEntity
  8
0
100
AcDbBlockBegin
  2
*D9
 70
     1
 10
0.0
 20
0.0
 30
0.0
  3
*D9
  1

  0
LINE
  5
50FE
330
5056
100
AcDbEntity
  8
0
 62
   115
370
    -2
100
AcDbLine
 10
348.0000010712531
 20
37.37858291136304
 30
0.0
 11
348.0000010712531
 21
-0.0000002182876244
 31
0.0
  0
LINE
  5
50FF
330
5056
100
AcDbEntity
  8
0
 62
   115
370
    -2
100
AcDbLine
 10
396.0000010712517
 20
37.37858291136304
 30
0.0
 11
396.0000010712517
 21
-0.0000002182876244
 31
0.0
  0
LINE
  5
5100
330
5056
100
AcDbEntity
  8
0
 62
   115
370
    -2
100
AcDbLine
 10
351.0000010712531
 20
0.9999997817123755
 30
0.0
 11
393.0000010712518
 21
0.9999997817123755
 31
0.0
  0
SOLID
  5
5101
330
5056
100
AcDbEntity
  8
0
 62
   115
100
AcDbTrace
 10
351.0000010712531
 20
1.499999781712374
 30
0.0
 11
351.0000010712531
 21
0.4999997817123756
 31
0.0
 12
348.0000010712531
 22
0.9999997817123755
 32
0.0
 13
348.0000010712531
 23
0.9999997817123755
 33
0.0
  0
SOLID
  5
5102
330
5056
100
AcDbEntity
  8
0
 62
   115
100
AcDbTrace
 10
393.0000010712518
 20
1.499999781712374
 30
0.0
 11
393.0000010712518
 21
0.4999997817123756
 31
0.0
 12
396.0000010712517
 22
0.9999997817123755
 32
0.0
 13
396.0000010712517
 23
0.9999997817123755
 33
0.0
  0
MTEXT
  5
5103
330
5056
100
AcDbEntity
  8
0
 62
     7
100
AcDbMText
 10
372.0000010712524
 20
3.499999781712375
 30
0.0
 40
3.0
 41
0.0
 71
     5
 72
     1
  1
\A1;48
 73
     1
 44
1.0
1001
ACAD
1000
MTEXTBEGIN
1070
    73
1070
     1
1070
    44
1040
1.0
1070
    74
1070
     0
1000
MTEXTEND
  0
POINT
  5
5104
330
5056
100
AcDbEntity
  8
DEFPOINTS
 62
     0
100
AcDbPoint
 10
348.0000010712531
 20
38.37858291136303
 30
0.0
  0
POINT
  5
5105
330
5056
100
AcDbEntity
  8
DEFPOINTS
 62
     0
100
AcDbPoint
 10
396.0000010712517
 20
38.37858291136303
 30
0.0
  0
POINT
  5
5106
330
5056
100
AcDbEntity
  8
DEFPOINTS
 62
     0
100
AcDbPoint
 10
396.0000010712517
 20
0.9999997817123755
 30
0.0
  0
ENDBLK
  5
5058
330
5056
100
AcDbEntity
  8
0
100
AcDbBlockEnd
  0
BLOCK
  5
5063
330
5062
100
AcDbEntity
  8
0
100
AcDbBlockBegin
  2
*D10
 70
     1
 10
0.0
 20
0.0
 30
0.0
  3
*D10
  1

  0
LINE
  5
5930
330
5062
100
AcDbEntity
  8
0
 62
   115
100
AcDbLine
 10
348.8068991150241
 20
34.80689782548409
 30
0.0
 11
342.3015162614173
 21
28.30151497187724
 31
0.0
  0
LINE
  5
5931
330
5062
100
AcDbEntity
  8
0
 62
   115
100
AcDbLine
 10
395.1931030274807
 20
34.80689782548409
 30
0.0
 11
401.6984858810873
 21
28.30151497187724
 31
0.0
  0
ARC
  5
5932
330
5062
100
AcDbEntity
  8
0
 62
   115
100
AcDbCircle
 10
372.0000010712524
 20
57.99999978171286
 30
0.0
 40
41.00000000000048
100
AcDbArc
 50
229.193309915579
 51
310.806690084421
  0
SOLID
  5
5933
330
5062
100
AcDbEntity
  8
0
 62
   115
100
AcDbTrace
 10
344.8657506921238
 20
26.60007926986193
 30
0.0
 11
345.5465143272423
 21
27.33258242555502
 31
0.0
 12
343.0086230426038
 22
29.0086217530638
 32
0.0
 13
343.0086230426038
 23
29.0086217530638
 33
0.0
  0
SOLID
  5
5934
330
5062
100
AcDbEntity
  8
0
 62
   115
100
AcDbTrace
 10
398.4534878152624
 20
27.332582425555
 30
0.0
 11
399.1342514503808
 21
26.60007926986192
 31
0.0
 12
400.9913790999008
 22
29.00862175306379
 32
0.0
 13
400.9913790999008
 23
29.00862175306379
 33
0.0
  0
MTEXT
  5
5935
102
{ACAD_XDICTIONARY
360
61DE
102
}
330
5062
100
AcDbEntity
  8
0
 62
     7
100
AcDbMText
 10
372.0000010712524
 20
19.49999978171238
 30
0.0
 40
3.0
 41
0.0
 71
     5
 72
     1
  1
\A1;90\U+00B0
 73
     1
 44
1.0
1001
ACAD
1000
MTEXTBEGIN
1070
    73
1070
     1
1070
    44
1040
1.0
1070
    74
1070
     0
1000
MTEXTEND
  0
POINT
  5
5936
330
5062
100
AcDbEntity
  8
DEFPOINTS
 62
     0
100
AcDbPoint
 10
361.388420222049
 20
18.39704090386058
 30
0.0
  0
POINT
  5
5937
330
5062
100
AcDbEntity
  8
DEFPOINTS
 62
     0
100
AcDbPoint
 10
349.5140058962106
 20
35.51400460667065
 30
0.0
  0
POINT
  5
5938
330
5062
100
AcDbEntity
  8
DEFPOINTS
 62
     0
100
AcDbPoint
 10
394.4859962462942
 20
35.51400460667065
 30
0.0
  0
POINT
  5
5939
330
5062
100
AcDbEntity
  8
DEFPOINTS
 62
     0
100
AcDbPoint
 10
385.5764518781461
 20
44.42354897481886
 30
0.0
  0
POINT
  5
593A
330
5062
100
AcDbEntity
  8
DEFPOINTS
 62
     0
100
AcDbPoint
 10
358.4235502643587
 20
44.42354897481886
 30
0.0
  0
ENDBLK
  5
5064
330
5062
100
AcDbEntity
  8
0
100
AcDbBlockEnd
  0
BLOCK
  5
5071
330
5070
100
AcDbEntity
  8
0
100
AcDbBlockBegin
  2
*D11
 70
     1
 10
0.0
 20
0.0
 30
0.0
  3
*D11
  1

  0
LINE
  5
5112
330
5070
100
AcDbEntity
  8
0
 62
   115
370
    -2
100
AcDbLine
 10
362.9084532654684
 20
87.78831558665748
 30
0.0
 11
359.0816206138603
 21
97.02710687510201
 31
0.0
  0
LINE
  5
5113
330
5070
100
AcDbEntity
  8
0
 62
   115
370
    -2
100
AcDbLine
 10
357.3651760704006
 20
85.49221499246696
 30
0.0
 11
353.5383434187926
 21
94.73100628091149
 31
0.0
  0
LINE
  5
5114
330
5070
100
AcDbEntity
  8
0
 62
   115
370
    -2
100
AcDbLine
 10
362.2359426437593
 20
97.251277639686
 30
0.0
 11
365.0075812412931
 21
98.39932793678123
 31
0.0
  0
LINE
  5
5115
330
5070
100
AcDbEntity
  8
0
 62
   115
370
    -2
100
AcDbLine
 10
351.1493882536238
 20
92.65907645130495
 30
0.0
 11
337.555160846672
 21
87.02816308936148
 31
0.0
  0
LINE
  5
5116
330
5070
100
AcDbEntity
  8
0
 62
   115
370
    -2
100
AcDbLine
 10
359.4643040462254
 20
96.10322734259071
 30
0.0
 11
353.9210268511577
 21
93.80712674840021
 31
0.0
  0
SOLID
  5
5117
330
5070
100
AcDbEntity
  8
0
 62
   115
100
AcDbTrace
 10
362.0446009275767
 20
97.71321740594162
 30
0.0
 11
362.4272843599418
 21
96.78933787343034
 31
0.0
 12
359.4643040462254
 22
96.10322734259071
 32
0.0
 13
359.4643040462254
 23
96.10322734259071
 33
0.0
  0
SOLID
  5
5118
330
5070
100
AcDbEntity
  8
0
 62
   115
100
AcDbTrace
 10
350.9580465374412
 20
93.12101621756058
 30
0.0
 11
351.3407299698063
 21
92.19713668504928
 31
0.0
 12
353.9210268511577
 22
93.80712674840021
 32
0.0
 13
353.9210268511577
 23
93.80712674840021
 33
0.0
  0
MTEXT
  5
5119
330
5070
100
AcDbEntity
  8
0
 62
     7
100
AcDbMText
 10
342.0097466704683
 20
91.5792934530638
 30
0.0
 40
3.0
 41
0.0
 71
     5
 72
     1
  1
\A1;M6x1
 11
0.9238795325112874
 21
0.3826834323650886
 31
0.0
 73
     1
 44
1.0
1001
ACAD
1000
MTEXTBEGIN
1070
    73
1070
     1
1070
    44
1040
1.0
1070
    74
1070
     0
1000
MTEXTEND
  0
POINT
  5
511A
330
5070
100
AcDbEntity
  8
DEFPOINTS
 62
     0
100
AcDbPoint
 10
363.2911366978335
 20
86.8644360541462
 30
0.0
  0
POINT
  5
511B
330
5070
100
AcDbEntity
  8
DEFPOINTS
 62
     0
100
AcDbPoint
 10
357.7478595027658
 20
84.56833545995568
 30
0.0
  0
POINT
  5
511C
330
5070
100
AcDbEntity
  8
DEFPOINTS
 62
     0
100
AcDbPoint
 10
353.9210268511577
 20
93.80712674840021
 30
0.0
  0
ENDBLK
  5
5072
330
5070
100
AcDbEntity
  8
0
100
AcDbBlockEnd
  0
BLOCK
  5
507F
330
507E
100
AcDbEntity
  8
0
100
AcDbBlockBegin
  2
*D12
 70
     1
 10
0.0
 20
0.0
 30
0.0
  3
*D12
  1

  0
LINE
  5
593B
330
507E
100
AcDbEntity
  8
0
 62
   115
100
AcDbLine
 10
372.0000010712524
 20
92.99999978171241
 30
0.0
 11
372.0000010712524
 21
107.0097863628581
 31
0.0
  0
LINE
  5
593C
330
507E
100
AcDbEntity
  8
0
 62
   115
100
AcDbLine
 10
359.4499647633528
 20
88.29846764451767
 30
0.0
 11
353.2447677228987
 21
103.279138496779
 31
0.0
  0
ARC
  5
593D
330
507E
100
AcDbEntity
  8
0
 62
   115
100
AcDbCircle
 10
372.0000010712524
 20
57.99999978171216
 30
0.0
 40
48.00978658114592
100
AcDbArc
 50
93.58083899394948
 51
108.9191610060508
  0
SOLID
  5
593E
330
507E
100
AcDbEntity
  8
0
 62
   115
100
AcDbTrace
 10
368.985843860457
 20
106.4158113726916
 30
0.0
 11
369.0170874902837
 21
105.4162995740643
 31
0.0
 12
372.0000010712524
 22
106.009786362858
 32
0.0
 13
372.0000010712524
 23
106.009786362858
 33
0.0
  0
SOLID
  5
593F
330
507E
100
AcDbEntity
  8
0
 62
   115
100
AcDbTrace
 10
356.6104215213696
 20
102.9484602748989
 30
0.0
 11
356.2567902656997
 21
103.8838451876558
 31
0.0
 12
353.6274511552638
 22
102.3552589642678
 32
0.0
 13
353.6274511552638
 23
102.3552589642678
 33
0.0
  0
MTEXT
  5
5940
102
{ACAD_XDICTIONARY
360
61E0
102
}
330
507E
100
AcDbEntity
  8
0
 62
     7
100
AcDbMText
 10
362.1460305421706
 20
107.5392549768086
 30
0.0
 40
3.0
 41
0.0
 71
     5
 72
     1
  1
\A1;22.5\U+00B0
 11
0.9807852804032298
 21
0.1950903220161311
 31
0.0
 73
     1
 44
1.0
1001
ACAD
1000
MTEXTBEGIN
1070
    73
1070
     1
1070
    44
1040
1.0
1070
    74
1070
     0
1000
MTEXTEND
  0
POINT
  5
5941
330
507E
100
AcDbEntity
  8
DEFPOINTS
 62
     0
100
AcDbPoint
 10
365.733466439518
 20
105.5990559832426
 30
0.0
  0
POINT
  5
5942
330
507E
100
AcDbEntity
  8
DEFPOINTS
 62
     0
100
AcDbPoint
 10
372.0000010712524
 20
23.99999978171242
 30
0.0
  0
POINT
  5
5943
330
507E
100
AcDbEntity
  8
DEFPOINTS
 62
     0
100
AcDbPoint
 10
368.0748470506967
 20
67.47615985254082
 30
0.0
  0
POINT
  5
5944
330
507E
100
AcDbEntity
  8
DEFPOINTS
 62
     0
100
AcDbPoint
 10
359.8326481957179
 20
87.37458811200639
 30
0.0
  0
POINT
  5
5945
330
507E
100
AcDbEntity
  8
DEFPOINTS
 62
     0
100
AcDbPoint
 10
372.0000010712524
 20
91.9999997817124
 30
0.0
  0
ENDBLK
  5
5080
330
507E
100
AcDbEntity
  8
0
100
AcDbBlockEnd
  0
BLOCK
  5
508D
330
508C
100
AcDbEntity
  8
0
100
AcDbBlockBegin
  2
*D13
 70
     1
 10
0.0
 20
0.0
 30
0.0
  3
*D13
  1

  0
LINE
  5
5128
330
508C
100
AcDbEntity
  8
0
 62
   115
370
    -2
100
AcDbLine
 10
352.9687780802847
 20
39.96877679074476
 30
0.0
 11
337.0000010712524
 21
39.96877679074476
 31
0.0
  0
LINE
  5
5129
330
508C
100
AcDbEntity
  8
0
 62
   115
370
    -2
100
AcDbLine
 10
352.9687810712524
 20
76.0312227817124
 30
0.0
 11
337.0000010712524
 21
76.03122278171245
 31
0.0
  0
LINE
  5
512A
330
508C
100
AcDbEntity
  8
0
 62
   115
370
    -2
100
AcDbLine
 10
338.0000010712524
 20
42.96877679074476
 30
0.0
 11
338.0000010712524
 21
73.03122278171244
 31
0.0
  0
SOLID
  5
512B
330
508C
100
AcDbEntity
  8
0
 62
   115
100
AcDbTrace
 10
337.5000010712524
 20
42.96877679074476
 30
0.0
 11
338.5000010712524
 21
42.96877679074476
 31
0.0
 12
338.0000010712524
 22
39.96877679074476
 32
0.0
 13
338.0000010712524
 23
39.96877679074476
 33
0.0
  0
SOLID
  5
512C
330
508C
100
AcDbEntity
  8
0
 62
   115
100
AcDbTrace
 10
337.5000010712524
 20
73.03122278171244
 30
0.0
 11
338.5000010712524
 21
73.03122278171244
 31
0.0
 12
338.0000010712524
 22
76.03122278171245
 32
0.0
 13
338.0000010712524
 23
76.03122278171245
 33
0.0
  0
MTEXT
  5
512D
330
508C
100
AcDbEntity
  8
0
 62
     7
100
AcDbMText
 10
334.7142867855382
 20
57.99999978622865
 30
0.0
 40
3.0
 41
0.0
 71
     5
 72
     1
  1
\A1;(36.06)
 11
0.0000000000000001
 21
1.0
 31
0.0
 73
     1
 44
1.0
1001
ACAD
1000
MTEXTBEGIN
1070
    73
1070
     1
1070
    44
1040
1.0
1070
    74
1070
     0
1000
MTEXTEND
  0
POINT
  5
512E
330
508C
100
AcDbEntity
  8
DEFPOINTS
 62
     0
100
AcDbPoint
 10
353.9687780802847
 20
39.96877679074476
 30
0.0
  0
POINT
  5
512F
330
508C
100
AcDbEntity
  8
DEFPOINTS
 62
     0
100
AcDbPoint
 10
353.9687810712524
 20
76.0312227817124
 30
0.0
  0
POINT
  5
5130
330
508C
100
AcDbEntity
  8
DEFPOINTS
 62
     0
100
AcDbPoint
 10
338.0000010712524
 20
76.03122278171245
 30
0.0
  0
ENDBLK
  5
508E
330
508C
100
AcDbEntity
  8
0
100
AcDbBlockEnd
  0
BLOCK
  5
50A3
330
50A2
100
AcDbEntity
  8
0
100
AcDbBlockBegin
  2
*D14
 70
     1
 10
0.0
 20
0.0
 30
0.0
  3
*D14
  1

  0
LINE
  5
5E98
330
50A2
100
AcDbEntity
  8
0
 62
   115
370
    -2
100
AcDbLine
 10
214.5000010712524
 20
26.99999950671236
 30
0.0
 11
239.4999950712524
 21
26.99999950671235
 31
0.0
  0
LINE
  5
5E99
330
50A2
100
AcDbEntity
  8
0
 62
   115
370
    -2
100
AcDbLine
 10
214.5000010712524
 20
88.99999920671234
 30
0.0
 11
239.4999950712525
 21
88.99999920671232
 31
0.0
  0
LINE
  5
5E9A
330
50A2
100
AcDbEntity
  8
0
 62
   115
370
    -2
100
AcDbLine
 10
238.4999950712524
 20
29.99999950671235
 30
0.0
 11
238.4999950712524
 21
85.99999920671233
 31
0.0
  0
SOLID
  5
5E9B
330
50A2
100
AcDbEntity
  8
0
 62
   115
100
AcDbTrace
 10
237.9999950712524
 20
29.99999950671235
 30
0.0
 11
238.9999950712524
 21
29.99999950671235
 31
0.0
 12
238.4999950712524
 22
26.99999950671235
 32
0.0
 13
238.4999950712524
 23
26.99999950671235
 33
0.0
  0
SOLID
  5
5E9C
330
50A2
100
AcDbEntity
  8
0
 62
   115
100
AcDbTrace
 10
237.9999950712524
 20
85.99999920671233
 30
0.0
 11
238.9999950712525
 21
85.99999920671233
 31
0.0
 12
238.4999950712524
 22
88.99999920671232
 32
0.0
 13
238.4999950712524
 23
88.99999920671232
 33
0.0
  0
MTEXT
  5
5E9D
330
50A2
100
AcDbEntity
  8
0
 62
     7
100
AcDbMText
 10
235.9999950712524
 20
57.99999935671237
 30
0.0
 40
3.0
 41
0.0
 71
     5
 72
     1
  1
\A1;%%C62
 11
0.0000000000000001
 21
1.0
 31
0.0
 73
     1
 44
1.0
1001
ACAD
1000
MTEXTBEGIN
1070
    73
1070
     1
1070
    44
1040
1.0
1070
    74
1070
     0
1000
MTEXTEND
  0
POINT
  5
5E9E
330
50A2
100
AcDbEntity
  8
DEFPOINTS
 62
     0
100
AcDbPoint
 10
213.5000010712524
 20
26.99999950671236
 30
0.0
  0
POINT
  5
5E9F
330
50A2
100
AcDbEntity
  8
DEFPOINTS
 62
     0
100
AcDbPoint
 10
213.5000010712524
 20
88.99999920671234
 30
0.0
  0
POINT
  5
5EA0
330
50A2
100
AcDbEntity
  8
DEFPOINTS
 62
     0
100
AcDbPoint
 10
238.4999950712524
 20
88.99999920671232
 30
0.0
  0
ENDBLK
  5
50A4
330
50A2
100
AcDbEntity
  8
0
100
AcDbBlockEnd
  0
BLOCK
  5
50AF
330
50AE
100
AcDbEntity
  8
0
100
AcDbBlockBegin
  2
*D15
 70
     1
 10
0.0
 20
0.0
 30
0.0
  3
*D15
  1

  0
LINE
  5
5141
330
50AE
100
AcDbEntity
  8
0
 62
   115
370
    -2
100
AcDbLine
 10
353.9687810712524
 20
38.96877678171239
 30
0.0
 11
353.9687810712524
 21
7.999999781712374
 31
0.0
  0
LINE
  5
5142
330
50AE
100
AcDbEntity
  8
0
 62
   115
370
    -2
100
AcDbLine
 10
390.0312356712526
 20
38.96877678171239
 30
0.0
 11
390.0312356712526
 21
7.999999781712374
 31
0.0
  0
LINE
  5
5143
330
50AE
100
AcDbEntity
  8
0
 62
   115
370
    -2
100
AcDbLine
 10
356.9687810712523
 20
8.999999781712373
 30
0.0
 11
387.0312356712526
 21
8.999999781712373
 31
0.0
  0
SOLID
  5
5144
330
50AE
100
AcDbEntity
  8
0
 62
   115
100
AcDbTrace
 10
356.9687810712523
 20
9.499999781712377
 30
0.0
 11
356.9687810712523
 21
8.499999781712373
 31
0.0
 12
353.9687810712524
 22
8.999999781712373
 32
0.0
 13
353.9687810712524
 23
8.999999781712373
 33
0.0
  0
SOLID
  5
5145
330
50AE
100
AcDbEntity
  8
0
 62
   115
100
AcDbTrace
 10
387.0312356712526
 20
9.499999781712377
 30
0.0
 11
387.0312356712526
 21
8.499999781712373
 31
0.0
 12
390.0312356712526
 22
8.999999781712373
 32
0.0
 13
390.0312356712526
 23
8.999999781712373
 33
0.0
  0
MTEXT
  5
5146
330
50AE
100
AcDbEntity
  8
0
 62
     7
100
AcDbMText
 10
372.0000083712524
 20
12.28571406742666
 30
0.0
 40
3.0
 41
0.0
 71
     5
 72
     1
  1
\A1;(36.06)
 73
     1
 44
1.0
1001
ACAD
1000
MTEXTBEGIN
1070
    73
1070
     1
1070
    44
1040
1.0
1070
    74
1070
     0
1000
MTEXTEND
  0
POINT
  5
5147
330
50AE
100
AcDbEntity
  8
DEFPOINTS
 62
     0
100
AcDbPoint
 10
353.9687810712524
 20
39.96877678171239
 30
0.0
  0
POINT
  5
5148
330
50AE
100
AcDbEntity
  8
DEFPOINTS
 62
     0
100
AcDbPoint
 10
390.0312356712526
 20
39.96877678171239
 30
0.0
  0
POINT
  5
5149
330
50AE
100
AcDbEntity
  8
DEFPOINTS
 62
     0
100
AcDbPoint
 10
390.0312356712526
 20
8.999999781712373
 30
0.0
  0
ENDBLK
  5
50B0
330
50AE
100
AcDbEntity
  8
0
100
AcDbBlockEnd
  0
BLOCK
  5
5424
330
5423
100
AcDbEntity
  8
0
100
AcDbBlockBegin
  2
*D16
 70
     1
 10
0.0
 20
0.0
 30
0.0
  3
*D16
  1

  0
LINE
  5
5450
330
5423
100
AcDbEntity
  8
0
 62
   115
370
    -2
100
AcDbLine
 10
373.0000010712524
 20
32.49999968171241
 30
0.0
 11
415.0000010712516
 21
32.4999996817124
 31
0.0
  0
LINE
  5
5451
330
5423
100
AcDbEntity
  8
0
 62
   115
370
    -2
100
AcDbLine
 10
373.0000010712524
 20
83.4999998817123
 30
0.0
 11
415.0000010712516
 21
83.4999998817123
 31
0.0
  0
LINE
  5
5452
330
5423
100
AcDbEntity
  8
0
 62
   115
370
    -2
100
AcDbLine
 10
414.0000010712516
 20
35.49999968171241
 30
0.0
 11
414.0000010712516
 21
80.49999988171229
 31
0.0
  0
SOLID
  5
5453
330
5423
100
AcDbEntity
  8
0
 62
   115
100
AcDbTrace
 10
413.5000010712516
 20
35.49999968171241
 30
0.0
 11
414.5000010712516
 21
35.49999968171241
 31
0.0
 12
414.0000010712516
 22
32.4999996817124
 32
0.0
 13
414.0000010712516
 23
32.4999996817124
 33
0.0
  0
SOLID
  5
5454
330
5423
100
AcDbEntity
  8
0
 62
   115
100
AcDbTrace
 10
413.5000010712516
 20
80.49999988171229
 30
0.0
 11
414.5000010712516
 21
80.49999988171229
 31
0.0
 12
414.0000010712516
 22
83.4999998817123
 32
0.0
 13
414.0000010712516
 23
83.4999998817123
 33
0.0
  0
MTEXT
  5
5455
330
5423
100
AcDbEntity
  8
0
 62
     7
100
AcDbMText
 10
411.5000010712517
 20
57.99999978171241
 30
0.0
 40
3.0
 41
0.0
 71
     5
 72
     1
  1
\A1;PCD 51
 11
0.0000000000000001
 21
1.0
 31
0.0
 73
     1
 44
1.0
1001
ACAD
1000
MTEXTBEGIN
1070
    73
1070
     1
1070
    44
1040
1.0
1070
    74
1070
     0
1000
MTEXTEND
  0
POINT
  5
5456
330
5423
100
AcDbEntity
  8
DEFPOINTS
 62
     0
100
AcDbPoint
 10
372.0000010712524
 20
32.49999968171241
 30
0.0
  0
POINT
  5
5457
330
5423
100
AcDbEntity
  8
DEFPOINTS
 62
     0
100
AcDbPoint
 10
372.0000010712524
 20
83.4999998817123
 30
0.0
  0
POINT
  5
5458
330
5423
100
AcDbEntity
  8
DEFPOINTS
 62
     0
100
AcDbPoint
 10
414.0000010712516
 20
83.4999998817123
 30
0.0
  0
ENDBLK
  5
5425
330
5423
100
AcDbEntity
  8
0
100
AcDbBlockEnd
  0
BLOCK
  5
5443
330
5442
100
AcDbEntity
  8
0
100
AcDbBlockBegin
  2
*D17
 70
     1
 10
0.0
 20
0.0
 30
0.0
  3
*D17
  1

  0
LINE
  5
54A5
330
5442
100
AcDbEntity
  8
0
 62
   115
370
    -2
100
AcDbLine
 10
373.0000010712524
 20
80.19999273171237
 30
0.0
 11
407.0000010712517
 21
80.19999273171237
 31
0.0
  0
LINE
  5
54A6
330
5442
100
AcDbEntity
  8
0
 62
   115
370
    -2
100
AcDbLine
 10
373.0000010712524
 20
86.79999883171237
 30
0.0
 11
407.0000010712517
 21
86.79999883171237
 31
0.0
  0
LINE
  5
54A7
330
5442
100
AcDbEntity
  8
0
 62
   115
370
    -2
100
AcDbLine
 10
406.0000010712516
 20
77.19999273171237
 30
0.0
 11
406.0000010712516
 21
74.19999273171237
 31
0.0
  0
LINE
  5
54A8
330
5442
100
AcDbEntity
  8
0
 62
   115
370
    -2
100
AcDbLine
 10
406.0000010712516
 20
89.79999883171236
 30
0.0
 11
406.0000010712516
 21
110.2285702602838
 31
0.0
  0
LINE
  5
54A9
330
5442
100
AcDbEntity
  8
0
 62
   115
370
    -2
100
AcDbLine
 10
406.0000010712516
 20
80.19999273171237
 30
0.0
 11
406.0000010712516
 21
86.79999883171237
 31
0.0
  0
SOLID
  5
54AA
330
5442
100
AcDbEntity
  8
0
 62
   115
100
AcDbTrace
 10
405.5000010712516
 20
77.19999273171237
 30
0.0
 11
406.5000010712516
 21
77.19999273171237
 31
0.0
 12
406.0000010712516
 22
80.19999273171237
 32
0.0
 13
406.0000010712516
 23
80.19999273171237
 33
0.0
  0
SOLID
  5
54AB
330
5442
100
AcDbEntity
  8
0
 62
   115
100
AcDbTrace
 10
405.5000010712516
 20
89.79999883171236
 30
0.0
 11
406.5000010712516
 21
89.79999883171236
 31
0.0
 12
406.0000010712516
 22
86.79999883171237
 32
0.0
 13
406.0000010712516
 23
86.79999883171237
 33
0.0
  0
MTEXT
  5
54AC
330
5442
100
AcDbEntity
  8
0
 62
     7
100
AcDbMText
 10
403.5000010712517
 20
101.5142845459981
 30
0.0
 40
3.0
 41
0.0
 71
     5
 72
     1
  1
\A1;6-%%C6.6
 11
0.0000000000000001
 21
1.0
 31
0.0
 73
     1
 44
1.0
1001
ACAD
1000
MTEXTBEGIN
1070
    73
1070
     1
1070
    44
1040
1.0
1070
    74
1070
     0
1000
MTEXTEND
  0
POINT
  5
54AD
330
5442
100
AcDbEntity
  8
DEFPOINTS
 62
     0
100
AcDbPoint
 10
372.0000010712524
 20
80.19999273171237
 30
0.0
  0
POINT
  5
54AE
330
5442
100
AcDbEntity
  8
DEFPOINTS
 62
     0
100
AcDbPoint
 10
372.0000010712524
 20
86.79999883171237
 30
0.0
  0
POINT
  5
54AF
330
5442
100
AcDbEntity
  8
DEFPOINTS
 62
     0
100
AcDbPoint
 10
406.0000010712516
 20
86.79999883171237
 30
0.0
  0
ENDBLK
  5
5444
330
5442
100
AcDbEntity
  8
0
100
AcDbBlockEnd
  0
BLOCK
  5
5DC5
330
5DC4
100
AcDbEntity
  8
0
100
AcDbBlockBegin
  2
2510SDK
 70
     0
 10
0.0
 20
0.0
 30
0.0
  3
2510SDK
  1

  0
ELLIPSE
  5
60E9
330
5DC4
100
AcDbEntity
  8
9
100
AcDbEllipse
 10
208.5000040712524
 20
185.7163857570509
 30
0.0
 11
2.999463687718955
 21
0.0000000000000941
 31
0.0
210
0.0
220
0.0
230
1.0
 40
0.3827518572056263
 41
3.141592653589758
 42
7.853981633974454
  0
ELLIPSE
  5
60EA
330
5DC4
100
AcDbEntity
  8
0
100
AcDbEllipse
 10
208.5000040712525
 20
185.7165132570509
 30
0.0
 11
-2.499554249533093
 21
0.000000000000123
 31
0.0
210
0.0
220
0.0
230
1.0
 40
0.3764848526487709
 41
0.0
 42
6.283185307179584
  0
LINE
  5
60EB
330
5DC4
100
AcDbEntity
  8
0
100
AcDbLine
 10
205.5000103994032
 20
182.6883927566489
 30
0.0
 11
213.5000043994033
 21
182.6883927566489
 31
0.0
  0
LINE
  5
60EC
330
5DC4
100
AcDbEntity
  8
0
100
AcDbLine
 10
213.5000012220155
 20
188.7140876252392
 30
0.0
 11
205.5000072220154
 21
188.7140876252392
 31
0.0
  0
TEXT
  5
60ED
330
5DC4
100
AcDbEntity
  8
0
100
AcDbText
 10
159.7261945474429
 20
155.9999997817124
 30
0.0
 40
4.0
  1
SDK2510
 72
     4
 11
173.2500040712524
 21
157.9999997817124
 31
0.0
100
AcDbText
  0
LWPOLYLINE
  5
60EE
330
5DC4
100
AcDbEntity
  8
0
100
AcDbPolyline
 90
        2
 70
     0
 43
0.0
 10
214.5000070712524
 20
177.621416652061
 10
204.5000070712525
 20
177.621416652061
  0
LWPOLYLINE
  5
60EF
330
5DC4
100
AcDbEntity
  8
0
100
AcDbPolyline
 90
        2
 70
     0
 43
0.0
 10
214.5000070712524
 20
138.3785829113629
 10
204.5000070712525
 20
138.3785829113629
  0
LINE
  5
60F0
330
5DC4
100
AcDbEntity
  8
0
100
AcDbLine
 10
214.5000010712525
 20
127.9999995067123
 30
0.0
 11
214.5000010712525
 21
187.9999992067124
 31
0.0
  0
LINE
  5
60F1
330
5DC4
100
AcDbEntity
  8
0
100
AcDbLine
 10
213.5000010712524
 20
126.9999995067123
 30
0.0
 11
214.5000010712525
 21
127.9999995067123
 31
0.0
  0
LINE
  5
60F2
330
5DC4
100
AcDbEntity
  8
0
100
AcDbLine
 10
141.5000010712524
 20
177.9999977567123
 30
0.0
 11
141.5000010712524
 21
138.0000026567122
 31
0.0
  0
LINE
  5
60F3
330
5DC4
100
AcDbEntity
  8
0
100
AcDbLine
 10
213.5000010712524
 20
188.9999992067123
 30
0.0
 11
205.5000070712524
 21
188.9999992067123
 31
0.0
  0
LINE
  5
60F4
330
5DC4
100
AcDbEntity
  8
0
100
AcDbLine
 10
214.5000010712525
 20
187.9999992067124
 30
0.0
 11
213.5000010712524
 21
188.9999992067123
 31
0.0
  0
LINE
  5
60F5
330
5DC4
100
AcDbEntity
  8
0
100
AcDbLine
 10
204.5000070712525
 20
187.9999992067123
 30
0.0
 11
204.5000070712525
 21
127.9999995067125
 31
0.0
  0
LINE
  5
60F6
330
5DC4
100
AcDbEntity
  8
0
100
AcDbLine
 10
205.5000070712524
 20
188.9999992067123
 30
0.0
 11
204.5000070712525
 21
187.9999992067123
 31
0.0
  0
LINE
  5
60F7
330
5DC4
100
AcDbEntity
  8
0
100
AcDbLine
 10
204.5000070712525
 20
177.9999977567123
 30
0.0
 11
141.5000010712524
 21
177.9999977567123
 31
0.0
  0
LINE
  5
60F8
330
5DC4
100
AcDbEntity
  8
0
100
AcDbLine
 10
140.5000010712524
 20
176.9999977567123
 30
0.0
 11
141.5000010712524
 21
177.9999977567123
 31
0.0
  0
LINE
  5
60F9
330
5DC4
100
AcDbEntity
  8
0
100
AcDbLine
 10
140.5000010712524
 20
176.9999977567123
 30
0.0
 11
140.5000010712524
 21
139.0000026567123
 31
0.0
  0
LINE
  5
60FA
330
5DC4
100
AcDbEntity
  8
0
100
AcDbLine
 10
141.5000010712524
 20
138.0000026567123
 30
0.0
 11
140.5000010712524
 21
139.0000026567123
 31
0.0
  0
LINE
  5
60FB
330
5DC4
100
AcDbEntity
  8
0
100
AcDbLine
 10
141.5000010712524
 20
138.0000026567123
 30
0.0
 11
204.5000070712525
 21
138.0000026567123
 31
0.0
  0
LINE
  5
60FC
330
5DC4
100
AcDbEntity
  8
0
100
AcDbLine
 10
205.5000070712524
 20
126.9999995067123
 30
0.0
 11
204.5000070712525
 21
127.9999995067123
 31
0.0
  0
LINE
  5
60FD
330
5DC4
100
AcDbEntity
  8
0
100
AcDbLine
 10
205.5000070712524
 20
126.9999995067123
 30
0.0
 11
213.5000010712524
 21
126.9999995067123
 31
0.0
  0
LINE
  5
60FE
330
5DC4
100
AcDbEntity
  8
0
100
AcDbLine
 10
205.5000070712524
 20
126.9999995067123
 30
0.0
 11
205.5000130712524
 21
138.3785829113629
 31
0.0
  0
LINE
  5
60FF
330
5DC4
100
AcDbEntity
  8
0
100
AcDbLine
 10
213.5000010712524
 20
126.9999995067123
 30
0.0
 11
213.5000070712524
 21
138.3785829113629
 31
0.0
  0
LINE
  5
6100
330
5DC4
100
AcDbEntity
  8
0
100
AcDbLine
 10
205.5000070712524
 20
188.9999992067123
 30
0.0
 11
205.5000130712524
 21
177.621416652061
 31
0.0
  0
LINE
  5
6101
330
5DC4
100
AcDbEntity
  8
0
100
AcDbLine
 10
213.5000010712524
 20
188.9999992067123
 30
0.0
 11
213.5000070712524
 21
177.621416652061
 31
0.0
  0
LINE
  5
6102
330
5DC4
100
AcDbEntity
  8
9
100
AcDbLine
 10
204.5000070712525
 20
138.3785829113629
 30
0.0
 11
214.5000070712524
 21
177.621416652061
 31
0.0
  0
LINE
  5
6103
330
5DC4
100
AcDbEntity
  8
9
100
AcDbLine
 10
204.5000070712525
 20
177.621416652061
 30
0.0
 11
214.5000070712524
 21
138.3785829113629
 31
0.0
  0
LINE
  5
6104
330
5DC4
100
AcDbEntity
  8
2
100
AcDbLine
 10
140.5000010712524
 20
170.2999997817125
 30
0.0
 11
220.5000010712524
 21
170.2999997817125
 31
0.0
  0
LINE
  5
6105
330
5DC4
100
AcDbEntity
  8
2
100
AcDbLine
 10
140.5000010712524
 20
145.6999997817123
 30
0.0
 11
220.5000010712524
 21
145.6999997817123
 31
0.0
  0
LINE
  5
6106
330
5DC4
100
AcDbEntity
  8
0
100
AcDbLine
 10
220.4999950712524
 20
139.0000051067122
 30
0.0
 11
219.4999950712524
 21
138.0000051067122
 31
0.0
  0
LINE
  5
6107
330
5DC4
100
AcDbEntity
  8
0
100
AcDbLine
 10
220.4999950712524
 20
139.0000051067122
 30
0.0
 11
220.4999950712525
 21
177.0000002067123
 31
0.0
  0
LINE
  5
6108
330
5DC4
100
AcDbEntity
  8
0
100
AcDbLine
 10
219.4999950712524
 20
178.0000002067123
 30
0.0
 11
220.4999950712525
 21
177.0000002067123
 31
0.0
  0
LINE
  5
6109
330
5DC4
100
AcDbEntity
  8
0
100
AcDbLine
 10
219.4999950712524
 20
178.0000002067123
 30
0.0
 11
220.4999950712524
 21
177.0000002067123
 31
0.0
  0
LINE
  5
610A
330
5DC4
100
AcDbEntity
  8
0
100
AcDbLine
 10
219.4999950712524
 20
138.0000051067122
 30
0.0
 11
219.4999950712524
 21
178.0000002067123
 31
0.0
  0
LINE
  5
610B
330
5DC4
100
AcDbEntity
  8
0
100
AcDbLine
 10
214.5000010712525
 20
178.0000002067123
 30
0.0
 11
219.4999950712523
 21
178.0000002067123
 31
0.0
  0
LINE
  5
610C
330
5DC4
100
AcDbEntity
  8
0
100
AcDbLine
 10
214.5000010712525
 20
138.0000002067123
 30
0.0
 11
219.4999901712524
 21
138.0000002067123
 31
0.0
  0
ENDBLK
  5
5DC6
330
5DC4
100
AcDbEntity
  8
0
100
AcDbBlockEnd
  0
BLOCK
  5
5E63
330
5E62
100
AcDbEntity
  8
0
100
AcDbBlockBegin
  2
*D19
 70
     1
 10
0.0
 20
0.0
 30
0.0
  3
*D19
  1

  0
LINE
  5
5E65
330
5E62
100
AcDbEntity
  8
0
 62
   115
370
    -2
100
AcDbLine
 10
214.5000010712525
 20
26.99999950671236
 30
0.0
 11
214.5000010712525
 21
15.99999950671235
 31
0.0
  0
LINE
  5
5E66
330
5E62
100
AcDbEntity
  8
0
 62
   115
370
    -2
100
AcDbLine
 10
220.4999950712524
 20
38.0519415326782
 30
0.0
 11
220.4999950712524
 21
15.99999950671235
 31
0.0
  0
LINE
  5
5E67
330
5E62
100
AcDbEntity
  8
0
 62
   115
370
    -2
100
AcDbLine
 10
211.5000010712524
 20
16.99999950671235
 30
0.0
 11
208.5000010712525
 21
16.99999950671235
 31
0.0
  0
LINE
  5
5E68
330
5E62
100
AcDbEntity
  8
0
 62
   115
370
    -2
100
AcDbLine
 10
223.4999950712524
 20
16.99999950671235
 30
0.0
 11
226.4999950712524
 21
16.99999950671235
 31
0.0
  0
LINE
  5
5E69
330
5E62
100
AcDbEntity
  8
0
 62
   115
370
    -2
100
AcDbLine
 10
214.5000010712525
 20
16.99999950671235
 30
0.0
 11
220.4999950712524
 21
16.99999950671235
 31
0.0
  0
SOLID
  5
5E6A
330
5E62
100
AcDbEntity
  8
0
 62
   115
100
AcDbTrace
 10
211.5000010712524
 20
17.49999950671235
 30
0.0
 11
211.5000010712524
 21
16.49999950671235
 31
0.0
 12
214.5000010712525
 22
16.99999950671235
 32
0.0
 13
214.5000010712525
 23
16.99999950671235
 33
0.0
  0
SOLID
  5
5E6B
330
5E62
100
AcDbEntity
  8
0
 62
   115
100
AcDbTrace
 10
223.4999950712524
 20
17.49999950671235
 30
0.0
 11
223.4999950712524
 21
16.49999950671235
 31
0.0
 12
220.4999950712524
 22
16.99999950671235
 32
0.0
 13
220.4999950712524
 23
16.99999950671235
 33
0.0
  0
MTEXT
  5
5E6C
330
5E62
100
AcDbEntity
  8
0
 62
     7
100
AcDbMText
 10
217.4999980712524
 20
19.49999950671235
 30
0.0
 40
3.0
 41
0.0
 71
     5
 72
     1
  1
\A1;6
 73
     1
 44
1.0
1001
ACAD
1000
MTEXTBEGIN
1070
    73
1070
     1
1070
    44
1040
1.0
1070
    74
1070
     0
1000
MTEXTEND
  0
POINT
  5
5E6D
330
5E62
100
AcDbEntity
  8
DEFPOINTS
 62
     0
100
AcDbPoint
 10
214.5000010712525
 20
27.99999950671236
 30
0.0
  0
POINT
  5
5E6E
330
5E62
100
AcDbEntity
  8
DEFPOINTS
 62
     0
100
AcDbPoint
 10
220.4999950712524
 20
39.0519415326782
 30
0.0
  0
POINT
  5
5E6F
330
5E62
100
AcDbEntity
  8
DEFPOINTS
 62
     0
100
AcDbPoint
 10
220.4999950712524
 20
16.99999950671235
 30
0.0
  0
ENDBLK
  5
5E64
330
5E62
100
AcDbEntity
  8
0
100
AcDbBlockEnd
  0
BLOCK
  5
5E72
330
5E71
100
AcDbEntity
  8
0
100
AcDbBlockBegin
  2
*D20
 70
     1
 10
0.0
 20
0.0
 30
0.0
  3
*D20
  1

  0
LINE
  5
5E7D
330
5E71
100
AcDbEntity
  8
0
 62
   115
370
    -2
100
AcDbLine
 10
220.4999950712524
 20
38.0000026567123
 30
0.0
 11
231.4999950712524
 21
38.0000026567123
 31
0.0
  0
LINE
  5
5E7E
330
5E71
100
AcDbEntity
  8
0
 62
   115
370
    -2
100
AcDbLine
 10
220.4999950712524
 20
77.9999977567123
 30
0.0
 11
231.4999950712525
 21
77.99999775671229
 31
0.0
  0
LINE
  5
5E7F
330
5E71
100
AcDbEntity
  8
0
 62
   115
370
    -2
100
AcDbLine
 10
230.4999950712524
 20
41.00000265671229
 30
0.0
 11
230.4999950712525
 21
74.99999775671229
 31
0.0
  0
SOLID
  5
5E80
330
5E71
100
AcDbEntity
  8
0
 62
   115
100
AcDbTrace
 10
229.9999950712524
 20
41.00000265671229
 30
0.0
 11
230.9999950712525
 21
41.00000265671229
 31
0.0
 12
230.4999950712524
 22
38.0000026567123
 32
0.0
 13
230.4999950712524
 23
38.0000026567123
 33
0.0
  0
SOLID
  5
5E81
330
5E71
100
AcDbEntity
  8
0
 62
   115
100
AcDbTrace
 10
229.9999950712525
 20
74.99999775671229
 30
0.0
 11
230.9999950712525
 21
74.99999775671229
 31
0.0
 12
230.4999950712525
 22
77.99999775671229
 32
0.0
 13
230.4999950712525
 23
77.99999775671229
 33
0.0
  0
MTEXT
  5
5E82
330
5E71
100
AcDbEntity
  8
0
 62
     7
100
AcDbMText
 10
227.2142807855382
 20
58.00000020671233
 30
0.0
 40
3.0
 41
0.0
 71
     5
 72
     1
  1
\A1;%%C40 g6 ({\A0;\H0.5x;\S-0.009^ -0.025;})
 11
0.0000000000000001
 21
1.0
 31
0.0
 73
     1
 44
1.0
1001
ACAD
1000
MTEXTBEGIN
1070
    73
1070
     1
1070
    44
1040
1.0
1070
    74
1070
     0
1000
MTEXTEND
  0
POINT
  5
5E83
330
5E71
100
AcDbEntity
  8
DEFPOINTS
 62
     0
100
AcDbPoint
 10
219.4999950712524
 20
38.0000026567123
 30
0.0
  0
POINT
  5
5E84
330
5E71
100
AcDbEntity
  8
DEFPOINTS
 62
     0
100
AcDbPoint
 10
219.4999950712524
 20
77.9999977567123
 30
0.0
  0
POINT
  5
5E85
330
5E71
100
AcDbEntity
  8
DEFPOINTS
 62
     0
100
AcDbPoint
 10
230.4999950712525
 20
77.99999775671229
 30
0.0
  0
ENDBLK
  5
5E73
330
5E71
100
AcDbEntity
  8
0
100
AcDbBlockEnd
  0
BLOCK
  5
6092
330
6091
100
AcDbEntity
  8
0
100
AcDbBlockBegin
  2
*D23
 70
     1
 10
0.0
 20
0.0
 30
0.0
  3
*D23
  1

  0
LINE
  5
6094
330
6091
100
AcDbEntity
  8
0
 62
   115
370
    -2
100
AcDbLine
 10
140.5000010712524
 20
177.9999977567123
 30
0.0
 11
124.7481949650048
 21
177.9999977567123
 31
0.0
  0
LINE
  5
6095
330
6091
100
AcDbEntity
  8
0
 62
   115
370
    -2
100
AcDbLine
 10
140.5000010712524
 20
158.0000002067123
 30
0.0
 11
124.7481949650048
 21
158.0000002067123
 31
0.0
  0
LINE
  5
6096
330
6091
100
AcDbEntity
  8
0
 62
   115
370
    -2
100
AcDbLine
 10
125.7481949650048
 20
174.9999977567123
 30
0.0
 11
125.7481949650048
 21
161.0000002067122
 31
0.0
  0
SOLID
  5
6097
330
6091
100
AcDbEntity
  8
0
 62
   115
100
AcDbTrace
 10
125.2481949650048
 20
174.9999977567123
 30
0.0
 11
126.2481949650048
 21
174.9999977567123
 31
0.0
 12
125.7481949650048
 22
177.9999977567123
 32
0.0
 13
125.7481949650048
 23
177.9999977567123
 33
0.0
  0
SOLID
  5
6098
330
6091
100
AcDbEntity
  8
0
 62
   115
100
AcDbTrace
 10
125.2481949650048
 20
161.0000002067122
 30
0.0
 11
126.2481949650048
 21
161.0000002067122
 31
0.0
 12
125.7481949650048
 22
158.0000002067123
 32
0.0
 13
125.7481949650048
 23
158.0000002067123
 33
0.0
  0
MTEXT
  5
6099
330
6091
100
AcDbEntity
  8
0
 62
     7
100
AcDbMText
 10
123.2481949650048
 20
167.9999989817123
 30
0.0
 40
3.0
 41
0.0
 71
     5
 72
     1
  1
\A1;20
 11
0.0000000000000001
 21
1.0
 31
0.0
 73
     1
 44
1.0
1001
ACAD
1000
MTEXTBEGIN
1070
    73
1070
     1
1070
    44
1040
1.0
1070
    74
1070
     0
1000
MTEXTEND
  0
POINT
  5
609A
330
6091
100
AcDbEntity
  8
DEFPOINTS
 62
     0
100
AcDbPoint
 10
141.5000010712524
 20
177.9999977567123
 30
0.0
  0
POINT
  5
609B
330
6091
100
AcDbEntity
  8
DEFPOINTS
 62
     0
100
AcDbPoint
 10
141.5000010712524
 20
158.0000002067123
 30
0.0
  0
POINT
  5
609C
330
6091
100
AcDbEntity
  8
DEFPOINTS
 62
     0
100
AcDbPoint
 10
125.7481949650048
 20
158.0000002067123
 30
0.0
  0
ENDBLK
  5
6093
330
6091
100
AcDbEntity
  8
0
100
AcDbBlockEnd
  0
BLOCK
  5
609F
330
609E
100
AcDbEntity
  8
0
100
AcDbBlockBegin
  2
*D24
 70
     1
 10
0.0
 20
0.0
 30
0.0
  3
*D24
  1

  0
LINE
  5
60A1
330
609E
100
AcDbEntity
  8
0
 62
   115
370
    -2
100
AcDbLine
 10
203.5000070712524
 20
157.9999993567124
 30
0.0
 11
190.7664087480345
 21
157.9999993567124
 31
0.0
  0
LINE
  5
60A2
330
609E
100
AcDbEntity
  8
0
 62
   115
370
    -2
100
AcDbLine
 10
204.5000070712524
 20
188.9999992067123
 30
0.0
 11
190.7664087480345
 21
188.9999992067123
 31
0.0
  0
LINE
  5
60A3
330
609E
100
AcDbEntity
  8
0
 62
   115
370
    -2
100
AcDbLine
 10
191.7664087480345
 20
160.9999993567124
 30
0.0
 11
191.7664087480345
 21
185.9999992067123
 31
0.0
  0
SOLID
  5
60A4
330
609E
100
AcDbEntity
  8
0
 62
   115
100
AcDbTrace
 10
191.2664087480345
 20
160.9999993567124
 30
0.0
 11
192.2664087480345
 21
160.9999993567124
 31
0.0
 12
191.7664087480345
 22
157.9999993567124
 32
0.0
 13
191.7664087480345
 23
157.9999993567124
 33
0.0
  0
SOLID
  5
60A5
330
609E
100
AcDbEntity
  8
0
 62
   115
100
AcDbTrace
 10
191.2664087480345
 20
185.9999992067123
 30
0.0
 11
192.2664087480345
 21
185.9999992067123
 31
0.0
 12
191.7664087480345
 22
188.9999992067123
 32
0.0
 13
191.7664087480345
 23
188.9999992067123
 33
0.0
  0
MTEXT
  5
60A6
330
609E
100
AcDbEntity
  8
0
 62
     7
100
AcDbMText
 10
189.2664087480345
 20
173.4999992817124
 30
0.0
 40
3.0
 41
0.0
 71
     5
 72
     1
  1
\A1;31
 11
0.0000000000000001
 21
1.0
 31
0.0
 73
     1
 44
1.0
1001
ACAD
1000
MTEXTBEGIN
1070
    73
1070
     1
1070
    44
1040
1.0
1070
    74
1070
     0
1000
MTEXTEND
  0
POINT
  5
60A7
330
609E
100
AcDbEntity
  8
DEFPOINTS
 62
     0
100
AcDbPoint
 10
204.5000070712525
 20
157.9999993567124
 30
0.0
  0
POINT
  5
60A8
330
609E
100
AcDbEntity
  8
DEFPOINTS
 62
     0
100
AcDbPoint
 10
205.5000070712524
 20
188.9999992067123
 30
0.0
  0
POINT
  5
60A9
330
609E
100
AcDbEntity
  8
DEFPOINTS
 62
     0
100
AcDbPoint
 10
191.7664087480345
 20
188.9999992067123
 30
0.0
  0
ENDBLK
  5
60A0
330
609E
100
AcDbEntity
  8
0
100
AcDbBlockEnd
  0
BLOCK
  5
60AC
330
60AB
100
AcDbEntity
  8
0
100
AcDbBlockBegin
  2
*D25
 70
     1
 10
0.0
 20
0.0
 30
0.0
  3
*D25
  1

  0
LINE
  5
60AE
330
60AB
100
AcDbEntity
  8
0
 62
   115
370
    -2
100
AcDbLine
 10
221.4999950712524
 20
158.0000002067123
 30
0.0
 11
242.1527255843987
 21
158.0000002067123
 31
0.0
  0
LINE
  5
60AF
330
60AB
100
AcDbEntity
  8
0
 62
   115
370
    -2
100
AcDbLine
 10
220.4999950712524
 20
178.0519366326782
 30
0.0
 11
242.1527255843987
 21
178.0519366326782
 31
0.0
  0
LINE
  5
60B0
330
60AB
100
AcDbEntity
  8
0
 62
   115
370
    -2
100
AcDbLine
 10
241.1527255843988
 20
161.0000002067122
 30
0.0
 11
241.1527255843988
 21
175.0519366326782
 31
0.0
  0
SOLID
  5
60B1
330
60AB
100
AcDbEntity
  8
0
 62
   115
100
AcDbTrace
 10
240.6527255843987
 20
161.0000002067122
 30
0.0
 11
241.6527255843988
 21
161.0000002067122
 31
0.0
 12
241.1527255843988
 22
158.0000002067123
 32
0.0
 13
241.1527255843988
 23
158.0000002067123
 33
0.0
  0
SOLID
  5
60B2
330
60AB
100
AcDbEntity
  8
0
 62
   115
100
AcDbTrace
 10
240.6527255843987
 20
175.0519366326782
 30
0.0
 11
241.6527255843988
 21
175.0519366326782
 31
0.0
 12
241.1527255843988
 22
178.0519366326782
 32
0.0
 13
241.1527255843988
 23
178.0519366326782
 33
0.0
  0
MTEXT
  5
60B3
330
60AB
100
AcDbEntity
  8
0
 62
     7
100
AcDbMText
 10
238.6527255843987
 20
168.0259684196953
 30
0.0
 40
3.0
 41
0.0
 71
     5
 72
     1
  1
\A1;20.05
 11
0.0000000000000001
 21
1.0
 31
0.0
 73
     1
 44
1.0
1001
ACAD
1000
MTEXTBEGIN
1070
    73
1070
     1
1070
    44
1040
1.0
1070
    74
1070
     0
1000
MTEXTEND
  0
POINT
  5
60B4
330
60AB
100
AcDbEntity
  8
DEFPOINTS
 62
     0
100
AcDbPoint
 10
220.4999950712525
 20
158.0000002067123
 30
0.0
  0
POINT
  5
60B5
330
60AB
100
AcDbEntity
  8
DEFPOINTS
 62
     0
100
AcDbPoint
 10
219.4999950712524
 20
178.0519366326782
 30
0.0
  0
POINT
  5
60B6
330
60AB
100
AcDbEntity
  8
DEFPOINTS
 62
     0
100
AcDbPoint
 10
241.1527255843988
 20
178.0519366326782
 30
0.0
  0
ENDBLK
  5
60AD
330
60AB
100
AcDbEntity
  8
0
100
AcDbBlockEnd
  0
ENDSEC
  0
SECTION
  2
ENTITIES
  0
INSERT
  5
247E
330
19
100
AcDbEntity
  8
0
100
AcDbBlockReference
  2
MCLBOMATTRIB
 10
0.0
 20
0.0
 30
0.0
1001
MCLBOMATTRIB
1002
{
1000
1
1005
0
1005
0
1000
강관 용접식 플렌지
1005
0
1000
Steel Welding Pipe Flange
1005
0
1000
SOP 5K 10A FF
1005
0
1000

1005
2480
1000
1
1005
0
1000

1005
2481
1000

1005
0
1000

1005
2482
1000

1005
0
1000

1005
0
1000

1005
0
1000

1005
0
1000

1005
0
1000

1005
0
1002
}
  0
TEXT
  5
2480
330
19
100
AcDbEntity
  8
0
 62
   111
100
AcDbText
 10
344.9746279359911
 20
60.9644544167441
 30
0.0
 40
2.5
  1

  7
STYLE1
100
AcDbText
  0
TEXT
  5
2481
330
19
100
AcDbEntity
  8
0
 62
   111
100
AcDbText
 10
379.9746279359911
 20
60.9644544167441
 30
0.0
 40
2.5
  1

  7
STYLE1
100
AcDbText
  0
TEXT
  5
2482
330
19
100
AcDbEntity
  8
0
 62
   111
100
AcDbText
 10
394.9746279359911
 20
60.9644544167441
 30
0.0
 40
2.5
  1

  7
STYLE1
100
AcDbText
  0
MTEXT
  5
24CA
330
19
100
AcDbEntity
  8
0
100
AcDbMText
 10
295.0
 20
25.00000000000007
 30
0.0
 40
2.5
 41
20.0
 71
     5
 72
     5
  1

  7
STYLE1
 73
     1
 44
1.0
1001
ACAD
1000
MTEXTBEGIN
1070
    73
1070
     1
1070
    44
1040
1.0
1070
    74
1070
     0
1000
MTEXTEND
  0
MTEXT
  5
24DF
330
19
100
AcDbEntity
  8
0
100
AcDbMText
 10
265.0
 20
292.0
 30
0.0
 40
1.8
 41
15.0
 71
     1
 72
     5
  1

  7
STYLE1
 73
     1
 44
1.0
1001
ACAD
1000
MTEXTBEGIN
1070
    73
1070
     1
1070
    44
1040
1.0
1070
    74
1070
     0
1000
MTEXTEND
  0
MTEXT
  5
3954
330
19
100
AcDbEntity
  8
0
 62
   111
100
AcDbMText
 10
0.0
 20
0.0
 30
0.0
 40
3.0
 41
0.0
 71
     5
 72
     5
  1

 11
0.6658655619423123
 21
0.7460717481712123
 31
0.0
 73
     1
 44
1.0
1001
ACAD
1000
MTEXTBEGIN
1070
    73
1070
     1
1070
    44
1040
1.0
1070
    74
1070
     0
1000
MTEXTEND
  0
MTEXT
  5
3959
330
19
100
AcDbEntity
  8
0
 62
   111
100
AcDbMText
 10
0.0
 20
0.0
 30
0.0
 40
3.0
 41
0.0
 71
     5
 72
     5
  1

 11
0.9994246805919202
 21
0.0339161882253633
 31
0.0
 73
     1
 44
1.0
1001
ACAD
1000
MTEXTBEGIN
1070
    73
1070
     1
1070
    44
1040
1.0
1070
    74
1070
     0
1000
MTEXTEND
  0
MTEXT
  5
3CA0
330
19
100
AcDbEntity
  8
0
 62
   111
100
AcDbMText
 10
0.0
 20
0.0
 30
0.0
 40
3.0
 41
0.0
 71
     5
 72
     5
  1

 11
0.8978290820304724
 21
-0.4403441148242126
 31
0.0
 73
     1
 44
1.0
1001
ACAD
1000
MTEXTBEGIN
1070
    73
1070
     1
1070
    44
1040
1.0
1070
    74
1070
     0
1000
MTEXTEND
  0
MTEXT
  5
3CA1
330
19
100
AcDbEntity
  8
0
 62
   111
100
AcDbMText
 10
0.0
 20
0.0
 30
0.0
 40
3.0
 41
0.0
 71
     5
 72
     5
  1

 11
0.8978290820304724
 21
-0.4403441148242126
 31
0.0
 73
     1
 44
1.0
1001
ACAD
1000
MTEXTBEGIN
1070
    73
1070
     1
1070
    44
1040
1.0
1070
    74
1070
     0
1000
MTEXTEND
  0
MTEXT
  5
3CA2
330
19
100
AcDbEntity
  8
0
 62
   111
100
AcDbMText
 10
0.0
 20
0.0
 30
0.0
 40
3.0
 41
0.0
 71
     5
 72
     5
  1

 11
0.8978290820304724
 21
-0.4403441148242126
 31
0.0
 73
     1
 44
1.0
1001
ACAD
1000
MTEXTBEGIN
1070
    73
1070
     1
1070
    44
1040
1.0
1070
    74
1070
     0
1000
MTEXTEND
  0
MTEXT
  5
3CA3
330
19
100
AcDbEntity
  8
0
 62
   111
100
AcDbMText
 10
0.0
 20
0.0
 30
0.0
 40
3.0
 41
0.0
 71
     5
 72
     5
  1

 11
0.8978290820304724
 21
-0.4403441148242126
 31
0.0
 73
     1
 44
1.0
1001
ACAD
1000
MTEXTBEGIN
1070
    73
1070
     1
1070
    44
1040
1.0
1070
    74
1070
     0
1000
MTEXTEND
  0
MTEXT
  5
3CA8
330
19
100
AcDbEntity
  8
0
 62
   111
100
AcDbMText
 10
0.0
 20
0.0
 30
0.0
 40
3.0
 41
0.0
 71
     5
 72
     5
  1

 11
0.3826834323650867
 21
-0.923879532511288
 31
0.0
 73
     1
 44
1.0
1001
ACAD
1000
MTEXTBEGIN
1070
    73
1070
     1
1070
    44
1040
1.0
1070
    74
1070
     0
1000
MTEXTEND
  0
INSERT
  5
4FF1
330
19
100
AcDbEntity
  8
0
100
AcDbBlockReference
  2
A$C6CA7614F
 10
22.00000186985221
 20
45.69999998770639
 30
0.0
  0
LINE
  5
4FF2
330
19
100
AcDbEntity
  8
1
100
AcDbLine
 10
19.00000107125237
 20
57.99999978171236
 30
0.0
 11
325.0000010712524
 21
57.99999978171236
 31
0.0
  0
DIMENSION
  5
4FF3
330
19
100
AcDbEntity
  8
0
100
AcDbDimension
  2
*D3
 10
12.0000010712522
 20
68.84999978171231
 30
0.0
 11
9.500001071252187
 21
57.99999978171232
 31
0.0
 70
    32
  1
%%C<>
 71
     5
 42
-1.0
  3
STANDARD
100
AcDbAlignedDimension
 13
22.0000010712522
 23
47.14999978171232
 33
0.0
 14
22.00000107125243
 24
68.84999978171231
 34
0.0
 50
90.0
100
AcDbRotatedDimension
1001
ACAD
1000
DSTYLE
1002
{
1070
    41
1040
3.0
1070
    42
1040
1.0
1070
    43
1040
1.0
1070
    44
1040
1.0
1070
    73
1070
     0
1070
    74
1070
     0
1070
    77
1070
     3
1070
    78
1070
     8
1070
   141
1040
-1.0
1070
   147
1040
1.0
1070
   172
1070
     1
1070
   176
1070
   115
1070
   177
1070
   115
1070
   178
1070
     7
1070
   271
1070
     2
1070
   272
1070
     2
1002
}
  0
DIMENSION
  5
4FF4
330
19
100
AcDbEntity
  8
0
100
AcDbDimension
  2
*D4
 10
4.000001071252198
 20
70.29999978171236
 30
0.0
 11
1.500001071252186
 21
57.99999978171235
 31
0.0
 70
    32
  1
%%C<>
 71
     5
 42
-1.0
  3
STANDARD
100
AcDbAlignedDimension
 13
22.00000107125218
 23
45.69999978171232
 33
0.0
 14
22.00000107125255
 24
70.29999978171236
 34
0.0
 50
90.0
100
AcDbRotatedDimension
1001
ACAD
1000
DSTYLE
1002
{
1070
    41
1040
3.0
1070
    42
1040
1.0
1070
    43
1040
1.0
1070
    44
1040
1.0
1070
    73
1070
     0
1070
    74
1070
     0
1070
    77
1070
     3
1070
    78
1070
     8
1070
   141
1040
-1.0
1070
   147
1040
1.0
1070
   172
1070
     1
1070
   176
1070
   115
1070
   177
1070
   115
1070
   178
1070
     7
1070
   271
1070
     2
1070
   272
1070
     2
1002
}
  0
DIMENSION
  5
4FF5
330
19
100
AcDbEntity
  8
0
100
AcDbDimension
  2
*D5
 10
130.5000010712524
 20
77.9999977567123
 30
0.0
 11
127.214286785538
 21
58.00000020671232
 31
0.0
 70
    32
  1
%%C<> g6 ({\A0;\H0.5x;\S-0.009^ -0.025;})
 71
     5
 42
39.99999510000001
  3
STANDARD
100
AcDbAlignedDimension
 13
141.5000010712524
 23
38.0000026567123
 33
0.0
 14
141.5000010712524
 24
77.9999977567123
 34
0.0
 50
90.0
100
AcDbRotatedDimension
1001
ACAD
1000
DSTYLE
1002
{
1070
   998
1000
1,1,0,-0.025,0,0,2,H7,h7,256
1070
    48
1040
0.025
1070
    47
1040
0.0
1070
    71
1070
     0
1070
    72
1070
     0
1070
   284
1070
     8
1070
   283
1070
     1
1070
   146
1040
1.0
1070
     3
1000

1070
    41
1040
3.0
1070
    42
1040
1.0
1070
    43
1040
1.0
1070
    44
1040
1.0
1070
    73
1070
     0
1070
    74
1070
     0
1070
    77
1070
     3
1070
    78
1070
     8
1070
   141
1040
-1.0
1070
   147
1040
1.0
1070
   172
1070
     1
1070
   176
1070
   115
1070
   177
1070
   115
1070
   178
1070
     7
1070
   271
1070
     2
1070
   272
1070
     3
1002
}
  0
DIMENSION
  5
4FF6
330
19
100
AcDbEntity
  8
0
100
AcDbDimension
  2
*D6
 10
140.5000010712524
 20
16.99999950671235
 30
0.0
 11
172.5000040712524
 21
19.49999950671235
 31
0.0
 70
    32
 71
     5
 42
64.00000599999998
  3
STANDARD
100
AcDbAlignedDimension
 13
204.5000070712525
 23
27.99999950671235
 33
0.0
 14
140.5000010712524
 24
39.0000026567123
 34
0.0
100
AcDbRotatedDimension
1001
ACAD
1000
DSTYLE
1002
{
1070
    41
1040
3.0
1070
    42
1040
1.0
1070
    43
1040
1.0
1070
    44
1040
1.0
1070
    73
1070
     0
1070
    74
1070
     0
1070
    77
1070
     3
1070
    78
1070
     8
1070
   141
1040
-1.0
1070
   147
1040
1.0
1070
   172
1070
     1
1070
   176
1070
   115
1070
   177
1070
   115
1070
   178
1070
     7
1070
   271
1070
     2
1070
   272
1070
     2
1002
}
  0
DIMENSION
  5
4FF7
330
19
100
AcDbEntity
  8
0
100
AcDbDimension
  2
*D7
 10
214.5000010712525
 20
16.99999950671235
 30
0.0
 11
209.5000040712525
 21
19.49999950671235
 31
0.0
 70
    32
 71
     5
 42
9.999994000000015
  3
STANDARD
100
AcDbAlignedDimension
 13
204.5000070712525
 23
27.99999950671235
 33
0.0
 14
214.5000010712525
 24
27.99999950671236
 34
0.0
100
AcDbRotatedDimension
1001
ACAD
1000
DSTYLE
1002
{
1070
    41
1040
3.0
1070
    42
1040
1.0
1070
    43
1040
1.0
1070
    44
1040
1.0
1070
    73
1070
     0
1070
    74
1070
     0
1070
    77
1070
     3
1070
    78
1070
     8
1070
   141
1040
-1.0
1070
   147
1040
1.0
1070
   172
1070
     1
1070
   176
1070
   115
1070
   177
1070
   115
1070
   178
1070
     7
1070
   271
1070
     2
1070
   272
1070
     2
1002
}
  0
DIMENSION
  5
4FF8
330
19
100
AcDbEntity
  8
0
100
AcDbDimension
  2
*D8
 10
220.4999950712524
 20
8.999999506712356
 30
0.0
 11
180.4999980712524
 21
11.49999950671235
 31
0.0
 70
    32
 71
     5
 42
79.99999399999996
  3
STANDARD
100
AcDbAlignedDimension
 13
140.5000010712524
 23
39.0000026567123
 33
0.0
 14
220.4999950712524
 24
39.0519415326782
 34
0.0
100
AcDbRotatedDimension
1001
ACAD
1000
DSTYLE
1002
{
1070
    41
1040
3.0
1070
    42
1040
1.0
1070
    43
1040
1.0
1070
    44
1040
1.0
1070
    73
1070
     0
1070
    74
1070
     0
1070
    77
1070
     3
1070
    78
1070
     8
1070
   141
1040
-1.0
1070
   147
1040
1.0
1070
   172
1070
     1
1070
   176
1070
   115
1070
   177
1070
   115
1070
   178
1070
     7
1070
   271
1070
     2
1070
   272
1070
     2
1002
}
  0
LINE
  5
4FFB
330
19
100
AcDbEntity
  8
1
100
AcDbLine
 10
345.0000010712524
 20
57.99999978171236
 30
0.0
 11
399.0000010712524
 21
57.99999978171236
 31
0.0
  0
LINE
  5
4FFC
330
19
100
AcDbEntity
  8
1
100
AcDbLine
 10
394.4859962462942
 20
35.51400460667065
 30
0.0
 11
385.5764518781461
 21
44.42354897481886
 31
0.0
  0
LINE
  5
4FFD
330
19
100
AcDbEntity
  8
1
100
AcDbLine
 10
349.5140058962106
 20
35.51400460667065
 30
0.0
 11
358.4235502643587
 21
44.42354897481886
 31
0.0
  0
LINE
  5
4FFE
330
19
100
AcDbEntity
  8
1
100
AcDbLine
 10
394.4859962462942
 20
80.48599495675409
 30
0.0
 11
385.5764518781461
 21
71.57645058860589
 31
0.0
  0
LINE
  5
4FFF
330
19
100
AcDbEntity
  8
1
100
AcDbLine
 10
349.5140058962106
 20
80.48599495675409
 30
0.0
 11
358.4235502643587
 21
71.57645058860589
 31
0.0
  0
LINE
  5
5000
330
19
100
AcDbEntity
  8
1
100
AcDbLine
 10
372.0000010712524
 20
23.99999978171235
 30
0.0
 11
372.0000010712524
 21
91.99999978171234
 31
0.0
  0
CIRCLE
  5
5001
330
19
100
AcDbEntity
  8
1
100
AcDbCircle
 10
372.0000010712524
 20
57.99999978171236
 30
0.0
 40
25.50000009999995
  0
DIMENSION
  5
5002
330
19
100
AcDbEntity
  8
0
100
AcDbDimension
  2
*D9
 10
396.0000010712517
 20
0.9999997817123755
 30
0.0
 11
372.0000010712524
 21
3.499999781712375
 31
0.0
 70
    32
 71
     5
 42
-1.0
  3
STANDARD
100
AcDbAlignedDimension
 13
348.0000010712531
 23
38.37858291136303
 33
0.0
 14
396.0000010712517
 24
38.37858291136303
 34
0.0
100
AcDbRotatedDimension
1001
ACAD
1000
DSTYLE
1002
{
1070
    41
1040
3.0
1070
    42
1040
1.0
1070
    43
1040
1.0
1070
    44
1040
1.0
1070
    73
1070
     0
1070
    74
1070
     0
1070
    77
1070
     3
1070
    78
1070
     8
1070
   141
1040
-1.0
1070
   147
1040
1.0
1070
   172
1070
     1
1070
   176
1070
   115
1070
   177
1070
   115
1070
   178
1070
     7
1070
   271
1070
     2
1070
   272
1070
     2
1002
}
  0
DIMENSION
  5
5003
330
19
100
AcDbEntity
  8
0
100
AcDbDimension
  2
*D10
 10
358.4235502643587
 20
44.42354897481886
 30
0.0
 11
372.0000010712524
 21
19.49999978171238
 31
0.0
 70
    34
 71
     5
 42
-1.0
  3
STANDARD
100
AcDb2LineAngularDimension
 13
394.4859962462942
 23
35.51400460667065
 33
0.0
 14
385.5764518781461
 24
44.42354897481886
 34
0.0
 15
349.5140058962106
 25
35.51400460667065
 35
0.0
 16
361.388420222049
 26
18.39704090386058
 36
0.0
1001
ACAD
1000
DSTYLE
1002
{
1070
   271
1070
     0
1070
   271
1070
     0
1070
    41
1040
3.0
1070
    42
1040
1.0
1070
    43
1040
1.0
1070
    44
1040
1.0
1070
    73
1070
     0
1070
    74
1070
     0
1070
    77
1070
     3
1070
    78
1070
     8
1070
    79
1070
     2
1070
   141
1040
-1.0
1070
   147
1040
1.0
1070
   172
1070
     1
1070
   176
1070
   115
1070
   177
1070
   115
1070
   178
1070
     7
1070
   271
1070
     2
1070
   272
1070
     2
1002
}
  0
DIMENSION
  5
5004
330
19
100
AcDbEntity
  8
0
100
AcDbDimension
  2
*D11
 10
353.9210268511577
 20
93.80712674840021
 30
0.0
 11
342.0097466704683
 21
91.5792934530638
 31
0.0
 70
    33
  1
M<>x1
 71
     5
 42
-1.0
  3
STANDARD
100
AcDbAlignedDimension
 13
363.2911366978335
 23
86.86443605414622
 33
0.0
 14
357.7478595027658
 24
84.56833545995568
 34
0.0
1001
ACAD
1000
DSTYLE
1002
{
1070
    41
1040
3.0
1070
    42
1040
1.0
1070
    43
1040
1.0
1070
    44
1040
1.0
1070
    73
1070
     0
1070
    74
1070
     0
1070
    77
1070
     3
1070
    78
1070
     8
1070
   141
1040
-1.0
1070
   147
1040
1.0
1070
   172
1070
     1
1070
   176
1070
   115
1070
   177
1070
   115
1070
   178
1070
     7
1070
   271
1070
     2
1070
   272
1070
     2
1002
}
  0
DIMENSION
  5
5005
330
19
100
AcDbEntity
  8
0
100
AcDbDimension
  2
*D12
 10
372.0000010712524
 20
91.9999997817124
 30
0.0
 11
362.1460305421706
 21
107.5392549768086
 31
0.0
 70
    34
 71
     5
 42
-1.0
  3
STANDARD
100
AcDb2LineAngularDimension
 13
368.0748470506967
 23
67.47615985254083
 33
0.0
 14
359.8326481957179
 24
87.37458811200639
 34
0.0
 15
372.0000010712524
 25
23.99999978171241
 35
0.0
 16
365.733466439518
 26
105.5990559832426
 36
0.0
1001
ACAD
1000
DSTYLE
1002
{
1070
   271
1070
     1
1070
   271
1070
     1
1070
    41
1040
3.0
1070
    42
1040
1.0
1070
    43
1040
1.0
1070
    44
1040
1.0
1070
    73
1070
     0
1070
    74
1070
     0
1070
    77
1070
     3
1070
    78
1070
     8
1070
    79
1070
     2
1070
   141
1040
-1.0
1070
   147
1040
1.0
1070
   172
1070
     1
1070
   176
1070
   115
1070
   177
1070
   115
1070
   178
1070
     7
1070
   179
1070
     1
1070
   271
1070
     2
1070
   272
1070
     2
1002
}
  0
LINE
  5
5006
330
19
100
AcDbEntity
  8
1
100
AcDbLine
 10
368.0748470506967
 20
67.47615985254083
 30
0.0
 11
359.8326481957179
 21
87.37458811200639
 31
0.0
  0
INSERT
  5
5007
330
19
100
AcDbEntity
  8
0
100
AcDbBlockReference
  2
A$C7AC9173C
 10
348.0000021635342
 20
26.99999939558683
 30
0.0
  0
DIMENSION
  5
5008
330
19
100
AcDbEntity
  8
0
100
AcDbDimension
  2
*D13
 10
338.0000010712524
 20
76.03122278171245
 30
0.0
 11
334.7142867855382
 21
57.99999978622865
 31
0.0
 70
    32
  1
(<>)
 71
     5
 42
-1.0
  3
STANDARD
100
AcDbAlignedDimension
 13
353.9687780802847
 23
39.96877679074476
 33
0.0
 14
353.9687810712524
 24
76.0312227817124
 34
0.0
 50
90.0
100
AcDbRotatedDimension
1001
ACAD
1000
DSTYLE
1002
{
1070
    41
1040
3.0
1070
    42
1040
1.0
1070
    43
1040
1.0
1070
    44
1040
1.0
1070
    73
1070
     0
1070
    74
1070
     0
1070
    77
1070
     3
1070
    78
1070
     8
1070
   141
1040
-1.0
1070
   147
1040
1.0
1070
   172
1070
     1
1070
   176
1070
   115
1070
   177
1070
   115
1070
   178
1070
     7
1070
   271
1070
     2
1070
   272
1070
     2
1002
}
  0
DIMENSION
  5
500B
330
19
100
AcDbEntity
  8
0
100
AcDbDimension
  2
*D14
 10
238.4999950712524
 20
88.99999920671232
 30
0.0
 11
235.9999950712524
 21
57.99999935671237
 31
0.0
 70
    32
  1
%%C<>
 71
     5
 42
61.99999969999998
  3
STANDARD
100
AcDbAlignedDimension
 13
213.5000010712524
 23
26.99999950671236
 33
0.0
 14
213.5000010712524
 24
88.99999920671234
 34
0.0
 50
90.0
100
AcDbRotatedDimension
1001
ACAD
1000
DSTYLE
1002
{
1070
    41
1040
3.0
1070
    42
1040
1.0
1070
    43
1040
1.0
1070
    44
1040
1.0
1070
    73
1070
     0
1070
    74
1070
     0
1070
    77
1070
     3
1070
    78
1070
     8
1070
   141
1040
-1.0
1070
   147
1040
1.0
1070
   172
1070
     1
1070
   176
1070
   115
1070
   177
1070
   115
1070
   178
1070
     7
1070
   271
1070
     2
1070
   272
1070
     2
1002
}
  0
DIMENSION
  5
500C
330
19
100
AcDbEntity
  8
0
100
AcDbDimension
  2
*D15
 10
390.0312356712526
 20
8.999999781712373
 30
0.0
 11
372.0000083712524
 21
12.28571406742666
 31
0.0
 70
    32
  1
(<>)
 71
     5
 42
-1.0
  3
STANDARD
100
AcDbAlignedDimension
 13
353.9687810712524
 23
39.96877678171239
 33
0.0
 14
390.0312356712526
 24
39.96877678171239
 34
0.0
100
AcDbRotatedDimension
1001
ACAD
1000
DSTYLE
1002
{
1070
    41
1040
3.0
1070
    42
1040
1.0
1070
    43
1040
1.0
1070
    44
1040
1.0
1070
    73
1070
     0
1070
    74
1070
     0
1070
    77
1070
     3
1070
    78
1070
     8
1070
   141
1040
-1.0
1070
   147
1040
1.0
1070
   172
1070
     1
1070
   176
1070
   115
1070
   177
1070
   115
1070
   178
1070
     7
1070
   271
1070
     2
1070
   272
1070
     2
1002
}
  0
LINE
  5
5214
330
19
100
AcDbEntity
  8
1
100
AcDbLine
 10
208.5000040712525
 20
89.86443605414621
 30
0.0
 11
208.5000040712525
 21
81.56833545995567
 31
0.0
  0
DIMENSION
  5
5422
330
19
100
AcDbEntity
  8
0
100
AcDbDimension
  2
*D16
 10
414.0000010712516
 20
83.4999998817123
 30
0.0
 11
411.5000010712517
 21
57.99999978171241
 31
0.0
 70
    32
  1
PCD <>
 71
     5
 42
-1.0
  3
STANDARD
100
AcDbAlignedDimension
 13
372.0000010712524
 23
32.49999968171241
 33
0.0
 14
372.0000010712524
 24
83.4999998817123
 34
0.0
 50
90.0
100
AcDbRotatedDimension
1001
ACAD
1000
DSTYLE
1002
{
1070
    41
1040
3.0
1070
    42
1040
1.0
1070
    43
1040
1.0
1070
    44
1040
1.0
1070
    73
1070
     0
1070
    74
1070
     0
1070
    77
1070
     3
1070
    78
1070
     8
1070
   141
1040
-1.0
1070
   147
1040
1.0
1070
   172
1070
     1
1070
   176
1070
   115
1070
   177
1070
   115
1070
   178
1070
     7
1070
   271
1070
     2
1070
   272
1070
     2
1002
}
  0
DIMENSION
  5
5441
330
19
100
AcDbEntity
  8
0
100
AcDbDimension
  2
*D17
 10
406.0000010712516
 20
86.79999883171237
 30
0.0
 11
403.5000010712517
 21
101.5142845459981
 31
0.0
 70
    32
  1
6-%%C<>
 71
     5
 42
-1.0
  3
STANDARD
100
AcDbAlignedDimension
 13
372.0000010712524
 23
80.19999273171237
 33
0.0
 14
372.0000010712524
 24
86.79999883171237
 34
0.0
 50
90.0
100
AcDbRotatedDimension
1001
ACAD
1000
DSTYLE
1002
{
1070
    41
1040
3.0
1070
    42
1040
1.0
1070
    43
1040
1.0
1070
    44
1040
1.0
1070
    73
1070
     0
1070
    74
1070
     0
1070
    77
1070
     3
1070
    78
1070
     8
1070
   141
1040
-1.0
1070
   147
1040
1.0
1070
   172
1070
     1
1070
   176
1070
   115
1070
   177
1070
   115
1070
   178
1070
     7
1070
   271
1070
     2
1070
   272
1070
     2
1002
}
  0
LINE
  5
574D
330
19
100
AcDbEntity
  8
1
100
AcDbLine
 10
214.4994677589714
 20
85.71638575705105
 30
0.0
 11
202.5005403835335
 21
85.71638575705085
 31
0.0
  0
INSERT
  5
5DEB
330
19
100
AcDbEntity
  8
0
100
AcDbBlockReference
  2
2510SDK
 10
0.0
 20
-100.0
 30
0.0
  0
DIMENSION
  5
5E61
330
19
100
AcDbEntity
  8
0
100
AcDbDimension
  2
*D19
 10
220.4999950712524
 20
16.99999950671235
 30
0.0
 11
217.4999980712524
 21
19.49999950671235
 31
0.0
 70
    32
 71
     5
 42
5.999993999999958
  3
STANDARD
100
AcDbAlignedDimension
 13
214.5000010712525
 23
27.99999950671236
 33
0.0
 14
220.4999950712524
 24
39.0519415326782
 34
0.0
100
AcDbRotatedDimension
1001
ACAD
1000
DSTYLE
1002
{
1070
    41
1040
3.0
1070
    42
1040
1.0
1070
    43
1040
1.0
1070
    44
1040
1.0
1070
    73
1070
     0
1070
    74
1070
     0
1070
    77
1070
     3
1070
    78
1070
     8
1070
   141
1040
-1.0
1070
   147
1040
1.0
1070
   172
1070
     1
1070
   176
1070
   115
1070
   177
1070
   115
1070
   178
1070
     7
1070
   271
1070
     2
1070
   272
1070
     2
1002
}
  0
DIMENSION
  5
5E70
330
19
100
AcDbEntity
  8
0
100
AcDbDimension
  2
*D20
 10
230.4999950712525
 20
77.99999775671229
 30
0.0
 11
227.2142807855382
 21
58.00000020671233
 31
0.0
 70
    32
  1
%%C<> g6 ({\A0;\H0.5x;\S-0.009^ -0.025;})
 71
     5
 42
39.9999951
  3
STANDARD
100
AcDbAlignedDimension
 13
219.4999950712524
 23
38.0000026567123
 33
0.0
 14
219.4999950712524
 24
77.9999977567123
 34
0.0
 50
90.0
100
AcDbRotatedDimension
1001
ACAD
1000
DSTYLE
1002
{
1070
   998
1000
1,1,0,-0.025,0,0,2,H7,h7,256
1070
    48
1040
0.025
1070
    47
1040
0.0
1070
    71
1070
     0
1070
    72
1070
     0
1070
   284
1070
     8
1070
   283
1070
     1
1070
   146
1040
1.0
1070
     3
1000

1070
    41
1040
3.0
1070
    42
1040
1.0
1070
    43
1040
1.0
1070
    44
1040
1.0
1070
    73
1070
     0
1070
    74
1070
     0
1070
    77
1070
     3
1070
    78
1070
     8
1070
   141
1040
-1.0
1070
   147
1040
1.0
1070
   172
1070
     1
1070
   176
1070
   115
1070
   177
1070
   115
1070
   178
1070
     7
1070
   271
1070
     2
1070
   272
1070
     3
1002
}
  0
ENDSEC
  0
SECTION
  2
OBJECTS
  0
DICTIONARY
  5
C
330
0
100
AcDbDictionary
281
     1
  3
ACAD_CIP_PREVIOUS_PRODUCT_INFO
350
48F9
  3
ACAD_COLOR
350
44AD
  3
ACAD_GROUP
350
D
  3
ACAD_LAYOUT
350
4155
  3
ACAD_MATERIAL
350
44AC
  3
ACAD_MLEADERSTYLE
350
48A9
  3
ACAD_MLINESTYLE
350
E
  3
ACAD_PLOTSETTINGS
350
4156
  3
ACAD_PLOTSTYLENAME
350
4153
  3
ACAD_SCALELIST
350
4887
  3
ACAD_TABLESTYLE
350
44AE
  3
ACAD_VISUALSTYLE
350
4876
  3
ACDB_RECOMPOSE_DATA
350
61A0
  3
ACDBVARIABLEDICTIONARY
350
1BF
  3
DWGPROPS
350
61A1
  0
DICTIONARY
  5
5653
330
8
100
AcDbDictionary
280
     1
281
     1
  0
DICTIONARY
  5
5CEE
330
2
100
AcDbDictionary
280
     1
281
     1
  3
ACAD_LAYERSTATES
360
5CEF
  0
DICTIONARY
  5
48C9
330
F
100
AcDbDictionary
280
     1
281
     1
  3
ADSK_XREC_LAYER_RECONCILED
360
48CA
  0
DICTIONARY
  5
48CB
330
55
100
AcDbDictionary
280
     1
281
     1
  3
ADSK_XREC_LAYER_RECONCILED
360
48CC
  0
DICTIONARY
  5
48CD
330
61
100
AcDbDictionary
280
     1
281
     1
  3
ADSK_XREC_LAYER_RECONCILED
360
48CE
  0
DICTIONARY
  5
48CF
330
62
100
AcDbDictionary
280
     1
281
     1
  3
ADSK_XREC_LAYER_RECONCILED
360
48D0
  0
DICTIONARY
  5
4A13
330
19
100
AcDbDictionary
280
     1
281
     1
  3
ACAD_LAYOUTSELFREF
360
58E5
  3
ACAD_SORTENTS
360
4A14
  0
DICTIONARY
  5
5657
330
16
100
AcDbDictionary
280
     1
281
     1
  3
ACAD_LAYOUTSELFREF
360
58E4
  0
DICTIONARY
  5
4A38
330
4A2A
100
AcDbDictionary
280
     1
281
     1
  3
ACAD_SORTENTS
360
59D7
  0
DICTIONARY
  5
4CF7
330
4CA8
100
AcDbDictionary
280
     1
281
     1
  3
ACAD_SORTENTS
360
5526
  0
DICTIONARY
  5
610D
330
5DC4
100
AcDbDictionary
280
     1
281
     1
  3
ACAD_SORTENTS
360
610E
  0
DICTIONARY
  5
61DE
330
5935
100
AcDbDictionary
280
     1
281
     1
  3
ACAD_MTEXT_RT
360
61DF
  0
DICTIONARY
  5
61E0
330
5940
100
AcDbDictionary
280
     1
281
     1
  3
ACAD_MTEXT_RT
360
61E1
  0
XRECORD
  5
48F9
102
{ACAD_REACTORS
330
C
102
}
330
C
100
AcDbXrecord
280
     1
300
ACDLT
300
2012
300
ACDLT_F_S
  0
DICTIONARY
  5
44AD
102
{ACAD_REACTORS
330
C
102
}
330
C
100
AcDbDictionary
281
     1
  0
DICTIONARY
  5
D
102
{ACAD_REACTORS
330
C
102
}
330
C
100
AcDbDictionary
281
     1
  0
DICTIONARY
  5
4155
102
{ACAD_REACTORS
330
C
102
}
330
C
100
AcDbDictionary
281
     1
  3
Model
350
4157
  3
배치1
350
4158
  0
DICTIONARY
  5
44AC
102
{ACAD_REACTORS
330
C
102
}
330
C
100
AcDbDictionary
281
     1
  3
ByBlock
350
4866
  3
ByLayer
350
485E
  3
Global
350
486E
  0
DICTIONARY
  5
48A9
102
{ACAD_REACTORS
330
C
102
}
330
C
100
AcDbDictionary
281
     1
  3
Standard
350
48AA
  0
DICTIONARY
  5
E
102
{ACAD_REACTORS
330
C
102
}
330
C
100
AcDbDictionary
281
     1
  3
STANDARD
350
1C
  0
DICTIONARY
  5
4156
102
{ACAD_REACTORS
330
C
102
}
330
C
100
AcDbDictionary
281
     1
  0
ACDBDICTIONARYWDFLT
  5
4153
102
{ACAD_REACTORS
330
C
102
}
330
C
100
AcDbDictionary
281
     1
  3
Normal
350
4154
100
AcDbDictionaryWithDefault
340
4154
  0
DICTIONARY
  5
4887
102
{ACAD_REACTORS
330
C
102
}
330
C
100
AcDbDictionary
281
     1
  3
A0
350
4888
  3
A1
350
4889
  3
A2
350
488A
  3
A3
350
488B
  3
A4
350
488C
  3
A5
350
488D
  3
A6
350
488E
  3
A7
350
488F
  3
A8
350
4890
  3
A9
350
4891
  3
B0
350
4892
  3
B1
350
4893
  3
B2
350
4894
  3
B3
350
4895
  3
B4
350
4896
  3
B5
350
4897
  3
B6
350
4898
  3
B7
350
4899
  3
B8
350
489A
  3
B9
350
489B
  3
C0
350
489C
  3
C1
350
489D
  3
C2
350
489E
  3
C3
350
489F
  3
C4
350
48A0
  3
C5
350
48A1
  3
C6
350
48A2
  3
C7
350
48A3
  3
C8
350
48A4
  3
C9
350
48A5
  3
D0
350
48A6
  3
D1
350
48A7
  3
D2
350
48A8
  0
DICTIONARY
  5
44AE
102
{ACAD_REACTORS
330
C
102
}
330
C
100
AcDbDictionary
281
     1
  3
Standard
350
44AF
  0
DICTIONARY
  5
4876
102
{ACAD_REACTORS
330
C
102
}
330
C
100
AcDbDictionary
281
     1
  3
2dWireframe
350
487C
  3
3D Hidden
350
487E
  3
3dWireframe
350
487D
  3
Basic
350
487B
  3
Brighten
350
4882
  3
ColorChange
350
4886
  3
Conceptual
350
487F
  3
Dim
350
4881
  3
EdgeColorOff
350
48F5
  3
Facepattern
350
4885
  3
Flat
350
4877
  3
FlatWithEdges
350
4878
  3
Gouraud
350
4879
  3
GouraudWithEdges
350
487A
  3
Hidden
350
48ED
  3
JitterOff
350
48F3
  3
Linepattern
350
4884
  3
OverhangOff
350
48F4
  3
Realistic
350
4880
  3
Shaded
350
48F2
  3
Shaded with edges
350
48F1
  3
Shades of Gray
350
48EE
  3
Sketchy
350
48EF
  3
Thicken
350
4883
  3
Wireframe
350
48EC
  3
X-Ray
350
48F0
  0
XRECORD
  5
61A0
102
{ACAD_REACTORS
330
C
102
}
330
C
100
AcDbXrecord
280
     1
 90
        1
330
44AF
  0
DICTIONARY
  5
1BF
102
{ACAD_REACTORS
330
C
102
}
330
C
100
AcDbDictionary
281
     1
  3
CANNOSCALE
350
48D4
  3
CMLEADERSTYLE
350
48D3
  3
CTABLESTYLE
350
4843
  3
DIMASSOC
350
4169
  3
INDEXCTL
350
48D5
  3
LAYEREVAL
350
493C
  3
LAYERNOTIFY
350
493D
  3
LIGHTINGUNITS
350
493B
  3
LOFTANG1
350
6159
  3
LOFTANG2
350
615A
  3
MSLTSCALE
350
493A
  3
PROJECTNAME
350
4844
  3
SORTENTS
350
1C0
  3
XCLIPFRAME
350
615B
  0
XRECORD
  5
61A1
102
{ACAD_REACTORS
330
C
102
}
330
C
100
AcDbXrecord
280
     1
  1
DWGPROPS COOKIE
  2

  3

  4

  6

  7

  8
woni
  9

300
=
301
=
302
=
303
=
304
=
305
=
306
=
307
=
308
=
309
=
 40
0.9294796527777776
 41
2452464.575009942
 42
2456846.554462709
  1

 90
        0
  0
DICTIONARY
  5
5CEF
102
{ACAD_REACTORS
330
5CEE
102
}
330
5CEE
100
AcDbDictionary
281
     1
  0
XRECORD
  5
48CA
102
{ACAD_REACTORS
330
48C9
102
}
330
48C9
100
AcDbXrecord
280
     1
290
     1
  0
XRECORD
  5
48CC
102
{ACAD_REACTORS
330
48CB
102
}
330
48CB
100
AcDbXrecord
280
     1
290
     1
  0
XRECORD
  5
48CE
102
{ACAD_REACTORS
330
48CD
102
}
330
48CD
100
AcDbXrecord
280
     1
290
     1
  0
XRECORD
  5
48D0
102
{ACAD_REACTORS
330
48CF
102
}
330
48CF
100
AcDbXrecord
280
     1
290
     1
  0
XRECORD
  5
58E5
102
{ACAD_REACTORS
330
4A13
102
}
330
4A13
100
AcDbXrecord
280
     1
340
19
  0
SORTENTSTABLE
  5
4A14
102
{ACAD_REACTORS
330
4A13
102
}
330
4A13
100
AcDbSortentsTable
330
19
331
5005
  5
5D37
331
3CA8
  5
3CA8
331
4FFD
  5
5D2F
331
3954
  5
3954
331
3CA0
  5
3CA0
331
4FF1
  5
5D25
331
2480
  5
2480
331
5006
  5
5D38
331
4FFE
  5
5D30
331
3CA1
  5
3CA1
331
4FF2
  5
5D26
331
2481
  5
2481
331
5007
  5
5D39
331
3CA2
  5
3CA2
331
4FF3
  5
5D27
331
4FFF
  5
5D31
331
24CA
  5
24CA
331
2482
  5
2482
331
5008
  5
5D3A
331
3CA3
  5
3CA3
331
4FF4
  5
5D28
331
5214
  5
5D8E
331
5000
  5
5D32
331
4FF8
  5
5D2C
331
24DF
  5
24DF
331
5441
  5
5D90
331
4FF5
  5
5D29
331
5001
  5
5D33
331
5422
  5
5D8F
331
5002
  5
5D34
331
3959
  5
3959
331
4FF6
  5
5D2A
331
500B
  5
5D3B
331
5003
  5
5D35
331
4FF7
  5
5D2B
331
4FFB
  5
5D2D
331
574D
  5
5D91
331
247E
  5
247E
331
500C
  5
5D3C
331
5004
  5
5D36
331
4FFC
  5
5D2E
  0
XRECORD
  5
58E4
102
{ACAD_REACTORS
330
5657
102
}
330
5657
100
AcDbXrecord
280
     1
340
16
  0
SORTENTSTABLE
  5
59D7
102
{ACAD_REACTORS
330
4A38
102
}
330
4A38
100
AcDbSortentsTable
330
4A2A
331
4A35
  5
52D7
331
52D7
  5
4A2B
331
4A2F
  5
4A35
331
4A2D
  5
4A2E
331
4A2B
  5
4A2D
331
4A2E
  5
4A2F
  0
SORTENTSTABLE
  5
5526
102
{ACAD_REACTORS
330
4CF7
102
}
330
4CF7
100
AcDbSortentsTable
330
4CA8
  0
SORTENTSTABLE
  5
610E
102
{ACAD_REACTORS
330
610D
102
}
330
610D
100
AcDbSortentsTable
330
5DC4
331
610C
  5
610B
331
610B
  5
610C
  0
XRECORD
  5
61DF
102
{ACAD_REACTORS
330
61DE
102
}
330
61DE
100
AcDbXrecord
280
     1
 40
5313.0
  1
\A1;90\U+00B0
  0
XRECORD
  5
61E1
102
{ACAD_REACTORS
330
61E0
102
}
330
61E0
100
AcDbXrecord
280
     1
 40
6896.0
  1
\A1;22.5\U+00B0
  0
LAYOUT
  5
4157
102
{ACAD_XDICTIONARY
360
61A2
102
}
102
{ACAD_REACTORS
330
4155
102
}
330
4155
100
AcDbPlotSettings
  1

  2
SBC-SERVER에서 자동 HP LaserJet 4V
  4
A4
  6

 40
6.805083274841307
 41
5.069413185119628
 42
6.805084228515625
 43
5.027069091796875
 44
209.9733276367186
 45
296.9683227539062
 46
0.0
 47
0.0
 48
0.0
 49
0.0
140
0.0
141
0.0
142
1.0
143
1.0
 70
 11952
 72
     0
 73
     1
 74
     0
  7
1.ctb
 75
     0
147
1.0
148
-1105.008668280591
149
-2180.822690011071
100
AcDbLayout
  1
Model
 70
     1
 71
     0
 10
0.0
 20
0.0
 11
12.0
 21
9.0
 12
0.0
 22
0.0
 32
0.0
 14
0.0
 24
0.0
 34
0.0
 15
0.0
 25
0.0
 35
0.0
146
0.0
 13
0.0
 23
0.0
 33
0.0
 16
1.0
 26
0.0
 36
0.0
 17
0.0
 27
1.0
 37
0.0
 76
     0
330
19
331
4853
  0
LAYOUT
  5
4158
102
{ACAD_XDICTIONARY
360
61A4
102
}
102
{ACAD_REACTORS
330
4155
102
}
330
4155
100
AcDbPlotSettings
  1

  2
SBC-SERVER에서 자동 HP LaserJet 4V
  4

  6

 40
0.0
 41
0.0
 42
0.0
 43
0.0
 44
0.0
 45
0.0
 46
0.0
 47
0.0
 48
0.0
 49
0.0
140
0.0
141
0.0
142
1.0
143
1.0
 70
   688
 72
     0
 73
     0
 74
     5
  7
1.ctb
 75
    16
147
1.0
148
0.0
149
0.0
100
AcDbLayout
  1
배치1
 70
     1
 71
     1
 10
0.0
 20
0.0
 11
12.0
 21
9.0
 12
0.0
 22
0.0
 32
0.0
 14
1.000000000000000E+20
 24
1.000000000000000E+20
 34
1.000000000000000E+20
 15
-1.000000000000000E+20
 25
-1.000000000000000E+20
 35
-1.000000000000000E+20
146
0.0
 13
0.0
 23
0.0
 33
0.0
 16
1.0
 26
0.0
 36
0.0
 17
0.0
 27
1.0
 37
0.0
 76
     0
330
16
  0
MATERIAL
  5
4866
102
{ACAD_XDICTIONARY
360
4867
102
}
102
{ACAD_REACTORS
330
44AC
102
}
330
44AC
100
AcDbMaterial
  1
ByBlock
 72
     0
 43
0.0208333333333333
 43
0.0
 43
0.0
 43
0.0
 43
0.0
 43
0.0208333333333333
 43
0.0
 43
0.0
 43
0.0
 43
0.0
 43
1.0
 43
0.0
 43
0.0
 43
0.0
 43
0.0
 43
1.0
 77
     0
 47
0.0208333333333333
 47
0.0
 47
0.0
 47
0.0
 47
0.0
 47
0.0208333333333333
 47
0.0
 47
0.0
 47
0.0
 47
0.0
 47
1.0
 47
0.0
 47
0.0
 47
0.0
 47
0.0
 47
1.0
171
     0
 49
0.0208333333333333
 49
0.0
 49
0.0
 49
0.0
 49
0.0
 49
0.0208333333333333
 49
0.0
 49
0.0
 49
0.0
 49
0.0
 49
1.0
 49
0.0
 49
0.0
 49
0.0
 49
0.0
 49
1.0
175
     0
142
0.0208333333333333
142
0.0
142
0.0
142
0.0
142
0.0
142
0.0208333333333333
142
0.0
142
0.0
142
0.0
142
0.0
142
1.0
142
0.0
142
0.0
142
0.0
142
0.0
142
1.0
179
     0
144
0.0208333333333333
144
0.0
144
0.0
144
0.0
144
0.0
144
0.0208333333333333
144
0.0
144
0.0
144
0.0
144
0.0
144
1.0
144
0.0
144
0.0
144
0.0
144
0.0
144
1.0
147
0.0208333333333333
147
0.0
147
0.0
147
0.0
147
0.0
147
0.0208333333333333
147
0.0
147
0.0
147
0.0
147
0.0
147
1.0
147
0.0
147
0.0
147
0.0
147
0.0
147
1.0
  0
MATERIAL
  5
485E
102
{ACAD_XDICTIONARY
360
485F
102
}
102
{ACAD_REACTORS
330
44AC
102
}
330
44AC
100
AcDbMaterial
  1
ByLayer
 72
     0
 43
0.0208333333333333
 43
0.0
 43
0.0
 43
0.0
 43
0.0
 43
0.0208333333333333
 43
0.0
 43
0.0
 43
0.0
 43
0.0
 43
1.0
 43
0.0
 43
0.0
 43
0.0
 43
0.0
 43
1.0
 77
     0
 47
0.0208333333333333
 47
0.0
 47
0.0
 47
0.0
 47
0.0
 47
0.0208333333333333
 47
0.0
 47
0.0
 47
0.0
 47
0.0
 47
1.0
 47
0.0
 47
0.0
 47
0.0
 47
0.0
 47
1.0
171
     0
 49
0.0208333333333333
 49
0.0
 49
0.0
 49
0.0
 49
0.0
 49
0.0208333333333333
 49
0.0
 49
0.0
 49
0.0
 49
0.0
 49
1.0
 49
0.0
 49
0.0
 49
0.0
 49
0.0
 49
1.0
175
     0
142
0.0208333333333333
142
0.0
142
0.0
142
0.0
142
0.0
142
0.0208333333333333
142
0.0
142
0.0
142
0.0
142
0.0
142
1.0
142
0.0
142
0.0
142
0.0
142
0.0
142
1.0
179
     0
144
0.0208333333333333
144
0.0
144
0.0
144
0.0
144
0.0
144
0.0208333333333333
144
0.0
144
0.0
144
0.0
144
0.0
144
1.0
144
0.0
144
0.0
144
0.0
144
0.0
144
1.0
147
0.0208333333333333
147
0.0
147
0.0
147
0.0
147
0.0
147
0.0208333333333333
147
0.0
147
0.0
147
0.0
147
0.0
147
1.0
147
0.0
147
0.0
147
0.0
147
0.0
147
1.0
  0
MATERIAL
  5
486E
102
{ACAD_XDICTIONARY
360
486F
102
}
102
{ACAD_REACTORS
330
44AC
102
}
330
44AC
100
AcDbMaterial
  1
Global
 72
     0
 43
0.0208333333333333
 43
0.0
 43
0.0
 43
0.0
 43
0.0
 43
0.0208333333333333
 43
0.0
 43
0.0
 43
0.0
 43
0.0
 43
1.0
 43
0.0
 43
0.0
 43
0.0
 43
0.0
 43
1.0
 77
     0
 47
0.0208333333333333
 47
0.0
 47
0.0
 47
0.0
 47
0.0
 47
0.0208333333333333
 47
0.0
 47
0.0
 47
0.0
 47
0.0
 47
1.0
 47
0.0
 47
0.0
 47
0.0
 47
0.0
 47
1.0
171
     0
 49
0.0208333333333333
 49
0.0
 49
0.0
 49
0.0
 49
0.0
 49
0.0208333333333333
 49
0.0
 49
0.0
 49
0.0
 49
0.0
 49
1.0
 49
0.0
 49
0.0
 49
0.0
 49
0.0
 49
1.0
175
     0
142
0.0208333333333333
142
0.0
142
0.0
142
0.0
142
0.0
142
0.0208333333333333
142
0.0
142
0.0
142
0.0
142
0.0
142
1.0
142
0.0
142
0.0
142
0.0
142
0.0
142
1.0
179
     0
144
0.0208333333333333
144
0.0
144
0.0
144
0.0
144
0.0
144
0.0208333333333333
144
0.0
144
0.0
144
0.0
144
0.0
144
1.0
144
0.0
144
0.0
144
0.0
144
0.0
144
1.0
147
0.0208333333333333
147
0.0
147
0.0
147
0.0
147
0.0
147
0.0208333333333333
147
0.0
147
0.0
147
0.0
147
0.0
147
1.0
147
0.0
147
0.0
147
0.0
147
0.0
147
1.0
  0
MLEADERSTYLE
  5
48AA
102
{ACAD_REACTORS
330
48A9
102
}
330
48A9
100
AcDbMLeaderStyle
170
     2
171
     1
172
     0
 90
        2
 40
0.0
 41
0.0
173
     1
 91
-1056964608
340
13
 92
       -2
290
     1
 42
0.09
291
     1
 43
0.36
  3
Standard
 44
0.18
300

342
10
174
     1
178
     6
175
     1
176
     0
 93
-1056964608
 45
0.18
292
     0
297
     0
 46
0.18
 94
-1056964608
 47
1.0
 49
1.0
140
1.0
293
     1
141
0.0
294
     1
177
     0
142
1.0
295
     0
296
     0
143
0.125
1001
ACAD_MLEADERVER
1070
     2
  0
MLINESTYLE
  5
1C
102
{ACAD_REACTORS
330
E
102
}
330
E
100
AcDbMlineStyle
  2
STANDARD
 70
     0
  3

 62
     0
 51
90.0
 52
90.0
 71
     2
 49
0.5
 62
   256
  6
BYLAYER
 49
-0.5
 62
   256
  6
BYLAYER
  0
ACDBPLACEHOLDER
  5
4154
102
{ACAD_REACTORS
330
4153
102
}
330
4153
  0
SCALE
  5
4888
102
{ACAD_REACTORS
330
4887
102
}
330
4887
100
AcDbScale
 70
     0
300
1:1
140
1.0
141
1.0
290
     1
  0
SCALE
  5
4889
102
{ACAD_REACTORS
330
4887
102
}
330
4887
100
AcDbScale
 70
     0
300
1:2
140
1.0
141
2.0
290
     0
  0
SCALE
  5
488A
102
{ACAD_REACTORS
330
4887
102
}
330
4887
100
AcDbScale
 70
     0
300
1:4
140
1.0
141
4.0
290
     0
  0
SCALE
  5
488B
102
{ACAD_REACTORS
330
4887
102
}
330
4887
100
AcDbScale
 70
     0
300
1:5
140
1.0
141
5.0
290
     0
  0
SCALE
  5
488C
102
{ACAD_REACTORS
330
4887
102
}
330
4887
100
AcDbScale
 70
     0
300
1:8
140
1.0
141
8.0
290
     0
  0
SCALE
  5
488D
102
{ACAD_REACTORS
330
4887
102
}
330
4887
100
AcDbScale
 70
     0
300
1:10
140
1.0
141
10.0
290
     0
  0
SCALE
  5
488E
102
{ACAD_REACTORS
330
4887
102
}
330
4887
100
AcDbScale
 70
     0
300
1:16
140
1.0
141
16.0
290
     0
  0
SCALE
  5
488F
102
{ACAD_REACTORS
330
4887
102
}
330
4887
100
AcDbScale
 70
     0
300
1:20
140
1.0
141
20.0
290
     0
  0
SCALE
  5
4890
102
{ACAD_REACTORS
330
4887
102
}
330
4887
100
AcDbScale
 70
     0
300
1:30
140
1.0
141
30.0
290
     0
  0
SCALE
  5
4891
102
{ACAD_REACTORS
330
4887
102
}
330
4887
100
AcDbScale
 70
     0
300
1:40
140
1.0
141
40.0
290
     0
  0
SCALE
  5
4892
102
{ACAD_REACTORS
330
4887
102
}
330
4887
100
AcDbScale
 70
     0
300
1:50
140
1.0
141
50.0
290
     0
  0
SCALE
  5
4893
102
{ACAD_REACTORS
330
4887
102
}
330
4887
100
AcDbScale
 70
     0
300
1:100
140
1.0
141
100.0
290
     0
  0
SCALE
  5
4894
102
{ACAD_REACTORS
330
4887
102
}
330
4887
100
AcDbScale
 70
     0
300
2:1
140
2.0
141
1.0
290
     0
  0
SCALE
  5
4895
102
{ACAD_REACTORS
330
4887
102
}
330
4887
100
AcDbScale
 70
     0
300
4:1
140
4.0
141
1.0
290
     0
  0
SCALE
  5
4896
102
{ACAD_REACTORS
330
4887
102
}
330
4887
100
AcDbScale
 70
     0
300
8:1
140
8.0
141
1.0
290
     0
  0
SCALE
  5
4897
102
{ACAD_REACTORS
330
4887
102
}
330
4887
100
AcDbScale
 70
     0
300
10:1
140
10.0
141
1.0
290
     0
  0
SCALE
  5
4898
102
{ACAD_REACTORS
330
4887
102
}
330
4887
100
AcDbScale
 70
     0
300
100:1
140
100.0
141
1.0
290
     0
  0
SCALE
  5
4899
102
{ACAD_REACTORS
330
4887
102
}
330
4887
100
AcDbScale
 70
     0
300
1/128" = 1'-0"
140
0.0078125
141
12.0
290
     0
  0
SCALE
  5
489A
102
{ACAD_REACTORS
330
4887
102
}
330
4887
100
AcDbScale
 70
     0
300
1/64" = 1'-0"
140
0.015625
141
12.0
290
     0
  0
SCALE
  5
489B
102
{ACAD_REACTORS
330
4887
102
}
330
4887
100
AcDbScale
 70
     0
300
1/32" = 1'-0"
140
0.03125
141
12.0
290
     0
  0
SCALE
  5
489C
102
{ACAD_REACTORS
330
4887
102
}
330
4887
100
AcDbScale
 70
     0
300
1/16" = 1'-0"
140
0.0625
141
12.0
290
     0
  0
SCALE
  5
489D
102
{ACAD_REACTORS
330
4887
102
}
330
4887
100
AcDbScale
 70
     0
300
3/32" = 1'-0"
140
0.09375
141
12.0
290
     0
  0
SCALE
  5
489E
102
{ACAD_REACTORS
330
4887
102
}
330
4887
100
AcDbScale
 70
     0
300
1/8" = 1'-0"
140
0.125
141
12.0
290
     0
  0
SCALE
  5
489F
102
{ACAD_REACTORS
330
4887
102
}
330
4887
100
AcDbScale
 70
     0
300
3/16" = 1'-0"
140
0.1875
141
12.0
290
     0
  0
SCALE
  5
48A0
102
{ACAD_REACTORS
330
4887
102
}
330
4887
100
AcDbScale
 70
     0
300
1/4" = 1'-0"
140
0.25
141
12.0
290
     0
  0
SCALE
  5
48A1
102
{ACAD_REACTORS
330
4887
102
}
330
4887
100
AcDbScale
 70
     0
300
3/8" = 1'-0"
140
0.375
141
12.0
290
     0
  0
SCALE
  5
48A2
102
{ACAD_REACTORS
330
4887
102
}
330
4887
100
AcDbScale
 70
     0
300
1/2" = 1'-0"
140
0.5
141
12.0
290
     0
  0
SCALE
  5
48A3
102
{ACAD_REACTORS
330
4887
102
}
330
4887
100
AcDbScale
 70
     0
300
3/4" = 1'-0"
140
0.75
141
12.0
290
     0
  0
SCALE
  5
48A4
102
{ACAD_REACTORS
330
4887
102
}
330
4887
100
AcDbScale
 70
     0
300
1" = 1'-0"
140
1.0
141
12.0
290
     0
  0
SCALE
  5
48A5
102
{ACAD_REACTORS
330
4887
102
}
330
4887
100
AcDbScale
 70
     0
300
1-1/2" = 1'-0"
140
1.5
141
12.0
290
     0
  0
SCALE
  5
48A6
102
{ACAD_REACTORS
330
4887
102
}
330
4887
100
AcDbScale
 70
     0
300
3" = 1'-0"
140
3.0
141
12.0
290
     0
  0
SCALE
  5
48A7
102
{ACAD_REACTORS
330
4887
102
}
330
4887
100
AcDbScale
 70
     0
300
6" = 1'-0"
140
6.0
141
12.0
290
     0
  0
SCALE
  5
48A8
102
{ACAD_REACTORS
330
4887
102
}
330
4887
100
AcDbScale
 70
     0
300
1'-0" = 1'-0"
140
12.0
141
12.0
290
     0
  0
TABLESTYLE
  5
44AF
102
{ACAD_XDICTIONARY
360
48D6
102
}
102
{ACAD_REACTORS
330
44AE
102
}
330
44AE
100
AcDbTableStyle
  3
Standard
 70
     0
 71
     0
 40
0.06
 41
0.06
280
     0
281
     0
  7
STANDARD
140
0.18
170
     2
 62
     0
 63
     7
283
     0
274
    -2
284
     1
 64
     0
275
    -2
285
     1
 65
     0
276
    -2
286
     1
 66
     0
277
    -2
287
     1
 67
     0
278
    -2
288
     1
 68
     0
279
    -2
289
     1
 69
     0
  7
STANDARD
140
0.25
170
     5
 62
     0
 63
     7
283
     0
274
    -2
284
     1
 64
     0
275
    -2
285
     1
 65
     0
276
    -2
286
     1
 66
     0
277
    -2
287
     1
 67
     0
278
    -2
288
     1
 68
     0
279
    -2
289
     1
 69
     0
  7
STANDARD
140
0.18
170
     5
 62
     0
 63
     7
283
     0
274
    -2
284
     1
 64
     0
275
    -2
285
     1
 65
     0
276
    -2
286
     1
 66
     0
277
    -2
287
     1
 67
     0
278
    -2
288
     1
 68
     0
279
    -2
289
     1
 69
     0
  0
VISUALSTYLE
  5
487C
102
{ACAD_XDICTIONARY
360
61B4
102
}
102
{ACAD_REACTORS
330
4876
102
}
330
4876
100
AcDbVisualStyle
  2

 70
     4
 71
     0
 72
     2
 73
     0
 90
        0
 40
-0.6
 41
-30.0
 62
     5
 63
     7
 74
     1
 91
        4
 64
     7
 65
   257
 75
     1
175
     1
 42
1.0
 92
        0
 66
   257
 43
1.0
 76
     1
 77
     6
 78
     2
 67
     7
 79
     5
170
     0
171
     0
290
     0
174
     0
 93
        1
 44
0.0
173
     0
291
     0
 45
0.0
1001
ACAD
1000
AcDbSavedByObjectVersion
1070
     0
  0
VISUALSTYLE
  5
487E
102
{ACAD_XDICTIONARY
360
61B8
102
}
102
{ACAD_REACTORS
330
4876
102
}
330
4876
100
AcDbVisualStyle
  2

 70
     6
 71
     1
 72
     2
 73
     2
 90
        0
 40
-0.6
 41
-30.0
 62
     5
 63
     7
 74
     2
 91
        2
 64
     7
 65
   257
 75
     2
175
     1
 42
40.0
 92
        0
 66
   257
 43
1.0
 76
     1
 77
     6
 78
     2
 67
     7
 79
     3
170
     0
171
     0
290
     0
174
     0
 93
        1
 44
0.0
173
     0
291
     0
 45
0.0
1001
ACAD
1000
AcDbSavedByObjectVersion
1070
     0
  0
VISUALSTYLE
  5
487D
102
{ACAD_XDICTIONARY
360
61B6
102
}
102
{ACAD_REACTORS
330
4876
102
}
330
4876
100
AcDbVisualStyle
  2

 70
     5
 71
     0
 72
     2
 73
     0
 90
        0
 40
-0.6
 41
-30.0
 62
     5
 63
     7
 74
     1
 91
        4
 64
     7
 65
   257
 75
     1
175
     1
 42
1.0
 92
        0
 66
   257
 43
1.0
 76
     1
 77
     6
 78
     2
 67
     7
 79
     5
170
     0
171
     0
290
     0
174
     0
 93
        1
 44
0.0
173
     0
291
     0
 45
0.0
1001
ACAD
1000
AcDbSavedByObjectVersion
1070
     0
  0
VISUALSTYLE
  5
487B
102
{ACAD_XDICTIONARY
360
61B2
102
}
102
{ACAD_REACTORS
330
4876
102
}
330
4876
100
AcDbVisualStyle
  2

 70
     7
 71
     1
 72
     0
 73
     1
 90
        0
 40
-0.6
 41
-30.0
 62
     5
 63
     7
 74
     0
 91
        4
 64
     7
 65
   257
 75
     1
175
     1
 42
1.0
 92
        8
 66
     7
 43
1.0
 76
     1
 77
     6
 78
     2
 67
     7
 79
     5
170
     0
171
     0
290
     0
174
     0
 93
        1
 44
0.0
173
     0
291
     1
 45
0.0
1001
ACAD
1000
AcDbSavedByObjectVersion
1070
     0
  0
VISUALSTYLE
  5
4882
102
{ACAD_XDICTIONARY
360
61C0
102
}
102
{ACAD_REACTORS
330
4876
102
}
330
4876
100
AcDbVisualStyle
  2

 70
    12
 71
     2
 72
     2
 73
     0
 90
        0
 40
-0.6
 41
-30.0
 62
     5
 63
     7
 74
     1
 91
        4
 64
     7
 65
   257
 75
     1
175
     1
 42
1.0
 92
        8
 66
     7
 43
1.0
 76
     1
 77
     6
 78
     2
 67
     7
 79
     5
170
     0
171
     0
290
     0
174
     0
 93
        1
 44
50.0
173
     0
291
     1
 45
0.0
1001
ACAD
1000
AcDbSavedByObjectVersion
1070
     0
  0
VISUALSTYLE
  5
4886
102
{ACAD_XDICTIONARY
360
61C8
102
}
102
{ACAD_REACTORS
330
4876
102
}
330
4876
100
AcDbVisualStyle
  2

 70
    16
 71
     2
 72
     2
 73
     3
 90
        0
 40
-0.6
 41
-30.0
 62
     5
 63
     8
 74
     1
 91
        4
 64
     7
 65
   257
 75
     1
175
     1
 42
1.0
 92
        8
 66
     8
 43
1.0
 76
     1
 77
     6
 78
     2
 67
     7
 79
     5
170
     0
171
     0
290
     0
174
     0
 93
        1
 44
0.0
173
     0
291
     1
 45
0.0
1001
ACAD
1000
AcDbSavedByObjectVersion
1070
     0
  0
VISUALSTYLE
  5
487F
102
{ACAD_XDICTIONARY
360
61BA
102
}
102
{ACAD_REACTORS
330
4876
102
}
330
4876
100
AcDbVisualStyle
  2

 70
     9
 71
     3
 72
     2
 73
     0
 90
        0
 40
-0.6
 41
-30.0
 62
     5
 63
     7
 74
     2
 91
        2
 64
     7
 65
   257
 75
     1
175
     1
 42
40.0
 92
        8
 66
     7
 43
1.0
 76
     1
 77
     6
 78
     2
 67
     7
 79
     3
170
     0
171
     0
290
     0
174
     0
 93
        1
 44
0.0
173
     0
291
     0
 45
0.0
1001
ACAD
1000
AcDbSavedByObjectVersion
1070
     0
  0
VISUALSTYLE
  5
4881
102
{ACAD_XDICTIONARY
360
61BE
102
}
102
{ACAD_REACTORS
330
4876
102
}
330
4876
100
AcDbVisualStyle
  2

 70
    11
 71
     2
 72
     2
 73
     0
 90
        0
 40
-0.6
 41
-30.0
 62
     5
 63
     7
 74
     1
 91
        4
 64
     7
 65
   257
 75
     1
175
     1
 42
1.0
 92
        8
 66
     7
 43
1.0
 76
     1
 77
     6
 78
     2
 67
     7
 79
     5
170
     0
171
     0
290
     0
174
     0
 93
        1
 44
-50.0
173
     0
291
     1
 45
0.0
1001
ACAD
1000
AcDbSavedByObjectVersion
1070
     0
  0
VISUALSTYLE
  5
48F5
102
{ACAD_XDICTIONARY
360
61DC
102
}
102
{ACAD_REACTORS
330
4876
102
}
330
4876
100
AcDbVisualStyle
  2

 70
    22
 71
     2
 72
     2
 73
     0
 90
        0
 40
-0.6
 41
-30.0
 62
     5
 63
     7
 74
     1
 91
        4
 64
     7
 65
   257
 75
     1
175
     1
 42
1.0
 92
        8
 66
     7
 43
1.0
 76
     1
 77
     6
 78
     2
 67
     7
 79
     5
170
     0
171
     0
290
     0
174
     0
 93
        1
 44
0.0
173
     0
291
     1
 45
0.0
1001
ACAD
1000
AcDbSavedByObjectVersion
1070
     0
  0
VISUALSTYLE
  5
4885
102
{ACAD_XDICTIONARY
360
61C6
102
}
102
{ACAD_REACTORS
330
4876
102
}
330
4876
100
AcDbVisualStyle
  2

 70
    15
 71
     2
 72
     2
 73
     0
 90
        0
 40
-0.6
 41
-30.0
 62
     5
 63
     7
 74
     1
 91
        4
 64
     7
 65
   257
 75
     1
175
     1
 42
1.0
 92
        8
 66
     7
 43
1.0
 76
     1
 77
     6
 78
     2
 67
     7
 79
     5
170
     0
171
     0
290
     0
174
     0
 93
        1
 44
0.0
173
     0
291
     1
 45
0.0
1001
ACAD
1000
AcDbSavedByObjectVersion
1070
     0
  0
VISUALSTYLE
  5
4877
102
{ACAD_XDICTIONARY
360
61AA
102
}
102
{ACAD_REACTORS
330
4876
102
}
330
4876
100
AcDbVisualStyle
  2

 70
     0
 71
     2
 72
     1
 73
     1
 90
        2
 40
-0.6
 41
30.0
 62
     5
 63
     7
 74
     0
 91
        4
 64
     7
 65
   257
 75
     1
175
     1
 42
1.0
 92
        8
 66
     7
 43
1.0
 76
     1
 77
     6
 78
     2
 67
     7
 79
     5
170
     0
171
     0
290
     0
174
     0
 93
       13
 44
0.0
173
     0
291
     1
 45
0.0
1001
ACAD
1000
AcDbSavedByObjectVersion
1070
     0
  0
VISUALSTYLE
  5
4878
102
{ACAD_XDICTIONARY
360
61AC
102
}
102
{ACAD_REACTORS
330
4876
102
}
330
4876
100
AcDbVisualStyle
  2

 70
     1
 71
     2
 72
     1
 73
     1
 90
        2
 40
-0.6
 41
30.0
 62
     5
 63
     7
 74
     1
 91
        4
 64
     7
 65
   257
 75
     1
175
     1
 42
1.0
 92
        0
 66
   257
 43
1.0
 76
     1
 77
     6
 78
     2
 67
     7
 79
     5
170
     0
171
     0
290
     0
174
     0
 93
       13
 44
0.0
173
     0
291
     1
 45
0.0
1001
ACAD
1000
AcDbSavedByObjectVersion
1070
     0
  0
VISUALSTYLE
  5
4879
102
{ACAD_XDICTIONARY
360
61AE
102
}
102
{ACAD_REACTORS
330
4876
102
}
330
4876
100
AcDbVisualStyle
  2

 70
     2
 71
     2
 72
     2
 73
     1
 90
        2
 40
-0.6
 41
30.0
 62
     5
 63
     7
 74
     0
 91
        4
 64
     7
 65
   257
 75
     1
175
     1
 42
1.0
 92
        0
 66
     7
 43
1.0
 76
     1
 77
     6
 78
     2
 67
     7
 79
     5
170
     0
171
     0
290
     0
174
     0
 93
       13
 44
0.0
173
     0
291
     1
 45
0.0
1001
ACAD
1000
AcDbSavedByObjectVersion
1070
     0
  0
VISUALSTYLE
  5
487A
102
{ACAD_XDICTIONARY
360
61B0
102
}
102
{ACAD_REACTORS
330
4876
102
}
330
4876
100
AcDbVisualStyle
  2

 70
     3
 71
     2
 72
     2
 73
     1
 90
        2
 40
-0.6
 41
30.0
 62
     5
 63
     7
 74
     1
 91
        4
 64
     7
 65
   257
 75
     1
175
     1
 42
1.0
 92
        0
 66
   257
 43
1.0
 76
     1
 77
     6
 78
     2
 67
     7
 79
     5
170
     0
171
     0
290
     0
174
     0
 93
       13
 44
0.0
173
     0
291
     1
 45
0.0
1001
ACAD
1000
AcDbSavedByObjectVersion
1070
     0
  0
VISUALSTYLE
  5
48ED
102
{ACAD_XDICTIONARY
360
61CC
102
}
102
{ACAD_REACTORS
330
4876
102
}
330
4876
100
AcDbVisualStyle
  2

 70
     6
 71
     1
 72
     2
 73
     2
 90
        0
 40
-0.6
 41
-30.0
 62
     5
 63
     7
 74
     2
 91
        2
 64
     7
 65
   257
 75
     2
175
     1
 42
40.0
 92
        0
 66
   257
 43
1.0
 76
     1
 77
     6
 78
     2
 67
     7
 79
     3
170
     0
171
     0
290
     0
174
     0
 93
        1
 44
0.0
173
     0
291
     0
 45
0.0
1001
ACAD
1000
AcDbSavedByObjectVersion
1070
     0
  0
VISUALSTYLE
  5
48F3
102
{ACAD_XDICTIONARY
360
61D8
102
}
102
{ACAD_REACTORS
330
4876
102
}
330
4876
100
AcDbVisualStyle
  2

 70
    20
 71
     2
 72
     2
 73
     0
 90
        0
 40
-0.6
 41
-30.0
 62
     5
 63
     7
 74
     1
 91
        4
 64
     7
 65
   257
 75
     1
175
     1
 42
1.0
 92
       10
 66
     7
 43
1.0
 76
     1
 77
     6
 78
     2
 67
     7
 79
     5
170
     0
171
     0
290
     0
174
     0
 93
        1
 44
0.0
173
     0
291
     1
 45
0.0
1001
ACAD
1000
AcDbSavedByObjectVersion
1070
     0
  0
VISUALSTYLE
  5
4884
102
{ACAD_XDICTIONARY
360
61C4
102
}
102
{ACAD_REACTORS
330
4876
102
}
330
4876
100
AcDbVisualStyle
  2

 70
    14
 71
     2
 72
     2
 73
     0
 90
        0
 40
-0.6
 41
-30.0
 62
     5
 63
     7
 74
     1
 91
        4
 64
     7
 65
   257
 75
     7
175
     7
 42
1.0
 92
        8
 66
     7
 43
1.0
 76
     1
 77
     6
 78
     2
 67
     7
 79
     5
170
     0
171
     0
290
     0
174
     0
 93
        1
 44
0.0
173
     0
291
     1
 45
0.0
1001
ACAD
1000
AcDbSavedByObjectVersion
1070
     0
  0
VISUALSTYLE
  5
48F4
102
{ACAD_XDICTIONARY
360
61DA
102
}
102
{ACAD_REACTORS
330
4876
102
}
330
4876
100
AcDbVisualStyle
  2

 70
    21
 71
     2
 72
     2
 73
     0
 90
        0
 40
-0.6
 41
-30.0
 62
     5
 63
     7
 74
     1
 91
        4
 64
     7
 65
   257
 75
     1
175
     1
 42
1.0
 92
        9
 66
     7
 43
1.0
 76
     1
 77
     6
 78
     2
 67
     7
 79
     5
170
     0
171
     0
290
     0
174
     0
 93
        1
 44
0.0
173
     0
291
     1
 45
0.0
1001
ACAD
1000
AcDbSavedByObjectVersion
1070
     0
  0
VISUALSTYLE
  5
4880
102
{ACAD_XDICTIONARY
360
61BC
102
}
102
{ACAD_REACTORS
330
4876
102
}
330
4876
100
AcDbVisualStyle
  2

 70
     8
 71
     2
 72
     2
 73
     0
 90
        0
 40
-0.6
 41
-30.0
 62
     5
 63
     7
 74
     1
 91
        0
 64
     7
 65
   257
 75
     1
175
     1
 42
1.0
 92
        8
 66
     8
 43
1.0
 76
     1
 77
     6
 78
     2
 67
     7
 79
     5
170
     0
171
     0
290
     0
174
     0
 93
       13
 44
0.0
173
     0
291
     0
 45
0.0
1001
ACAD
1000
AcDbSavedByObjectVersion
1070
     0
  0
VISUALSTYLE
  5
48F2
102
{ACAD_XDICTIONARY
360
61D6
102
}
102
{ACAD_REACTORS
330
4876
102
}
330
4876
100
AcDbVisualStyle
  2

 70
    27
 71
     2
 72
     2
 73
     1
 90
        2
 40
-0.6
 41
30.0
 62
     5
 63
     7
 74
     0
 91
        4
 64
     7
 65
   257
 75
     1
175
     1
 42
1.0
 92
        8
 66
   257
 43
1.0
 76
     1
 77
     6
 78
     2
 67
     8
 79
     3
170
     0
171
     0
290
     0
174
     0
 93
        5
 44
0.0
173
     0
291
     0
 45
0.0
1001
ACAD
1000
AcDbSavedByObjectVersion
1070
     0
  0
VISUALSTYLE
  5
48F1
102
{ACAD_XDICTIONARY
360
61D4
102
}
102
{ACAD_REACTORS
330
4876
102
}
330
4876
100
AcDbVisualStyle
  2

 70
    26
 71
     2
 72
     2
 73
     1
 90
        2
 40
-0.6
 41
30.0
 62
     5
 63
     7
 74
     1
 91
       10
 64
     7
 65
   257
 75
     2
175
     1
 42
1.0
 92
        8
 66
   257
 43
1.0
 76
     1
 77
     6
 78
     2
 67
     7
 79
     3
170
     0
171
     0
290
     0
174
     0
 93
        5
 44
0.0
173
     0
291
     0
 45
0.0
1001
ACAD
1000
AcDbSavedByObjectVersion
1070
     0
  0
VISUALSTYLE
  5
48EE
102
{ACAD_XDICTIONARY
360
61CE
102
}
102
{ACAD_REACTORS
330
4876
102
}
330
4876
100
AcDbVisualStyle
  2

 70
    23
 71
     2
 72
     2
 73
     3
 90
        0
 40
-0.6
 41
-30.0
 62
     5
 63
     7
 74
     2
 91
        2
 64
     7
 65
     7
 75
     1
175
     1
 42
40.0
 92
        8
 66
     7
 43
1.0
 76
     1
 77
     6
 78
     2
 67
     7
 79
     3
170
     0
171
     0
290
     0
174
     0
 93
        1
 44
0.0
173
     0
291
     0
 45
0.0
1001
ACAD
1000
AcDbSavedByObjectVersion
1070
     0
  0
VISUALSTYLE
  5
48EF
102
{ACAD_XDICTIONARY
360
61D0
102
}
102
{ACAD_REACTORS
330
4876
102
}
330
4876
100
AcDbVisualStyle
  2

 70
    24
 71
     1
 72
     2
 73
     2
 90
        0
 40
-0.6
 41
-30.0
 62
     5
 63
     7
 74
     2
 91
        2
 64
     7
 65
     7
 75
     1
175
     1
 42
40.0
 92
       11
 66
     7
 43
1.0
 76
     1
 77
     6
 78
     2
 67
     7
 79
     6
170
     0
171
     0
290
     0
174
     0
 93
        1
 44
0.0
173
     0
291
     0
 45
0.0
1001
ACAD
1000
AcDbSavedByObjectVersion
1070
     0
  0
VISUALSTYLE
  5
4883
102
{ACAD_XDICTIONARY
360
61C2
102
}
102
{ACAD_REACTORS
330
4876
102
}
330
4876
100
AcDbVisualStyle
  2

 70
    13
 71
     2
 72
     2
 73
     0
 90
        0
 40
-0.6
 41
-30.0
 62
     5
 63
     7
 74
     1
 91
        4
 64
     7
 65
   257
 75
     1
175
     1
 42
1.0
 92
       12
 66
     7
 43
1.0
 76
     1
 77
     6
 78
     2
 67
     7
 79
     5
170
     0
171
     0
290
     0
174
     0
 93
        1
 44
0.0
173
     0
291
     1
 45
0.0
1001
ACAD
1000
AcDbSavedByObjectVersion
1070
     0
  0
VISUALSTYLE
  5
48EC
102
{ACAD_XDICTIONARY
360
61CA
102
}
102
{ACAD_REACTORS
330
4876
102
}
330
4876
100
AcDbVisualStyle
  2

 70
     5
 71
     0
 72
     2
 73
     0
 90
        0
 40
-0.6
 41
-30.0
 62
     5
 63
     7
 74
     1
 91
        4
 64
     7
 65
   257
 75
     1
175
     1
 42
1.0
 92
        0
 66
   257
 43
1.0
 76
     1
 77
     6
 78
     2
 67
     7
 79
     3
170
     0
171
     0
290
     0
174
     0
 93
        1
 44
0.0
173
     0
291
     0
 45
0.0
1001
ACAD
1000
AcDbSavedByObjectVersion
1070
     0
  0
VISUALSTYLE
  5
48F0
102
{ACAD_XDICTIONARY
360
61D2
102
}
102
{ACAD_REACTORS
330
4876
102
}
330
4876
100
AcDbVisualStyle
  2

 70
    25
 71
     2
 72
     2
 73
     1
 90
        1
 40
0.5
 41
-30.0
 62
     5
 63
     7
 74
     1
 91
        0
 64
     7
 65
   257
 75
     1
175
     1
 42
1.0
 92
        8
 66
     7
 43
1.0
 76
     1
 77
     6
 78
     2
 67
     7
 79
     3
170
     0
171
     0
290
     0
174
     0
 93
       13
 44
0.0
173
     0
291
     0
 45
0.0
1001
ACAD
1000
AcDbSavedByObjectVersion
1070
     0
  0
DICTIONARYVAR
  5
48D4
102
{ACAD_REACTORS
330
1BF
102
}
330
1BF
100
DictionaryVariables
280
     0
  1
1:1
  0
DICTIONARYVAR
  5
48D3
102
{ACAD_REACTORS
330
1BF
102
}
330
1BF
100
DictionaryVariables
280
     0
  1
STANDARD
  0
DICTIONARYVAR
  5
4843
102
{ACAD_REACTORS
330
1BF
102
}
330
1BF
100
DictionaryVariables
280
     0
  1
STANDARD
  0
DICTIONARYVAR
  5
4169
102
{ACAD_REACTORS
330
1BF
102
}
330
1BF
100
DictionaryVariables
280
     0
  1
1
  0
DICTIONARYVAR
  5
48D5
102
{ACAD_REACTORS
330
1BF
102
}
330
1BF
100
DictionaryVariables
280
     0
  1
0
  0
DICTIONARYVAR
  5
493C
102
{ACAD_REACTORS
330
1BF
102
}
330
1BF
100
DictionaryVariables
280
     0
  1
1
  0
DICTIONARYVAR
  5
493D
102
{ACAD_REACTORS
330
1BF
102
}
330
1BF
100
DictionaryVariables
280
     0
  1
15
  0
DICTIONARYVAR
  5
493B
102
{ACAD_REACTORS
330
1BF
102
}
330
1BF
100
DictionaryVariables
280
     0
  1
0
  0
DICTIONARYVAR
  5
6159
102
{ACAD_REACTORS
330
1BF
102
}
330
1BF
100
DictionaryVariables
280
     0
  1
1.570796
  0
DICTIONARYVAR
  5
615A
102
{ACAD_REACTORS
330
1BF
102
}
330
1BF
100
DictionaryVariables
280
     0
  1
1.570796
  0
DICTIONARYVAR
  5
493A
102
{ACAD_REACTORS
330
1BF
102
}
330
1BF
100
DictionaryVariables
280
     0
  1
0
  0
DICTIONARYVAR
  5
4844
102
{ACAD_REACTORS
330
1BF
102
}
330
1BF
100
DictionaryVariables
280
     0
  1

  0
DICTIONARYVAR
  5
1C0
102
{ACAD_REACTORS
330
1BF
102
}
330
1BF
100
DictionaryVariables
280
     0
  1
96
  0
DICTIONARYVAR
  5
615B
102
{ACAD_REACTORS
330
1BF
102
}
330
1BF
100
DictionaryVariables
280
     0
  1
2
  0
DICTIONARY
  5
61A2
330
4157
100
AcDbDictionary
280
     1
281
     1
  3
ACAD_XREC_ROUNDTRIP
360
61A3
  0
DICTIONARY
  5
61A4
330
4158
100
AcDbDictionary
280
     1
281
     1
  3
ACAD_XREC_ROUNDTRIP
360
61A5
  0
DICTIONARY
  5
4867
330
4866
100
AcDbDictionary
280
     1
281
     1
  3
ACAD_XREC_ROUNDTRIP
360
61A8
  3
BUMPTILE
360
4869
  3
DIFFUSETILE
360
4868
  3
OPACITYTILE
360
486C
  3
REFLECTIONTILE
360
486B
  3
REFRACTIONTILE
360
486D
  3
SPECULARTILE
360
486A
  0
DICTIONARY
  5
485F
330
485E
100
AcDbDictionary
280
     1
281
     1
  3
ACAD_XREC_ROUNDTRIP
360
61A7
  3
BUMPTILE
360
4861
  3
DIFFUSETILE
360
4860
  3
OPACITYTILE
360
4864
  3
REFLECTIONTILE
360
4863
  3
REFRACTIONTILE
360
4865
  3
SPECULARTILE
360
4862
  0
DICTIONARY
  5
486F
330
486E
100
AcDbDictionary
280
     1
281
     1
  3
ACAD_XREC_ROUNDTRIP
360
61A9
  3
BUMPTILE
360
4871
  3
DIFFUSETILE
360
4870
  3
OPACITYTILE
360
4874
  3
REFLECTIONTILE
360
4873
  3
REFRACTIONTILE
360
4875
  3
SPECULARTILE
360
4872
  0
DICTIONARY
  5
48D6
330
44AF
100
AcDbDictionary
280
     1
281
     1
  3
ACAD_ROUNDTRIP_2008_TABLESTYLE_CELLSTYLEMAP
360
619F
  3
ACAD_XREC_ROUNDTRIP
360
61A6
  0
DICTIONARY
  5
61B4
330
487C
100
AcDbDictionary
280
     1
281
     1
  3
ACAD_XREC_ROUNDTRIP
360
61B5
  0
DICTIONARY
  5
61B8
330
487E
100
AcDbDictionary
280
     1
281
     1
  3
ACAD_XREC_ROUNDTRIP
360
61B9
  0
DICTIONARY
  5
61B6
330
487D
100
AcDbDictionary
280
     1
281
     1
  3
ACAD_XREC_ROUNDTRIP
360
61B7
  0
DICTIONARY
  5
61B2
330
487B
100
AcDbDictionary
280
     1
281
     1
  3
ACAD_XREC_ROUNDTRIP
360
61B3
  0
DICTIONARY
  5
61C0
330
4882
100
AcDbDictionary
280
     1
281
     1
  3
ACAD_XREC_ROUNDTRIP
360
61C1
  0
DICTIONARY
  5
61C8
330
4886
100
AcDbDictionary
280
     1
281
     1
  3
ACAD_XREC_ROUNDTRIP
360
61C9
  0
DICTIONARY
  5
61BA
330
487F
100
AcDbDictionary
280
     1
281
     1
  3
ACAD_XREC_ROUNDTRIP
360
61BB
  0
DICTIONARY
  5
61BE
330
4881
100
AcDbDictionary
280
     1
281
     1
  3
ACAD_XREC_ROUNDTRIP
360
61BF
  0
DICTIONARY
  5
61DC
330
48F5
100
AcDbDictionary
280
     1
281
     1
  3
ACAD_XREC_ROUNDTRIP
360
61DD
  0
DICTIONARY
  5
61C6
330
4885
100
AcDbDictionary
280
     1
281
     1
  3
ACAD_XREC_ROUNDTRIP
360
61C7
  0
DICTIONARY
  5
61AA
330
4877
100
AcDbDictionary
280
     1
281
     1
  3
ACAD_XREC_ROUNDTRIP
360
61AB
  0
DICTIONARY
  5
61AC
330
4878
100
AcDbDictionary
280
     1
281
     1
  3
ACAD_XREC_ROUNDTRIP
360
61AD
  0
DICTIONARY
  5
61AE
330
4879
100
AcDbDictionary
280
     1
281
     1
  3
ACAD_XREC_ROUNDTRIP
360
61AF
  0
DICTIONARY
  5
61B0
330
487A
100
AcDbDictionary
280
     1
281
     1
  3
ACAD_XREC_ROUNDTRIP
360
61B1
  0
DICTIONARY
  5
61CC
330
48ED
100
AcDbDictionary
280
     1
281
     1
  3
ACAD_XREC_ROUNDTRIP
360
61CD
  0
DICTIONARY
  5
61D8
330
48F3
100
AcDbDictionary
280
     1
281
     1
  3
ACAD_XREC_ROUNDTRIP
360
61D9
  0
DICTIONARY
  5
61C4
330
4884
100
AcDbDictionary
280
     1
281
     1
  3
ACAD_XREC_ROUNDTRIP
360
61C5
  0
DICTIONARY
  5
61DA
330
48F4
100
AcDbDictionary
280
     1
281
     1
  3
ACAD_XREC_ROUNDTRIP
360
61DB
  0
DICTIONARY
  5
61BC
330
4880
100
AcDbDictionary
280
     1
281
     1
  3
ACAD_XREC_ROUNDTRIP
360
61BD
  0
DICTIONARY
  5
61D6
330
48F2
100
AcDbDictionary
280
     1
281
     1
  3
ACAD_XREC_ROUNDTRIP
360
61D7
  0
DICTIONARY
  5
61D4
330
48F1
100
AcDbDictionary
280
     1
281
     1
  3
ACAD_XREC_ROUNDTRIP
360
61D5
  0
DICTIONARY
  5
61CE
330
48EE
100
AcDbDictionary
280
     1
281
     1
  3
ACAD_XREC_ROUNDTRIP
360
61CF
  0
DICTIONARY
  5
61D0
330
48EF
100
AcDbDictionary
280
     1
281
     1
  3
ACAD_XREC_ROUNDTRIP
360
61D1
  0
DICTIONARY
  5
61C2
330
4883
100
AcDbDictionary
280
     1
281
     1
  3
ACAD_XREC_ROUNDTRIP
360
61C3
  0
DICTIONARY
  5
61CA
330
48EC
100
AcDbDictionary
280
     1
281
     1
  3
ACAD_XREC_ROUNDTRIP
360
61CB
  0
DICTIONARY
  5
61D2
330
48F0
100
AcDbDictionary
280
     1
281
     1
  3
ACAD_XREC_ROUNDTRIP
360
61D3
  0
XRECORD
  5
61A3
102
{ACAD_REACTORS
330
61A2
102
}
330
61A2
100
AcDbXrecord
280
     1
102
SHADEPLOT
 70
     0
102
SHADEPLOTRESLEVEL
 70
     2
102
SHADEPLOTCUSTOMDPI
 70
   300
  0
XRECORD
  5
61A5
102
{ACAD_REACTORS
330
61A4
102
}
330
61A4
100
AcDbXrecord
280
     1
102
SHADEPLOT
 70
     0
102
SHADEPLOTRESLEVEL
 70
     2
102
SHADEPLOTCUSTOMDPI
 70
   300
  0
XRECORD
  5
61A8
102
{ACAD_REACTORS
330
4867
102
}
330
4867
100
AcDbXrecord
280
     1
102
MATERIAL
148
0.0
149
0.0
149
0.0
 93
        0
 94
      127
282
     0
 72
     0
 77
     0
171
     0
175
     0
179
     0
273
     0
  0
XRECORD
  5
4869
102
{ACAD_REACTORS
330
4867
102
}
330
4867
100
AcDbXrecord
280
     1
270
     1
271
     1
  0
XRECORD
  5
4868
102
{ACAD_REACTORS
330
4867
102
}
330
4867
100
AcDbXrecord
280
     1
270
     1
271
     1
  0
XRECORD
  5
486C
102
{ACAD_REACTORS
330
4867
102
}
330
4867
100
AcDbXrecord
280
     1
270
     1
271
     1
  0
XRECORD
  5
486B
102
{ACAD_REACTORS
330
4867
102
}
330
4867
100
AcDbXrecord
280
     1
270
     1
271
     1
  0
XRECORD
  5
486D
102
{ACAD_REACTORS
330
4867
102
}
330
4867
100
AcDbXrecord
280
     1
270
     1
271
     1
  0
XRECORD
  5
486A
102
{ACAD_REACTORS
330
4867
102
}
330
4867
100
AcDbXrecord
280
     1
270
     1
271
     1
  0
XRECORD
  5
61A7
102
{ACAD_REACTORS
330
485F
102
}
330
485F
100
AcDbXrecord
280
     1
102
MATERIAL
148
0.0
149
0.0
149
0.0
 93
        0
 94
      127
282
     0
 72
     0
 77
     0
171
     0
175
     0
179
     0
273
     0
  0
XRECORD
  5
4861
102
{ACAD_REACTORS
330
485F
102
}
330
485F
100
AcDbXrecord
280
     1
270
     1
271
     1
  0
XRECORD
  5
4860
102
{ACAD_REACTORS
330
485F
102
}
330
485F
100
AcDbXrecord
280
     1
270
     1
271
     1
  0
XRECORD
  5
4864
102
{ACAD_REACTORS
330
485F
102
}
330
485F
100
AcDbXrecord
280
     1
270
     1
271
     1
  0
XRECORD
  5
4863
102
{ACAD_REACTORS
330
485F
102
}
330
485F
100
AcDbXrecord
280
     1
270
     1
271
     1
  0
XRECORD
  5
4865
102
{ACAD_REACTORS
330
485F
102
}
330
485F
100
AcDbXrecord
280
     1
270
     1
271
     1
  0
XRECORD
  5
4862
102
{ACAD_REACTORS
330
485F
102
}
330
485F
100
AcDbXrecord
280
     1
270
     1
271
     1
  0
XRECORD
  5
61A9
102
{ACAD_REACTORS
330
486F
102
}
330
486F
100
AcDbXrecord
280
     1
102
MATERIAL
148
0.0
149
0.0
149
0.0
 93
        0
 94
      127
282
     0
 72
     0
 77
     0
171
     0
175
     0
179
     0
273
     0
  0
XRECORD
  5
4871
102
{ACAD_REACTORS
330
486F
102
}
330
486F
100
AcDbXrecord
280
     1
270
     1
271
     1
  0
XRECORD
  5
4870
102
{ACAD_REACTORS
330
486F
102
}
330
486F
100
AcDbXrecord
280
     1
270
     1
271
     1
  0
XRECORD
  5
4874
102
{ACAD_REACTORS
330
486F
102
}
330
486F
100
AcDbXrecord
280
     1
270
     1
271
     1
  0
XRECORD
  5
4873
102
{ACAD_REACTORS
330
486F
102
}
330
486F
100
AcDbXrecord
280
     1
270
     1
271
     1
  0
XRECORD
  5
4875
102
{ACAD_REACTORS
330
486F
102
}
330
486F
100
AcDbXrecord
280
     1
270
     1
271
     1
  0
XRECORD
  5
4872
102
{ACAD_REACTORS
330
486F
102
}
330
486F
100
AcDbXrecord
280
     1
270
     1
271
     1
  0
CELLSTYLEMAP
  5
619F
102
{ACAD_REACTORS
330
48D6
102
}
330
48D6
100
AcDbCellStyleMap
 90
        3
300
CELLSTYLE
  1
TABLEFORMAT_BEGIN
 90
        5
170
     1
 91
        0
 92
    32768
 62
   257
 93
        1
300
CONTENTFORMAT
  1
CONTENTFORMAT_BEGIN
 90
        0
 91
        0
 92
        4
 93
        0
300

 40
0.0
140
1.0
 94
        5
 62
     0
340
10
144
0.25
309
CONTENTFORMAT_END
171
     1
301
MARGIN
  1
CELLMARGIN_BEGIN
 40
0.06
 40
0.06
 40
0.06
 40
0.06
 40
0.18
 40
0.18
309
CELLMARGIN_END
 94
        6
 95
        1
302
GRIDFORMAT
  1
GRIDFORMAT_BEGIN
 90
        0
 91
        1
 62
     0
 92
       -2
340
0
 93
        0
 40
0.045
309
GRIDFORMAT_END
 95
        2
302
GRIDFORMAT
  1
GRIDFORMAT_BEGIN
 90
        0
 91
        1
 62
     0
 92
       -2
340
0
 93
        0
 40
0.045
309
GRIDFORMAT_END
 95
        4
302
GRIDFORMAT
  1
GRIDFORMAT_BEGIN
 90
        0
 91
        1
 62
     0
 92
       -2
340
0
 93
        0
 40
0.045
309
GRIDFORMAT_END
 95
        8
302
GRIDFORMAT
  1
GRIDFORMAT_BEGIN
 90
        0
 91
        1
 62
     0
 92
       -2
340
0
 93
        0
 40
0.045
309
GRIDFORMAT_END
 95
       16
302
GRIDFORMAT
  1
GRIDFORMAT_BEGIN
 90
        0
 91
        1
 62
     0
 92
       -2
340
0
 93
        0
 40
0.045
309
GRIDFORMAT_END
 95
       32
302
GRIDFORMAT
  1
GRIDFORMAT_BEGIN
 90
        0
 91
        1
 62
     0
 92
       -2
340
0
 93
        0
 40
0.045
309
GRIDFORMAT_END
309
TABLEFORMAT_END
  1
CELLSTYLE_BEGIN
 90
        1
 91
        1
300
_TITLE
309
CELLSTYLE_END
300
CELLSTYLE
  1
TABLEFORMAT_BEGIN
 90
        5
170
     1
 91
        0
 92
        0
 62
   257
 93
        1
300
CONTENTFORMAT
  1
CONTENTFORMAT_BEGIN
 90
        0
 91
        0
 92
        4
 93
        0
300

 40
0.0
140
1.0
 94
        5
 62
     0
340
10
144
0.18
309
CONTENTFORMAT_END
171
     1
301
MARGIN
  1
CELLMARGIN_BEGIN
 40
0.06
 40
0.06
 40
0.06
 40
0.06
 40
0.18
 40
0.18
309
CELLMARGIN_END
 94
        6
 95
        1
302
GRIDFORMAT
  1
GRIDFORMAT_BEGIN
 90
        0
 91
        1
 62
     0
 92
       -2
340
0
 93
        0
 40
0.045
309
GRIDFORMAT_END
 95
        2
302
GRIDFORMAT
  1
GRIDFORMAT_BEGIN
 90
        0
 91
        1
 62
     0
 92
       -2
340
0
 93
        0
 40
0.045
309
GRIDFORMAT_END
 95
        4
302
GRIDFORMAT
  1
GRIDFORMAT_BEGIN
 90
        0
 91
        1
 62
     0
 92
       -2
340
0
 93
        0
 40
0.045
309
GRIDFORMAT_END
 95
        8
302
GRIDFORMAT
  1
GRIDFORMAT_BEGIN
 90
        0
 91
        1
 62
     0
 92
       -2
340
0
 93
        0
 40
0.045
309
GRIDFORMAT_END
 95
       16
302
GRIDFORMAT
  1
GRIDFORMAT_BEGIN
 90
        0
 91
        1
 62
     0
 92
       -2
340
0
 93
        0
 40
0.045
309
GRIDFORMAT_END
 95
       32
302
GRIDFORMAT
  1
GRIDFORMAT_BEGIN
 90
        0
 91
        1
 62
     0
 92
       -2
340
0
 93
        0
 40
0.045
309
GRIDFORMAT_END
309
TABLEFORMAT_END
  1
CELLSTYLE_BEGIN
 90
        2
 91
        1
300
_HEADER
309
CELLSTYLE_END
300
CELLSTYLE
  1
TABLEFORMAT_BEGIN
 90
        5
170
     1
 91
        0
 92
        0
 62
   257
 93
        1
300
CONTENTFORMAT
  1
CONTENTFORMAT_BEGIN
 90
        0
 91
        0
 92
        4
 93
        0
300

 40
0.0
140
1.0
 94
        2
 62
     0
340
10
144
0.18
309
CONTENTFORMAT_END
171
     1
301
MARGIN
  1
CELLMARGIN_BEGIN
 40
0.06
 40
0.06
 40
0.06
 40
0.06
 40
0.18
 40
0.18
309
CELLMARGIN_END
 94
        6
 95
        1
302
GRIDFORMAT
  1
GRIDFORMAT_BEGIN
 90
        0
 91
        1
 62
     0
 92
       -2
340
0
 93
        0
 40
0.045
309
GRIDFORMAT_END
 95
        2
302
GRIDFORMAT
  1
GRIDFORMAT_BEGIN
 90
        0
 91
        1
 62
     0
 92
       -2
340
0
 93
        0
 40
0.045
309
GRIDFORMAT_END
 95
        4
302
GRIDFORMAT
  1
GRIDFORMAT_BEGIN
 90
        0
 91
        1
 62
     0
 92
       -2
340
0
 93
        0
 40
0.045
309
GRIDFORMAT_END
 95
        8
302
GRIDFORMAT
  1
GRIDFORMAT_BEGIN
 90
        0
 91
        1
 62
     0
 92
       -2
340
0
 93
        0
 40
0.045
309
GRIDFORMAT_END
 95
       16
302
GRIDFORMAT
  1
GRIDFORMAT_BEGIN
 90
        0
 91
        1
 62
     0
 92
       -2
340
0
 93
        0
 40
0.045
309
GRIDFORMAT_END
 95
       32
302
GRIDFORMAT
  1
GRIDFORMAT_BEGIN
 90
        0
 91
        1
 62
     0
 92
       -2
340
0
 93
        0
 40
0.045
309
GRIDFORMAT_END
309
TABLEFORMAT_END
  1
CELLSTYLE_BEGIN
 90
        3
 91
        2
300
_DATA
309
CELLSTYLE_END
  0
XRECORD
  5
61A6
102
{ACAD_REACTORS
330
48D6
102
}
330
48D6
100
AcDbXrecord
280
     1
102
ACAD_ROUNDTRIP_PRE2007_TABLESTYLE
 90
        4
 91
        0
  1

 92
        4
 93
        0
  2

 94
        4
 95
        0
  3

  0
XRECORD
  5
61B5
102
{ACAD_REACTORS
330
61B4
102
}
330
61B4
100
AcDbXrecord
280
     1
102
RTVSPropertyOp0
 70
     1
102
RTVSPropertyOp1
 70
     1
102
RTVSPropertyOp2
 70
     1
102
RTVSPropertyOp3
 70
     1
102
RTVSPropertyOp4
 70
     1
102
RTVSPropertyOp5
 70
     1
102
RTVSPropertyOp6
 70
     1
102
RTVSPropertyOp7
 70
     1
102
RTVSPropertyOp8
 70
     1
102
RTVSPropertyOp9
 70
     1
102
RTVSPropertyOp10
 70
     1
102
RTVSPropertyOp11
 70
     1
102
RTVSPropertyOp12
 70
     1
102
RTVSPropertyOp13
 70
     1
102
RTVSPropertyOp14
 70
     1
102
RTVSPropertyOp15
 70
     1
102
RTVSPropertyOp16
 70
     1
102
RTVSPropertyOp17
 70
     1
102
RTVSPropertyOp18
 70
     1
102
RTVSPropertyOp19
 70
     1
102
RTVSPropertyOp20
 70
     1
102
RTVSPropertyOp21
 70
     1
102
RTVSPropertyOp22
 70
     1
102
RTVSPropertyOp23
 70
     1
102
RTVSPropertyOp24
 70
     1
102
RTVSPropertyOp25
 70
     1
102
RTVSPropertyOp26
 70
     1
102
RTVSPropertyOp27
 70
     1
102
RTVSPropertyOp28
 70
     1
102
RTVSPropertyOp29
 70
     1
102
RTVSPropertyOp30
 70
     1
102
RTVSPropertyOp31
 70
     1
102
RTVSPropertyOp32
 70
     1
  0
XRECORD
  5
61B9
102
{ACAD_REACTORS
330
61B8
102
}
330
61B8
100
AcDbXrecord
280
     1
102
RTVSPropertyOp0
 70
     1
102
RTVSPropertyOp1
 70
     1
102
RTVSPropertyOp2
 70
     1
102
RTVSPropertyOp3
 70
     1
102
RTVSPropertyOp4
 70
     1
102
RTVSPropertyOp5
 70
     1
102
RTVSPropertyOp6
 70
     1
102
RTVSPropertyOp7
 70
     1
102
RTVSPropertyOp8
 70
     1
102
RTVSPropertyOp9
 70
     1
102
RTVSPropertyOp10
 70
     1
102
RTVSPropertyOp11
 70
     1
102
RTVSPropertyOp12
 70
     1
102
RTVSPropertyOp13
 70
     1
102
RTVSPropertyOp14
 70
     1
102
RTVSPropertyOp15
 70
     1
102
RTVSPropertyOp16
 70
     1
102
RTVSPropertyOp17
 70
     1
102
RTVSPropertyOp18
 70
     1
102
RTVSPropertyOp19
 70
     1
102
RTVSPropertyOp20
 70
     1
102
RTVSPropertyOp21
 70
     1
102
RTVSPropertyOp22
 70
     1
102
RTVSPropertyOp23
 70
     1
102
RTVSPropertyOp24
 70
     1
102
RTVSPropertyOp25
 70
     1
102
RTVSPropertyOp26
 70
     1
102
RTVSPropertyOp27
 70
     1
102
RTVSPropertyOp28
 70
     1
102
RTVSPropertyOp29
 70
     1
102
RTVSPropertyOp30
 70
     1
102
RTVSPropertyOp31
 70
     1
102
RTVSPropertyOp32
 70
     1
  0
XRECORD
  5
61B7
102
{ACAD_REACTORS
330
61B6
102
}
330
61B6
100
AcDbXrecord
280
     1
102
RTVSPropertyOp0
 70
     1
102
RTVSPropertyOp1
 70
     1
102
RTVSPropertyOp2
 70
     1
102
RTVSPropertyOp3
 70
     1
102
RTVSPropertyOp4
 70
     1
102
RTVSPropertyOp5
 70
     1
102
RTVSPropertyOp6
 70
     1
102
RTVSPropertyOp7
 70
     1
102
RTVSPropertyOp8
 70
     1
102
RTVSPropertyOp9
 70
     1
102
RTVSPropertyOp10
 70
     1
102
RTVSPropertyOp11
 70
     1
102
RTVSPropertyOp12
 70
     1
102
RTVSPropertyOp13
 70
     1
102
RTVSPropertyOp14
 70
     1
102
RTVSPropertyOp15
 70
     1
102
RTVSPropertyOp16
 70
     1
102
RTVSPropertyOp17
 70
     1
102
RTVSPropertyOp18
 70
     1
102
RTVSPropertyOp19
 70
     1
102
RTVSPropertyOp20
 70
     1
102
RTVSPropertyOp21
 70
     1
102
RTVSPropertyOp22
 70
     1
102
RTVSPropertyOp23
 70
     1
102
RTVSPropertyOp24
 70
     1
102
RTVSPropertyOp25
 70
     1
102
RTVSPropertyOp26
 70
     1
102
RTVSPropertyOp27
 70
     1
102
RTVSPropertyOp28
 70
     1
102
RTVSPropertyOp29
 70
     1
102
RTVSPropertyOp30
 70
     1
102
RTVSPropertyOp31
 70
     1
102
RTVSPropertyOp32
 70
     1
  0
XRECORD
  5
61B3
102
{ACAD_REACTORS
330
61B2
102
}
330
61B2
100
AcDbXrecord
280
     1
102
RTVSPropertyOp0
 70
     1
102
RTVSPropertyOp1
 70
     1
102
RTVSPropertyOp2
 70
     1
102
RTVSPropertyOp3
 70
     1
102
RTVSPropertyOp4
 70
     1
102
RTVSPropertyOp5
 70
     1
102
RTVSPropertyOp6
 70
     1
102
RTVSPropertyOp7
 70
     1
102
RTVSPropertyOp8
 70
     1
102
RTVSPropertyOp9
 70
     1
102
RTVSPropertyOp10
 70
     1
102
RTVSPropertyOp11
 70
     1
102
RTVSPropertyOp12
 70
     1
102
RTVSPropertyOp13
 70
     1
102
RTVSPropertyOp14
 70
     1
102
RTVSPropertyOp15
 70
     1
102
RTVSPropertyOp16
 70
     1
102
RTVSPropertyOp17
 70
     1
102
RTVSPropertyOp18
 70
     1
102
RTVSPropertyOp19
 70
     1
102
RTVSPropertyOp20
 70
     1
102
RTVSPropertyOp21
 70
     1
102
RTVSPropertyOp22
 70
     1
102
RTVSPropertyOp23
 70
     1
102
RTVSPropertyOp24
 70
     1
102
RTVSPropertyOp25
 70
     1
102
RTVSPropertyOp26
 70
     1
102
RTVSPropertyOp27
 70
     1
102
RTVSPropertyOp28
 70
     1
102
RTVSPropertyOp29
 70
     1
102
RTVSPropertyOp30
 70
     1
102
RTVSPropertyOp31
 70
     1
102
RTVSPropertyOp32
 70
     1
  0
XRECORD
  5
61C1
102
{ACAD_REACTORS
330
61C0
102
}
330
61C0
100
AcDbXrecord
280
     1
102
RTVSPropertyOp0
 70
     1
102
RTVSPropertyOp1
 70
     1
102
RTVSPropertyOp2
 70
     1
102
RTVSPropertyOp3
 70
     1
102
RTVSPropertyOp4
 70
     1
102
RTVSPropertyOp5
 70
     1
102
RTVSPropertyOp6
 70
     1
102
RTVSPropertyOp7
 70
     1
102
RTVSPropertyOp8
 70
     1
102
RTVSPropertyOp9
 70
     1
102
RTVSPropertyOp10
 70
     1
102
RTVSPropertyOp11
 70
     1
102
RTVSPropertyOp12
 70
     1
102
RTVSPropertyOp13
 70
     1
102
RTVSPropertyOp14
 70
     1
102
RTVSPropertyOp15
 70
     1
102
RTVSPropertyOp16
 70
     1
102
RTVSPropertyOp17
 70
     1
102
RTVSPropertyOp18
 70
     1
102
RTVSPropertyOp19
 70
     1
102
RTVSPropertyOp20
 70
     1
102
RTVSPropertyOp21
 70
     1
102
RTVSPropertyOp22
 70
     1
102
RTVSPropertyOp23
 70
     1
102
RTVSPropertyOp24
 70
     1
102
RTVSPropertyOp25
 70
     1
102
RTVSPropertyOp26
 70
     1
102
RTVSPropertyOp27
 70
     1
102
RTVSPropertyOp28
 70
     1
102
RTVSPropertyOp29
 70
     1
102
RTVSPropertyOp30
 70
     1
102
RTVSPropertyOp31
 70
     1
102
RTVSPropertyOp32
 70
     1
  0
XRECORD
  5
61C9
102
{ACAD_REACTORS
330
61C8
102
}
330
61C8
100
AcDbXrecord
280
     1
102
RTVSPropertyOp0
 70
     1
102
RTVSPropertyOp1
 70
     1
102
RTVSPropertyOp2
 70
     1
102
RTVSPropertyOp3
 70
     1
102
RTVSPropertyOp4
 70
     1
102
RTVSPropertyOp5
 70
     1
102
RTVSPropertyOp6
 70
     1
102
RTVSPropertyOp7
 70
     1
102
RTVSPropertyOp8
 70
     1
102
RTVSPropertyOp9
 70
     1
102
RTVSPropertyOp10
 70
     1
102
RTVSPropertyOp11
 70
     1
102
RTVSPropertyOp12
 70
     1
102
RTVSPropertyOp13
 70
     1
102
RTVSPropertyOp14
 70
     1
102
RTVSPropertyOp15
 70
     1
102
RTVSPropertyOp16
 70
     1
102
RTVSPropertyOp17
 70
     1
102
RTVSPropertyOp18
 70
     1
102
RTVSPropertyOp19
 70
     1
102
RTVSPropertyOp20
 70
     1
102
RTVSPropertyOp21
 70
     1
102
RTVSPropertyOp22
 70
     1
102
RTVSPropertyOp23
 70
     1
102
RTVSPropertyOp24
 70
     1
102
RTVSPropertyOp25
 70
     1
102
RTVSPropertyOp26
 70
     1
102
RTVSPropertyOp27
 70
     1
102
RTVSPropertyOp28
 70
     1
102
RTVSPropertyOp29
 70
     1
102
RTVSPropertyOp30
 70
     1
102
RTVSPropertyOp31
 70
     1
102
RTVSPropertyOp32
 70
     1
  0
XRECORD
  5
61BB
102
{ACAD_REACTORS
330
61BA
102
}
330
61BA
100
AcDbXrecord
280
     1
102
RTVSPropertyOp0
 70
     1
102
RTVSPropertyOp1
 70
     1
102
RTVSPropertyOp2
 70
     1
102
RTVSPropertyOp3
 70
     1
102
RTVSPropertyOp4
 70
     1
102
RTVSPropertyOp5
 70
     1
102
RTVSPropertyOp6
 70
     1
102
RTVSPropertyOp7
 70
     1
102
RTVSPropertyOp8
 70
     1
102
RTVSPropertyOp9
 70
     1
102
RTVSPropertyOp10
 70
     1
102
RTVSPropertyOp11
 70
     1
102
RTVSPropertyOp12
 70
     1
102
RTVSPropertyOp13
 70
     1
102
RTVSPropertyOp14
 70
     1
102
RTVSPropertyOp15
 70
     1
102
RTVSPropertyOp16
 70
     1
102
RTVSPropertyOp17
 70
     1
102
RTVSPropertyOp18
 70
     1
102
RTVSPropertyOp19
 70
     1
102
RTVSPropertyOp20
 70
     1
102
RTVSPropertyOp21
 70
     1
102
RTVSPropertyOp22
 70
     1
102
RTVSPropertyOp23
 70
     1
102
RTVSPropertyOp24
 70
     1
102
RTVSPropertyOp25
 70
     1
102
RTVSPropertyOp26
 70
     1
102
RTVSPropertyOp27
 70
     1
102
RTVSPropertyOp28
 70
     1
102
RTVSPropertyOp29
 70
     1
102
RTVSPropertyOp30
 70
     1
102
RTVSPropertyOp31
 70
     1
102
RTVSPropertyOp32
 70
     1
  0
XRECORD
  5
61BF
102
{ACAD_REACTORS
330
61BE
102
}
330
61BE
100
AcDbXrecord
280
     1
102
RTVSPropertyOp0
 70
     1
102
RTVSPropertyOp1
 70
     1
102
RTVSPropertyOp2
 70
     1
102
RTVSPropertyOp3
 70
     1
102
RTVSPropertyOp4
 70
     1
102
RTVSPropertyOp5
 70
     1
102
RTVSPropertyOp6
 70
     1
102
RTVSPropertyOp7
 70
     1
102
RTVSPropertyOp8
 70
     1
102
RTVSPropertyOp9
 70
     1
102
RTVSPropertyOp10
 70
     1
102
RTVSPropertyOp11
 70
     1
102
RTVSPropertyOp12
 70
     1
102
RTVSPropertyOp13
 70
     1
102
RTVSPropertyOp14
 70
     1
102
RTVSPropertyOp15
 70
     1
102
RTVSPropertyOp16
 70
     1
102
RTVSPropertyOp17
 70
     1
102
RTVSPropertyOp18
 70
     1
102
RTVSPropertyOp19
 70
     1
102
RTVSPropertyOp20
 70
     1
102
RTVSPropertyOp21
 70
     1
102
RTVSPropertyOp22
 70
     1
102
RTVSPropertyOp23
 70
     1
102
RTVSPropertyOp24
 70
     1
102
RTVSPropertyOp25
 70
     1
102
RTVSPropertyOp26
 70
     1
102
RTVSPropertyOp27
 70
     1
102
RTVSPropertyOp28
 70
     1
102
RTVSPropertyOp29
 70
     1
102
RTVSPropertyOp30
 70
     1
102
RTVSPropertyOp31
 70
     1
102
RTVSPropertyOp32
 70
     1
  0
XRECORD
  5
61DD
102
{ACAD_REACTORS
330
61DC
102
}
330
61DC
100
AcDbXrecord
280
     1
102
RTVSPropertyOp0
 70
     0
102
RTVSPropertyOp1
 70
     0
102
RTVSPropertyOp2
 70
     0
102
RTVSPropertyOp3
 70
     0
102
RTVSPropertyOp4
 70
     0
102
RTVSPropertyOp5
 70
     0
102
RTVSPropertyOp6
 70
     0
102
RTVSPropertyOp7
 70
     0
102
RTVSPropertyOp8
 70
     0
102
RTVSPropertyOp9
 70
     0
102
RTVSPropertyOp10
 70
     0
102
RTVSPropertyOp11
 70
     0
102
RTVSPropertyOp12
 70
     0
102
RTVSPropertyOp13
 70
     0
102
RTVSPropertyOp14
 70
     2
102
RTVSPropertyOp15
 70
     0
102
RTVSPropertyOp16
 70
     0
102
RTVSPropertyOp17
 70
     0
102
RTVSPropertyOp18
 70
     0
102
RTVSPropertyOp19
 70
     0
102
RTVSPropertyOp20
 70
     0
102
RTVSPropertyOp21
 70
     0
102
RTVSPropertyOp22
 70
     0
102
RTVSPropertyOp23
 70
     0
102
RTVSPropertyOp24
 70
     0
102
RTVSPropertyOp25
 70
     0
102
RTVSPropertyOp26
 70
     0
102
RTVSPropertyOp27
 70
     0
102
RTVSPropertyOp28
 70
     1
102
RTVSPropertyOp29
 70
     1
102
RTVSPropertyOp30
 70
     1
102
RTVSPropertyOp31
 70
     1
102
RTVSPropertyOp32
 70
     1
  0
XRECORD
  5
61C7
102
{ACAD_REACTORS
330
61C6
102
}
330
61C6
100
AcDbXrecord
280
     1
102
RTVSPropertyOp0
 70
     1
102
RTVSPropertyOp1
 70
     1
102
RTVSPropertyOp2
 70
     1
102
RTVSPropertyOp3
 70
     1
102
RTVSPropertyOp4
 70
     1
102
RTVSPropertyOp5
 70
     1
102
RTVSPropertyOp6
 70
     1
102
RTVSPropertyOp7
 70
     1
102
RTVSPropertyOp8
 70
     1
102
RTVSPropertyOp9
 70
     1
102
RTVSPropertyOp10
 70
     1
102
RTVSPropertyOp11
 70
     1
102
RTVSPropertyOp12
 70
     1
102
RTVSPropertyOp13
 70
     1
102
RTVSPropertyOp14
 70
     1
102
RTVSPropertyOp15
 70
     1
102
RTVSPropertyOp16
 70
     1
102
RTVSPropertyOp17
 70
     1
102
RTVSPropertyOp18
 70
     1
102
RTVSPropertyOp19
 70
     1
102
RTVSPropertyOp20
 70
     1
102
RTVSPropertyOp21
 70
     1
102
RTVSPropertyOp22
 70
     1
102
RTVSPropertyOp23
 70
     1
102
RTVSPropertyOp24
 70
     1
102
RTVSPropertyOp25
 70
     1
102
RTVSPropertyOp26
 70
     1
102
RTVSPropertyOp27
 70
     1
102
RTVSPropertyOp28
 70
     1
102
RTVSPropertyOp29
 70
     1
102
RTVSPropertyOp30
 70
     1
102
RTVSPropertyOp31
 70
     1
102
RTVSPropertyOp32
 70
     1
  0
XRECORD
  5
61AB
102
{ACAD_REACTORS
330
61AA
102
}
330
61AA
100
AcDbXrecord
280
     1
102
RTVSPropertyOp0
 70
     1
102
RTVSPropertyOp1
 70
     1
102
RTVSPropertyOp2
 70
     1
102
RTVSPropertyOp3
 70
     1
102
RTVSPropertyOp4
 70
     1
102
RTVSPropertyOp5
 70
     1
102
RTVSPropertyOp6
 70
     1
102
RTVSPropertyOp7
 70
     1
102
RTVSPropertyOp8
 70
     1
102
RTVSPropertyOp9
 70
     1
102
RTVSPropertyOp10
 70
     1
102
RTVSPropertyOp11
 70
     1
102
RTVSPropertyOp12
 70
     1
102
RTVSPropertyOp13
 70
     1
102
RTVSPropertyOp14
 70
     1
102
RTVSPropertyOp15
 70
     1
102
RTVSPropertyOp16
 70
     1
102
RTVSPropertyOp17
 70
     1
102
RTVSPropertyOp18
 70
     1
102
RTVSPropertyOp19
 70
     1
102
RTVSPropertyOp20
 70
     1
102
RTVSPropertyOp21
 70
     1
102
RTVSPropertyOp22
 70
     1
102
RTVSPropertyOp23
 70
     1
102
RTVSPropertyOp24
 70
     1
102
RTVSPropertyOp25
 70
     1
102
RTVSPropertyOp26
 70
     1
102
RTVSPropertyOp27
 70
     1
102
RTVSPropertyOp28
 70
     1
102
RTVSPropertyOp29
 70
     1
102
RTVSPropertyOp30
 70
     1
102
RTVSPropertyOp31
 70
     1
102
RTVSPropertyOp32
 70
     1
  0
XRECORD
  5
61AD
102
{ACAD_REACTORS
330
61AC
102
}
330
61AC
100
AcDbXrecord
280
     1
102
RTVSPropertyOp0
 70
     1
102
RTVSPropertyOp1
 70
     1
102
RTVSPropertyOp2
 70
     1
102
RTVSPropertyOp3
 70
     1
102
RTVSPropertyOp4
 70
     1
102
RTVSPropertyOp5
 70
     1
102
RTVSPropertyOp6
 70
     1
102
RTVSPropertyOp7
 70
     1
102
RTVSPropertyOp8
 70
     1
102
RTVSPropertyOp9
 70
     1
102
RTVSPropertyOp10
 70
     1
102
RTVSPropertyOp11
 70
     1
102
RTVSPropertyOp12
 70
     1
102
RTVSPropertyOp13
 70
     1
102
RTVSPropertyOp14
 70
     1
102
RTVSPropertyOp15
 70
     1
102
RTVSPropertyOp16
 70
     1
102
RTVSPropertyOp17
 70
     1
102
RTVSPropertyOp18
 70
     1
102
RTVSPropertyOp19
 70
     1
102
RTVSPropertyOp20
 70
     1
102
RTVSPropertyOp21
 70
     1
102
RTVSPropertyOp22
 70
     1
102
RTVSPropertyOp23
 70
     1
102
RTVSPropertyOp24
 70
     1
102
RTVSPropertyOp25
 70
     1
102
RTVSPropertyOp26
 70
     1
102
RTVSPropertyOp27
 70
     1
102
RTVSPropertyOp28
 70
     1
102
RTVSPropertyOp29
 70
     1
102
RTVSPropertyOp30
 70
     1
102
RTVSPropertyOp31
 70
     1
102
RTVSPropertyOp32
 70
     1
  0
XRECORD
  5
61AF
102
{ACAD_REACTORS
330
61AE
102
}
330
61AE
100
AcDbXrecord
280
     1
102
RTVSPropertyOp0
 70
     1
102
RTVSPropertyOp1
 70
     1
102
RTVSPropertyOp2
 70
     1
102
RTVSPropertyOp3
 70
     1
102
RTVSPropertyOp4
 70
     1
102
RTVSPropertyOp5
 70
     1
102
RTVSPropertyOp6
 70
     1
102
RTVSPropertyOp7
 70
     1
102
RTVSPropertyOp8
 70
     1
102
RTVSPropertyOp9
 70
     1
102
RTVSPropertyOp10
 70
     1
102
RTVSPropertyOp11
 70
     1
102
RTVSPropertyOp12
 70
     1
102
RTVSPropertyOp13
 70
     1
102
RTVSPropertyOp14
 70
     1
102
RTVSPropertyOp15
 70
     1
102
RTVSPropertyOp16
 70
     1
102
RTVSPropertyOp17
 70
     1
102
RTVSPropertyOp18
 70
     1
102
RTVSPropertyOp19
 70
     1
102
RTVSPropertyOp20
 70
     1
102
RTVSPropertyOp21
 70
     1
102
RTVSPropertyOp22
 70
     1
102
RTVSPropertyOp23
 70
     1
102
RTVSPropertyOp24
 70
     1
102
RTVSPropertyOp25
 70
     1
102
RTVSPropertyOp26
 70
     1
102
RTVSPropertyOp27
 70
     1
102
RTVSPropertyOp28
 70
     1
102
RTVSPropertyOp29
 70
     1
102
RTVSPropertyOp30
 70
     1
102
RTVSPropertyOp31
 70
     1
102
RTVSPropertyOp32
 70
     1
  0
XRECORD
  5
61B1
102
{ACAD_REACTORS
330
61B0
102
}
330
61B0
100
AcDbXrecord
280
     1
102
RTVSPropertyOp0
 70
     1
102
RTVSPropertyOp1
 70
     1
102
RTVSPropertyOp2
 70
     1
102
RTVSPropertyOp3
 70
     1
102
RTVSPropertyOp4
 70
     1
102
RTVSPropertyOp5
 70
     1
102
RTVSPropertyOp6
 70
     1
102
RTVSPropertyOp7
 70
     1
102
RTVSPropertyOp8
 70
     1
102
RTVSPropertyOp9
 70
     1
102
RTVSPropertyOp10
 70
     1
102
RTVSPropertyOp11
 70
     1
102
RTVSPropertyOp12
 70
     1
102
RTVSPropertyOp13
 70
     1
102
RTVSPropertyOp14
 70
     1
102
RTVSPropertyOp15
 70
     1
102
RTVSPropertyOp16
 70
     1
102
RTVSPropertyOp17
 70
     1
102
RTVSPropertyOp18
 70
     1
102
RTVSPropertyOp19
 70
     1
102
RTVSPropertyOp20
 70
     1
102
RTVSPropertyOp21
 70
     1
102
RTVSPropertyOp22
 70
     1
102
RTVSPropertyOp23
 70
     1
102
RTVSPropertyOp24
 70
     1
102
RTVSPropertyOp25
 70
     1
102
RTVSPropertyOp26
 70
     1
102
RTVSPropertyOp27
 70
     1
102
RTVSPropertyOp28
 70
     1
102
RTVSPropertyOp29
 70
     1
102
RTVSPropertyOp30
 70
     1
102
RTVSPropertyOp31
 70
     1
102
RTVSPropertyOp32
 70
     1
  0
XRECORD
  5
61CD
102
{ACAD_REACTORS
330
61CC
102
}
330
61CC
100
AcDbXrecord
280
     1
102
RTVSPropertyOp0
 70
     1
102
RTVSPropertyOp1
 70
     1
102
RTVSPropertyOp2
 70
     1
102
RTVSPropertyOp3
 70
     1
102
RTVSPropertyOp4
 70
     1
102
RTVSPropertyOp5
 70
     1
102
RTVSPropertyOp6
 70
     1
102
RTVSPropertyOp7
 70
     1
102
RTVSPropertyOp8
 70
     1
102
RTVSPropertyOp9
 70
     1
102
RTVSPropertyOp10
 70
     1
102
RTVSPropertyOp11
 70
     1
102
RTVSPropertyOp12
 70
     1
102
RTVSPropertyOp13
 70
     1
102
RTVSPropertyOp14
 70
     1
102
RTVSPropertyOp15
 70
     1
102
RTVSPropertyOp16
 70
     1
102
RTVSPropertyOp17
 70
     1
102
RTVSPropertyOp18
 70
     1
102
RTVSPropertyOp19
 70
     1
102
RTVSPropertyOp20
 70
     1
102
RTVSPropertyOp21
 70
     1
102
RTVSPropertyOp22
 70
     1
102
RTVSPropertyOp23
 70
     1
102
RTVSPropertyOp24
 70
     1
102
RTVSPropertyOp25
 70
     1
102
RTVSPropertyOp26
 70
     1
102
RTVSPropertyOp27
 70
     1
102
RTVSPropertyOp28
 70
     1
102
RTVSPropertyOp29
 70
     1
102
RTVSPropertyOp30
 70
     1
102
RTVSPropertyOp31
 70
     1
102
RTVSPropertyOp32
 70
     1
  0
XRECORD
  5
61D9
102
{ACAD_REACTORS
330
61D8
102
}
330
61D8
100
AcDbXrecord
280
     1
102
RTVSPropertyOp0
 70
     0
102
RTVSPropertyOp1
 70
     0
102
RTVSPropertyOp2
 70
     0
102
RTVSPropertyOp3
 70
     0
102
RTVSPropertyOp4
 70
     0
102
RTVSPropertyOp5
 70
     0
102
RTVSPropertyOp6
 70
     0
102
RTVSPropertyOp7
 70
     0
102
RTVSPropertyOp8
 70
     0
102
RTVSPropertyOp9
 70
     0
102
RTVSPropertyOp10
 70
     0
102
RTVSPropertyOp11
 70
     0
102
RTVSPropertyOp12
 70
     0
102
RTVSPropertyOp13
 70
     0
102
RTVSPropertyOp14
 70
     2
102
RTVSPropertyOp15
 70
     0
102
RTVSPropertyOp16
 70
     0
102
RTVSPropertyOp17
 70
     0
102
RTVSPropertyOp18
 70
     0
102
RTVSPropertyOp19
 70
     0
102
RTVSPropertyOp20
 70
     0
102
RTVSPropertyOp21
 70
     0
102
RTVSPropertyOp22
 70
     0
102
RTVSPropertyOp23
 70
     0
102
RTVSPropertyOp24
 70
     0
102
RTVSPropertyOp25
 70
     0
102
RTVSPropertyOp26
 70
     0
102
RTVSPropertyOp27
 70
     0
102
RTVSPropertyOp28
 70
     1
102
RTVSPropertyOp29
 70
     1
102
RTVSPropertyOp30
 70
     1
102
RTVSPropertyOp31
 70
     1
102
RTVSPropertyOp32
 70
     1
  0
XRECORD
  5
61C5
102
{ACAD_REACTORS
330
61C4
102
}
330
61C4
100
AcDbXrecord
280
     1
102
RTVSPropertyOp0
 70
     1
102
RTVSPropertyOp1
 70
     1
102
RTVSPropertyOp2
 70
     1
102
RTVSPropertyOp3
 70
     1
102
RTVSPropertyOp4
 70
     1
102
RTVSPropertyOp5
 70
     1
102
RTVSPropertyOp6
 70
     1
102
RTVSPropertyOp7
 70
     1
102
RTVSPropertyOp8
 70
     1
102
RTVSPropertyOp9
 70
     1
102
RTVSPropertyOp10
 70
     1
102
RTVSPropertyOp11
 70
     1
102
RTVSPropertyOp12
 70
     1
102
RTVSPropertyOp13
 70
     1
102
RTVSPropertyOp14
 70
     1
102
RTVSPropertyOp15
 70
     1
102
RTVSPropertyOp16
 70
     1
102
RTVSPropertyOp17
 70
     1
102
RTVSPropertyOp18
 70
     1
102
RTVSPropertyOp19
 70
     1
102
RTVSPropertyOp20
 70
     1
102
RTVSPropertyOp21
 70
     1
102
RTVSPropertyOp22
 70
     1
102
RTVSPropertyOp23
 70
     1
102
RTVSPropertyOp24
 70
     1
102
RTVSPropertyOp25
 70
     1
102
RTVSPropertyOp26
 70
     1
102
RTVSPropertyOp27
 70
     1
102
RTVSPropertyOp28
 70
     1
102
RTVSPropertyOp29
 70
     1
102
RTVSPropertyOp30
 70
     1
102
RTVSPropertyOp31
 70
     1
102
RTVSPropertyOp32
 70
     1
  0
XRECORD
  5
61DB
102
{ACAD_REACTORS
330
61DA
102
}
330
61DA
100
AcDbXrecord
280
     1
102
RTVSPropertyOp0
 70
     0
102
RTVSPropertyOp1
 70
     0
102
RTVSPropertyOp2
 70
     0
102
RTVSPropertyOp3
 70
     0
102
RTVSPropertyOp4
 70
     0
102
RTVSPropertyOp5
 70
     0
102
RTVSPropertyOp6
 70
     0
102
RTVSPropertyOp7
 70
     0
102
RTVSPropertyOp8
 70
     0
102
RTVSPropertyOp9
 70
     0
102
RTVSPropertyOp10
 70
     0
102
RTVSPropertyOp11
 70
     0
102
RTVSPropertyOp12
 70
     0
102
RTVSPropertyOp13
 70
     0
102
RTVSPropertyOp14
 70
     2
102
RTVSPropertyOp15
 70
     0
102
RTVSPropertyOp16
 70
     0
102
RTVSPropertyOp17
 70
     0
102
RTVSPropertyOp18
 70
     0
102
RTVSPropertyOp19
 70
     0
102
RTVSPropertyOp20
 70
     0
102
RTVSPropertyOp21
 70
     0
102
RTVSPropertyOp22
 70
     0
102
RTVSPropertyOp23
 70
     0
102
RTVSPropertyOp24
 70
     0
102
RTVSPropertyOp25
 70
     0
102
RTVSPropertyOp26
 70
     0
102
RTVSPropertyOp27
 70
     0
102
RTVSPropertyOp28
 70
     1
102
RTVSPropertyOp29
 70
     1
102
RTVSPropertyOp30
 70
     1
102
RTVSPropertyOp31
 70
     1
102
RTVSPropertyOp32
 70
     1
  0
XRECORD
  5
61BD
102
{ACAD_REACTORS
330
61BC
102
}
330
61BC
100
AcDbXrecord
280
     1
102
RTVSPropertyOp0
 70
     1
102
RTVSPropertyOp1
 70
     1
102
RTVSPropertyOp2
 70
     1
102
RTVSPropertyOp3
 70
     1
102
RTVSPropertyOp4
 70
     1
102
RTVSPropertyOp5
 70
     1
102
RTVSPropertyOp6
 70
     1
102
RTVSPropertyOp7
 70
     1
102
RTVSPropertyOp8
 70
     1
102
RTVSPropertyOp9
 70
     1
102
RTVSPropertyOp10
 70
     1
102
RTVSPropertyOp11
 70
     1
102
RTVSPropertyOp12
 70
     1
102
RTVSPropertyOp13
 70
     1
102
RTVSPropertyOp14
 70
     1
102
RTVSPropertyOp15
 70
     1
102
RTVSPropertyOp16
 70
     1
102
RTVSPropertyOp17
 70
     1
102
RTVSPropertyOp18
 70
     1
102
RTVSPropertyOp19
 70
     1
102
RTVSPropertyOp20
 70
     1
102
RTVSPropertyOp21
 70
     1
102
RTVSPropertyOp22
 70
     1
102
RTVSPropertyOp23
 70
     1
102
RTVSPropertyOp24
 70
     1
102
RTVSPropertyOp25
 70
     1
102
RTVSPropertyOp26
 70
     1
102
RTVSPropertyOp27
 70
     1
102
RTVSPropertyOp28
 70
     1
102
RTVSPropertyOp29
 70
     1
102
RTVSPropertyOp30
 70
     1
102
RTVSPropertyOp31
 70
     1
102
RTVSPropertyOp32
 70
     1
  0
XRECORD
  5
61D7
102
{ACAD_REACTORS
330
61D6
102
}
330
61D6
100
AcDbXrecord
280
     1
102
RTVSPropertyOp0
 70
     1
102
RTVSPropertyOp1
 70
     1
102
RTVSPropertyOp2
 70
     1
102
RTVSPropertyOp3
 70
     1
102
RTVSPropertyOp4
 70
     1
102
RTVSPropertyOp5
 70
     1
102
RTVSPropertyOp6
 70
     1
102
RTVSPropertyOp7
 70
     1
102
RTVSPropertyOp8
 70
     1
102
RTVSPropertyOp9
 70
     1
102
RTVSPropertyOp10
 70
     1
102
RTVSPropertyOp11
 70
     1
102
RTVSPropertyOp12
 70
     1
102
RTVSPropertyOp13
 70
     1
102
RTVSPropertyOp14
 70
     1
102
RTVSPropertyOp15
 70
     1
102
RTVSPropertyOp16
 70
     1
102
RTVSPropertyOp17
 70
     1
102
RTVSPropertyOp18
 70
     1
102
RTVSPropertyOp19
 70
     1
102
RTVSPropertyOp20
 70
     1
102
RTVSPropertyOp21
 70
     1
102
RTVSPropertyOp22
 70
     1
102
RTVSPropertyOp23
 70
     1
102
RTVSPropertyOp24
 70
     1
102
RTVSPropertyOp25
 70
     1
102
RTVSPropertyOp26
 70
     1
102
RTVSPropertyOp27
 70
     1
102
RTVSPropertyOp28
 70
     1
102
RTVSPropertyOp29
 70
     1
102
RTVSPropertyOp30
 70
     1
102
RTVSPropertyOp31
 70
     1
102
RTVSPropertyOp32
 70
     1
  0
XRECORD
  5
61D5
102
{ACAD_REACTORS
330
61D4
102
}
330
61D4
100
AcDbXrecord
280
     1
102
RTVSPropertyOp0
 70
     1
102
RTVSPropertyOp1
 70
     1
102
RTVSPropertyOp2
 70
     1
102
RTVSPropertyOp3
 70
     1
102
RTVSPropertyOp4
 70
     1
102
RTVSPropertyOp5
 70
     1
102
RTVSPropertyOp6
 70
     1
102
RTVSPropertyOp7
 70
     1
102
RTVSPropertyOp8
 70
     1
102
RTVSPropertyOp9
 70
     1
102
RTVSPropertyOp10
 70
     1
102
RTVSPropertyOp11
 70
     1
102
RTVSPropertyOp12
 70
     1
102
RTVSPropertyOp13
 70
     1
102
RTVSPropertyOp14
 70
     1
102
RTVSPropertyOp15
 70
     1
102
RTVSPropertyOp16
 70
     1
102
RTVSPropertyOp17
 70
     1
102
RTVSPropertyOp18
 70
     1
102
RTVSPropertyOp19
 70
     1
102
RTVSPropertyOp20
 70
     1
102
RTVSPropertyOp21
 70
     1
102
RTVSPropertyOp22
 70
     1
102
RTVSPropertyOp23
 70
     1
102
RTVSPropertyOp24
 70
     1
102
RTVSPropertyOp25
 70
     1
102
RTVSPropertyOp26
 70
     1
102
RTVSPropertyOp27
 70
     1
102
RTVSPropertyOp28
 70
     1
102
RTVSPropertyOp29
 70
     1
102
RTVSPropertyOp30
 70
     1
102
RTVSPropertyOp31
 70
     1
102
RTVSPropertyOp32
 70
     1
  0
XRECORD
  5
61CF
102
{ACAD_REACTORS
330
61CE
102
}
330
61CE
100
AcDbXrecord
280
     1
102
RTVSPropertyOp0
 70
     1
102
RTVSPropertyOp1
 70
     1
102
RTVSPropertyOp2
 70
     1
102
RTVSPropertyOp3
 70
     1
102
RTVSPropertyOp4
 70
     1
102
RTVSPropertyOp5
 70
     1
102
RTVSPropertyOp6
 70
     1
102
RTVSPropertyOp7
 70
     1
102
RTVSPropertyOp8
 70
     1
102
RTVSPropertyOp9
 70
     1
102
RTVSPropertyOp10
 70
     1
102
RTVSPropertyOp11
 70
     1
102
RTVSPropertyOp12
 70
     1
102
RTVSPropertyOp13
 70
     1
102
RTVSPropertyOp14
 70
     1
102
RTVSPropertyOp15
 70
     1
102
RTVSPropertyOp16
 70
     1
102
RTVSPropertyOp17
 70
     1
102
RTVSPropertyOp18
 70
     1
102
RTVSPropertyOp19
 70
     1
102
RTVSPropertyOp20
 70
     1
102
RTVSPropertyOp21
 70
     1
102
RTVSPropertyOp22
 70
     1
102
RTVSPropertyOp23
 70
     1
102
RTVSPropertyOp24
 70
     1
102
RTVSPropertyOp25
 70
     1
102
RTVSPropertyOp26
 70
     1
102
RTVSPropertyOp27
 70
     1
102
RTVSPropertyOp28
 70
     1
102
RTVSPropertyOp29
 70
     1
102
RTVSPropertyOp30
 70
     1
102
RTVSPropertyOp31
 70
     1
102
RTVSPropertyOp32
 70
     1
  0
XRECORD
  5
61D1
102
{ACAD_REACTORS
330
61D0
102
}
330
61D0
100
AcDbXrecord
280
     1
102
RTVSPropertyOp0
 70
     1
102
RTVSPropertyOp1
 70
     1
102
RTVSPropertyOp2
 70
     1
102
RTVSPropertyOp3
 70
     1
102
RTVSPropertyOp4
 70
     1
102
RTVSPropertyOp5
 70
     1
102
RTVSPropertyOp6
 70
     1
102
RTVSPropertyOp7
 70
     1
102
RTVSPropertyOp8
 70
     1
102
RTVSPropertyOp9
 70
     1
102
RTVSPropertyOp10
 70
     1
102
RTVSPropertyOp11
 70
     1
102
RTVSPropertyOp12
 70
     1
102
RTVSPropertyOp13
 70
     1
102
RTVSPropertyOp14
 70
     1
102
RTVSPropertyOp15
 70
     1
102
RTVSPropertyOp16
 70
     1
102
RTVSPropertyOp17
 70
     1
102
RTVSPropertyOp18
 70
     1
102
RTVSPropertyOp19
 70
     1
102
RTVSPropertyOp20
 70
     1
102
RTVSPropertyOp21
 70
     1
102
RTVSPropertyOp22
 70
     1
102
RTVSPropertyOp23
 70
     1
102
RTVSPropertyOp24
 70
     1
102
RTVSPropertyOp25
 70
     1
102
RTVSPropertyOp26
 70
     1
102
RTVSPropertyOp27
 70
     1
102
RTVSPropertyOp28
 70
     1
102
RTVSPropertyOp29
 70
     1
102
RTVSPropertyOp30
 70
     1
102
RTVSPropertyOp31
 70
     1
102
RTVSPropertyOp32
 70
     1
  0
XRECORD
  5
61C3
102
{ACAD_REACTORS
330
61C2
102
}
330
61C2
100
AcDbXrecord
280
     1
102
RTVSPropertyOp0
 70
     1
102
RTVSPropertyOp1
 70
     1
102
RTVSPropertyOp2
 70
     1
102
RTVSPropertyOp3
 70
     1
102
RTVSPropertyOp4
 70
     1
102
RTVSPropertyOp5
 70
     1
102
RTVSPropertyOp6
 70
     1
102
RTVSPropertyOp7
 70
     1
102
RTVSPropertyOp8
 70
     1
102
RTVSPropertyOp9
 70
     1
102
RTVSPropertyOp10
 70
     1
102
RTVSPropertyOp11
 70
     1
102
RTVSPropertyOp12
 70
     1
102
RTVSPropertyOp13
 70
     1
102
RTVSPropertyOp14
 70
     1
102
RTVSPropertyOp15
 70
     1
102
RTVSPropertyOp16
 70
     1
102
RTVSPropertyOp17
 70
     1
102
RTVSPropertyOp18
 70
     1
102
RTVSPropertyOp19
 70
     1
102
RTVSPropertyOp20
 70
     1
102
RTVSPropertyOp21
 70
     1
102
RTVSPropertyOp22
 70
     1
102
RTVSPropertyOp23
 70
     1
102
RTVSPropertyOp24
 70
     1
102
RTVSPropertyOp25
 70
     1
102
RTVSPropertyOp26
 70
     1
102
RTVSPropertyOp27
 70
     1
102
RTVSPropertyOp28
 70
     1
102
RTVSPropertyOp29
 70
     1
102
RTVSPropertyOp30
 70
     1
102
RTVSPropertyOp31
 70
     1
102
RTVSPropertyOp32
 70
     1
  0
XRECORD
  5
61CB
102
{ACAD_REACTORS
330
61CA
102
}
330
61CA
100
AcDbXrecord
280
     1
102
RTVSPropertyOp0
 70
     1
102
RTVSPropertyOp1
 70
     1
102
RTVSPropertyOp2
 70
     1
102
RTVSPropertyOp3
 70
     1
102
RTVSPropertyOp4
 70
     1
102
RTVSPropertyOp5
 70
     1
102
RTVSPropertyOp6
 70
     1
102
RTVSPropertyOp7
 70
     1
102
RTVSPropertyOp8
 70
     1
102
RTVSPropertyOp9
 70
     1
102
RTVSPropertyOp10
 70
     1
102
RTVSPropertyOp11
 70
     1
102
RTVSPropertyOp12
 70
     1
102
RTVSPropertyOp13
 70
     1
102
RTVSPropertyOp14
 70
     1
102
RTVSPropertyOp15
 70
     1
102
RTVSPropertyOp16
 70
     1
102
RTVSPropertyOp17
 70
     1
102
RTVSPropertyOp18
 70
     1
102
RTVSPropertyOp19
 70
     1
102
RTVSPropertyOp20
 70
     1
102
RTVSPropertyOp21
 70
     1
102
RTVSPropertyOp22
 70
     1
102
RTVSPropertyOp23
 70
     1
102
RTVSPropertyOp24
 70
     1
102
RTVSPropertyOp25
 70
     1
102
RTVSPropertyOp26
 70
     1
102
RTVSPropertyOp27
 70
     1
102
RTVSPropertyOp28
 70
     1
102
RTVSPropertyOp29
 70
     1
102
RTVSPropertyOp30
 70
     1
102
RTVSPropertyOp31
 70
     1
102
RTVSPropertyOp32
 70
     1
  0
XRECORD
  5
61D3
102
{ACAD_REACTORS
330
61D2
102
}
330
61D2
100
AcDbXrecord
280
     1
102
RTVSPropertyOp0
 70
     1
102
RTVSPropertyOp1
 70
     1
102
RTVSPropertyOp2
 70
     1
102
RTVSPropertyOp3
 70
     1
102
RTVSPropertyOp4
 70
     1
102
RTVSPropertyOp5
 70
     1
102
RTVSPropertyOp6
 70
     1
102
RTVSPropertyOp7
 70
     1
102
RTVSPropertyOp8
 70
     1
102
RTVSPropertyOp9
 70
     1
102
RTVSPropertyOp10
 70
     1
102
RTVSPropertyOp11
 70
     1
102
RTVSPropertyOp12
 70
     1
102
RTVSPropertyOp13
 70
     1
102
RTVSPropertyOp14
 70
     1
102
RTVSPropertyOp15
 70
     1
102
RTVSPropertyOp16
 70
     1
102
RTVSPropertyOp17
 70
     1
102
RTVSPropertyOp18
 70
     1
102
RTVSPropertyOp19
 70
     1
102
RTVSPropertyOp20
 70
     1
102
RTVSPropertyOp21
 70
     1
102
RTVSPropertyOp22
 70
     1
102
RTVSPropertyOp23
 70
     1
102
RTVSPropertyOp24
 70
     1
102
RTVSPropertyOp25
 70
     1
102
RTVSPropertyOp26
 70
     1
102
RTVSPropertyOp27
 70
     1
102
RTVSPropertyOp28
 70
     1
102
RTVSPropertyOp29
 70
     1
102
RTVSPropertyOp30
 70
     1
102
RTVSPropertyOp31
 70
     1
102
RTVSPropertyOp32
 70
     1
  0
ENDSEC
  0
EOF
