  0
SECTION
  2
HEADER
  9
$ACADVER
  1
AC1015
  9
$ACADMAINTVER
 70
    20
  9
$DWGCODEPAGE
  3
ANSI_949
  9
$INSBASE
 10
0.0
 20
0.0
 30
0.0
  9
$EXTMIN
 10
-0.0000011751832991
 20
0.0000004511815632
 30
0.0
  9
$EXTMAX
 10
414.9999988248159
 20
110.7434435622935
 30
0.0
  9
$LIMMIN
 10
0.0
 20
0.0
  9
$LIMMAX
 10
420.0
 20
297.0
  9
$ORTHOMODE
 70
     1
  9
$REGENMODE
 70
     1
  9
$FILLMODE
 70
     1
  9
$QTEXTMODE
 70
     0
  9
$MIRRTEXT
 70
     1
  9
$LTSCALE
 40
10.0
  9
$ATTMODE
 70
     1
  9
$TEXTSIZE
 40
3.149999999999999
  9
$TRACEWID
 40
0.05
  9
$TEXTSTYLE
  7
H
  9
$CLAYER
  8
0
  9
$CELTYPE
  6
BYLAYER
  9
$CECOLOR
 62
   256
  9
$CELTSCALE
 40
1.0
  9
$DISPSILH
 70
     0
  9
$DIMSCALE
 40
1.5
  9
$DIMASZ
 40
2.5
  9
$DIMEXO
 40
0.8
  9
$DIMDLI
 40
0.8
  9
$DIMRND
 40
0.0
  9
$DIMDLE
 40
0.0
  9
$DIMEXE
 40
0.8
  9
$DIMTP
 40
0.0
  9
$DIMTM
 40
0.0
  9
$DIMTXT
 40
3.0
  9
$DIMCEN
 40
-1.0
  9
$DIMTSZ
 40
0.0
  9
$DIMTOL
 70
     0
  9
$DIMLIM
 70
     0
  9
$DIMTIH
 70
     0
  9
$DIMTOH
 70
     0
  9
$DIMSE1
 70
     0
  9
$DIMSE2
 70
     0
  9
$DIMTAD
 70
     3
  9
$DIMZIN
 70
     8
  9
$DIMBLK
  1

  9
$DIMASO
 70
     1
  9
$DIMSHO
 70
     1
  9
$DIMPOST
  1

  9
$DIMAPOST
  1

  9
$DIMALT
 70
     0
  9
$DIMALTD
 70
     2
  9
$DIMALTF
 40
25.4
  9
$DIMLFAC
 40
1.0
  9
$DIMTOFL
 70
     1
  9
$DIMTVP
 40
0.0
  9
$DIMTIX
 70
     0
  9
$DIMSOXD
 70
     0
  9
$DIMSAH
 70
     0
  9
$DIMBLK1
  1

  9
$DIMBLK2
  1

  9
$DIMSTYLE
  2
STANDARD
  9
$DIMCLRD
 70
   115
  9
$DIMCLRE
 70
   115
  9
$DIMCLRT
 70
     7
  9
$DIMTFAC
 40
1.0
  9
$DIMGAP
 40
1.0
  9
$DIMJUST
 70
     0
  9
$DIMSD1
 70
     0
  9
$DIMSD2
 70
     0
  9
$DIMTOLJ
 70
     1
  9
$DIMTZIN
 70
     0
  9
$DIMALTZ
 70
     0
  9
$DIMALTTZ
 70
     0
  9
$DIMUPT
 70
     0
  9
$DIMDEC
 70
     3
  9
$DIMTDEC
 70
     4
  9
$DIMALTU
 70
     2
  9
$DIMALTTD
 70
     2
  9
$DIMTXSTY
  7
STANDARD
  9
$DIMAUNIT
 70
     0
  9
$DIMADEC
 70
     0
  9
$DIMALTRND
 40
0.0
  9
$DIMAZIN
 70
     0
  9
$DIMDSEP
 70
    46
  9
$DIMATFIT
 70
     3
  9
$DIMFRAC
 70
     0
  9
$DIMLDRBLK
  1

  9
$DIMLUNIT
 70
     2
  9
$DIMLWD
 70
    -2
  9
$DIMLWE
 70
    -2
  9
$DIMTMOVE
 70
     0
  9
$LUNITS
 70
     2
  9
$LUPREC
 70
     4
  9
$SKETCHINC
 40
0.1
  9
$FILLETRAD
 40
0.0
  9
$AUNITS
 70
     0
  9
$AUPREC
 70
     0
  9
$MENU
  1
.
  9
$ELEVATION
 40
0.0
  9
$PELEVATION
 40
0.0
  9
$THICKNESS
 40
0.0
  9
$LIMCHECK
 70
     0
  9
$CHAMFERA
 40
1.0
  9
$CHAMFERB
 40
1.0
  9
$CHAMFERC
 40
1.0
  9
$CHAMFERD
 40
0.0
  9
$SKPOLY
 70
     1
  9
$TDCREATE
 40
2452464.575009942
  9
$TDUCREATE
 40
2452464.200009942
  9
$TDUPDATE
 40
2456842.718340637
  9
$TDUUPDATE
 40
2456842.343340637
  9
$TDINDWG
 40
0.2970007060
  9
$TDUSRTIMER
 40
0.2970004977
  9
$USRTIMER
 70
     1
  9
$ANGBASE
 50
0.0
  9
$ANGDIR
 70
     0
  9
$PDMODE
 70
     0
  9
$PDSIZE
 40
0.0
  9
$PLINEWID
 40
0.5
  9
$SPLFRAME
 70
     0
  9
$SPLINETYPE
 70
     6
  9
$SPLINESEGS
 70
     8
  9
$HANDSEED
  5
8DFA
  9
$SURFTAB1
 70
     6
  9
$SURFTAB2
 70
     6
  9
$SURFTYPE
 70
     6
  9
$SURFU
 70
     6
  9
$SURFV
 70
     6
  9
$UCSBASE
  2

  9
$UCSNAME
  2

  9
$UCSORG
 10
0.0
 20
0.0
 30
0.0
  9
$UCSXDIR
 10
1.0
 20
0.0
 30
0.0
  9
$UCSYDIR
 10
0.0
 20
1.0
 30
0.0
  9
$UCSORTHOREF
  2

  9
$UCSORTHOVIEW
 70
     0
  9
$UCSORGTOP
 10
0.0
 20
0.0
 30
0.0
  9
$UCSORGBOTTOM
 10
0.0
 20
0.0
 30
0.0
  9
$UCSORGLEFT
 10
0.0
 20
0.0
 30
0.0
  9
$UCSORGRIGHT
 10
0.0
 20
0.0
 30
0.0
  9
$UCSORGFRONT
 10
0.0
 20
0.0
 30
0.0
  9
$UCSORGBACK
 10
0.0
 20
0.0
 30
0.0
  9
$PUCSBASE
  2

  9
$PUCSNAME
  2

  9
$PUCSORG
 10
0.0
 20
0.0
 30
0.0
  9
$PUCSXDIR
 10
1.0
 20
0.0
 30
0.0
  9
$PUCSYDIR
 10
0.0
 20
1.0
 30
0.0
  9
$PUCSORTHOREF
  2

  9
$PUCSORTHOVIEW
 70
     0
  9
$PUCSORGTOP
 10
0.0
 20
0.0
 30
0.0
  9
$PUCSORGBOTTOM
 10
0.0
 20
0.0
 30
0.0
  9
$PUCSORGLEFT
 10
0.0
 20
0.0
 30
0.0
  9
$PUCSORGRIGHT
 10
0.0
 20
0.0
 30
0.0
  9
$PUCSORGFRONT
 10
0.0
 20
0.0
 30
0.0
  9
$PUCSORGBACK
 10
0.0
 20
0.0
 30
0.0
  9
$USERI1
 70
     0
  9
$USERI2
 70
   452
  9
$USERI3
 70
     1
  9
$USERI4
 70
     0
  9
$USERI5
 70
     0
  9
$USERR1
 40
0.0
  9
$USERR2
 40
0.0
  9
$USERR3
 40
0.0
  9
$USERR4
 40
0.0
  9
$USERR5
 40
0.0
  9
$WORLDVIEW
 70
     1
  9
$SHADEDGE
 70
     3
  9
$SHADEDIF
 70
    70
  9
$TILEMODE
 70
     1
  9
$MAXACTVP
 70
    48
  9
$PINSBASE
 10
0.0
 20
0.0
 30
0.0
  9
$PLIMCHECK
 70
     0
  9
$PEXTMIN
 10
1.000000000000000E+20
 20
1.000000000000000E+20
 30
1.000000000000000E+20
  9
$PEXTMAX
 10
-1.000000000000000E+20
 20
-1.000000000000000E+20
 30
-1.000000000000000E+20
  9
$PLIMMIN
 10
0.0
 20
0.0
  9
$PLIMMAX
 10
12.0
 20
9.0
  9
$UNITMODE
 70
     0
  9
$VISRETAIN
 70
     1
  9
$PLINEGEN
 70
     0
  9
$PSLTSCALE
 70
     1
  9
$TREEDEPTH
 70
  3020
  9
$CMLSTYLE
  2
STANDARD
  9
$CMLJUST
 70
     0
  9
$CMLSCALE
 40
1.0
  9
$PROXYGRAPHICS
 70
     1
  9
$MEASUREMENT
 70
     0
  9
$CELWEIGHT
370
    -1
  9
$ENDCAPS
280
     0
  9
$JOINSTYLE
280
     0
  9
$LWDISPLAY
290
     0
  9
$INSUNITS
 70
     0
  9
$HYPERLINKBASE
  1

  9
$STYLESHEET
  1

  9
$XEDIT
290
     1
  9
$CEPSNTYPE
380
     0
  9
$PSTYLEMODE
290
     1
  9
$FINGERPRINTGUID
  2
{E9504D1A-2645-41AE-A941-3296AC7246AE}
  9
$VERSIONGUID
  2
{A263223E-1970-4FC3-A692-D1ACBFE23DFC}
  9
$EXTNAMES
290
     1
  9
$PSVPSCALE
 40
0.0
  9
$OLESTARTUP
290
     0
  0
ENDSEC
  0
SECTION
  2
CLASSES
  0
CLASS
  1
DICTIONARYVAR
  2
AcDbDictionaryVar
  3
ObjectDBX Classes
 90
        0
280
     0
281
     0
  0
CLASS
  1
ACDBDICTIONARYWDFLT
  2
AcDbDictionaryWithDefault
  3
ObjectDBX Classes
 90
        0
280
     0
281
     0
  0
CLASS
  1
TABLESTYLE
  2
AcDbTableStyle
  3
ObjectDBX Classes
 90
     4095
280
     0
281
     0
  0
CLASS
  1
ACDBPLACEHOLDER
  2
AcDbPlaceHolder
  3
ObjectDBX Classes
 90
        0
280
     0
281
     0
  0
CLASS
  1
LAYOUT
  2
AcDbLayout
  3
ObjectDBX Classes
 90
        0
280
     0
281
     0
  0
CLASS
  1
MATERIAL
  2
AcDbMaterial
  3
ObjectDBX Classes
 90
     1153
280
     0
281
     0
  0
CLASS
  1
VISUALSTYLE
  2
AcDbVisualStyle
  3
ObjectDBX Classes
 90
     4095
280
     0
281
     0
  0
CLASS
  1
SCALE
  2
AcDbScale
  3
ObjectDBX Classes
 90
     1153
280
     0
281
     0
  0
CLASS
  1
MLEADERSTYLE
  2
AcDbMLeaderStyle
  3
ACDB_MLEADERSTYLE_CLASS
 90
     4095
280
     0
281
     0
  0
CLASS
  1
CELLSTYLEMAP
  2
AcDbCellStyleMap
  3
ObjectDBX Classes
 90
     1152
280
     0
281
     0
  0
CLASS
  1
SORTENTSTABLE
  2
AcDbSortentsTable
  3
ObjectDBX Classes
 90
        0
280
     0
281
     0
  0
CLASS
  1
ACAD_EVALUATION_GRAPH
  2
AcDbEvalGraph
  3
ObjectDBX Classes
 90
    33921
280
     0
281
     0
  0
CLASS
  1
ACAECUSTOBJ
  2
AcAeEditorObj
  3
AcAeEditorObj
 90
    33792
280
     0
281
     0
  0
CLASS
  1
ACDB_DYNAMICBLOCKPURGEPREVENTER_VERSION
  2
AcDbDynamicBlockPurgePreventer
  3
ObjectDBX Classes
 90
    33921
280
     0
281
     0
  0
ENDSEC
  0
SECTION
  2
TABLES
  0
TABLE
  2
VPORT
  5
8
102
{ACAD_XDICTIONARY
360
8A8E
102
}
330
0
100
AcDbSymbolTable
 70
     1
  0
VPORT
  5
7E62
330
8
100
AcDbSymbolTableRecord
100
AcDbViewportTableRecord
  2
*Active
 70
     0
 10
0.0
 20
0.0
 11
1.0
 21
1.0
 12
207.5006107319564
 22
55.37027035848035
 13
0.0
 23
0.0
 14
0.5
 24
0.5
 15
0.5
 25
0.5
 16
0.0
 26
0.0
 36
1.0
 17
0.0
 27
0.0
 37
0.0
 40
184.4794826608201
 41
2.257287705956907
 42
50.0
 43
0.0
 44
0.0
 50
0.0
 51
0.0
 71
     0
 72
   100
 73
     1
 74
     1
 75
     0
 76
     0
 77
     0
 78
     0
281
     0
 65
     1
110
0.0
120
0.0
130
0.0
111
1.0
121
0.0
131
0.0
112
0.0
122
1.0
132
0.0
 79
     0
146
0.0
1001
ACAD_NAV_VCDISPLAY
1070
     3
  0
ENDTAB
  0
TABLE
  2
LTYPE
  5
5
330
0
100
AcDbSymbolTable
 70
     3
  0
LTYPE
  5
13
330
5
100
AcDbSymbolTableRecord
100
AcDbLinetypeTableRecord
  2
BYBLOCK
 70
     0
  3

 72
    65
 73
     0
 40
0.0
  0
LTYPE
  5
14
330
5
100
AcDbSymbolTableRecord
100
AcDbLinetypeTableRecord
  2
BYLAYER
 70
     0
  3

 72
    65
 73
     0
 40
0.0
  0
LTYPE
  5
15
330
5
100
AcDbSymbolTableRecord
100
AcDbLinetypeTableRecord
  2
CONTINUOUS
 70
     0
  3
Solid line
 72
    65
 73
     0
 40
0.0
  0
LTYPE
  5
888E
330
5
100
AcDbSymbolTableRecord
100
AcDbLinetypeTableRecord
  2
CENTER
 70
     0
  3
Center ____ _ ____ _ ____ _ ____ _ ____ _ ____
 72
    65
 73
     4
 40
2.0
 49
1.25
 74
     0
 49
-0.25
 74
     0
 49
0.25
 74
     0
 49
-0.25
 74
     0
  0
LTYPE
  5
888F
330
5
100
AcDbSymbolTableRecord
100
AcDbLinetypeTableRecord
  2
HIDDEN
 70
     0
  3
Hidden __ __ __ __ __ __ __ __ __ __ __ __ __ _
 72
    65
 73
     2
 40
0.375
 49
0.25
 74
     0
 49
-0.125
 74
     0
  0
ENDTAB
  0
TABLE
  2
LAYER
  5
2
330
0
100
AcDbSymbolTable
 70
     5
  0
LAYER
  5
F
102
{ACAD_XDICTIONARY
360
7F56
102
}
330
2
100
AcDbSymbolTableRecord
100
AcDbLayerTableRecord
  2
0
 70
     0
 62
     7
  6
CONTINUOUS
370
    -3
390
7D97
  0
LAYER
  5
24EF
330
2
100
AcDbSymbolTableRecord
100
AcDbLayerTableRecord
  2
DEFPOINTS
 70
     0
 62
     7
  6
CONTINUOUS
290
     0
370
    -3
390
7D97
  0
LAYER
  5
8890
102
{ACAD_XDICTIONARY
360
8891
102
}
330
2
100
AcDbSymbolTableRecord
100
AcDbLayerTableRecord
  2
9
 70
     0
 62
     3
  6
CONTINUOUS
370
    -3
390
7D97
  0
LAYER
  5
8892
102
{ACAD_XDICTIONARY
360
8893
102
}
330
2
100
AcDbSymbolTableRecord
100
AcDbLayerTableRecord
  2
1
 70
     0
 62
     1
  6
CENTER
370
    -3
390
7D97
  0
LAYER
  5
8894
102
{ACAD_XDICTIONARY
360
8895
102
}
330
2
100
AcDbSymbolTableRecord
100
AcDbLayerTableRecord
  2
2
 70
     0
 62
     2
  6
HIDDEN
370
    -3
390
7D97
  0
ENDTAB
  0
TABLE
  2
STYLE
  5
3
330
0
100
AcDbSymbolTable
 70
     2
  0
STYLE
  5
10
330
3
100
AcDbSymbolTableRecord
100
AcDbTextStyleTableRecord
  2
STANDARD
 70
     0
 40
0.0
 41
1.0
 50
0.0
 71
     0
 42
3.0
  3
romans.shx
  4

  0
STYLE
  5
7DAB
330
3
100
AcDbSymbolTableRecord
100
AcDbTextStyleTableRecord
  2
H
 70
     0
 40
0.0
 41
1.0
 50
0.0
 71
     0
 42
3.149999999999999
  3
txt.shx
  4

  0
ENDTAB
  0
TABLE
  2
VIEW
  5
6
330
0
100
AcDbSymbolTable
 70
     0
  0
ENDTAB
  0
TABLE
  2
UCS
  5
7
330
0
100
AcDbSymbolTable
 70
     0
  0
ENDTAB
  0
TABLE
  2
APPID
  5
9
330
0
100
AcDbSymbolTable
 70
     9
  0
APPID
  5
11
330
9
100
AcDbSymbolTableRecord
100
AcDbRegAppTableRecord
  2
ACAD
 70
     0
  0
APPID
  5
2325
330
9
100
AcDbSymbolTableRecord
100
AcDbRegAppTableRecord
  2
MCLBOMATTRIB
 70
     0
  0
APPID
  5
2326
330
9
100
AcDbSymbolTableRecord
100
AcDbRegAppTableRecord
  2
MCLBOM
 70
     0
  0
APPID
  5
7EBC
330
9
100
AcDbSymbolTableRecord
100
AcDbRegAppTableRecord
  2
ACAD_MLEADERVER
 70
     0
  0
APPID
  5
80CB
330
9
100
AcDbSymbolTableRecord
100
AcDbRegAppTableRecord
  2
ACAD_NAV_VCDISPLAY
 70
     0
  0
APPID
  5
838E
330
9
100
AcDbSymbolTableRecord
100
AcDbRegAppTableRecord
  2
ACAD_EXEMPT_FROM_CAD_STANDARDS
 70
     0
  0
APPID
  5
8BBF
330
9
100
AcDbSymbolTableRecord
100
AcDbRegAppTableRecord
  2
ACAUTHENVIRON
 70
     0
  0
APPID
  5
8BC8
330
9
100
AcDbSymbolTableRecord
100
AcDbRegAppTableRecord
  2
AcDbDynamicBlockTrueName
 70
     0
  0
APPID
  5
8BC9
330
9
100
AcDbSymbolTableRecord
100
AcDbRegAppTableRecord
  2
AcDbDynamicBlockGUID
 70
     0
  0
ENDTAB
  0
TABLE
  2
DIMSTYLE
  5
A
330
0
100
AcDbSymbolTable
 70
     1
100
AcDbDimStyleTable
 71
     1
340
1D
  0
DIMSTYLE
105
1D
102
{ACAD_REACTORS
330
88BE
330
88BF
330
88C0
330
88C1
330
88C2
330
88C3
330
88C4
330
88C5
330
88C6
330
88C7
330
88C8
330
88C9
330
88CC
330
88CE
330
88CF
330
88D0
330
88D1
330
88D2
102
}
330
A
100
AcDbSymbolTableRecord
100
AcDbDimStyleTableRecord
  2
STANDARD
 70
     0
 41
2.0
140
3.0
176
     2
177
     2
178
     4
340
10
  0
ENDTAB
  0
TABLE
  2
BLOCK_RECORD
  5
1
330
0
100
AcDbSymbolTable
 70
    21
  0
BLOCK_RECORD
  5
19
102
{ACAD_XDICTIONARY
360
838B
102
}
330
1
100
AcDbSymbolTableRecord
100
AcDbBlockTableRecord
  2
*MODEL_SPACE
340
7D9E
  0
BLOCK_RECORD
  5
16
330
1
100
AcDbSymbolTableRecord
100
AcDbBlockTableRecord
  2
*PAPER_SPACE
340
7D9F
  0
BLOCK_RECORD
  5
8840
102
{ACAD_XDICTIONARY
360
8841
102
}
330
1
100
AcDbSymbolTableRecord
100
AcDbBlockTableRecord
  2
A$C255E06E0
340
0
102
{BLKREFS
331
88D4
102
}
  0
BLOCK_RECORD
  5
8875
102
{ACAD_XDICTIONARY
360
8876
102
}
330
1
100
AcDbSymbolTableRecord
100
AcDbBlockTableRecord
  2
A$C2EBE1FB4
340
0
102
{BLKREFS
331
88D6
102
}
  0
BLOCK_RECORD
  5
88DE
330
1
100
AcDbSymbolTableRecord
100
AcDbBlockTableRecord
  2
*D2
340
0
  0
BLOCK_RECORD
  5
88EA
330
1
100
AcDbSymbolTableRecord
100
AcDbBlockTableRecord
  2
*D3
340
0
  0
BLOCK_RECORD
  5
88F6
330
1
100
AcDbSymbolTableRecord
100
AcDbBlockTableRecord
  2
*D4
340
0
  0
BLOCK_RECORD
  5
8902
330
1
100
AcDbSymbolTableRecord
100
AcDbBlockTableRecord
  2
*D5
340
0
  0
BLOCK_RECORD
  5
890E
330
1
100
AcDbSymbolTableRecord
100
AcDbBlockTableRecord
  2
*D6
340
0
  0
BLOCK_RECORD
  5
891A
330
1
100
AcDbSymbolTableRecord
100
AcDbBlockTableRecord
  2
*D7
340
0
  0
BLOCK_RECORD
  5
8926
330
1
100
AcDbSymbolTableRecord
100
AcDbBlockTableRecord
  2
*D8
340
0
  0
BLOCK_RECORD
  5
8932
330
1
100
AcDbSymbolTableRecord
100
AcDbBlockTableRecord
  2
*D9
340
0
  0
BLOCK_RECORD
  5
8940
330
1
100
AcDbSymbolTableRecord
100
AcDbBlockTableRecord
  2
*D10
340
0
  0
BLOCK_RECORD
  5
894C
330
1
100
AcDbSymbolTableRecord
100
AcDbBlockTableRecord
  2
*D11
340
0
  0
BLOCK_RECORD
  5
8958
330
1
100
AcDbSymbolTableRecord
100
AcDbBlockTableRecord
  2
*D12
340
0
  0
BLOCK_RECORD
  5
8964
330
1
100
AcDbSymbolTableRecord
100
AcDbBlockTableRecord
  2
*D13
340
0
  0
BLOCK_RECORD
  5
8972
330
1
100
AcDbSymbolTableRecord
100
AcDbBlockTableRecord
  2
*D14
340
0
  0
BLOCK_RECORD
  5
898B
330
1
100
AcDbSymbolTableRecord
100
AcDbBlockTableRecord
  2
*D15
340
0
  0
BLOCK_RECORD
  5
8999
330
1
100
AcDbSymbolTableRecord
100
AcDbBlockTableRecord
  2
*D16
340
0
  0
BLOCK_RECORD
  5
89A5
330
1
100
AcDbSymbolTableRecord
100
AcDbBlockTableRecord
  2
*D17
340
0
  0
BLOCK_RECORD
  5
89B1
330
1
100
AcDbSymbolTableRecord
100
AcDbBlockTableRecord
  2
*D18
340
0
  0
BLOCK_RECORD
  5
89BF
330
1
100
AcDbSymbolTableRecord
100
AcDbBlockTableRecord
  2
*D19
340
0
  0
BLOCK_RECORD
  5
8AF5
102
{ACAD_XDICTIONARY
360
8CD5
102
}
330
1
100
AcDbSymbolTableRecord
100
AcDbBlockTableRecord
  2
2505SDK
340
0
310
2800000020000000200000000100080000000000000400000000000000000000000000000000000000000000000080000080000000808000800000008000800080800000C0C0C000C0DCC000F0CAA6000020400000206000002080000020A0000020C0000020E00000400000004020000040400000406000004080000040A0
310
000040C0000040E00000600000006020000060400000606000006080000060A0000060C0000060E00000800000008020000080400000806000008080000080A0000080C0000080E00000A0000000A0200000A0400000A0600000A0800000A0A00000A0C00000A0E00000C0000000C0200000C0400000C0600000C0800000C0
310
A00000C0C00000C0E00000E0000000E0200000E0400000E0600000E0800000E0A00000E0C00000E0E00040000000400020004000400040006000400080004000A0004000C0004000E00040200000402020004020400040206000402080004020A0004020C0004020E000404000004040200040404000404060004040800040
310
40A0004040C0004040E00040600000406020004060400040606000406080004060A0004060C0004060E00040800000408020004080400040806000408080004080A0004080C0004080E00040A0000040A0200040A0400040A0600040A0800040A0A00040A0C00040A0E00040C0000040C0200040C0400040C0600040C08000
310
40C0A00040C0C00040C0E00040E0000040E0200040E0400040E0600040E0800040E0A00040E0C00040E0E00080000000800020008000400080006000800080008000A0008000C0008000E00080200000802020008020400080206000802080008020A0008020C0008020E00080400000804020008040400080406000804080
310
008040A0008040C0008040E00080600000806020008060400080606000806080008060A0008060C0008060E00080800000808020008080400080806000808080008080A0008080C0008080E00080A0000080A0200080A0400080A0600080A0800080A0A00080A0C00080A0E00080C0000080C0200080C0400080C0600080C0
310
800080C0A00080C0C00080C0E00080E0000080E0200080E0400080E0600080E0800080E0A00080E0C00080E0E000C0000000C0002000C0004000C0006000C0008000C000A000C000C000C000E000C0200000C0202000C0204000C0206000C0208000C020A000C020C000C020E000C0400000C0402000C0404000C0406000C0
310
408000C040A000C040C000C040E000C0600000C0602000C0604000C0606000C0608000C060A000C060C000C060E000C0800000C0802000C0804000C0806000C0808000C080A000C080C000C080E000C0A00000C0A02000C0A04000C0A06000C0A08000C0A0A000C0A0C000C0A0E000C0C00000C0C02000C0C04000C0C06000
310
C0C08000C0C0A000F0FBFF00A4A0A000808080000000FF0000FF000000FFFF00FF000000FF00FF00FFFF0000FFFFFF0049494949494949494949494949494949494949494949494949494949494949494949494949494949494949494949494949494949FFFFFFFFFF49494949494949494949494949494949494949494949
310
49494949FFFF494949FF4949494949494949494949494949494949494949494949494949FFFF494949FF4949494949494949494949494949494949494949494949494949FFFF494949FF4949494949494949494949494949494949494949494949494949FFFF494949FF494949494949494949494949FFFFFFFFFFFFFFFFFF
310
FFFFFFFFFFFFFF494949FFFFFF494949494949494949FFFF49494949494949494949494949FFFFFFFFFFFF49FFFF4949494949494949FFFF49494949494949494949494949FA49494949FA49FFFF4949494949494949FFFF49494949494949494949494949FFFA4949FAFF49FFFF4949494949494949FBFBFBFBFBFBFBFBFB
310
FBFBFBFBFBFBFBFBFBFBFBFBFBFBFB4949494949494949FFFF49494949494949494949494949FFFA4949FAFF49FFFF4949494949494949FFFF49494949494949494949494949FFFA4949FAFF49FFFF4949494949494949FFFF49494949494949494949494949FF49FAFA49FF49FFFF4949494949494949FFFF494949494949
310
49494949494949FF49FAFA49FF49FFFF4949494949494949FFFFFFFFFFFFFFFFFFFFFFFFFFFFFFFF49FAFA49FF49FFFF4949494949494949FFFFFFFFFFFFFFFFFFFFFFFFFFFFFFFF49FAFA49FF49FFFF4949494949494949FFFF49494949494949494949494949FF49FAFA49FF49FFFF4949494949494949FFFF4949494949
310
4949494949494949FF49FAFA49FF49FFFF4949494949494949FFFF49494949494949494949494949FFFA4949FAFF49FFFF4949494949494949FFFF49494949494949494949494949FFFA4949FAFF49FFFF4949494949494949FBFBFBFBFBFBFBFBFBFBFBFBFBFBFBFBFBFBFBFBFBFBFBFB4949494949494949FFFF49494949
310
494949494949494949FFFA4949FAFF49FFFF4949494949494949FFFF49494949494949494949494949FA49494949FA49FFFF4949494949494949FFFF49494949494949494949494949FFFFFFFFFFFF49FFFF494949494949494949FFFFFFFFFFFFFFFFFFFFFFFFFFFFFFFF494949FFFFFF4949494949494949494949494949
310
49494949494949494949FFFF494949FF4949494949494949494949494949494949494949494949494949FFFF494949FF4949494949494949494949494949494949494949494949494949FFFAFFFFFFFF4949494949494949494949494949494949494949494949494949FFFFFFFFFAFF494949494949494949494949494949
310
494949494949494949494949FFFFFFFFFF494949494949494949494949494949494949494949494949494949494949494949494949494949
102
{BLKREFS
331
8B19
102
}
1001
AcDbDynamicBlockGUID
1000
{F4C4DB72-E86E-4039-8D5C-48EDA755756B}
  0
ENDTAB
  0
ENDSEC
  0
SECTION
  2
BLOCKS
  0
BLOCK
  5
1A
330
19
100
AcDbEntity
  8
0
100
AcDbBlockBegin
  2
*MODEL_SPACE
 70
     0
 10
0.0
 20
0.0
 30
0.0
  3
*MODEL_SPACE
  1

  0
ENDBLK
  5
1B
330
19
100
AcDbEntity
  8
0
100
AcDbBlockEnd
  0
BLOCK
  5
17
330
16
100
AcDbEntity
 67
     1
  8
0
100
AcDbBlockBegin
  2
*PAPER_SPACE
 70
     0
 10
0.0
 20
0.0
 30
0.0
  3
*PAPER_SPACE
  1

  0
ENDBLK
  5
18
330
16
100
AcDbEntity
 67
     1
  8
0
100
AcDbBlockEnd
  0
BLOCK
  5
8843
330
8840
100
AcDbEntity
  8
0
100
AcDbBlockBegin
  2
A$C255E06E0
 70
     0
 10
0.0
 20
0.0
 30
0.0
  3
A$C255E06E0
  1

  0
LINE
  5
8844
330
8840
100
AcDbEntity
  8
0
  6
Continuous
100
AcDbLine
 10
-0.0000010582044183
 20
-0.0000001556169877
 30
0.0
 11
299.9999989417958
 21
-0.0000001556169877
 31
0.0
  0
LINE
  5
8845
330
8840
100
AcDbEntity
  8
0
  6
Continuous
100
AcDbLine
 10
-0.0000010582042478
 20
24.59999984438309
 30
0.0
 11
299.9999989417958
 21
24.59999984438269
 31
0.0
  0
LINE
  5
8846
330
8840
100
AcDbEntity
  8
9
  6
Continuous
100
AcDbLine
 10
-0.0000010582044183
 20
1.449999844383057
 30
0.0
 11
299.9999989417958
 21
1.449999844382659
 31
0.0
  0
LINE
  5
8847
330
8840
100
AcDbEntity
  8
9
  6
Continuous
100
AcDbLine
 10
-0.0000010582042478
 20
23.14999984438305
 30
0.0
 11
299.9999989417958
 21
23.14999984438305
 31
0.0
  0
LINE
  5
8848
330
8840
100
AcDbEntity
  8
0
100
AcDbLine
 10
-0.0000010582044183
 20
-0.0000001556169877
 30
0.0
 11
-0.0000010582042478
 21
24.59999984438309
 31
0.0
  0
LINE
  5
8849
330
8840
100
AcDbEntity
  8
0
100
AcDbLine
 10
299.9999989417956
 20
-0.0000001556169877
 30
0.0
 11
299.9999989417958
 21
24.59999984438309
 31
0.0
  0
TEXT
  5
884A
330
8840
100
AcDbEntity
  8
0
100
AcDbText
 10
32.25000194179563
 20
10.29999984438302
 30
0.0
 40
4.0
  1
RM2505
 72
     4
 11
44.25000194179562
 21
12.29999984438302
 31
0.0
100
AcDbText
  0
ENDBLK
  5
884B
330
8840
100
AcDbEntity
  8
0
100
AcDbBlockEnd
  0
BLOCK
  5
8878
330
8875
100
AcDbEntity
  8
0
100
AcDbBlockBegin
  2
A$C2EBE1FB4
 70
     0
 10
0.0
 20
0.0
 30
0.0
  3
A$C2EBE1FB4
  1

  0
CIRCLE
  5
8879
330
8875
100
AcDbEntity
  8
0
100
AcDbCircle
 10
5.968793702516222
 20
49.03121925403093
 30
0.0
 40
3.299987789999998
  0
LWPOLYLINE
  5
887A
330
8875
100
AcDbEntity
  8
2
100
AcDbPolyline
 90
        2
 70
     0
 43
0.0
 10
17.08154378474285
 20
41.16980760475001
 10
10.20982170251636
 20
57.75967425403099
  0
LWPOLYLINE
  5
887B
330
8875
100
AcDbEntity
  8
2
100
AcDbPolyline
 90
        2
 70
     0
 43
0.0
 10
14.82920670251633
 20
59.67309625403095
 10
21.70094399490813
 20
43.08322612510642
  0
CIRCLE
  5
887C
330
8875
100
AcDbEntity
  8
0
100
AcDbCircle
 10
42.0312332025162
 20
49.03121925403093
 30
0.0
 40
3.299987789999998
  0
CIRCLE
  5
887D
330
8875
100
AcDbEntity
  8
0
100
AcDbCircle
 10
23.99999870251622
 20
31.00000025403097
 30
0.0
 40
20.0
  0
CIRCLE
  5
887E
330
8875
100
AcDbEntity
  8
0
100
AcDbCircle
 10
23.99999870251622
 20
5.500000254030965
 30
0.0
 40
3.300003049999998
  0
CIRCLE
  5
887F
330
8875
100
AcDbEntity
  8
0
100
AcDbCircle
 10
42.0312332025162
 20
12.96878025403089
 30
0.0
 40
3.299987789999998
  0
CIRCLE
  5
8880
330
8875
100
AcDbEntity
  8
0
100
AcDbCircle
 10
5.968793702516222
 20
12.96878025403089
 30
0.0
 40
3.299987789999998
  0
CIRCLE
  5
8881
330
8875
100
AcDbEntity
  8
0
100
AcDbCircle
 10
24.00001370251641
 20
56.50000025403096
 30
0.0
 40
3.299987789999998
  0
LWPOLYLINE
  5
8882
330
8875
100
AcDbEntity
  8
2
100
AcDbPolyline
 90
        4
 70
     0
 43
0.0
 10
9.747877702516348
 20
57.56832925403092
 10
12.80933970251624
 20
50.17727625403097
 10
18.35261370251635
 20
52.47338925403096
 10
15.29115170251623
 20
59.86441025403099
  0
ARC
  5
8883
330
8875
100
AcDbEntity
  8
0
100
AcDbCircle
 10
23.99999870251622
 20
31.00000025403097
 30
0.0
 40
31.0
100
AcDbArc
 50
219.2680260017555
 51
320.7319739982444
  0
ARC
  5
8884
330
8875
100
AcDbEntity
  8
0
100
AcDbCircle
 10
23.99999870251622
 20
31.00000025403097
 30
0.0
 40
30.0
100
AcDbArc
 50
216.8698976458466
 51
323.1301023541534
  0
LINE
  5
8885
330
8875
100
AcDbEntity
  8
0
100
AcDbLine
 10
-0.0000012974837773
 20
50.62141712437972
 30
0.0
 11
-0.0000012974837773
 21
11.37858338368255
 31
0.0
  0
LINE
  5
8886
330
8875
100
AcDbEntity
  8
0
100
AcDbLine
 10
47.99999870251622
 20
50.6214171243796
 30
0.0
 11
47.99999870251622
 21
11.37858338368232
 31
0.0
  0
ARC
  5
8887
330
8875
100
AcDbEntity
  8
0
100
AcDbCircle
 10
23.99999870251622
 20
31.00000025403097
 30
0.0
 40
30.0
100
AcDbArc
 50
36.86989764584663
 51
143.1301023541533
  0
ARC
  5
8888
330
8875
100
AcDbEntity
  8
0
100
AcDbCircle
 10
23.99999870251622
 20
31.00000025403097
 30
0.0
 40
31.0
100
AcDbArc
 50
39.26802600175552
 51
97.90744939791713
  0
LINE
  5
8889
330
8875
100
AcDbEntity
  8
0
100
AcDbLine
 10
19.73522555096258
 20
61.70523938297742
 30
0.0
 11
5.303765912169637
 21
55.72753307574953
 31
0.0
  0
ARC
  5
888A
330
8875
100
AcDbEntity
  8
0
100
AcDbCircle
 10
23.99999870251622
 20
31.00000025403097
 30
0.0
 40
31.0
100
AcDbArc
 50
127.0925506020806
 51
140.7319739982445
  0
ARC
  5
888B
330
8875
100
AcDbEntity
  8
9
100
AcDbCircle
 10
23.99999870251622
 20
31.00000025403097
 30
0.0
 40
10.85000000000002
100
AcDbArc
 50
180.0
 51
90.0
  0
CIRCLE
  5
888C
330
8875
100
AcDbEntity
  8
0
100
AcDbCircle
 10
23.99999870251622
 20
31.00000025403097
 30
0.0
 40
12.30000000000007
  0
ENDBLK
  5
888D
330
8875
100
AcDbEntity
  8
0
100
AcDbBlockEnd
  0
BLOCK
  5
88DF
330
88DE
100
AcDbEntity
  8
0
100
AcDbBlockBegin
  2
*D2
 70
     1
 10
0.0
 20
0.0
 30
0.0
  3
*D2
  1

  0
LINE
  5
89CD
330
88DE
100
AcDbEntity
  8
0
 62
   115
370
    -2
100
AcDbLine
 10
20.99999882481683
 20
47.15000045118205
 30
0.0
 11
10.99999882481673
 21
47.15000045118205
 31
0.0
  0
LINE
  5
89CE
330
88DE
100
AcDbEntity
  8
0
 62
   115
370
    -2
100
AcDbLine
 10
20.999998824817
 20
68.85000045118204
 30
0.0
 11
10.99999882481674
 21
68.85000045118204
 31
0.0
  0
LINE
  5
89CF
330
88DE
100
AcDbEntity
  8
0
 62
   115
370
    -2
100
AcDbLine
 10
11.99999882481673
 20
50.15000045118206
 30
0.0
 11
11.99999882481674
 21
65.85000045118204
 31
0.0
  0
SOLID
  5
89D0
330
88DE
100
AcDbEntity
  8
0
 62
   115
100
AcDbTrace
 10
11.49999882481673
 20
50.15000045118206
 30
0.0
 11
12.49999882481674
 21
50.15000045118206
 31
0.0
 12
11.99999882481673
 22
47.15000045118205
 32
0.0
 13
11.99999882481673
 23
47.15000045118205
 33
0.0
  0
SOLID
  5
89D1
330
88DE
100
AcDbEntity
  8
0
 62
   115
100
AcDbTrace
 10
11.49999882481674
 20
65.85000045118204
 30
0.0
 11
12.49999882481674
 21
65.85000045118204
 31
0.0
 12
11.99999882481674
 22
68.85000045118204
 32
0.0
 13
11.99999882481674
 23
68.85000045118204
 33
0.0
  0
MTEXT
  5
89D2
330
88DE
100
AcDbEntity
  8
0
 62
     7
100
AcDbMText
 10
9.49999882481673
 20
58.00000045118204
 30
0.0
 40
3.0
 41
0.0
 71
     5
 72
     1
  1
\A1;%%C21.7
 11
0.0000000000000001
 21
1.0
 31
0.0
 73
     1
 44
1.0
1001
ACAD
1000
MTEXTBEGIN
1070
    73
1070
     1
1070
    44
1040
1.0
1070
    74
1070
     0
1000
MTEXTEND
  0
POINT
  5
89D3
330
88DE
100
AcDbEntity
  8
DEFPOINTS
 62
     0
100
AcDbPoint
 10
21.99999882481683
 20
47.15000045118205
 30
0.0
  0
POINT
  5
89D4
330
88DE
100
AcDbEntity
  8
DEFPOINTS
 62
     0
100
AcDbPoint
 10
21.999998824817
 20
68.85000045118204
 30
0.0
  0
POINT
  5
89D5
330
88DE
100
AcDbEntity
  8
DEFPOINTS
 62
     0
100
AcDbPoint
 10
11.99999882481674
 20
68.85000045118204
 30
0.0
  0
ENDBLK
  5
88E0
330
88DE
100
AcDbEntity
  8
0
100
AcDbBlockEnd
  0
BLOCK
  5
88EB
330
88EA
100
AcDbEntity
  8
0
100
AcDbBlockBegin
  2
*D3
 70
     1
 10
0.0
 20
0.0
 30
0.0
  3
*D3
  1

  0
LINE
  5
89D6
330
88EA
100
AcDbEntity
  8
0
 62
   115
370
    -2
100
AcDbLine
 10
20.99999882481683
 20
45.70000045118201
 30
0.0
 11
2.99999882481671
 21
45.70000045118201
 31
0.0
  0
LINE
  5
89D7
330
88EA
100
AcDbEntity
  8
0
 62
   115
370
    -2
100
AcDbLine
 10
20.999998824817
 20
70.30000045118208
 30
0.0
 11
2.999998824816715
 21
70.30000045118208
 31
0.0
  0
LINE
  5
89D8
330
88EA
100
AcDbEntity
  8
0
 62
   115
370
    -2
100
AcDbLine
 10
3.999998824816709
 20
48.70000045118201
 30
0.0
 11
3.999998824816713
 21
67.30000045118209
 31
0.0
  0
SOLID
  5
89D9
330
88EA
100
AcDbEntity
  8
0
 62
   115
100
AcDbTrace
 10
3.499998824816709
 20
48.70000045118201
 30
0.0
 11
4.499998824816708
 21
48.70000045118201
 31
0.0
 12
3.999998824816708
 22
45.70000045118201
 32
0.0
 13
3.999998824816708
 23
45.70000045118201
 33
0.0
  0
SOLID
  5
89DA
330
88EA
100
AcDbEntity
  8
0
 62
   115
100
AcDbTrace
 10
3.499998824816713
 20
67.30000045118209
 30
0.0
 11
4.499998824816713
 21
67.30000045118209
 31
0.0
 12
3.999998824816714
 22
70.30000045118208
 32
0.0
 13
3.999998824816714
 23
70.30000045118208
 33
0.0
  0
MTEXT
  5
89DB
330
88EA
100
AcDbEntity
  8
0
 62
     7
100
AcDbMText
 10
1.499998824816702
 20
58.00000045118204
 30
0.0
 40
3.0
 41
0.0
 71
     5
 72
     1
  1
\A1;%%C24.6
 11
0.0000000000000001
 21
1.0
 31
0.0
 73
     1
 44
1.0
1001
ACAD
1000
MTEXTBEGIN
1070
    73
1070
     1
1070
    44
1040
1.0
1070
    74
1070
     0
1000
MTEXTEND
  0
POINT
  5
89DC
330
88EA
100
AcDbEntity
  8
DEFPOINTS
 62
     0
100
AcDbPoint
 10
21.99999882481683
 20
45.70000045118201
 30
0.0
  0
POINT
  5
89DD
330
88EA
100
AcDbEntity
  8
DEFPOINTS
 62
     0
100
AcDbPoint
 10
21.999998824817
 20
70.30000045118208
 30
0.0
  0
POINT
  5
89DE
330
88EA
100
AcDbEntity
  8
DEFPOINTS
 62
     0
100
AcDbPoint
 10
3.999998824816714
 20
70.30000045118208
 30
0.0
  0
ENDBLK
  5
88EC
330
88EA
100
AcDbEntity
  8
0
100
AcDbBlockEnd
  0
BLOCK
  5
88F7
330
88F6
100
AcDbEntity
  8
0
100
AcDbBlockBegin
  2
*D4
 70
     1
 10
0.0
 20
0.0
 30
0.0
  3
*D4
  1

  0
LINE
  5
8C5F
330
88F6
100
AcDbEntity
  8
0
 62
   115
370
    -2
100
AcDbLine
 10
147.499998674817
 20
38.00001190118192
 30
0.0
 11
136.4999986748169
 21
38.00001190118193
 31
0.0
  0
LINE
  5
8C60
330
88F6
100
AcDbEntity
  8
0
 62
   115
370
    -2
100
AcDbLine
 10
147.499998674817
 20
78.00000410118196
 30
0.0
 11
136.4999986748169
 21
78.00000410118196
 31
0.0
  0
LINE
  5
8C61
330
88F6
100
AcDbEntity
  8
0
 62
   115
370
    -2
100
AcDbLine
 10
137.4999986748169
 20
41.00001190118192
 30
0.0
 11
137.4999986748169
 21
75.00000410118196
 31
0.0
  0
SOLID
  5
8C62
330
88F6
100
AcDbEntity
  8
0
 62
   115
100
AcDbTrace
 10
136.9999986748169
 20
41.00001190118192
 30
0.0
 11
137.9999986748169
 21
41.00001190118192
 31
0.0
 12
137.4999986748169
 22
38.00001190118193
 32
0.0
 13
137.4999986748169
 23
38.00001190118193
 33
0.0
  0
SOLID
  5
8C63
330
88F6
100
AcDbEntity
  8
0
 62
   115
100
AcDbTrace
 10
136.9999986748169
 20
75.00000410118196
 30
0.0
 11
137.9999986748169
 21
75.00000410118196
 31
0.0
 12
137.4999986748169
 22
78.00000410118196
 32
0.0
 13
137.4999986748169
 23
78.00000410118196
 33
0.0
  0
MTEXT
  5
8C64
330
88F6
100
AcDbEntity
  8
0
 62
     7
100
AcDbMText
 10
134.2142843891026
 20
58.00000800118196
 30
0.0
 40
3.0
 41
0.0
 71
     5
 72
     1
  1
\A1;%%C40 g6 ({\H0.5x;\S-0.009^ -0.025;})
 11
0.0000000000000001
 21
1.0
 31
0.0
 73
     1
 44
1.0
1001
ACAD
1000
MTEXTBEGIN
1070
    73
1070
     1
1070
    44
1040
1.0
1070
    74
1070
     0
1000
MTEXTEND
  0
POINT
  5
8C65
330
88F6
100
AcDbEntity
  8
DEFPOINTS
 62
     0
100
AcDbPoint
 10
148.499998674817
 20
38.00001190118192
 30
0.0
  0
POINT
  5
8C66
330
88F6
100
AcDbEntity
  8
DEFPOINTS
 62
     0
100
AcDbPoint
 10
148.499998674817
 20
78.00000410118196
 30
0.0
  0
POINT
  5
8C67
330
88F6
100
AcDbEntity
  8
DEFPOINTS
 62
     0
100
AcDbPoint
 10
137.4999986748169
 20
78.00000410118196
 30
0.0
  0
ENDBLK
  5
88F8
330
88F6
100
AcDbEntity
  8
0
100
AcDbBlockEnd
  0
BLOCK
  5
8903
330
8902
100
AcDbEntity
  8
0
100
AcDbBlockBegin
  2
*D5
 70
     1
 10
0.0
 20
0.0
 30
0.0
  3
*D5
  1

  0
LINE
  5
8BDD
330
8902
100
AcDbEntity
  8
0
 62
   115
370
    -2
100
AcDbLine
 10
180.500004974817
 20
26.50000045118179
 30
0.0
 11
180.500004974817
 21
16.00000045118179
 31
0.0
  0
LINE
  5
8BDE
330
8902
100
AcDbEntity
  8
0
 62
   115
370
    -2
100
AcDbLine
 10
147.499998674817
 20
38.00001190118192
 30
0.0
 11
147.499998674817
 21
16.00000045118179
 31
0.0
  0
LINE
  5
8BDF
330
8902
100
AcDbEntity
  8
0
 62
   115
370
    -2
100
AcDbLine
 10
177.500004974817
 20
17.00000045118179
 30
0.0
 11
150.499998674817
 21
17.00000045118179
 31
0.0
  0
SOLID
  5
8BE0
330
8902
100
AcDbEntity
  8
0
 62
   115
100
AcDbTrace
 10
177.500004974817
 20
17.50000045118179
 30
0.0
 11
177.500004974817
 21
16.50000045118179
 31
0.0
 12
180.500004974817
 22
17.00000045118179
 32
0.0
 13
180.500004974817
 23
17.00000045118179
 33
0.0
  0
SOLID
  5
8BE1
330
8902
100
AcDbEntity
  8
0
 62
   115
100
AcDbTrace
 10
150.499998674817
 20
17.50000045118179
 30
0.0
 11
150.499998674817
 21
16.50000045118179
 31
0.0
 12
147.499998674817
 22
17.00000045118179
 32
0.0
 13
147.499998674817
 23
17.00000045118179
 33
0.0
  0
MTEXT
  5
8BE2
330
8902
100
AcDbEntity
  8
0
 62
     7
100
AcDbMText
 10
164.000001824817
 20
19.50000045118179
 30
0.0
 40
3.0
 41
0.0
 71
     5
 72
     1
  1
\A1;33%%P1
 73
     1
 44
1.0
1001
ACAD
1000
MTEXTBEGIN
1070
    73
1070
     1
1070
    44
1040
1.0
1070
    74
1070
     0
1000
MTEXTEND
  0
POINT
  5
8BE3
330
8902
100
AcDbEntity
  8
DEFPOINTS
 62
     0
100
AcDbPoint
 10
180.500004974817
 20
27.50000045118179
 30
0.0
  0
POINT
  5
8BE4
330
8902
100
AcDbEntity
  8
DEFPOINTS
 62
     0
100
AcDbPoint
 10
147.499998674817
 20
39.00001190118192
 30
0.0
  0
POINT
  5
8BE5
330
8902
100
AcDbEntity
  8
DEFPOINTS
 62
     0
100
AcDbPoint
 10
147.499998674817
 20
17.00000045118179
 30
0.0
  0
ENDBLK
  5
8904
330
8902
100
AcDbEntity
  8
0
100
AcDbBlockEnd
  0
BLOCK
  5
890F
330
890E
100
AcDbEntity
  8
0
100
AcDbBlockBegin
  2
*D6
 70
     1
 10
0.0
 20
0.0
 30
0.0
  3
*D6
  1

  0
LINE
  5
8B3E
330
890E
100
AcDbEntity
  8
0
 62
   115
370
    -2
100
AcDbLine
 10
180.500004974817
 20
26.50000045118179
 30
0.0
 11
180.500004974817
 21
16.00000045118179
 31
0.0
  0
LINE
  5
8B3F
330
890E
100
AcDbEntity
  8
0
 62
   115
370
    -2
100
AcDbLine
 10
190.500004974817
 20
26.50000045118179
 30
0.0
 11
190.500004974817
 21
16.00000045118179
 31
0.0
  0
LINE
  5
8B40
330
890E
100
AcDbEntity
  8
0
 62
   115
370
    -2
100
AcDbLine
 10
183.500004974817
 20
17.00000045118179
 30
0.0
 11
187.500004974817
 21
17.00000045118179
 31
0.0
  0
SOLID
  5
8B41
330
890E
100
AcDbEntity
  8
0
 62
   115
100
AcDbTrace
 10
183.500004974817
 20
17.50000045118179
 30
0.0
 11
183.500004974817
 21
16.50000045118179
 31
0.0
 12
180.500004974817
 22
17.00000045118179
 32
0.0
 13
180.500004974817
 23
17.00000045118179
 33
0.0
  0
SOLID
  5
8B42
330
890E
100
AcDbEntity
  8
0
 62
   115
100
AcDbTrace
 10
187.500004974817
 20
17.50000045118179
 30
0.0
 11
187.500004974817
 21
16.50000045118179
 31
0.0
 12
190.500004974817
 22
17.00000045118179
 32
0.0
 13
190.500004974817
 23
17.00000045118179
 33
0.0
  0
MTEXT
  5
8B43
330
890E
100
AcDbEntity
  8
0
 62
     7
100
AcDbMText
 10
185.500004974817
 20
19.50000045118179
 30
0.0
 40
3.0
 41
0.0
 71
     5
 72
     1
  1
\A1;10
 73
     1
 44
1.0
1001
ACAD
1000
MTEXTBEGIN
1070
    73
1070
     1
1070
    44
1040
1.0
1070
    74
1070
     0
1000
MTEXTEND
  0
POINT
  5
8B44
330
890E
100
AcDbEntity
  8
DEFPOINTS
 62
     0
100
AcDbPoint
 10
180.500004974817
 20
27.50000045118179
 30
0.0
  0
POINT
  5
8B45
330
890E
100
AcDbEntity
  8
DEFPOINTS
 62
     0
100
AcDbPoint
 10
190.500004974817
 20
27.50000045118179
 30
0.0
  0
POINT
  5
8B46
330
890E
100
AcDbEntity
  8
DEFPOINTS
 62
     0
100
AcDbPoint
 10
190.500004974817
 20
17.00000045118179
 30
0.0
  0
ENDBLK
  5
8910
330
890E
100
AcDbEntity
  8
0
100
AcDbBlockEnd
  0
BLOCK
  5
891B
330
891A
100
AcDbEntity
  8
0
100
AcDbBlockBegin
  2
*D7
 70
     1
 10
0.0
 20
0.0
 30
0.0
  3
*D7
  1

  0
LINE
  5
8BEF
330
891A
100
AcDbEntity
  8
0
 62
   115
370
    -2
100
AcDbLine
 10
147.499998674817
 20
38.00001190118192
 30
0.0
 11
147.499998674817
 21
8.00000045118179
 31
0.0
  0
LINE
  5
8BF0
330
891A
100
AcDbEntity
  8
0
 62
   115
370
    -2
100
AcDbLine
 10
196.499998974817
 20
38.00000290118191
 30
0.0
 11
196.499998974817
 21
8.00000045118179
 31
0.0
  0
LINE
  5
8BF1
330
891A
100
AcDbEntity
  8
0
 62
   115
370
    -2
100
AcDbLine
 10
150.499998674817
 20
9.00000045118179
 30
0.0
 11
193.499998974817
 21
9.00000045118179
 31
0.0
  0
SOLID
  5
8BF2
330
891A
100
AcDbEntity
  8
0
 62
   115
100
AcDbTrace
 10
150.499998674817
 20
9.50000045118179
 30
0.0
 11
150.499998674817
 21
8.50000045118179
 31
0.0
 12
147.499998674817
 22
9.00000045118179
 32
0.0
 13
147.499998674817
 23
9.00000045118179
 33
0.0
  0
SOLID
  5
8BF3
330
891A
100
AcDbEntity
  8
0
 62
   115
100
AcDbTrace
 10
193.499998974817
 20
9.50000045118179
 30
0.0
 11
193.499998974817
 21
8.50000045118179
 31
0.0
 12
196.499998974817
 22
9.00000045118179
 32
0.0
 13
196.499998974817
 23
9.00000045118179
 33
0.0
  0
MTEXT
  5
8BF4
330
891A
100
AcDbEntity
  8
0
 62
     7
100
AcDbMText
 10
171.999998824817
 20
11.50000045118179
 30
0.0
 40
3.0
 41
0.0
 71
     5
 72
     1
  1
\A1;49%%P1
 73
     1
 44
1.0
1001
ACAD
1000
MTEXTBEGIN
1070
    73
1070
     1
1070
    44
1040
1.0
1070
    74
1070
     0
1000
MTEXTEND
  0
POINT
  5
8BF5
330
891A
100
AcDbEntity
  8
DEFPOINTS
 62
     0
100
AcDbPoint
 10
147.499998674817
 20
39.00001190118192
 30
0.0
  0
POINT
  5
8BF6
330
891A
100
AcDbEntity
  8
DEFPOINTS
 62
     0
100
AcDbPoint
 10
196.499998974817
 20
39.00000290118192
 30
0.0
  0
POINT
  5
8BF7
330
891A
100
AcDbEntity
  8
DEFPOINTS
 62
     0
100
AcDbPoint
 10
196.499998974817
 20
9.00000045118179
 30
0.0
  0
ENDBLK
  5
891C
330
891A
100
AcDbEntity
  8
0
100
AcDbBlockEnd
  0
BLOCK
  5
8927
330
8926
100
AcDbEntity
  8
0
100
AcDbBlockBegin
  2
*D8
 70
     1
 10
0.0
 20
0.0
 30
0.0
  3
*D8
  1

  0
LINE
  5
8A03
330
8926
100
AcDbEntity
  8
0
 62
   115
370
    -2
100
AcDbLine
 10
347.9999988248177
 20
37.37858358083224
 30
0.0
 11
347.9999988248177
 21
0.0000004511815632
 31
0.0
  0
LINE
  5
8A04
330
8926
100
AcDbEntity
  8
0
 62
   115
370
    -2
100
AcDbLine
 10
395.9999988248162
 20
37.37858358083224
 30
0.0
 11
395.9999988248162
 21
0.0000004511815632
 31
0.0
  0
LINE
  5
8A05
330
8926
100
AcDbEntity
  8
0
 62
   115
370
    -2
100
AcDbLine
 10
350.9999988248177
 20
1.000000451181563
 30
0.0
 11
392.9999988248162
 21
1.000000451181563
 31
0.0
  0
SOLID
  5
8A06
330
8926
100
AcDbEntity
  8
0
 62
   115
100
AcDbTrace
 10
350.9999988248177
 20
1.500000451181563
 30
0.0
 11
350.9999988248177
 21
0.5000004511815633
 31
0.0
 12
347.9999988248177
 22
1.000000451181563
 32
0.0
 13
347.9999988248177
 23
1.000000451181563
 33
0.0
  0
SOLID
  5
8A07
330
8926
100
AcDbEntity
  8
0
 62
   115
100
AcDbTrace
 10
392.9999988248162
 20
1.500000451181563
 30
0.0
 11
392.9999988248162
 21
0.5000004511815633
 31
0.0
 12
395.9999988248162
 22
1.000000451181563
 32
0.0
 13
395.9999988248162
 23
1.000000451181563
 33
0.0
  0
MTEXT
  5
8A08
330
8926
100
AcDbEntity
  8
0
 62
     7
100
AcDbMText
 10
371.999998824817
 20
3.500000451181563
 30
0.0
 40
3.0
 41
0.0
 71
     5
 72
     1
  1
\A1;48
 73
     1
 44
1.0
1001
ACAD
1000
MTEXTBEGIN
1070
    73
1070
     1
1070
    44
1040
1.0
1070
    74
1070
     0
1000
MTEXTEND
  0
POINT
  5
8A09
330
8926
100
AcDbEntity
  8
DEFPOINTS
 62
     0
100
AcDbPoint
 10
347.9999988248177
 20
38.37858358083224
 30
0.0
  0
POINT
  5
8A0A
330
8926
100
AcDbEntity
  8
DEFPOINTS
 62
     0
100
AcDbPoint
 10
395.9999988248162
 20
38.37858358083224
 30
0.0
  0
POINT
  5
8A0B
330
8926
100
AcDbEntity
  8
DEFPOINTS
 62
     0
100
AcDbPoint
 10
395.9999988248162
 20
1.000000451181563
 30
0.0
  0
ENDBLK
  5
8928
330
8926
100
AcDbEntity
  8
0
100
AcDbBlockEnd
  0
BLOCK
  5
8933
330
8932
100
AcDbEntity
  8
0
100
AcDbBlockBegin
  2
*D9
 70
     1
 10
0.0
 20
0.0
 30
0.0
  3
*D9
  1

  0
LINE
  5
8A0C
330
8932
100
AcDbEntity
  8
0
 62
   115
370
    -2
100
AcDbLine
 10
348.8069251029858
 20
34.80690743523763
 30
0.0
 11
342.6981943386945
 21
28.69817158914733
 31
0.0
  0
LINE
  5
8A0D
330
8932
100
AcDbEntity
  8
0
 62
   115
370
    -2
100
AcDbLine
 10
395.193072546648
 20
34.80690743523763
 30
0.0
 11
401.3018033109393
 21
28.69817158914734
 31
0.0
  0
ARC
  5
8A0E
330
8932
100
AcDbEntity
  8
0
 62
   115
370
    -2
100
AcDbCircle
 10
371.9999988248169
 20
58.00000045118136
 30
0.0
 40
40.43902654265508
100
AcDbArc
 50
229.251530205172
 51
310.748469794828
  0
SOLID
  5
8A0F
330
8932
100
AcDbEntity
  8
0
 62
   115
100
AcDbTrace
 10
345.2636524393075
 20
26.99768042545133
 30
0.0
 11
345.9440436728457
 21
27.73052950222246
 31
0.0
 12
343.4053008257631
 22
29.40527866445163
 32
0.0
 13
343.4053008257631
 23
29.40527866445163
 33
0.0
  0
SOLID
  5
8A10
330
8932
100
AcDbEntity
  8
0
 62
   115
100
AcDbTrace
 10
398.0559539767881
 20
27.73052950222248
 30
0.0
 11
398.7363452103263
 21
26.99768042545134
 31
0.0
 12
400.5946968238705
 22
29.40527866445164
 32
0.0
 13
400.5946968238705
 23
29.40527866445164
 33
0.0
  0
MTEXT
  5
8A11
102
{ACAD_XDICTIONARY
360
8DF6
102
}
330
8932
100
AcDbEntity
  8
0
 62
     7
100
AcDbMText
 10
371.9999988248169
 20
20.06097390852628
 30
0.0
 40
3.0
 41
0.0
 71
     5
 72
     1
  1
\A1;90\U+00B0
 73
     1
 44
1.0
1001
ACAD
1000
MTEXTBEGIN
1070
    73
1070
     1
1070
    44
1040
1.0
1070
    74
1070
     0
1000
MTEXTEND
  0
POINT
  5
8A12
330
8932
100
AcDbEntity
  8
DEFPOINTS
 62
     0
100
AcDbPoint
 10
361.5336140059331
 20
18.93889887249311
 30
0.0
  0
POINT
  5
8A13
330
8932
100
AcDbEntity
  8
DEFPOINTS
 62
     0
100
AcDbPoint
 10
349.5140315900544
 20
35.51401451054193
 30
0.0
  0
POINT
  5
8A14
330
8932
100
AcDbEntity
  8
DEFPOINTS
 62
     0
100
AcDbPoint
 10
394.4859660595794
 20
35.51401451054193
 30
0.0
  0
POINT
  5
8A15
330
8932
100
AcDbEntity
  8
DEFPOINTS
 62
     0
100
AcDbPoint
 10
385.5764415900544
 20
44.42354639182139
 30
0.0
  0
POINT
  5
8A16
330
8932
100
AcDbEntity
  8
DEFPOINTS
 62
     0
100
AcDbPoint
 10
358.4235560595794
 20
44.42354639182139
 30
0.0
  0
ENDBLK
  5
8934
330
8932
100
AcDbEntity
  8
0
100
AcDbBlockEnd
  0
BLOCK
  5
8941
330
8940
100
AcDbEntity
  8
0
100
AcDbBlockBegin
  2
*D10
 70
     1
 10
0.0
 20
0.0
 30
0.0
  3
*D10
  1

  0
LINE
  5
8A17
330
8940
100
AcDbEntity
  8
0
 62
   115
370
    -2
100
AcDbLine
 10
352.9687938248169
 20
39.96878045118166
 30
0.0
 11
336.9999988248168
 21
39.96878045118166
 31
0.0
  0
LINE
  5
8A18
330
8940
100
AcDbEntity
  8
0
 62
   115
370
    -2
100
AcDbLine
 10
352.9687938248169
 20
76.0312194511817
 30
0.0
 11
336.9999988248168
 21
76.03121945118171
 31
0.0
  0
LINE
  5
8A19
330
8940
100
AcDbEntity
  8
0
 62
   115
370
    -2
100
AcDbLine
 10
337.9999988248168
 20
42.96878045118165
 30
0.0
 11
337.9999988248168
 21
73.03121945118171
 31
0.0
  0
SOLID
  5
8A1A
330
8940
100
AcDbEntity
  8
0
 62
   115
100
AcDbTrace
 10
337.4999988248168
 20
42.96878045118165
 30
0.0
 11
338.4999988248168
 21
42.96878045118165
 31
0.0
 12
337.9999988248168
 22
39.96878045118166
 32
0.0
 13
337.9999988248168
 23
39.96878045118166
 33
0.0
  0
SOLID
  5
8A1B
330
8940
100
AcDbEntity
  8
0
 62
   115
100
AcDbTrace
 10
337.4999988248168
 20
73.03121945118171
 30
0.0
 11
338.4999988248168
 21
73.03121945118171
 31
0.0
 12
337.9999988248168
 22
76.03121945118171
 32
0.0
 13
337.9999988248168
 23
76.03121945118171
 33
0.0
  0
MTEXT
  5
8A1C
330
8940
100
AcDbEntity
  8
0
 62
     7
100
AcDbMText
 10
334.7142845391025
 20
57.99999995118174
 30
0.0
 40
3.0
 41
0.0
 71
     5
 72
     1
  1
\A1;(36.06)
 11
0.0000000000000001
 21
1.0
 31
0.0
 73
     1
 44
1.0
1001
ACAD
1000
MTEXTBEGIN
1070
    73
1070
     1
1070
    44
1040
1.0
1070
    74
1070
     0
1000
MTEXTEND
  0
POINT
  5
8A1D
330
8940
100
AcDbEntity
  8
DEFPOINTS
 62
     0
100
AcDbPoint
 10
353.968793824817
 20
39.96878045118166
 30
0.0
  0
POINT
  5
8A1E
330
8940
100
AcDbEntity
  8
DEFPOINTS
 62
     0
100
AcDbPoint
 10
353.968793824817
 20
76.0312194511817
 30
0.0
  0
POINT
  5
8A1F
330
8940
100
AcDbEntity
  8
DEFPOINTS
 62
     0
100
AcDbPoint
 10
337.9999988248168
 20
76.03121945118171
 30
0.0
  0
ENDBLK
  5
8942
330
8940
100
AcDbEntity
  8
0
100
AcDbBlockEnd
  0
BLOCK
  5
894D
330
894C
100
AcDbEntity
  8
0
100
AcDbBlockBegin
  2
*D11
 70
     1
 10
0.0
 20
0.0
 30
0.0
  3
*D11
  1

  0
LINE
  5
8A20
330
894C
100
AcDbEntity
  8
0
 62
   115
370
    -2
100
AcDbLine
 10
353.968793824817
 20
38.96878045118166
 30
0.0
 11
353.968793824817
 21
8.000000451181506
 31
0.0
  0
LINE
  5
8A21
330
894C
100
AcDbEntity
  8
0
 62
   115
370
    -2
100
AcDbLine
 10
390.0312333248169
 20
38.96878045118166
 30
0.0
 11
390.0312333248169
 21
8.000000451181506
 31
0.0
  0
LINE
  5
8A22
330
894C
100
AcDbEntity
  8
0
 62
   115
370
    -2
100
AcDbLine
 10
356.9687938248169
 20
9.000000451181506
 30
0.0
 11
387.0312333248169
 21
9.000000451181506
 31
0.0
  0
SOLID
  5
8A23
330
894C
100
AcDbEntity
  8
0
 62
   115
100
AcDbTrace
 10
356.9687938248169
 20
9.500000451181506
 30
0.0
 11
356.9687938248169
 21
8.500000451181506
 31
0.0
 12
353.968793824817
 22
9.000000451181506
 32
0.0
 13
353.968793824817
 23
9.000000451181506
 33
0.0
  0
SOLID
  5
8A24
330
894C
100
AcDbEntity
  8
0
 62
   115
100
AcDbTrace
 10
387.0312333248169
 20
9.500000451181506
 30
0.0
 11
387.0312333248169
 21
8.500000451181506
 31
0.0
 12
390.0312333248169
 22
9.000000451181506
 32
0.0
 13
390.0312333248169
 23
9.000000451181506
 33
0.0
  0
MTEXT
  5
8A25
330
894C
100
AcDbEntity
  8
0
 62
     7
100
AcDbMText
 10
372.0000135748169
 20
12.28571473689579
 30
0.0
 40
3.0
 41
0.0
 71
     5
 72
     1
  1
\A1;(36.06)
 73
     1
 44
1.0
1001
ACAD
1000
MTEXTBEGIN
1070
    73
1070
     1
1070
    44
1040
1.0
1070
    74
1070
     0
1000
MTEXTEND
  0
POINT
  5
8A26
330
894C
100
AcDbEntity
  8
DEFPOINTS
 62
     0
100
AcDbPoint
 10
353.968793824817
 20
39.96878045118166
 30
0.0
  0
POINT
  5
8A27
330
894C
100
AcDbEntity
  8
DEFPOINTS
 62
     0
100
AcDbPoint
 10
390.0312333248169
 20
39.96878045118166
 30
0.0
  0
POINT
  5
8A28
330
894C
100
AcDbEntity
  8
DEFPOINTS
 62
     0
100
AcDbPoint
 10
390.0312333248169
 20
9.000000451181506
 30
0.0
  0
ENDBLK
  5
894E
330
894C
100
AcDbEntity
  8
0
100
AcDbBlockEnd
  0
BLOCK
  5
8959
330
8958
100
AcDbEntity
  8
0
100
AcDbBlockBegin
  2
*D12
 70
     1
 10
0.0
 20
0.0
 30
0.0
  3
*D12
  1

  0
LINE
  5
8A29
330
8958
100
AcDbEntity
  8
0
 62
   115
370
    -2
100
AcDbLine
 10
372.9999988248169
 20
32.49999432799831
 30
0.0
 11
414.9999988248159
 21
32.4999943279983
 31
0.0
  0
LINE
  5
8A2A
330
8958
100
AcDbEntity
  8
0
 62
   115
370
    -2
100
AcDbLine
 10
372.9999988248169
 20
83.50000657436515
 30
0.0
 11
414.9999988248159
 21
83.50000657436515
 31
0.0
  0
LINE
  5
8A2B
330
8958
100
AcDbEntity
  8
0
 62
   115
370
    -2
100
AcDbLine
 10
413.999998824816
 20
35.4999943279983
 30
0.0
 11
413.999998824816
 21
80.50000657436516
 31
0.0
  0
SOLID
  5
8A2C
330
8958
100
AcDbEntity
  8
0
 62
   115
100
AcDbTrace
 10
413.4999988248159
 20
35.4999943279983
 30
0.0
 11
414.499998824816
 21
35.4999943279983
 31
0.0
 12
413.999998824816
 22
32.4999943279983
 32
0.0
 13
413.999998824816
 23
32.4999943279983
 33
0.0
  0
SOLID
  5
8A2D
330
8958
100
AcDbEntity
  8
0
 62
   115
100
AcDbTrace
 10
413.4999988248159
 20
80.50000657436516
 30
0.0
 11
414.499998824816
 21
80.50000657436516
 31
0.0
 12
413.999998824816
 22
83.50000657436515
 32
0.0
 13
413.999998824816
 23
83.50000657436515
 33
0.0
  0
MTEXT
  5
8A2E
330
8958
100
AcDbEntity
  8
0
 62
     7
100
AcDbMText
 10
411.4999988248159
 20
58.00000045118179
 30
0.0
 40
3.0
 41
0.0
 71
     5
 72
     1
  1
\A1;PCD 51
 11
0.0000000000000001
 21
1.0
 31
0.0
 73
     1
 44
1.0
1001
ACAD
1000
MTEXTBEGIN
1070
    73
1070
     1
1070
    44
1040
1.0
1070
    74
1070
     0
1000
MTEXTEND
  0
POINT
  5
8A2F
330
8958
100
AcDbEntity
  8
DEFPOINTS
 62
     0
100
AcDbPoint
 10
371.999998824817
 20
32.49999432799831
 30
0.0
  0
POINT
  5
8A30
330
8958
100
AcDbEntity
  8
DEFPOINTS
 62
     0
100
AcDbPoint
 10
371.999998824817
 20
83.50000657436515
 30
0.0
  0
POINT
  5
8A31
330
8958
100
AcDbEntity
  8
DEFPOINTS
 62
     0
100
AcDbPoint
 10
413.999998824816
 20
83.50000657436515
 30
0.0
  0
ENDBLK
  5
895A
330
8958
100
AcDbEntity
  8
0
100
AcDbBlockEnd
  0
BLOCK
  5
8965
330
8964
100
AcDbEntity
  8
0
100
AcDbBlockBegin
  2
*D13
 70
     1
 10
0.0
 20
0.0
 30
0.0
  3
*D13
  1

  0
LINE
  5
8A32
330
8964
100
AcDbEntity
  8
0
 62
   115
370
    -2
100
AcDbLine
 10
391.0312333248169
 20
72.73123166118171
 30
0.0
 11
406.9999988248159
 21
72.73123166118171
 31
0.0
  0
LINE
  5
8A33
330
8964
100
AcDbEntity
  8
0
 62
   115
370
    -2
100
AcDbLine
 10
391.0312333248169
 20
79.33120724118168
 30
0.0
 11
406.9999988248159
 21
79.33120724118168
 31
0.0
  0
LINE
  5
8A34
330
8964
100
AcDbEntity
  8
0
 62
   115
370
    -2
100
AcDbLine
 10
405.999998824816
 20
69.7312316611817
 30
0.0
 11
405.999998824816
 21
66.73123166118171
 31
0.0
  0
LINE
  5
8A35
330
8964
100
AcDbEntity
  8
0
 62
   115
370
    -2
100
AcDbLine
 10
405.999998824816
 20
82.33120724118169
 30
0.0
 11
405.999998824816
 21
102.7597786697531
 31
0.0
  0
LINE
  5
8A36
330
8964
100
AcDbEntity
  8
0
 62
   115
370
    -2
100
AcDbLine
 10
405.999998824816
 20
72.73123166118171
 30
0.0
 11
405.999998824816
 21
79.33120724118168
 31
0.0
  0
SOLID
  5
8A37
330
8964
100
AcDbEntity
  8
0
 62
   115
100
AcDbTrace
 10
405.499998824816
 20
69.7312316611817
 30
0.0
 11
406.499998824816
 21
69.7312316611817
 31
0.0
 12
405.999998824816
 22
72.73123166118171
 32
0.0
 13
405.999998824816
 23
72.73123166118171
 33
0.0
  0
SOLID
  5
8A38
330
8964
100
AcDbEntity
  8
0
 62
   115
100
AcDbTrace
 10
405.499998824816
 20
82.33120724118169
 30
0.0
 11
406.499998824816
 21
82.33120724118169
 31
0.0
 12
405.999998824816
 22
79.33120724118168
 32
0.0
 13
405.999998824816
 23
79.33120724118168
 33
0.0
  0
MTEXT
  5
8A39
330
8964
100
AcDbEntity
  8
0
 62
     7
100
AcDbMText
 10
403.4999988248159
 20
94.04549295546745
 30
0.0
 40
3.0
 41
0.0
 71
     5
 72
     1
  1
\A1;6-%%C6.6
 11
0.0000000000000001
 21
1.0
 31
0.0
 73
     1
 44
1.0
1001
ACAD
1000
MTEXTBEGIN
1070
    73
1070
     1
1070
    44
1040
1.0
1070
    74
1070
     0
1000
MTEXTEND
  0
POINT
  5
8A3A
330
8964
100
AcDbEntity
  8
DEFPOINTS
 62
     0
100
AcDbPoint
 10
390.0312333248169
 20
72.73123166118171
 30
0.0
  0
POINT
  5
8A3B
330
8964
100
AcDbEntity
  8
DEFPOINTS
 62
     0
100
AcDbPoint
 10
390.0312333248169
 20
79.33120724118168
 30
0.0
  0
POINT
  5
8A3C
330
8964
100
AcDbEntity
  8
DEFPOINTS
 62
     0
100
AcDbPoint
 10
405.999998824816
 20
79.33120724118168
 30
0.0
  0
ENDBLK
  5
8966
330
8964
100
AcDbEntity
  8
0
100
AcDbBlockEnd
  0
BLOCK
  5
8973
330
8972
100
AcDbEntity
  8
0
100
AcDbBlockBegin
  2
*D14
 70
     1
 10
0.0
 20
0.0
 30
0.0
  3
*D14
  1

  0
LINE
  5
8C0C
330
8972
100
AcDbEntity
  8
0
 62
   115
370
    -2
100
AcDbLine
 10
196.499998974817
 20
38.00000290118195
 30
0.0
 11
207.4999989748169
 21
38.00000290118195
 31
0.0
  0
LINE
  5
8C0D
330
8972
100
AcDbEntity
  8
0
 62
   115
370
    -2
100
AcDbLine
 10
196.499998974817
 20
77.99999800118198
 30
0.0
 11
207.499998974817
 21
77.99999800118198
 31
0.0
  0
LINE
  5
8C0E
330
8972
100
AcDbEntity
  8
0
 62
   115
370
    -2
100
AcDbLine
 10
206.4999989748169
 20
41.00000290118194
 30
0.0
 11
206.4999989748169
 21
74.99999800118198
 31
0.0
  0
SOLID
  5
8C0F
330
8972
100
AcDbEntity
  8
0
 62
   115
100
AcDbTrace
 10
205.9999989748169
 20
41.00000290118194
 30
0.0
 11
206.9999989748169
 21
41.00000290118194
 31
0.0
 12
206.4999989748169
 22
38.00000290118195
 32
0.0
 13
206.4999989748169
 23
38.00000290118195
 33
0.0
  0
SOLID
  5
8C10
330
8972
100
AcDbEntity
  8
0
 62
   115
100
AcDbTrace
 10
205.999998974817
 20
74.99999800118198
 30
0.0
 11
206.9999989748169
 21
74.99999800118198
 31
0.0
 12
206.4999989748169
 22
77.99999800118198
 32
0.0
 13
206.4999989748169
 23
77.99999800118198
 33
0.0
  0
MTEXT
  5
8C11
330
8972
100
AcDbEntity
  8
0
 62
     7
100
AcDbMText
 10
203.2142846891026
 20
58.00000045118199
 30
0.0
 40
3.0
 41
0.0
 71
     5
 72
     1
  1
\A1;%%C40 g6 ({\H0.5x;\S-0.009^ -0.025;})
 11
0.0000000000000001
 21
1.0
 31
0.0
 73
     1
 44
1.0
1001
ACAD
1000
MTEXTBEGIN
1070
    73
1070
     1
1070
    44
1040
1.0
1070
    74
1070
     0
1000
MTEXTEND
  0
POINT
  5
8C12
330
8972
100
AcDbEntity
  8
DEFPOINTS
 62
     0
100
AcDbPoint
 10
195.499998974817
 20
38.00000290118195
 30
0.0
  0
POINT
  5
8C13
330
8972
100
AcDbEntity
  8
DEFPOINTS
 62
     0
100
AcDbPoint
 10
195.499998974817
 20
77.99999800118198
 30
0.0
  0
POINT
  5
8C14
330
8972
100
AcDbEntity
  8
DEFPOINTS
 62
     0
100
AcDbPoint
 10
206.4999989748169
 20
77.99999800118198
 30
0.0
  0
ENDBLK
  5
8974
330
8972
100
AcDbEntity
  8
0
100
AcDbBlockEnd
  0
BLOCK
  5
898C
330
898B
100
AcDbEntity
  8
0
100
AcDbBlockBegin
  2
*D15
 70
     1
 10
0.0
 20
0.0
 30
0.0
  3
*D15
  1

  0
LINE
  5
8BF8
330
898B
100
AcDbEntity
  8
0
 62
   115
370
    -2
100
AcDbLine
 10
190.500004974817
 20
26.50000045118179
 30
0.0
 11
190.500004974817
 21
16.00000045118179
 31
0.0
  0
LINE
  5
8BF9
330
898B
100
AcDbEntity
  8
0
 62
   115
370
    -2
100
AcDbLine
 10
196.499998974817
 20
38.00000290118191
 30
0.0
 11
196.499998974817
 21
16.00000045118179
 31
0.0
  0
LINE
  5
8BFA
330
898B
100
AcDbEntity
  8
0
 62
   115
370
    -2
100
AcDbLine
 10
187.500004974817
 20
17.00000045118179
 30
0.0
 11
184.500004974817
 21
17.00000045118179
 31
0.0
  0
LINE
  5
8BFB
330
898B
100
AcDbEntity
  8
0
 62
   115
370
    -2
100
AcDbLine
 10
199.4999989748169
 20
17.00000045118179
 30
0.0
 11
217.2142846891027
 21
17.00000045118179
 31
0.0
  0
LINE
  5
8BFC
330
898B
100
AcDbEntity
  8
0
 62
   115
370
    -2
100
AcDbLine
 10
190.500004974817
 20
17.00000045118179
 30
0.0
 11
196.499998974817
 21
17.00000045118179
 31
0.0
  0
SOLID
  5
8BFD
330
898B
100
AcDbEntity
  8
0
 62
   115
100
AcDbTrace
 10
187.500004974817
 20
17.50000045118179
 30
0.0
 11
187.500004974817
 21
16.50000045118179
 31
0.0
 12
190.500004974817
 22
17.00000045118179
 32
0.0
 13
190.500004974817
 23
17.00000045118179
 33
0.0
  0
SOLID
  5
8BFE
330
898B
100
AcDbEntity
  8
0
 62
   115
100
AcDbTrace
 10
199.4999989748169
 20
17.50000045118179
 30
0.0
 11
199.4999989748169
 21
16.50000045118179
 31
0.0
 12
196.499998974817
 22
17.00000045118179
 32
0.0
 13
196.499998974817
 23
17.00000045118179
 33
0.0
  0
MTEXT
  5
8BFF
330
898B
100
AcDbEntity
  8
0
 62
     7
100
AcDbMText
 10
209.8571418319598
 20
19.50000045118179
 30
0.0
 40
3.0
 41
0.0
 71
     5
 72
     1
  1
\A1;6%%P0.5
 73
     1
 44
1.0
1001
ACAD
1000
MTEXTBEGIN
1070
    73
1070
     1
1070
    44
1040
1.0
1070
    74
1070
     0
1000
MTEXTEND
  0
POINT
  5
8C00
330
898B
100
AcDbEntity
  8
DEFPOINTS
 62
     0
100
AcDbPoint
 10
190.500004974817
 20
27.50000045118179
 30
0.0
  0
POINT
  5
8C01
330
898B
100
AcDbEntity
  8
DEFPOINTS
 62
     0
100
AcDbPoint
 10
196.499998974817
 20
39.00000290118192
 30
0.0
  0
POINT
  5
8C02
330
898B
100
AcDbEntity
  8
DEFPOINTS
 62
     0
100
AcDbPoint
 10
196.499998974817
 20
17.00000045118179
 30
0.0
  0
ENDBLK
  5
898D
330
898B
100
AcDbEntity
  8
0
100
AcDbBlockEnd
  0
BLOCK
  5
899A
330
8999
100
AcDbEntity
  8
0
100
AcDbBlockBegin
  2
*D16
 70
     1
 10
0.0
 20
0.0
 30
0.0
  3
*D16
  1

  0
LINE
  5
8A5B
330
8999
100
AcDbEntity
  8
0
 62
   115
370
    -2
100
AcDbLine
 10
191.000004974817
 20
27.00000045118179
 30
0.0
 11
215.4999989748169
 21
27.00000045118179
 31
0.0
  0
LINE
  5
8A5C
330
8999
100
AcDbEntity
  8
0
 62
   115
370
    -2
100
AcDbLine
 10
191.000004974817
 20
89.00000045118179
 30
0.0
 11
215.4999989748169
 21
89.00000045118179
 31
0.0
  0
LINE
  5
8A5D
330
8999
100
AcDbEntity
  8
0
 62
   115
370
    -2
100
AcDbLine
 10
214.4999989748169
 20
30.00000045118179
 30
0.0
 11
214.4999989748169
 21
86.00000045118179
 31
0.0
  0
SOLID
  5
8A5E
330
8999
100
AcDbEntity
  8
0
 62
   115
100
AcDbTrace
 10
213.9999989748169
 20
30.00000045118179
 30
0.0
 11
214.9999989748169
 21
30.00000045118179
 31
0.0
 12
214.4999989748169
 22
27.00000045118179
 32
0.0
 13
214.4999989748169
 23
27.00000045118179
 33
0.0
  0
SOLID
  5
8A5F
330
8999
100
AcDbEntity
  8
0
 62
   115
100
AcDbTrace
 10
213.999998974817
 20
86.00000045118179
 30
0.0
 11
214.9999989748169
 21
86.00000045118179
 31
0.0
 12
214.4999989748169
 22
89.00000045118179
 32
0.0
 13
214.4999989748169
 23
89.00000045118179
 33
0.0
  0
MTEXT
  5
8A60
330
8999
100
AcDbEntity
  8
0
 62
     7
100
AcDbMText
 10
211.9999989748169
 20
58.00000045118181
 30
0.0
 40
3.0
 41
0.0
 71
     5
 72
     1
  1
\A1;%%C62
 11
0.0000000000000001
 21
1.0
 31
0.0
 73
     1
 44
1.0
1001
ACAD
1000
MTEXTBEGIN
1070
    73
1070
     1
1070
    44
1040
1.0
1070
    74
1070
     0
1000
MTEXTEND
  0
POINT
  5
8A61
330
8999
100
AcDbEntity
  8
DEFPOINTS
 62
     0
100
AcDbPoint
 10
190.000004974817
 20
27.00000045118179
 30
0.0
  0
POINT
  5
8A62
330
8999
100
AcDbEntity
  8
DEFPOINTS
 62
     0
100
AcDbPoint
 10
190.000004974817
 20
89.00000045118179
 30
0.0
  0
POINT
  5
8A63
330
8999
100
AcDbEntity
  8
DEFPOINTS
 62
     0
100
AcDbPoint
 10
214.4999989748169
 20
89.00000045118179
 30
0.0
  0
ENDBLK
  5
899B
330
8999
100
AcDbEntity
  8
0
100
AcDbBlockEnd
  0
BLOCK
  5
89A6
330
89A5
100
AcDbEntity
  8
0
100
AcDbBlockBegin
  2
*D17
 70
     1
 10
0.0
 20
0.0
 30
0.0
  3
*D17
  1

  0
LINE
  5
8A64
330
89A5
100
AcDbEntity
  8
0
 62
   115
370
    -2
100
AcDbLine
 10
367.2764933507518
 20
79.85607289942425
 30
0.0
 11
391.9273479312223
 21
90.06679168706625
 31
0.0
  0
LINE
  5
8A65
330
89A5
100
AcDbEntity
  8
0
 62
   115
370
    -2
100
AcDbLine
 10
368.659105199198
 20
89.08792302837065
 30
0.0
 11
388.8658747386306
 21
97.45784143019747
 31
0.0
  0
LINE
  5
8A66
330
89A5
100
AcDbEntity
  8
0
 62
   115
370
    -2
100
AcDbLine
 10
389.8554180605601
 20
92.45574681662771
 30
0.0
 11
389.0900455574234
 21
94.30351940415105
 31
0.0
  0
SOLID
  5
8A67
330
89A5
100
AcDbEntity
  8
0
 62
   115
100
AcDbTrace
 10
390.3173578235275
 20
92.64708854074896
 30
0.0
 11
389.3934782975928
 21
92.26440509250645
 31
0.0
 12
391.0034684052876
 22
89.68410823882377
 32
0.0
 13
391.0034684052876
 23
89.68410823882377
 33
0.0
  0
SOLID
  5
8A68
330
89A5
100
AcDbEntity
  8
0
 62
   115
100
AcDbTrace
 10
389.5519853203907
 20
94.4948611282723
 30
0.0
 11
388.6281057944561
 21
94.11217768002979
 31
0.0
 12
387.9419952126959
 22
97.07515798195499
 32
0.0
 13
387.9419952126959
 23
97.07515798195499
 33
0.0
  0
MTEXT
  5
8A69
330
89A5
100
AcDbEntity
  8
0
 62
     7
100
AcDbMText
 10
391.7824306238284
 20
94.33634173099564
 30
0.0
 40
3.0
 41
0.0
 71
     5
 72
     1
  1
\A1;8
 11
0.3826834482424942
 21
-0.9238795259346503
 31
0.0
 73
     1
 44
1.0
1001
ACAD
1000
MTEXTBEGIN
1070
    73
1070
     1
1070
    44
1040
1.0
1070
    74
1070
     0
1000
MTEXTEND
  0
POINT
  5
8A6A
330
89A5
100
AcDbEntity
  8
DEFPOINTS
 62
     0
100
AcDbPoint
 10
366.3526138248171
 20
79.47338945118175
 30
0.0
  0
POINT
  5
8A6B
330
89A5
100
AcDbEntity
  8
DEFPOINTS
 62
     0
100
AcDbPoint
 10
367.7352256732632
 20
88.70523958012816
 30
0.0
  0
POINT
  5
8A6C
330
89A5
100
AcDbEntity
  8
DEFPOINTS
 62
     0
100
AcDbPoint
 10
387.9419952126959
 20
97.07515798195499
 30
0.0
  0
ENDBLK
  5
89A7
330
89A5
100
AcDbEntity
  8
0
100
AcDbBlockEnd
  0
BLOCK
  5
89B2
330
89B1
100
AcDbEntity
  8
0
100
AcDbBlockBegin
  2
*D18
 70
     1
 10
0.0
 20
0.0
 30
0.0
  3
*D18
  1

  0
LINE
  5
8A6D
330
89B1
100
AcDbEntity
  8
0
 62
   115
370
    -2
100
AcDbLine
 10
362.9084471500212
 20
87.78831590468943
 30
0.0
 11
359.0816130902211
 21
97.0271101437304
 31
0.0
  0
LINE
  5
8A6E
330
89B1
100
AcDbEntity
  8
0
 62
   115
370
    -2
100
AcDbLine
 10
357.365170603176
 20
85.49221432783454
 30
0.0
 11
353.5383361404813
 21
94.73100953954903
 31
0.0
  0
LINE
  5
8A6F
330
89B1
100
AcDbEntity
  8
0
 62
   115
370
    -2
100
AcDbLine
 10
362.2359351162676
 20
97.25128096252312
 30
0.0
 11
365.0075736940715
 21
98.3993313072505
 31
0.0
  0
LINE
  5
8A70
330
89B1
100
AcDbEntity
  8
0
 62
   115
370
    -2
100
AcDbLine
 10
351.1493810109197
 20
92.65907966888699
 30
0.0
 11
337.5551537007382
 21
87.02816607331937
 31
0.0
  0
LINE
  5
8A71
330
89B1
100
AcDbEntity
  8
0
 62
   115
370
    -2
100
AcDbLine
 10
359.4642965384636
 20
96.10323061779574
 30
0.0
 11
353.9210195887238
 21
93.80713001361437
 31
0.0
  0
SOLID
  5
8A72
330
89B1
100
AcDbEntity
  8
0
 62
   115
100
AcDbTrace
 10
362.0445933921463
 20
97.71322072549047
 30
0.0
 11
362.4272768403888
 21
96.78934119955579
 31
0.0
 12
359.4642965384636
 22
96.10323061779574
 32
0.0
 13
359.4642965384636
 23
96.10323061779574
 33
0.0
  0
SOLID
  5
8A73
330
89B1
100
AcDbEntity
  8
0
 62
   115
100
AcDbTrace
 10
350.9580392867985
 20
93.12101943185433
 30
0.0
 11
351.340722735041
 21
92.19713990591968
 31
0.0
 12
353.9210195887238
 22
93.80713001361437
 32
0.0
 13
353.9210195887238
 23
93.80713001361437
 33
0.0
  0
MTEXT
  5
8A74
330
89B1
100
AcDbEntity
  8
0
 62
     7
100
AcDbMText
 10
342.0097394463209
 20
91.57929651357616
 30
0.0
 40
3.0
 41
0.0
 71
     5
 72
     1
  1
\A1;M6x1
 11
0.9238795259346645
 21
0.3826834482424597
 31
0.0
 73
     1
 44
1.0
1001
ACAD
1000
MTEXTBEGIN
1070
    73
1070
     1
1070
    44
1040
1.0
1070
    74
1070
     0
1000
MTEXTEND
  0
POINT
  5
8A75
330
89B1
100
AcDbEntity
  8
DEFPOINTS
 62
     0
100
AcDbPoint
 10
363.2911305982637
 20
86.86443637875475
 30
0.0
  0
POINT
  5
8A76
330
89B1
100
AcDbEntity
  8
DEFPOINTS
 62
     0
100
AcDbPoint
 10
357.7478540514185
 20
84.56833480189988
 30
0.0
  0
POINT
  5
8A77
330
89B1
100
AcDbEntity
  8
DEFPOINTS
 62
     0
100
AcDbPoint
 10
353.9210195887238
 20
93.80713001361437
 30
0.0
  0
ENDBLK
  5
89B3
330
89B1
100
AcDbEntity
  8
0
100
AcDbBlockEnd
  0
BLOCK
  5
89C0
330
89BF
100
AcDbEntity
  8
0
100
AcDbBlockBegin
  2
*D19
 70
     1
 10
0.0
 20
0.0
 30
0.0
  3
*D19
  1

  0
LINE
  5
8A78
330
89BF
100
AcDbEntity
  8
0
 62
   115
370
    -2
100
AcDbLine
 10
371.9999988248169
 20
93.00000045118173
 30
0.0
 11
371.999998824817
 21
107.7537708113536
 31
0.0
  0
LINE
  5
8A79
330
89BF
100
AcDbEntity
  8
0
 62
   115
370
    -2
100
AcDbLine
 10
358.9887621244066
 20
89.4119045565594
 30
0.0
 11
352.9600552102821
 21
103.9664905522113
 31
0.0
  0
ARC
  5
8A7A
330
89BF
100
AcDbEntity
  8
0
 62
   115
370
    -2
100
AcDbCircle
 10
371.9999988248169
 20
58.00000045118165
 30
0.0
 40
48.75377036017197
100
AcDbArc
 50
93.52617791187983
 51
108.9738220881198
  0
SOLID
  5
8A7B
330
89BF
100
AcDbEntity
  8
0
 62
   115
100
AcDbTrace
 10
368.9860356340781
 20
107.1612335518239
 30
0.0
 11
369.0168024853168
 21
106.1617069634507
 31
0.0
 12
371.9999988248169
 22
106.7537708113536
 32
0.0
 13
371.9999988248169
 23
106.7537708113536
 33
0.0
  0
SOLID
  5
8A7C
330
89BF
100
AcDbEntity
  8
0
 62
   115
100
AcDbTrace
 10
356.3254257076687
 20
103.6372351633016
 30
0.0
 11
355.9713483062291
 21
104.5724512847354
 31
0.0
 12
353.3427386426472
 22
103.0426110197
 32
0.0
 13
353.3427386426472
 23
103.0426110197
 33
0.0
  0
MTEXT
  5
8A7D
102
{ACAD_XDICTIONARY
360
8DF8
102
}
330
89BF
100
AcDbEntity
  8
0
 62
     7
100
AcDbMText
 10
362.0008842607104
 20
108.2689439856057
 30
0.0
 40
3.0
 41
0.0
 71
     5
 72
     1
  1
\A1;22.5\U+00B0
 11
0.9807852804032309
 21
0.1950903220161254
 31
0.0
 73
     1
 44
1.0
1001
ACAD
1000
MTEXTBEGIN
1070
    73
1070
     1
1070
    44
1040
1.0
1070
    74
1070
     0
1000
MTEXTEND
  0
POINT
  5
8A7E
330
89BF
100
AcDbEntity
  8
DEFPOINTS
 62
     0
100
AcDbPoint
 10
365.636354823333
 20
106.3366755473729
 30
0.0
  0
POINT
  5
8A7F
330
89BF
100
AcDbEntity
  8
DEFPOINTS
 62
     0
100
AcDbPoint
 10
359.3714455567716
 20
88.48802502404812
 30
0.0
  0
POINT
  5
8A80
330
89BF
100
AcDbEntity
  8
DEFPOINTS
 62
     0
100
AcDbPoint
 10
371.9999988248169
 20
24.00000045118173
 30
0.0
  0
POINT
  5
8A81
330
89BF
100
AcDbEntity
  8
DEFPOINTS
 62
     0
100
AcDbPoint
 10
371.9999988248169
 20
92.00000045118173
 30
0.0
  0
POINT
  5
8A82
330
89BF
100
AcDbEntity
  8
DEFPOINTS
 62
     0
100
AcDbPoint
 10
367.4843337664142
 20
68.90178027831172
 30
0.0
  0
ENDBLK
  5
89C1
330
89BF
100
AcDbEntity
  8
0
100
AcDbBlockEnd
  0
BLOCK
  5
8AF6
330
8AF5
100
AcDbEntity
  8
0
100
AcDbBlockBegin
  2
2505SDK
 70
     0
 10
0.0
 20
0.0
 30
0.0
  3
2505SDK
  1

  0
LINE
  5
8CB4
330
8AF5
100
AcDbEntity
  8
0
100
AcDbLine
 10
181.000004974817
 20
189.0000004511818
 30
0.0
 11
181.0000049748171
 21
177.6214173215305
 31
0.0
  0
LINE
  5
8CB5
330
8AF5
100
AcDbEntity
  8
0
100
AcDbLine
 10
181.000004974817
 20
138.3785835808334
 30
0.0
 11
181.000004974817
 21
127.0000004511818
 31
0.0
  0
LINE
  5
8CB6
330
8AF5
100
AcDbEntity
  8
0
100
AcDbLine
 10
180.5000049748169
 20
188.5000004511818
 30
0.0
 11
180.500004974817
 21
127.5000004511817
 31
0.0
  0
LINE
  5
8CB7
330
8AF5
100
AcDbEntity
  8
0
100
AcDbLine
 10
148.499998674817
 20
138.0000119011819
 30
0.0
 11
148.499998674817
 21
178.0000041011819
 31
0.0
  0
LINE
  5
8CB8
330
8AF5
100
AcDbEntity
  8
0
100
AcDbLine
 10
195.499998974817
 20
138.0000029011819
 30
0.0
 11
195.499998974817
 21
177.999998001182
 31
0.0
  0
LINE
  5
8CB9
330
8AF5
100
AcDbEntity
  8
0
100
AcDbLine
 10
190.500004974817
 20
188.5000004511818
 30
0.0
 11
190.500004974817
 21
127.5000004511817
 31
0.0
  0
LINE
  5
8CBA
330
8AF5
100
AcDbEntity
  8
0
100
AcDbLine
 10
190.000004974817
 20
127.0000004511818
 30
0.0
 11
190.500004974817
 21
127.5000004511817
 31
0.0
  0
LINE
  5
8CBB
330
8AF5
100
AcDbEntity
  8
0
100
AcDbLine
 10
190.000004974817
 20
189.0000004511818
 30
0.0
 11
190.500004974817
 21
188.5000004511818
 31
0.0
  0
LINE
  5
8CBC
330
8AF5
100
AcDbEntity
  8
0
100
AcDbLine
 10
190.000004974817
 20
127.0000004511818
 30
0.0
 11
190.0000049748171
 21
138.3785835808334
 31
0.0
  0
LINE
  5
8CBD
330
8AF5
100
AcDbEntity
  8
0
100
AcDbLine
 10
190.000004974817
 20
177.6214173215305
 30
0.0
 11
190.000004974817
 21
189.0000004511818
 31
0.0
  0
LINE
  5
8CBE
330
8AF5
100
AcDbEntity
  8
0
100
AcDbLine
 10
147.499998674817
 20
177.0000041011819
 30
0.0
 11
147.499998674817
 21
139.0000119011819
 31
0.0
  0
LINE
  5
8CBF
330
8AF5
100
AcDbEntity
  8
0
100
AcDbLine
 10
148.499998674817
 20
138.0000119011819
 30
0.0
 11
180.499998974817
 21
138.0000119011819
 31
0.0
  0
LINE
  5
8CC0
330
8AF5
100
AcDbEntity
  8
0
100
AcDbLine
 10
181.000004974817
 20
127.0000004511818
 30
0.0
 11
190.000004974817
 21
127.0000004511818
 31
0.0
  0
LINE
  5
8CC1
330
8AF5
100
AcDbEntity
  8
0
100
AcDbLine
 10
180.500004974817
 20
127.5000004511817
 30
0.0
 11
181.000004974817
 21
127.0000004511818
 31
0.0
  0
LINE
  5
8CC2
330
8AF5
100
AcDbEntity
  8
0
100
AcDbLine
 10
190.499998974817
 20
138.0000029011819
 30
0.0
 11
195.499998974817
 21
138.0000029011819
 31
0.0
  0
LINE
  5
8CC3
330
8AF5
100
AcDbEntity
  8
0
100
AcDbLine
 10
196.499998974817
 20
139.0000029011819
 30
0.0
 11
196.499998974817
 21
176.999998001182
 31
0.0
  0
LINE
  5
8CC4
330
8AF5
100
AcDbEntity
  8
0
100
AcDbLine
 10
195.499998974817
 20
177.999998001182
 30
0.0
 11
190.499998974817
 21
177.999998001182
 31
0.0
  0
LINE
  5
8CC5
330
8AF5
100
AcDbEntity
  8
0
100
AcDbLine
 10
190.000004974817
 20
189.0000004511818
 30
0.0
 11
181.0000049748168
 21
189.0000004511818
 31
0.0
  0
LINE
  5
8CC6
330
8AF5
100
AcDbEntity
  8
0
100
AcDbLine
 10
180.5000049748169
 20
188.5000004511818
 30
0.0
 11
181.0000049748168
 21
189.0000004511818
 31
0.0
  0
LINE
  5
8CC7
330
8AF5
100
AcDbEntity
  8
0
100
AcDbLine
 10
180.499998974817
 20
178.0000041011819
 30
0.0
 11
148.499998674817
 21
178.0000041011819
 31
0.0
  0
LINE
  5
8CC8
330
8AF5
100
AcDbEntity
  8
2
100
AcDbLine
 10
147.499998674817
 20
170.3000004511818
 30
0.0
 11
196.499998974817
 21
170.3000004511818
 31
0.0
  0
LINE
  5
8CC9
330
8AF5
100
AcDbEntity
  8
2
100
AcDbLine
 10
196.499998974817
 20
145.7000004511817
 30
0.0
 11
147.499998674817
 21
145.7000004511817
 31
0.0
  0
TEXT
  5
8CCA
330
8AF5
100
AcDbEntity
  8
0
100
AcDbText
 10
150.4761923010075
 20
156.0000013011819
 30
0.0
 40
4.0
  1
SDK2505
 72
     4
 11
164.000001824817
 21
158.0000013011819
 31
0.0
100
AcDbText
  0
LINE
  5
8CCB
330
8AF5
100
AcDbEntity
  8
0
100
AcDbLine
 10
180.500004974817
 20
138.3785835808334
 30
0.0
 11
190.500004974817
 21
138.3785835808334
 31
0.0
  0
LINE
  5
8CCC
330
8AF5
100
AcDbEntity
  8
0
100
AcDbLine
 10
180.5000049748169
 20
177.6214173215305
 30
0.0
 11
190.500004974817
 21
177.6214173215305
 31
0.0
  0
LINE
  5
8CCD
330
8AF5
100
AcDbEntity
  8
9
100
AcDbLine
 10
180.500004974817
 20
138.3785835808334
 30
0.0
 11
190.500004974817
 21
177.6214173215305
 31
0.0
  0
LINE
  5
8CCE
330
8AF5
100
AcDbEntity
  8
9
100
AcDbLine
 10
180.5000049748169
 20
177.6214173215305
 30
0.0
 11
190.500004974817
 21
138.3785835808334
 31
0.0
  0
ELLIPSE
  5
8CCF
330
8AF5
100
AcDbEntity
  8
9
100
AcDbEllipse
 10
185.5000049748169
 20
185.7165139265143
 30
0.0
 11
2.999463687718955
 21
-0.0000000000000945
 31
0.0
210
0.0
220
0.0
230
-1.0
 40
0.3827521957271129
 41
3.141592653589758
 42
7.853981633974454
  0
ELLIPSE
  5
8CD0
330
8AF5
100
AcDbEntity
  8
0
100
AcDbEllipse
 10
185.5000049748169
 20
185.7163864265143
 30
0.0
 11
-2.499554249533093
 21
-0.0000000000001227
 31
0.0
210
0.0
220
0.0
230
-1.0
 40
0.3828033789051975
 41
0.0
 42
6.283185307179584
  0
LINE
  5
8CD1
330
8AF5
100
AcDbEntity
  8
0
100
AcDbLine
 10
147.499998674817
 20
177.0000041011819
 30
0.0
 11
148.499998674817
 21
178.0000041011819
 31
0.0
  0
LINE
  5
8CD2
330
8AF5
100
AcDbEntity
  8
0
100
AcDbLine
 10
148.499998674817
 20
138.0000119011819
 30
0.0
 11
147.499998674817
 21
139.0000119011819
 31
0.0
  0
LINE
  5
8CD3
330
8AF5
100
AcDbEntity
  8
0
100
AcDbLine
 10
196.499998974817
 20
139.0000029011819
 30
0.0
 11
195.499998974817
 21
138.0000029011819
 31
0.0
  0
LINE
  5
8CD4
330
8AF5
100
AcDbEntity
  8
0
100
AcDbLine
 10
195.499998974817
 20
177.999998001182
 30
0.0
 11
196.499998974817
 21
176.999998001182
 31
0.0
  0
ENDBLK
  5
8AF7
330
8AF5
100
AcDbEntity
  8
0
100
AcDbBlockEnd
  0
ENDSEC
  0
SECTION
  2
ENTITIES
  0
LINE
  5
88BD
330
19
100
AcDbEntity
  8
1
100
AcDbLine
 10
18.99999882481694
 20
58.0000004511819
 30
0.0
 11
324.9999988248169
 21
58.0000004511819
 31
0.0
  0
DIMENSION
  5
88BE
330
19
100
AcDbEntity
  8
0
100
AcDbDimension
  2
*D2
 10
11.99999882481674
 20
68.85000045118204
 30
0.0
 11
9.49999882481673
 21
58.00000045118204
 31
0.0
 70
    32
  1
%%C<>
 71
     5
 42
21.69999999999998
  3
STANDARD
100
AcDbAlignedDimension
 13
21.99999882481683
 23
47.15000045118205
 33
0.0
 14
21.999998824817
 24
68.85000045118204
 34
0.0
 50
90.0
100
AcDbRotatedDimension
1001
ACAD
1000
DSTYLE
1002
{
1070
    41
1040
3.0
1070
    42
1040
1.0
1070
    43
1040
1.0
1070
    44
1040
1.0
1070
    73
1070
     0
1070
    74
1070
     0
1070
    77
1070
     3
1070
    78
1070
     8
1070
   141
1040
-1.0
1070
   147
1040
1.0
1070
   172
1070
     1
1070
   176
1070
   115
1070
   177
1070
   115
1070
   178
1070
     7
1070
   271
1070
     2
1070
   272
1070
     2
1002
}
  0
DIMENSION
  5
88BF
330
19
100
AcDbEntity
  8
0
100
AcDbDimension
  2
*D3
 10
3.999998824816714
 20
70.30000045118208
 30
0.0
 11
1.499998824816702
 21
58.00000045118204
 31
0.0
 70
    32
  1
%%C<>
 71
     5
 42
24.60000000000007
  3
STANDARD
100
AcDbAlignedDimension
 13
21.99999882481683
 23
45.70000045118201
 33
0.0
 14
21.999998824817
 24
70.30000045118208
 34
0.0
 50
90.0
100
AcDbRotatedDimension
1001
ACAD
1000
DSTYLE
1002
{
1070
    41
1040
3.0
1070
    42
1040
1.0
1070
    43
1040
1.0
1070
    44
1040
1.0
1070
    73
1070
     0
1070
    74
1070
     0
1070
    77
1070
     3
1070
    78
1070
     8
1070
   141
1040
-1.0
1070
   147
1040
1.0
1070
   172
1070
     1
1070
   176
1070
   115
1070
   177
1070
   115
1070
   178
1070
     7
1070
   271
1070
     2
1070
   272
1070
     2
1002
}
  0
DIMENSION
  5
88C0
330
19
100
AcDbEntity
  8
0
100
AcDbDimension
  2
*D4
 10
137.4999986748169
 20
78.00000410118196
 30
0.0
 11
134.2142843891026
 21
58.00000800118196
 31
0.0
 70
    32
  1
%%C<> g6 ({\H0.5x;\S-0.009^ -0.025;})
 71
     5
 42
39.99999220000003
  3
STANDARD
100
AcDbAlignedDimension
 13
148.499998674817
 23
38.00001190118192
 33
0.0
 14
148.499998674817
 24
78.00000410118196
 34
0.0
 50
90.0
100
AcDbRotatedDimension
1001
ACAD
1000
DSTYLE
1002
{
1070
   998
1000
1,1,-0.009,-0.025,0,0,2,H7,g6,256
1070
    48
1040
0.025
1070
    47
1040
-0.009
1070
    71
1070
     0
1070
    72
1070
     0
1070
   284
1070
     8
1070
   283
1070
     1
1070
   146
1040
1.0
1070
     3
1000

1070
    41
1040
3.0
1070
    42
1040
1.0
1070
    43
1040
1.0
1070
    44
1040
1.0
1070
    73
1070
     0
1070
    74
1070
     0
1070
    77
1070
     3
1070
    78
1070
     8
1070
   141
1040
-1.0
1070
   147
1040
1.0
1070
   172
1070
     1
1070
   176
1070
   115
1070
   177
1070
   115
1070
   178
1070
     7
1070
   271
1070
     2
1070
   272
1070
     3
1002
}
  0
DIMENSION
  5
88C1
330
19
100
AcDbEntity
  8
0
100
AcDbDimension
  2
*D5
 10
147.499998674817
 20
17.00000045118179
 30
0.0
 11
164.000001824817
 21
19.50000045118179
 31
0.0
 70
    32
  1
<>%%P1
 71
     5
 42
33.00000630000003
  3
STANDARD
100
AcDbAlignedDimension
 13
180.500004974817
 23
27.50000045118179
 33
0.0
 14
147.499998674817
 24
39.00001190118192
 34
0.0
100
AcDbRotatedDimension
1001
ACAD
1000
DSTYLE
1002
{
1070
    41
1040
3.0
1070
    42
1040
1.0
1070
    43
1040
1.0
1070
    44
1040
1.0
1070
    47
1040
1.0
1070
    48
1040
1.0
1070
    73
1070
     0
1070
    74
1070
     0
1070
    77
1070
     3
1070
    78
1070
     8
1070
   141
1040
-1.0
1070
   147
1040
1.0
1070
   172
1070
     1
1070
   176
1070
   115
1070
   177
1070
   115
1070
   178
1070
     7
1070
   271
1070
     2
1070
   272
1070
     3
1070
   284
1070
     8
1002
}
  0
DIMENSION
  5
88C2
330
19
100
AcDbEntity
  8
0
100
AcDbDimension
  2
*D6
 10
190.500004974817
 20
17.00000045118179
 30
0.0
 11
185.500004974817
 21
19.50000045118179
 31
0.0
 70
    32
 71
     5
 42
10.0
  3
STANDARD
100
AcDbAlignedDimension
 13
180.500004974817
 23
27.50000045118179
 33
0.0
 14
190.500004974817
 24
27.50000045118179
 34
0.0
100
AcDbRotatedDimension
1001
ACAD
1000
DSTYLE
1002
{
1070
    41
1040
3.0
1070
    42
1040
1.0
1070
    43
1040
1.0
1070
    44
1040
1.0
1070
    73
1070
     0
1070
    74
1070
     0
1070
    77
1070
     3
1070
    78
1070
     8
1070
   141
1040
-1.0
1070
   147
1040
1.0
1070
   172
1070
     1
1070
   176
1070
   115
1070
   177
1070
   115
1070
   178
1070
     7
1070
   271
1070
     2
1070
   272
1070
     2
1002
}
  0
DIMENSION
  5
88C3
330
19
100
AcDbEntity
  8
0
100
AcDbDimension
  2
*D7
 10
196.499998974817
 20
9.00000045118179
 30
0.0
 11
171.999998824817
 21
11.50000045118179
 31
0.0
 70
    32
  1
<>%%P1
 71
     5
 42
49.00000029999995
  3
STANDARD
100
AcDbAlignedDimension
 13
147.499998674817
 23
39.00001190118192
 33
0.0
 14
196.499998974817
 24
39.00000290118192
 34
0.0
100
AcDbRotatedDimension
1001
ACAD
1000
DSTYLE
1002
{
1070
    41
1040
3.0
1070
    42
1040
1.0
1070
    43
1040
1.0
1070
    44
1040
1.0
1070
    47
1040
1.0
1070
    48
1040
1.0
1070
    73
1070
     0
1070
    74
1070
     0
1070
    77
1070
     3
1070
    78
1070
     8
1070
   141
1040
-1.0
1070
   147
1040
1.0
1070
   172
1070
     1
1070
   176
1070
   115
1070
   177
1070
   115
1070
   178
1070
     7
1070
   271
1070
     2
1070
   272
1070
     3
1070
   284
1070
     8
1002
}
  0
DIMENSION
  5
88C4
330
19
100
AcDbEntity
  8
0
100
AcDbDimension
  2
*D8
 10
395.9999988248162
 20
1.000000451181563
 30
0.0
 11
371.999998824817
 21
3.500000451181563
 31
0.0
 70
    32
 71
     5
 42
47.99999999999852
  3
STANDARD
100
AcDbAlignedDimension
 13
347.9999988248177
 23
38.37858358083224
 33
0.0
 14
395.9999988248162
 24
38.37858358083224
 34
0.0
100
AcDbRotatedDimension
1001
ACAD
1000
DSTYLE
1002
{
1070
    41
1040
3.0
1070
    42
1040
1.0
1070
    43
1040
1.0
1070
    44
1040
1.0
1070
    73
1070
     0
1070
    74
1070
     0
1070
    77
1070
     3
1070
    78
1070
     8
1070
   141
1040
-1.0
1070
   147
1040
1.0
1070
   172
1070
     1
1070
   176
1070
   115
1070
   177
1070
   115
1070
   178
1070
     7
1070
   271
1070
     2
1070
   272
1070
     2
1002
}
  0
DIMENSION
  5
88C5
330
19
100
AcDbEntity
  8
0
100
AcDbDimension
  2
*D9
 10
358.4235560595794
 20
44.42354639182139
 30
0.0
 11
371.9999988248169
 21
20.06097390852628
 31
0.0
 70
    34
 71
     5
 42
1.570795494904099
  3
STANDARD
100
AcDb2LineAngularDimension
 13
394.4859660595794
 23
35.51401451054193
 33
0.0
 14
385.5764415900544
 24
44.42354639182139
 34
0.0
 15
349.5140315900544
 25
35.51401451054193
 35
0.0
 16
361.5336140059331
 26
18.93889887249311
 36
0.0
1001
ACAD
1000
DSTYLE
1002
{
1070
    41
1040
3.0
1070
    42
1040
1.0
1070
    43
1040
1.0
1070
    44
1040
1.0
1070
    73
1070
     0
1070
    74
1070
     0
1070
    77
1070
     3
1070
    78
1070
     8
1070
    79
1070
     2
1070
   141
1040
-1.0
1070
   147
1040
1.0
1070
   172
1070
     1
1070
   176
1070
   115
1070
   177
1070
   115
1070
   178
1070
     7
1070
   271
1070
     2
1070
   272
1070
     2
1002
}
  0
DIMENSION
  5
88C6
330
19
100
AcDbEntity
  8
0
100
AcDbDimension
  2
*D10
 10
337.9999988248168
 20
76.03121945118171
 30
0.0
 11
334.7142845391025
 21
57.99999995118174
 31
0.0
 70
    32
  1
(<>)
 71
     5
 42
36.06243900000005
  3
STANDARD
100
AcDbAlignedDimension
 13
353.968793824817
 23
39.96878045118166
 33
0.0
 14
353.968793824817
 24
76.0312194511817
 34
0.0
 50
90.0
100
AcDbRotatedDimension
1001
ACAD
1000
DSTYLE
1002
{
1070
    41
1040
3.0
1070
    42
1040
1.0
1070
    43
1040
1.0
1070
    44
1040
1.0
1070
    73
1070
     0
1070
    74
1070
     0
1070
    77
1070
     3
1070
    78
1070
     8
1070
   141
1040
-1.0
1070
   147
1040
1.0
1070
   172
1070
     1
1070
   176
1070
   115
1070
   177
1070
   115
1070
   178
1070
     7
1070
   271
1070
     2
1070
   272
1070
     2
1002
}
  0
DIMENSION
  5
88C7
330
19
100
AcDbEntity
  8
0
100
AcDbDimension
  2
*D11
 10
390.0312333248169
 20
9.000000451181506
 30
0.0
 11
372.0000135748169
 21
12.28571473689579
 31
0.0
 70
    32
  1
(<>)
 71
     5
 42
36.06243949999992
  3
STANDARD
100
AcDbAlignedDimension
 13
353.968793824817
 23
39.96878045118166
 33
0.0
 14
390.0312333248169
 24
39.96878045118166
 34
0.0
100
AcDbRotatedDimension
1001
ACAD
1000
DSTYLE
1002
{
1070
    41
1040
3.0
1070
    42
1040
1.0
1070
    43
1040
1.0
1070
    44
1040
1.0
1070
    73
1070
     0
1070
    74
1070
     0
1070
    77
1070
     3
1070
    78
1070
     8
1070
   141
1040
-1.0
1070
   147
1040
1.0
1070
   172
1070
     1
1070
   176
1070
   115
1070
   177
1070
   115
1070
   178
1070
     7
1070
   271
1070
     2
1070
   272
1070
     2
1002
}
  0
DIMENSION
  5
88C8
330
19
100
AcDbEntity
  8
0
100
AcDbDimension
  2
*D12
 10
413.999998824816
 20
83.50000657436515
 30
0.0
 11
411.4999988248159
 21
58.00000045118179
 31
0.0
 70
    32
  1
PCD <>
 71
     5
 42
51.00001224636685
  3
STANDARD
100
AcDbAlignedDimension
 13
371.999998824817
 23
32.49999432799831
 33
0.0
 14
371.999998824817
 24
83.50000657436515
 34
0.0
 50
90.0
100
AcDbRotatedDimension
1001
ACAD
1000
DSTYLE
1002
{
1070
    41
1040
3.0
1070
    42
1040
1.0
1070
    43
1040
1.0
1070
    44
1040
1.0
1070
    73
1070
     0
1070
    74
1070
     0
1070
    77
1070
     3
1070
    78
1070
     8
1070
   141
1040
-1.0
1070
   147
1040
1.0
1070
   172
1070
     1
1070
   176
1070
   115
1070
   177
1070
   115
1070
   178
1070
     7
1070
   271
1070
     2
1070
   272
1070
     2
1002
}
  0
DIMENSION
  5
88C9
330
19
100
AcDbEntity
  8
0
100
AcDbDimension
  2
*D13
 10
405.999998824816
 20
79.33120724118168
 30
0.0
 11
403.4999988248159
 21
94.04549295546745
 31
0.0
 70
    32
  1
6-%%C<>
 71
     5
 42
6.599975579999977
  3
STANDARD
100
AcDbAlignedDimension
 13
390.0312333248169
 23
72.73123166118171
 33
0.0
 14
390.0312333248169
 24
79.33120724118168
 34
0.0
 50
90.0
100
AcDbRotatedDimension
1001
ACAD
1000
DSTYLE
1002
{
1070
    41
1040
3.0
1070
    42
1040
1.0
1070
    43
1040
1.0
1070
    44
1040
1.0
1070
    73
1070
     0
1070
    74
1070
     0
1070
    77
1070
     3
1070
    78
1070
     8
1070
   141
1040
-1.0
1070
   147
1040
1.0
1070
   172
1070
     1
1070
   176
1070
   115
1070
   177
1070
   115
1070
   178
1070
     7
1070
   271
1070
     2
1070
   272
1070
     2
1002
}
  0
LINE
  5
88CA
330
19
100
AcDbEntity
  8
1
100
AcDbLine
 10
179.5005412870979
 20
85.7163864265143
 30
0.0
 11
191.4994686625359
 21
85.7163864265143
 31
0.0
  0
LINE
  5
88CB
330
19
100
AcDbEntity
  8
1
100
AcDbLine
 10
185.5000049748169
 20
81.56833511403613
 30
0.0
 11
185.5000049748169
 21
89.86443773899248
 31
0.0
  0
DIMENSION
  5
88CC
330
19
100
AcDbEntity
  8
0
100
AcDbDimension
  2
*D14
 10
206.4999989748169
 20
77.99999800118198
 30
0.0
 11
203.2142846891026
 21
58.00000045118199
 31
0.0
 70
    32
  1
%%C<> g6 ({\H0.5x;\S-0.009^ -0.025;})
 71
     5
 42
39.99999510000004
  3
STANDARD
100
AcDbAlignedDimension
 13
195.499998974817
 23
38.00000290118195
 33
0.0
 14
195.499998974817
 24
77.99999800118198
 34
0.0
 50
90.0
100
AcDbRotatedDimension
1001
ACAD
1000
DSTYLE
1002
{
1070
   998
1000
1,1,-0.009,-0.025,0,0,2,H7,g6,256
1070
    47
1040
-0.009
1070
    71
1070
     0
1070
    72
1070
     0
1070
   283
1070
     1
1070
   146
1040
1.0
1070
     3
1000

1070
    41
1040
3.0
1070
    42
1040
1.0
1070
    43
1040
1.0
1070
    44
1040
1.0
1070
    48
1040
0.025
1070
    73
1070
     0
1070
    74
1070
     0
1070
    77
1070
     3
1070
    78
1070
     8
1070
   141
1040
-1.0
1070
   147
1040
1.0
1070
   172
1070
     1
1070
   176
1070
   115
1070
   177
1070
   115
1070
   178
1070
     7
1070
   271
1070
     2
1070
   272
1070
     3
1070
   284
1070
     8
1002
}
  0
DIMENSION
  5
88CE
330
19
100
AcDbEntity
  8
0
100
AcDbDimension
  2
*D15
 10
196.499998974817
 20
17.00000045118179
 30
0.0
 11
209.8571418319598
 21
19.50000045118179
 31
0.0
 70
    32
  1
<>%%P0.5
 71
     5
 42
5.999993999999929
  3
STANDARD
100
AcDbAlignedDimension
 13
190.500004974817
 23
27.50000045118179
 33
0.0
 14
196.499998974817
 24
39.00000290118192
 34
0.0
100
AcDbRotatedDimension
1001
ACAD
1000
DSTYLE
1002
{
1070
    41
1040
3.0
1070
    42
1040
1.0
1070
    43
1040
1.0
1070
    44
1040
1.0
1070
    73
1070
     0
1070
    74
1070
     0
1070
    77
1070
     3
1070
    78
1070
     8
1070
   141
1040
-1.0
1070
   147
1040
1.0
1070
   172
1070
     1
1070
   176
1070
   115
1070
   177
1070
   115
1070
   178
1070
     7
1070
   271
1070
     2
1070
   272
1070
     2
1002
}
  0
DIMENSION
  5
88CF
330
19
100
AcDbEntity
  8
0
100
AcDbDimension
  2
*D16
 10
214.4999989748169
 20
89.00000045118179
 30
0.0
 11
211.9999989748169
 21
58.00000045118181
 31
0.0
 70
    32
  1
%%C<>
 71
     5
 42
62.0
  3
STANDARD
100
AcDbAlignedDimension
 13
190.000004974817
 23
27.00000045118179
 33
0.0
 14
190.000004974817
 24
89.00000045118179
 34
0.0
 50
90.0
100
AcDbRotatedDimension
1001
ACAD
1000
DSTYLE
1002
{
1070
   998
1000
1,1,-0.007,-0.02,0,0,2,H7,g6,256
1070
    47
1040
-0.007
1070
    71
1070
     0
1070
    72
1070
     0
1070
   283
1070
     1
1070
   146
1040
1.0
1070
     3
1000

1070
    41
1040
3.0
1070
    42
1040
1.0
1070
    43
1040
1.0
1070
    44
1040
1.0
1070
    48
1040
0.02
1070
    73
1070
     0
1070
    74
1070
     0
1070
    77
1070
     3
1070
    78
1070
     8
1070
   141
1040
-1.0
1070
   147
1040
1.0
1070
   172
1070
     1
1070
   176
1070
   115
1070
   177
1070
   115
1070
   178
1070
     7
1070
   271
1070
     2
1070
   272
1070
     3
1070
   284
1070
     8
1002
}
  0
DIMENSION
  5
88D0
330
19
100
AcDbEntity
  8
0
100
AcDbDimension
  2
*D17
 10
387.9419952126959
 20
97.07515798195499
 30
0.0
 11
391.7824306238284
 21
94.33634173099564
 31
0.0
 70
    32
 71
     5
 42
8.000014650886456
  3
STANDARD
100
AcDbAlignedDimension
 13
366.3526138248171
 23
79.47338945118173
 33
0.0
 14
367.7352256732633
 24
88.70523958012819
 34
0.0
 50
112.5000009846611
100
AcDbRotatedDimension
1001
ACAD
1000
DSTYLE
1002
{
1070
    41
1040
3.0
1070
    42
1040
1.0
1070
    43
1040
1.0
1070
    44
1040
1.0
1070
    73
1070
     0
1070
    74
1070
     0
1070
    77
1070
     3
1070
    78
1070
     8
1070
   141
1040
-1.0
1070
   147
1040
1.0
1070
   172
1070
     1
1070
   176
1070
   115
1070
   177
1070
   115
1070
   178
1070
     7
1070
   271
1070
     2
1070
   272
1070
     2
1002
}
  0
DIMENSION
  5
88D1
330
19
100
AcDbEntity
  8
0
100
AcDbDimension
  2
*D18
 10
353.9210195887238
 20
93.80713001361437
 30
0.0
 11
342.0097394463209
 21
91.57929651357616
 31
0.0
 70
    32
  1
M<>x1
 71
     5
 42
5.999999777169875
  3
STANDARD
100
AcDbAlignedDimension
 13
363.2911305982637
 23
86.86443637875475
 33
0.0
 14
357.7478540514185
 24
84.56833480189988
 34
0.0
 50
202.500000984659
100
AcDbRotatedDimension
1001
ACAD
1000
DSTYLE
1002
{
1070
    41
1040
3.0
1070
    42
1040
1.0
1070
    43
1040
1.0
1070
    44
1040
1.0
1070
    73
1070
     0
1070
    74
1070
     0
1070
    77
1070
     3
1070
    78
1070
     8
1070
   141
1040
-1.0
1070
   147
1040
1.0
1070
   172
1070
     1
1070
   176
1070
   115
1070
   177
1070
   115
1070
   178
1070
     7
1070
   271
1070
     2
1070
   272
1070
     2
1002
}
  0
DIMENSION
  5
88D2
330
19
100
AcDbEntity
  8
0
100
AcDbDimension
  2
*D19
 10
367.4843337664143
 20
68.90178027831172
 30
0.0
 11
362.0008842607103
 21
108.2689439856057
 31
0.0
 70
    34
 71
     5
 42
0.3926990816987184
  3
STANDARD
100
AcDb2LineAngularDimension
 13
371.999998824817
 23
24.00000045118173
 33
0.0
 14
371.999998824817
 24
92.00000045118173
 34
0.0
 15
359.3714455567716
 25
88.48802502404812
 35
0.0
 16
365.636354823333
 26
106.3366755473729
 36
0.0
1001
ACAD
1000
DSTYLE
1002
{
1070
    41
1040
3.0
1070
    42
1040
1.0
1070
    43
1040
1.0
1070
    44
1040
1.0
1070
    73
1070
     0
1070
    74
1070
     0
1070
    77
1070
     3
1070
    78
1070
     8
1070
   141
1040
-1.0
1070
   147
1040
1.0
1070
   172
1070
     1
1070
   176
1070
   115
1070
   177
1070
   115
1070
   178
1070
     7
1070
   179
1070
     1
1070
   271
1070
     2
1070
   272
1070
     2
1002
}
  0
LINE
  5
88D3
330
19
100
AcDbEntity
  8
1
100
AcDbLine
 10
359.3714628833248
 20
88.48800759647508
 30
0.0
 11
367.4843510929674
 21
68.90176285073869
 31
0.0
  0
INSERT
  5
88D4
330
19
100
AcDbEntity
  8
0
100
AcDbBlockReference
  2
A$C255E06E0
 10
21.99999988302125
 20
45.70000060679899
 30
0.0
  0
INSERT
  5
88D6
330
19
100
AcDbEntity
  8
0
100
AcDbBlockReference
  2
A$C2EBE1FB4
 10
348.0000001223007
 20
27.00000019715077
 30
0.0
  0
LINE
  5
88D7
330
19
100
AcDbEntity
  8
1
100
AcDbLine
 10
371.999998824817
 20
24.00000045118173
 30
0.0
 11
371.999998824817
 21
92.00000045118173
 31
0.0
  0
LINE
  5
88D8
330
19
100
AcDbEntity
  8
1
100
AcDbLine
 10
344.999998824817
 20
58.0000004511819
 30
0.0
 11
398.9999988248169
 21
58.00000045118173
 31
0.0
  0
LINE
  5
88D9
330
19
100
AcDbEntity
  8
1
100
AcDbLine
 10
349.5140315900544
 20
35.51401451054193
 30
0.0
 11
358.4235560595794
 21
44.42354639182139
 31
0.0
  0
LINE
  5
88DA
330
19
100
AcDbEntity
  8
1
100
AcDbLine
 10
394.4859660595794
 20
35.51401451054193
 30
0.0
 11
385.5764415900544
 21
44.42354639182139
 31
0.0
  0
LINE
  5
88DB
330
19
100
AcDbEntity
  8
1
100
AcDbLine
 10
349.5140315900544
 20
80.48598639182154
 30
0.0
 11
358.4235560595794
 21
71.57645451054207
 31
0.0
  0
LINE
  5
88DC
330
19
100
AcDbEntity
  8
1
100
AcDbLine
 10
394.4859660595794
 20
80.48598639182154
 30
0.0
 11
385.5764415900544
 21
71.57645451054207
 31
0.0
  0
CIRCLE
  5
88DD
330
19
100
AcDbEntity
  8
1
100
AcDbCircle
 10
371.999998824817
 20
58.00000045118173
 30
0.0
 40
25.50000612318343
  0
INSERT
  5
8B19
330
19
100
AcDbEntity
  8
0
100
AcDbBlockReference
  2
2505SDK
 10
0.0
 20
-100.0
 30
0.0
  0
ENDSEC
  0
SECTION
  2
OBJECTS
  0
DICTIONARY
  5
C
330
0
100
AcDbDictionary
281
     1
  3
ACAD_CIP_PREVIOUS_PRODUCT_INFO
350
7F88
  3
ACAD_COLOR
350
7D99
  3
ACAD_GROUP
350
D
  3
ACAD_LAYOUT
350
7D9C
  3
ACAD_MATERIAL
350
7D98
  3
ACAD_MLEADERSTYLE
350
7EBA
  3
ACAD_MLINESTYLE
350
E
  3
ACAD_PLOTSETTINGS
350
7D9D
  3
ACAD_PLOTSTYLENAME
350
7D96
  3
ACAD_SCALELIST
350
7E98
  3
ACAD_TABLESTYLE
350
7D9A
  3
ACAD_VISUALSTYLE
350
7E87
  3
ACDB_RECOMPOSE_DATA
350
8DB8
  3
ACDBVARIABLEDICTIONARY
350
1BF
  3
DWGPROPS
350
8DB9
  0
DICTIONARY
  5
8A8E
330
8
100
AcDbDictionary
280
     1
281
     1
  0
DICTIONARY
  5
7F56
330
F
100
AcDbDictionary
280
     1
281
     1
  3
ADSK_XREC_LAYER_RECONCILED
360
7F57
  0
DICTIONARY
  5
8891
330
8890
100
AcDbDictionary
280
     1
281
     1
  0
DICTIONARY
  5
8893
330
8892
100
AcDbDictionary
280
     1
281
     1
  0
DICTIONARY
  5
8895
330
8894
100
AcDbDictionary
280
     1
281
     1
  0
DICTIONARY
  5
838B
330
19
100
AcDbDictionary
280
     1
281
     1
  3
ACAD_SORTENTS
360
838C
  0
DICTIONARY
  5
8841
330
8840
100
AcDbDictionary
280
     1
281
     1
  3
ACAD_SORTENTS
360
8842
  0
DICTIONARY
  5
8876
330
8875
100
AcDbDictionary
280
     1
281
     1
  3
ACAD_SORTENTS
360
8877
  0
DICTIONARY
  5
8CD5
330
8AF5
100
AcDbDictionary
280
     1
281
     1
  3
ACAD_SORTENTS
360
8CD6
  0
DICTIONARY
  5
8DF6
330
8A11
100
AcDbDictionary
280
     1
281
     1
  3
ACAD_MTEXT_RT
360
8DF7
  0
DICTIONARY
  5
8DF8
330
8A7D
100
AcDbDictionary
280
     1
281
     1
  3
ACAD_MTEXT_RT
360
8DF9
  0
XRECORD
  5
7F88
102
{ACAD_REACTORS
330
C
102
}
330
C
100
AcDbXrecord
280
     1
300
ACDLT
300
2012
300
ACDLT_F_S
  0
DICTIONARY
  5
7D99
102
{ACAD_REACTORS
330
C
102
}
330
C
100
AcDbDictionary
281
     1
  0
DICTIONARY
  5
D
102
{ACAD_REACTORS
330
C
102
}
330
C
100
AcDbDictionary
281
     1
  0
DICTIONARY
  5
7D9C
102
{ACAD_REACTORS
330
C
102
}
330
C
100
AcDbDictionary
281
     1
  3
Model
350
7D9E
  3
배치1
350
7D9F
  0
DICTIONARY
  5
7D98
102
{ACAD_REACTORS
330
C
102
}
330
C
100
AcDbDictionary
281
     1
  3
ByBlock
350
7E77
  3
ByLayer
350
7E6F
  3
Global
350
7E7F
  0
DICTIONARY
  5
7EBA
102
{ACAD_REACTORS
330
C
102
}
330
C
100
AcDbDictionary
281
     1
  3
Standard
350
7EBB
  0
DICTIONARY
  5
E
102
{ACAD_REACTORS
330
C
102
}
330
C
100
AcDbDictionary
281
     1
  3
STANDARD
350
1C
  0
DICTIONARY
  5
7D9D
102
{ACAD_REACTORS
330
C
102
}
330
C
100
AcDbDictionary
281
     1
  0
ACDBDICTIONARYWDFLT
  5
7D96
102
{ACAD_REACTORS
330
C
102
}
330
C
100
AcDbDictionary
281
     1
  3
Normal
350
7D97
100
AcDbDictionaryWithDefault
340
7D97
  0
DICTIONARY
  5
7E98
102
{ACAD_REACTORS
330
C
102
}
330
C
100
AcDbDictionary
281
     1
  3
A0
350
7E99
  3
A1
350
7E9A
  3
A2
350
7E9B
  3
A3
350
7E9C
  3
A4
350
7E9D
  3
A5
350
7E9E
  3
A6
350
7E9F
  3
A7
350
7EA0
  3
A8
350
7EA1
  3
A9
350
7EA2
  3
B0
350
7EA3
  3
B1
350
7EA4
  3
B2
350
7EA5
  3
B3
350
7EA6
  3
B4
350
7EA7
  3
B5
350
7EA8
  3
B6
350
7EA9
  3
B7
350
7EAA
  3
B8
350
7EAB
  3
B9
350
7EAC
  3
C0
350
7EAD
  3
C1
350
7EAE
  3
C2
350
7EAF
  3
C3
350
7EB0
  3
C4
350
7EB1
  3
C5
350
7EB2
  3
C6
350
7EB3
  3
C7
350
7EB4
  3
C8
350
7EB5
  3
C9
350
7EB6
  3
D0
350
7EB7
  3
D1
350
7EB8
  3
D2
350
7EB9
  0
DICTIONARY
  5
7D9A
102
{ACAD_REACTORS
330
C
102
}
330
C
100
AcDbDictionary
281
     1
  3
Standard
350
7D9B
  0
DICTIONARY
  5
7E87
102
{ACAD_REACTORS
330
C
102
}
330
C
100
AcDbDictionary
281
     1
  3
2dWireframe
350
7E8D
  3
3D Hidden
350
7E8F
  3
3dWireframe
350
7E8E
  3
Basic
350
7E8C
  3
Brighten
350
7E93
  3
ColorChange
350
7E97
  3
Conceptual
350
7E90
  3
Dim
350
7E92
  3
EdgeColorOff
350
7F85
  3
Facepattern
350
7E96
  3
Flat
350
7E88
  3
FlatWithEdges
350
7E89
  3
Gouraud
350
7E8A
  3
GouraudWithEdges
350
7E8B
  3
Hidden
350
7F7D
  3
JitterOff
350
7F83
  3
Linepattern
350
7E95
  3
OverhangOff
350
7F84
  3
Realistic
350
7E91
  3
Shaded
350
7F82
  3
Shaded with edges
350
7F81
  3
Shades of Gray
350
7F7E
  3
Sketchy
350
7F7F
  3
Thicken
350
7E94
  3
Wireframe
350
7F7C
  3
X-Ray
350
7F80
  0
XRECORD
  5
8DB8
102
{ACAD_REACTORS
330
C
102
}
330
C
100
AcDbXrecord
280
     1
 90
        1
330
7D9B
  0
DICTIONARY
  5
1BF
102
{ACAD_REACTORS
330
C
102
}
330
C
100
AcDbDictionary
281
     1
  3
CANNOSCALE
350
7F65
  3
CMLEADERSTYLE
350
7F64
  3
CTABLESTYLE
350
7E52
  3
DIMASSOC
350
7E53
  3
INDEXCTL
350
7F66
  3
PROJECTNAME
350
7E54
  3
SORTENTS
350
1C0
  3
XCLIPFRAME
350
8DB6
  0
XRECORD
  5
8DB9
102
{ACAD_REACTORS
330
C
102
}
330
C
100
AcDbXrecord
280
     1
  1
DWGPROPS COOKIE
  2

  3

  4

  6

  7

  8
woni
  9

300
=
301
=
302
=
303
=
304
=
305
=
306
=
307
=
308
=
309
=
 40
0.2970005902777777
 41
2452464.575009942
 42
2456842.718340637
  1

 90
        0
  0
XRECORD
  5
7F57
102
{ACAD_REACTORS
330
7F56
102
}
330
7F56
100
AcDbXrecord
280
     1
290
     1
  0
SORTENTSTABLE
  5
838C
102
{ACAD_REACTORS
330
838B
102
}
330
838B
100
AcDbSortentsTable
330
19
331
88C2
  5
88C2
331
88DA
  5
8AF0
331
88CA
  5
88CA
331
88D2
  5
88D2
331
88C3
  5
88C3
331
88DB
  5
8AF1
331
88CB
  5
88CB
331
88D3
  5
88D3
331
88C4
  5
88C4
331
88DC
  5
8AF3
331
88CC
  5
88CC
331
88D4
  5
88D4
331
88BD
  5
88BD
331
88C5
  5
88C5
331
88DD
  5
8AF4
331
88BE
  5
88BE
331
88C6
  5
88C6
331
88CE
  5
88CE
331
88D6
  5
8AEC
331
88BF
  5
88BF
331
88C7
  5
88C7
331
88CF
  5
88CF
331
88D7
  5
8AED
331
88C0
  5
88C0
331
88D8
  5
8AEE
331
88C8
  5
88C8
331
88D0
  5
88D0
331
88C1
  5
88C1
331
88D9
  5
8AEF
331
88C9
  5
88C9
331
88D1
  5
88D1
  0
SORTENTSTABLE
  5
8842
102
{ACAD_REACTORS
330
8841
102
}
330
8841
100
AcDbSortentsTable
330
8840
  0
SORTENTSTABLE
  5
8877
102
{ACAD_REACTORS
330
8876
102
}
330
8876
100
AcDbSortentsTable
330
8875
  0
SORTENTSTABLE
  5
8CD6
102
{ACAD_REACTORS
330
8CD5
102
}
330
8CD5
100
AcDbSortentsTable
330
8AF5
331
8CCB
  5
8CCF
331
8CC7
  5
8CCA
331
8CD0
  5
8CD4
331
8CC1
  5
8CC2
331
8CCA
  5
8CCE
331
8CC6
  5
8CC9
331
8CCF
  5
8CD3
331
8CC0
  5
8CC1
331
8CC5
  5
8CC8
331
8CD4
  5
8CC6
331
8CC9
  5
8CCD
331
8CBF
  5
8CC0
331
8CCE
  5
8CD2
331
8CC8
  5
8CCC
331
8CC4
  5
8CC7
331
8CD3
  5
8CC4
331
8CCD
  5
8CD1
331
8CD2
  5
8CBF
331
8CC3
  5
8CC5
331
8CCC
  5
8CD0
331
8CD1
  5
8CCB
331
8CC2
  5
8CC3
  0
XRECORD
  5
8DF7
102
{ACAD_REACTORS
330
8DF6
102
}
330
8DF6
100
AcDbXrecord
280
     1
 40
5313.0
  1
\A1;90\U+00B0
  0
XRECORD
  5
8DF9
102
{ACAD_REACTORS
330
8DF8
102
}
330
8DF8
100
AcDbXrecord
280
     1
 40
6896.0
  1
\A1;22.5\U+00B0
  0
LAYOUT
  5
7D9E
102
{ACAD_XDICTIONARY
360
8DBB
102
}
102
{ACAD_REACTORS
330
7D9C
102
}
330
7D9C
100
AcDbPlotSettings
  1

  2
\\문광휘\HP LaserJet 5100 PCL 6
  4

  6

 40
0.0
 41
0.0
 42
0.0
 43
0.0
 44
0.0
 45
0.0
 46
0.0
 47
0.0
 48
0.0
 49
0.0
140
0.0
141
0.0
142
1.0
143
1.0
 70
  1712
 72
     0
 73
     0
 74
     0
  7

 75
     0
147
1.0
148
0.0
149
0.0
100
AcDbLayout
  1
Model
 70
     1
 71
     0
 10
0.0
 20
0.0
 11
12.0
 21
9.0
 12
0.0
 22
0.0
 32
0.0
 14
0.0
 24
0.0
 34
0.0
 15
0.0
 25
0.0
 35
0.0
146
0.0
 13
0.0
 23
0.0
 33
0.0
 16
1.0
 26
0.0
 36
0.0
 17
0.0
 27
1.0
 37
0.0
 76
     0
330
19
331
7E62
  0
LAYOUT
  5
7D9F
102
{ACAD_XDICTIONARY
360
8DBD
102
}
102
{ACAD_REACTORS
330
7D9C
102
}
330
7D9C
100
AcDbPlotSettings
  1

  2
\\문광휘\HP LaserJet 5100 PCL 6
  4

  6

 40
0.0
 41
0.0
 42
0.0
 43
0.0
 44
0.0
 45
0.0
 46
0.0
 47
0.0
 48
0.0
 49
0.0
140
0.0
141
0.0
142
1.0
143
1.0
 70
   688
 72
     0
 73
     0
 74
     5
  7

 75
    16
147
1.0
148
0.0
149
0.0
100
AcDbLayout
  1
배치1
 70
     1
 71
     1
 10
0.0
 20
0.0
 11
12.0
 21
9.0
 12
0.0
 22
0.0
 32
0.0
 14
1.000000000000000E+20
 24
1.000000000000000E+20
 34
1.000000000000000E+20
 15
-1.000000000000000E+20
 25
-1.000000000000000E+20
 35
-1.000000000000000E+20
146
0.0
 13
0.0
 23
0.0
 33
0.0
 16
1.0
 26
0.0
 36
0.0
 17
0.0
 27
1.0
 37
0.0
 76
     0
330
16
  0
MATERIAL
  5
7E77
102
{ACAD_XDICTIONARY
360
7E78
102
}
102
{ACAD_REACTORS
330
7D98
102
}
330
7D98
100
AcDbMaterial
  1
ByBlock
 72
     0
 43
0.0208333333333333
 43
0.0
 43
0.0
 43
0.0
 43
0.0
 43
0.0208333333333333
 43
0.0
 43
0.0
 43
0.0
 43
0.0
 43
1.0
 43
0.0
 43
0.0
 43
0.0
 43
0.0
 43
1.0
 77
     0
 47
0.0208333333333333
 47
0.0
 47
0.0
 47
0.0
 47
0.0
 47
0.0208333333333333
 47
0.0
 47
0.0
 47
0.0
 47
0.0
 47
1.0
 47
0.0
 47
0.0
 47
0.0
 47
0.0
 47
1.0
171
     0
 49
0.0208333333333333
 49
0.0
 49
0.0
 49
0.0
 49
0.0
 49
0.0208333333333333
 49
0.0
 49
0.0
 49
0.0
 49
0.0
 49
1.0
 49
0.0
 49
0.0
 49
0.0
 49
0.0
 49
1.0
175
     0
142
0.0208333333333333
142
0.0
142
0.0
142
0.0
142
0.0
142
0.0208333333333333
142
0.0
142
0.0
142
0.0
142
0.0
142
1.0
142
0.0
142
0.0
142
0.0
142
0.0
142
1.0
179
     0
144
0.0208333333333333
144
0.0
144
0.0
144
0.0
144
0.0
144
0.0208333333333333
144
0.0
144
0.0
144
0.0
144
0.0
144
1.0
144
0.0
144
0.0
144
0.0
144
0.0
144
1.0
147
0.0208333333333333
147
0.0
147
0.0
147
0.0
147
0.0
147
0.0208333333333333
147
0.0
147
0.0
147
0.0
147
0.0
147
1.0
147
0.0
147
0.0
147
0.0
147
0.0
147
1.0
  0
MATERIAL
  5
7E6F
102
{ACAD_XDICTIONARY
360
7E70
102
}
102
{ACAD_REACTORS
330
7D98
102
}
330
7D98
100
AcDbMaterial
  1
ByLayer
 72
     0
 43
0.0208333333333333
 43
0.0
 43
0.0
 43
0.0
 43
0.0
 43
0.0208333333333333
 43
0.0
 43
0.0
 43
0.0
 43
0.0
 43
1.0
 43
0.0
 43
0.0
 43
0.0
 43
0.0
 43
1.0
 77
     0
 47
0.0208333333333333
 47
0.0
 47
0.0
 47
0.0
 47
0.0
 47
0.0208333333333333
 47
0.0
 47
0.0
 47
0.0
 47
0.0
 47
1.0
 47
0.0
 47
0.0
 47
0.0
 47
0.0
 47
1.0
171
     0
 49
0.0208333333333333
 49
0.0
 49
0.0
 49
0.0
 49
0.0
 49
0.0208333333333333
 49
0.0
 49
0.0
 49
0.0
 49
0.0
 49
1.0
 49
0.0
 49
0.0
 49
0.0
 49
0.0
 49
1.0
175
     0
142
0.0208333333333333
142
0.0
142
0.0
142
0.0
142
0.0
142
0.0208333333333333
142
0.0
142
0.0
142
0.0
142
0.0
142
1.0
142
0.0
142
0.0
142
0.0
142
0.0
142
1.0
179
     0
144
0.0208333333333333
144
0.0
144
0.0
144
0.0
144
0.0
144
0.0208333333333333
144
0.0
144
0.0
144
0.0
144
0.0
144
1.0
144
0.0
144
0.0
144
0.0
144
0.0
144
1.0
147
0.0208333333333333
147
0.0
147
0.0
147
0.0
147
0.0
147
0.0208333333333333
147
0.0
147
0.0
147
0.0
147
0.0
147
1.0
147
0.0
147
0.0
147
0.0
147
0.0
147
1.0
  0
MATERIAL
  5
7E7F
102
{ACAD_XDICTIONARY
360
7E80
102
}
102
{ACAD_REACTORS
330
7D98
102
}
330
7D98
100
AcDbMaterial
  1
Global
 72
     0
 43
0.0208333333333333
 43
0.0
 43
0.0
 43
0.0
 43
0.0
 43
0.0208333333333333
 43
0.0
 43
0.0
 43
0.0
 43
0.0
 43
1.0
 43
0.0
 43
0.0
 43
0.0
 43
0.0
 43
1.0
 77
     0
 47
0.0208333333333333
 47
0.0
 47
0.0
 47
0.0
 47
0.0
 47
0.0208333333333333
 47
0.0
 47
0.0
 47
0.0
 47
0.0
 47
1.0
 47
0.0
 47
0.0
 47
0.0
 47
0.0
 47
1.0
171
     0
 49
0.0208333333333333
 49
0.0
 49
0.0
 49
0.0
 49
0.0
 49
0.0208333333333333
 49
0.0
 49
0.0
 49
0.0
 49
0.0
 49
1.0
 49
0.0
 49
0.0
 49
0.0
 49
0.0
 49
1.0
175
     0
142
0.0208333333333333
142
0.0
142
0.0
142
0.0
142
0.0
142
0.0208333333333333
142
0.0
142
0.0
142
0.0
142
0.0
142
1.0
142
0.0
142
0.0
142
0.0
142
0.0
142
1.0
179
     0
144
0.0208333333333333
144
0.0
144
0.0
144
0.0
144
0.0
144
0.0208333333333333
144
0.0
144
0.0
144
0.0
144
0.0
144
1.0
144
0.0
144
0.0
144
0.0
144
0.0
144
1.0
147
0.0208333333333333
147
0.0
147
0.0
147
0.0
147
0.0
147
0.0208333333333333
147
0.0
147
0.0
147
0.0
147
0.0
147
1.0
147
0.0
147
0.0
147
0.0
147
0.0
147
1.0
  0
MLEADERSTYLE
  5
7EBB
102
{ACAD_REACTORS
330
7EBA
102
}
330
7EBA
100
AcDbMLeaderStyle
170
     2
171
     1
172
     0
 90
        2
 40
0.0
 41
0.0
173
     1
 91
-1056964608
340
13
 92
       -2
290
     1
 42
0.09
291
     1
 43
0.36
  3
Standard
 44
0.18
300

342
10
174
     1
178
     6
175
     1
176
     0
 93
-1056964608
 45
0.18
292
     0
297
     0
 46
0.18
 94
-1056964608
 47
1.0
 49
1.0
140
1.0
293
     1
141
0.0
294
     1
177
     0
142
1.0
295
     0
296
     0
143
0.125
1001
ACAD_MLEADERVER
1070
     2
  0
MLINESTYLE
  5
1C
102
{ACAD_REACTORS
330
E
102
}
330
E
100
AcDbMlineStyle
  2
STANDARD
 70
     0
  3

 62
     0
 51
90.0
 52
90.0
 71
     2
 49
0.5
 62
   256
  6
BYLAYER
 49
-0.5
 62
   256
  6
BYLAYER
  0
ACDBPLACEHOLDER
  5
7D97
102
{ACAD_REACTORS
330
7D96
102
}
330
7D96
  0
SCALE
  5
7E99
102
{ACAD_REACTORS
330
7E98
102
}
330
7E98
100
AcDbScale
 70
     0
300
1:1
140
1.0
141
1.0
290
     1
  0
SCALE
  5
7E9A
102
{ACAD_REACTORS
330
7E98
102
}
330
7E98
100
AcDbScale
 70
     0
300
1:2
140
1.0
141
2.0
290
     0
  0
SCALE
  5
7E9B
102
{ACAD_REACTORS
330
7E98
102
}
330
7E98
100
AcDbScale
 70
     0
300
1:4
140
1.0
141
4.0
290
     0
  0
SCALE
  5
7E9C
102
{ACAD_REACTORS
330
7E98
102
}
330
7E98
100
AcDbScale
 70
     0
300
1:5
140
1.0
141
5.0
290
     0
  0
SCALE
  5
7E9D
102
{ACAD_REACTORS
330
7E98
102
}
330
7E98
100
AcDbScale
 70
     0
300
1:8
140
1.0
141
8.0
290
     0
  0
SCALE
  5
7E9E
102
{ACAD_REACTORS
330
7E98
102
}
330
7E98
100
AcDbScale
 70
     0
300
1:10
140
1.0
141
10.0
290
     0
  0
SCALE
  5
7E9F
102
{ACAD_REACTORS
330
7E98
102
}
330
7E98
100
AcDbScale
 70
     0
300
1:16
140
1.0
141
16.0
290
     0
  0
SCALE
  5
7EA0
102
{ACAD_REACTORS
330
7E98
102
}
330
7E98
100
AcDbScale
 70
     0
300
1:20
140
1.0
141
20.0
290
     0
  0
SCALE
  5
7EA1
102
{ACAD_REACTORS
330
7E98
102
}
330
7E98
100
AcDbScale
 70
     0
300
1:30
140
1.0
141
30.0
290
     0
  0
SCALE
  5
7EA2
102
{ACAD_REACTORS
330
7E98
102
}
330
7E98
100
AcDbScale
 70
     0
300
1:40
140
1.0
141
40.0
290
     0
  0
SCALE
  5
7EA3
102
{ACAD_REACTORS
330
7E98
102
}
330
7E98
100
AcDbScale
 70
     0
300
1:50
140
1.0
141
50.0
290
     0
  0
SCALE
  5
7EA4
102
{ACAD_REACTORS
330
7E98
102
}
330
7E98
100
AcDbScale
 70
     0
300
1:100
140
1.0
141
100.0
290
     0
  0
SCALE
  5
7EA5
102
{ACAD_REACTORS
330
7E98
102
}
330
7E98
100
AcDbScale
 70
     0
300
2:1
140
2.0
141
1.0
290
     0
  0
SCALE
  5
7EA6
102
{ACAD_REACTORS
330
7E98
102
}
330
7E98
100
AcDbScale
 70
     0
300
4:1
140
4.0
141
1.0
290
     0
  0
SCALE
  5
7EA7
102
{ACAD_REACTORS
330
7E98
102
}
330
7E98
100
AcDbScale
 70
     0
300
8:1
140
8.0
141
1.0
290
     0
  0
SCALE
  5
7EA8
102
{ACAD_REACTORS
330
7E98
102
}
330
7E98
100
AcDbScale
 70
     0
300
10:1
140
10.0
141
1.0
290
     0
  0
SCALE
  5
7EA9
102
{ACAD_REACTORS
330
7E98
102
}
330
7E98
100
AcDbScale
 70
     0
300
100:1
140
100.0
141
1.0
290
     0
  0
SCALE
  5
7EAA
102
{ACAD_REACTORS
330
7E98
102
}
330
7E98
100
AcDbScale
 70
     0
300
1/128" = 1'-0"
140
0.0078125
141
12.0
290
     0
  0
SCALE
  5
7EAB
102
{ACAD_REACTORS
330
7E98
102
}
330
7E98
100
AcDbScale
 70
     0
300
1/64" = 1'-0"
140
0.015625
141
12.0
290
     0
  0
SCALE
  5
7EAC
102
{ACAD_REACTORS
330
7E98
102
}
330
7E98
100
AcDbScale
 70
     0
300
1/32" = 1'-0"
140
0.03125
141
12.0
290
     0
  0
SCALE
  5
7EAD
102
{ACAD_REACTORS
330
7E98
102
}
330
7E98
100
AcDbScale
 70
     0
300
1/16" = 1'-0"
140
0.0625
141
12.0
290
     0
  0
SCALE
  5
7EAE
102
{ACAD_REACTORS
330
7E98
102
}
330
7E98
100
AcDbScale
 70
     0
300
3/32" = 1'-0"
140
0.09375
141
12.0
290
     0
  0
SCALE
  5
7EAF
102
{ACAD_REACTORS
330
7E98
102
}
330
7E98
100
AcDbScale
 70
     0
300
1/8" = 1'-0"
140
0.125
141
12.0
290
     0
  0
SCALE
  5
7EB0
102
{ACAD_REACTORS
330
7E98
102
}
330
7E98
100
AcDbScale
 70
     0
300
3/16" = 1'-0"
140
0.1875
141
12.0
290
     0
  0
SCALE
  5
7EB1
102
{ACAD_REACTORS
330
7E98
102
}
330
7E98
100
AcDbScale
 70
     0
300
1/4" = 1'-0"
140
0.25
141
12.0
290
     0
  0
SCALE
  5
7EB2
102
{ACAD_REACTORS
330
7E98
102
}
330
7E98
100
AcDbScale
 70
     0
300
3/8" = 1'-0"
140
0.375
141
12.0
290
     0
  0
SCALE
  5
7EB3
102
{ACAD_REACTORS
330
7E98
102
}
330
7E98
100
AcDbScale
 70
     0
300
1/2" = 1'-0"
140
0.5
141
12.0
290
     0
  0
SCALE
  5
7EB4
102
{ACAD_REACTORS
330
7E98
102
}
330
7E98
100
AcDbScale
 70
     0
300
3/4" = 1'-0"
140
0.75
141
12.0
290
     0
  0
SCALE
  5
7EB5
102
{ACAD_REACTORS
330
7E98
102
}
330
7E98
100
AcDbScale
 70
     0
300
1" = 1'-0"
140
1.0
141
12.0
290
     0
  0
SCALE
  5
7EB6
102
{ACAD_REACTORS
330
7E98
102
}
330
7E98
100
AcDbScale
 70
     0
300
1-1/2" = 1'-0"
140
1.5
141
12.0
290
     0
  0
SCALE
  5
7EB7
102
{ACAD_REACTORS
330
7E98
102
}
330
7E98
100
AcDbScale
 70
     0
300
3" = 1'-0"
140
3.0
141
12.0
290
     0
  0
SCALE
  5
7EB8
102
{ACAD_REACTORS
330
7E98
102
}
330
7E98
100
AcDbScale
 70
     0
300
6" = 1'-0"
140
6.0
141
12.0
290
     0
  0
SCALE
  5
7EB9
102
{ACAD_REACTORS
330
7E98
102
}
330
7E98
100
AcDbScale
 70
     0
300
1'-0" = 1'-0"
140
12.0
141
12.0
290
     0
  0
TABLESTYLE
  5
7D9B
102
{ACAD_XDICTIONARY
360
7F67
102
}
102
{ACAD_REACTORS
330
7D9A
102
}
330
7D9A
100
AcDbTableStyle
  3
Standard
 70
     0
 71
     0
 40
0.06
 41
0.06
280
     0
281
     0
  7
STANDARD
140
0.18
170
     2
 62
     0
 63
     7
283
     0
274
    -2
284
     1
 64
     0
275
    -2
285
     1
 65
     0
276
    -2
286
     1
 66
     0
277
    -2
287
     1
 67
     0
278
    -2
288
     1
 68
     0
279
    -2
289
     1
 69
     0
  7
STANDARD
140
0.25
170
     5
 62
     0
 63
     7
283
     0
274
    -2
284
     1
 64
     0
275
    -2
285
     1
 65
     0
276
    -2
286
     1
 66
     0
277
    -2
287
     1
 67
     0
278
    -2
288
     1
 68
     0
279
    -2
289
     1
 69
     0
  7
STANDARD
140
0.18
170
     5
 62
     0
 63
     7
283
     0
274
    -2
284
     1
 64
     0
275
    -2
285
     1
 65
     0
276
    -2
286
     1
 66
     0
277
    -2
287
     1
 67
     0
278
    -2
288
     1
 68
     0
279
    -2
289
     1
 69
     0
  0
VISUALSTYLE
  5
7E8D
102
{ACAD_XDICTIONARY
360
8DCC
102
}
102
{ACAD_REACTORS
330
7E87
102
}
330
7E87
100
AcDbVisualStyle
  2

 70
     4
 71
     0
 72
     2
 73
     0
 90
        0
 40
-0.6
 41
-30.0
 62
     5
 63
     7
 74
     1
 91
        4
 64
     7
 65
   257
 75
     1
175
     1
 42
1.0
 92
        0
 66
   257
 43
1.0
 76
     1
 77
     6
 78
     2
 67
     7
 79
     5
170
     0
171
     0
290
     0
174
     0
 93
        1
 44
0.0
173
     0
291
     0
 45
0.0
1001
ACAD
1000
AcDbSavedByObjectVersion
1070
     0
  0
VISUALSTYLE
  5
7E8F
102
{ACAD_XDICTIONARY
360
8DD0
102
}
102
{ACAD_REACTORS
330
7E87
102
}
330
7E87
100
AcDbVisualStyle
  2

 70
     6
 71
     1
 72
     2
 73
     2
 90
        0
 40
-0.6
 41
-30.0
 62
     5
 63
     7
 74
     2
 91
        2
 64
     7
 65
   257
 75
     2
175
     1
 42
40.0
 92
        0
 66
   257
 43
1.0
 76
     1
 77
     6
 78
     2
 67
     7
 79
     3
170
     0
171
     0
290
     0
174
     0
 93
        1
 44
0.0
173
     0
291
     0
 45
0.0
1001
ACAD
1000
AcDbSavedByObjectVersion
1070
     0
  0
VISUALSTYLE
  5
7E8E
102
{ACAD_XDICTIONARY
360
8DCE
102
}
102
{ACAD_REACTORS
330
7E87
102
}
330
7E87
100
AcDbVisualStyle
  2

 70
     5
 71
     0
 72
     2
 73
     0
 90
        0
 40
-0.6
 41
-30.0
 62
     5
 63
     7
 74
     1
 91
        4
 64
     7
 65
   257
 75
     1
175
     1
 42
1.0
 92
        0
 66
   257
 43
1.0
 76
     1
 77
     6
 78
     2
 67
     7
 79
     5
170
     0
171
     0
290
     0
174
     0
 93
        1
 44
0.0
173
     0
291
     0
 45
0.0
1001
ACAD
1000
AcDbSavedByObjectVersion
1070
     0
  0
VISUALSTYLE
  5
7E8C
102
{ACAD_XDICTIONARY
360
8DCA
102
}
102
{ACAD_REACTORS
330
7E87
102
}
330
7E87
100
AcDbVisualStyle
  2

 70
     7
 71
     1
 72
     0
 73
     1
 90
        0
 40
-0.6
 41
-30.0
 62
     5
 63
     7
 74
     0
 91
        4
 64
     7
 65
   257
 75
     1
175
     1
 42
1.0
 92
        8
 66
     7
 43
1.0
 76
     1
 77
     6
 78
     2
 67
     7
 79
     5
170
     0
171
     0
290
     0
174
     0
 93
        1
 44
0.0
173
     0
291
     1
 45
0.0
1001
ACAD
1000
AcDbSavedByObjectVersion
1070
     0
  0
VISUALSTYLE
  5
7E93
102
{ACAD_XDICTIONARY
360
8DD8
102
}
102
{ACAD_REACTORS
330
7E87
102
}
330
7E87
100
AcDbVisualStyle
  2

 70
    12
 71
     2
 72
     2
 73
     0
 90
        0
 40
-0.6
 41
-30.0
 62
     5
 63
     7
 74
     1
 91
        4
 64
     7
 65
   257
 75
     1
175
     1
 42
1.0
 92
        8
 66
     7
 43
1.0
 76
     1
 77
     6
 78
     2
 67
     7
 79
     5
170
     0
171
     0
290
     0
174
     0
 93
        1
 44
50.0
173
     0
291
     1
 45
0.0
1001
ACAD
1000
AcDbSavedByObjectVersion
1070
     0
  0
VISUALSTYLE
  5
7E97
102
{ACAD_XDICTIONARY
360
8DE0
102
}
102
{ACAD_REACTORS
330
7E87
102
}
330
7E87
100
AcDbVisualStyle
  2

 70
    16
 71
     2
 72
     2
 73
     3
 90
        0
 40
-0.6
 41
-30.0
 62
     5
 63
     8
 74
     1
 91
        4
 64
     7
 65
   257
 75
     1
175
     1
 42
1.0
 92
        8
 66
     8
 43
1.0
 76
     1
 77
     6
 78
     2
 67
     7
 79
     5
170
     0
171
     0
290
     0
174
     0
 93
        1
 44
0.0
173
     0
291
     1
 45
0.0
1001
ACAD
1000
AcDbSavedByObjectVersion
1070
     0
  0
VISUALSTYLE
  5
7E90
102
{ACAD_XDICTIONARY
360
8DD2
102
}
102
{ACAD_REACTORS
330
7E87
102
}
330
7E87
100
AcDbVisualStyle
  2

 70
     9
 71
     3
 72
     2
 73
     0
 90
        0
 40
-0.6
 41
-30.0
 62
     5
 63
     7
 74
     2
 91
        2
 64
     7
 65
   257
 75
     1
175
     1
 42
40.0
 92
        8
 66
     7
 43
1.0
 76
     1
 77
     6
 78
     2
 67
     7
 79
     3
170
     0
171
     0
290
     0
174
     0
 93
        1
 44
0.0
173
     0
291
     0
 45
0.0
1001
ACAD
1000
AcDbSavedByObjectVersion
1070
     0
  0
VISUALSTYLE
  5
7E92
102
{ACAD_XDICTIONARY
360
8DD6
102
}
102
{ACAD_REACTORS
330
7E87
102
}
330
7E87
100
AcDbVisualStyle
  2

 70
    11
 71
     2
 72
     2
 73
     0
 90
        0
 40
-0.6
 41
-30.0
 62
     5
 63
     7
 74
     1
 91
        4
 64
     7
 65
   257
 75
     1
175
     1
 42
1.0
 92
        8
 66
     7
 43
1.0
 76
     1
 77
     6
 78
     2
 67
     7
 79
     5
170
     0
171
     0
290
     0
174
     0
 93
        1
 44
-50.0
173
     0
291
     1
 45
0.0
1001
ACAD
1000
AcDbSavedByObjectVersion
1070
     0
  0
VISUALSTYLE
  5
7F85
102
{ACAD_XDICTIONARY
360
8DF4
102
}
102
{ACAD_REACTORS
330
7E87
102
}
330
7E87
100
AcDbVisualStyle
  2
EdgeColorOff
 70
    22
 71
     2
 72
     2
 73
     0
 90
        0
 40
-0.6
 41
-30.0
 62
     5
 63
     7
 74
     1
 91
        4
 64
     7
 65
   257
 75
     1
175
     1
 42
1.0
 92
        8
 66
     7
 43
1.0
 76
     1
 77
     6
 78
     2
 67
     7
 79
     5
170
     0
171
     0
290
     0
174
     0
 93
        1
 44
0.0
173
     0
291
     1
 45
0.0
1001
ACAD
1000
AcDbSavedByObjectVersion
1070
     0
  0
VISUALSTYLE
  5
7E96
102
{ACAD_XDICTIONARY
360
8DDE
102
}
102
{ACAD_REACTORS
330
7E87
102
}
330
7E87
100
AcDbVisualStyle
  2

 70
    15
 71
     2
 72
     2
 73
     0
 90
        0
 40
-0.6
 41
-30.0
 62
     5
 63
     7
 74
     1
 91
        4
 64
     7
 65
   257
 75
     1
175
     1
 42
1.0
 92
        8
 66
     7
 43
1.0
 76
     1
 77
     6
 78
     2
 67
     7
 79
     5
170
     0
171
     0
290
     0
174
     0
 93
        1
 44
0.0
173
     0
291
     1
 45
0.0
1001
ACAD
1000
AcDbSavedByObjectVersion
1070
     0
  0
VISUALSTYLE
  5
7E88
102
{ACAD_XDICTIONARY
360
8DC2
102
}
102
{ACAD_REACTORS
330
7E87
102
}
330
7E87
100
AcDbVisualStyle
  2

 70
     0
 71
     2
 72
     1
 73
     1
 90
        2
 40
-0.6
 41
30.0
 62
     5
 63
     7
 74
     0
 91
        4
 64
     7
 65
   257
 75
     1
175
     1
 42
1.0
 92
        8
 66
     7
 43
1.0
 76
     1
 77
     6
 78
     2
 67
     7
 79
     5
170
     0
171
     0
290
     0
174
     0
 93
       13
 44
0.0
173
     0
291
     1
 45
0.0
1001
ACAD
1000
AcDbSavedByObjectVersion
1070
     0
  0
VISUALSTYLE
  5
7E89
102
{ACAD_XDICTIONARY
360
8DC4
102
}
102
{ACAD_REACTORS
330
7E87
102
}
330
7E87
100
AcDbVisualStyle
  2

 70
     1
 71
     2
 72
     1
 73
     1
 90
        2
 40
-0.6
 41
30.0
 62
     5
 63
     7
 74
     1
 91
        4
 64
     7
 65
   257
 75
     1
175
     1
 42
1.0
 92
        0
 66
   257
 43
1.0
 76
     1
 77
     6
 78
     2
 67
     7
 79
     5
170
     0
171
     0
290
     0
174
     0
 93
       13
 44
0.0
173
     0
291
     1
 45
0.0
1001
ACAD
1000
AcDbSavedByObjectVersion
1070
     0
  0
VISUALSTYLE
  5
7E8A
102
{ACAD_XDICTIONARY
360
8DC6
102
}
102
{ACAD_REACTORS
330
7E87
102
}
330
7E87
100
AcDbVisualStyle
  2

 70
     2
 71
     2
 72
     2
 73
     1
 90
        2
 40
-0.6
 41
30.0
 62
     5
 63
     7
 74
     0
 91
        4
 64
     7
 65
   257
 75
     1
175
     1
 42
1.0
 92
        0
 66
     7
 43
1.0
 76
     1
 77
     6
 78
     2
 67
     7
 79
     5
170
     0
171
     0
290
     0
174
     0
 93
       13
 44
0.0
173
     0
291
     1
 45
0.0
1001
ACAD
1000
AcDbSavedByObjectVersion
1070
     0
  0
VISUALSTYLE
  5
7E8B
102
{ACAD_XDICTIONARY
360
8DC8
102
}
102
{ACAD_REACTORS
330
7E87
102
}
330
7E87
100
AcDbVisualStyle
  2

 70
     3
 71
     2
 72
     2
 73
     1
 90
        2
 40
-0.6
 41
30.0
 62
     5
 63
     7
 74
     1
 91
        4
 64
     7
 65
   257
 75
     1
175
     1
 42
1.0
 92
        0
 66
   257
 43
1.0
 76
     1
 77
     6
 78
     2
 67
     7
 79
     5
170
     0
171
     0
290
     0
174
     0
 93
       13
 44
0.0
173
     0
291
     1
 45
0.0
1001
ACAD
1000
AcDbSavedByObjectVersion
1070
     0
  0
VISUALSTYLE
  5
7F7D
102
{ACAD_XDICTIONARY
360
8DE4
102
}
102
{ACAD_REACTORS
330
7E87
102
}
330
7E87
100
AcDbVisualStyle
  2
Hidden
 70
     6
 71
     1
 72
     2
 73
     2
 90
        0
 40
-0.6
 41
-30.0
 62
     5
 63
     7
 74
     2
 91
        2
 64
     7
 65
   257
 75
     2
175
     1
 42
40.0
 92
        0
 66
   257
 43
1.0
 76
     1
 77
     6
 78
     2
 67
     7
 79
     3
170
     0
171
     0
290
     0
174
     0
 93
        1
 44
0.0
173
     0
291
     0
 45
0.0
1001
ACAD
1000
AcDbSavedByObjectVersion
1070
     0
  0
VISUALSTYLE
  5
7F83
102
{ACAD_XDICTIONARY
360
8DF0
102
}
102
{ACAD_REACTORS
330
7E87
102
}
330
7E87
100
AcDbVisualStyle
  2
JitterOff
 70
    20
 71
     2
 72
     2
 73
     0
 90
        0
 40
-0.6
 41
-30.0
 62
     5
 63
     7
 74
     1
 91
        4
 64
     7
 65
   257
 75
     1
175
     1
 42
1.0
 92
       10
 66
     7
 43
1.0
 76
     1
 77
     6
 78
     2
 67
     7
 79
     5
170
     0
171
     0
290
     0
174
     0
 93
        1
 44
0.0
173
     0
291
     1
 45
0.0
1001
ACAD
1000
AcDbSavedByObjectVersion
1070
     0
  0
VISUALSTYLE
  5
7E95
102
{ACAD_XDICTIONARY
360
8DDC
102
}
102
{ACAD_REACTORS
330
7E87
102
}
330
7E87
100
AcDbVisualStyle
  2

 70
    14
 71
     2
 72
     2
 73
     0
 90
        0
 40
-0.6
 41
-30.0
 62
     5
 63
     7
 74
     1
 91
        4
 64
     7
 65
   257
 75
     7
175
     7
 42
1.0
 92
        8
 66
     7
 43
1.0
 76
     1
 77
     6
 78
     2
 67
     7
 79
     5
170
     0
171
     0
290
     0
174
     0
 93
        1
 44
0.0
173
     0
291
     1
 45
0.0
1001
ACAD
1000
AcDbSavedByObjectVersion
1070
     0
  0
VISUALSTYLE
  5
7F84
102
{ACAD_XDICTIONARY
360
8DF2
102
}
102
{ACAD_REACTORS
330
7E87
102
}
330
7E87
100
AcDbVisualStyle
  2
OverhangOff
 70
    21
 71
     2
 72
     2
 73
     0
 90
        0
 40
-0.6
 41
-30.0
 62
     5
 63
     7
 74
     1
 91
        4
 64
     7
 65
   257
 75
     1
175
     1
 42
1.0
 92
        9
 66
     7
 43
1.0
 76
     1
 77
     6
 78
     2
 67
     7
 79
     5
170
     0
171
     0
290
     0
174
     0
 93
        1
 44
0.0
173
     0
291
     1
 45
0.0
1001
ACAD
1000
AcDbSavedByObjectVersion
1070
     0
  0
VISUALSTYLE
  5
7E91
102
{ACAD_XDICTIONARY
360
8DD4
102
}
102
{ACAD_REACTORS
330
7E87
102
}
330
7E87
100
AcDbVisualStyle
  2

 70
     8
 71
     2
 72
     2
 73
     0
 90
        0
 40
-0.6
 41
-30.0
 62
     5
 63
     7
 74
     1
 91
        0
 64
     7
 65
   257
 75
     1
175
     1
 42
1.0
 92
        8
 66
     8
 43
1.0
 76
     1
 77
     6
 78
     2
 67
     7
 79
     5
170
     0
171
     0
290
     0
174
     0
 93
       13
 44
0.0
173
     0
291
     0
 45
0.0
1001
ACAD
1000
AcDbSavedByObjectVersion
1070
     0
  0
VISUALSTYLE
  5
7F82
102
{ACAD_XDICTIONARY
360
8DEE
102
}
102
{ACAD_REACTORS
330
7E87
102
}
330
7E87
100
AcDbVisualStyle
  2
Shaded
 70
    27
 71
     2
 72
     2
 73
     1
 90
        2
 40
-0.6
 41
30.0
 62
     5
 63
     7
 74
     0
 91
        4
 64
     7
 65
   257
 75
     1
175
     1
 42
1.0
 92
        8
 66
   257
 43
1.0
 76
     1
 77
     6
 78
     2
 67
     8
 79
     3
170
     0
171
     0
290
     0
174
     0
 93
        5
 44
0.0
173
     0
291
     0
 45
0.0
1001
ACAD
1000
AcDbSavedByObjectVersion
1070
     0
  0
VISUALSTYLE
  5
7F81
102
{ACAD_XDICTIONARY
360
8DEC
102
}
102
{ACAD_REACTORS
330
7E87
102
}
330
7E87
100
AcDbVisualStyle
  2
Shaded with edges
 70
    26
 71
     2
 72
     2
 73
     1
 90
        2
 40
-0.6
 41
30.0
 62
     5
 63
     7
 74
     1
 91
       10
 64
     7
 65
   257
 75
     2
175
     1
 42
1.0
 92
        8
 66
   257
 43
1.0
 76
     1
 77
     6
 78
     2
 67
     7
 79
     3
170
     0
171
     0
290
     0
174
     0
 93
        5
 44
0.0
173
     0
291
     0
 45
0.0
1001
ACAD
1000
AcDbSavedByObjectVersion
1070
     0
  0
VISUALSTYLE
  5
7F7E
102
{ACAD_XDICTIONARY
360
8DE6
102
}
102
{ACAD_REACTORS
330
7E87
102
}
330
7E87
100
AcDbVisualStyle
  2
Shades of Gray
 70
    23
 71
     2
 72
     2
 73
     3
 90
        0
 40
-0.6
 41
-30.0
 62
     5
 63
     7
 74
     2
 91
        2
 64
     7
 65
     7
 75
     1
175
     1
 42
40.0
 92
        8
 66
     7
 43
1.0
 76
     1
 77
     6
 78
     2
 67
     7
 79
     3
170
     0
171
     0
290
     0
174
     0
 93
        1
 44
0.0
173
     0
291
     0
 45
0.0
1001
ACAD
1000
AcDbSavedByObjectVersion
1070
     0
  0
VISUALSTYLE
  5
7F7F
102
{ACAD_XDICTIONARY
360
8DE8
102
}
102
{ACAD_REACTORS
330
7E87
102
}
330
7E87
100
AcDbVisualStyle
  2
Sketchy
 70
    24
 71
     1
 72
     2
 73
     2
 90
        0
 40
-0.6
 41
-30.0
 62
     5
 63
     7
 74
     2
 91
        2
 64
     7
 65
     7
 75
     1
175
     1
 42
40.0
 92
       11
 66
     7
 43
1.0
 76
     1
 77
     6
 78
     2
 67
     7
 79
     6
170
     0
171
     0
290
     0
174
     0
 93
        1
 44
0.0
173
     0
291
     0
 45
0.0
1001
ACAD
1000
AcDbSavedByObjectVersion
1070
     0
  0
VISUALSTYLE
  5
7E94
102
{ACAD_XDICTIONARY
360
8DDA
102
}
102
{ACAD_REACTORS
330
7E87
102
}
330
7E87
100
AcDbVisualStyle
  2

 70
    13
 71
     2
 72
     2
 73
     0
 90
        0
 40
-0.6
 41
-30.0
 62
     5
 63
     7
 74
     1
 91
        4
 64
     7
 65
   257
 75
     1
175
     1
 42
1.0
 92
       12
 66
     7
 43
1.0
 76
     1
 77
     6
 78
     2
 67
     7
 79
     5
170
     0
171
     0
290
     0
174
     0
 93
        1
 44
0.0
173
     0
291
     1
 45
0.0
1001
ACAD
1000
AcDbSavedByObjectVersion
1070
     0
  0
VISUALSTYLE
  5
7F7C
102
{ACAD_XDICTIONARY
360
8DE2
102
}
102
{ACAD_REACTORS
330
7E87
102
}
330
7E87
100
AcDbVisualStyle
  2
Wireframe
 70
     5
 71
     0
 72
     2
 73
     0
 90
        0
 40
-0.6
 41
-30.0
 62
     5
 63
     7
 74
     1
 91
        4
 64
     7
 65
   257
 75
     1
175
     1
 42
1.0
 92
        0
 66
   257
 43
1.0
 76
     1
 77
     6
 78
     2
 67
     7
 79
     3
170
     0
171
     0
290
     0
174
     0
 93
        1
 44
0.0
173
     0
291
     0
 45
0.0
1001
ACAD
1000
AcDbSavedByObjectVersion
1070
     0
  0
VISUALSTYLE
  5
7F80
102
{ACAD_XDICTIONARY
360
8DEA
102
}
102
{ACAD_REACTORS
330
7E87
102
}
330
7E87
100
AcDbVisualStyle
  2
X-Ray
 70
    25
 71
     2
 72
     2
 73
     1
 90
        1
 40
0.5
 41
-30.0
 62
     5
 63
     7
 74
     1
 91
        0
 64
     7
 65
   257
 75
     1
175
     1
 42
1.0
 92
        8
 66
     7
 43
1.0
 76
     1
 77
     6
 78
     2
 67
     7
 79
     3
170
     0
171
     0
290
     0
174
     0
 93
       13
 44
0.0
173
     0
291
     0
 45
0.0
1001
ACAD
1000
AcDbSavedByObjectVersion
1070
     0
  0
DICTIONARYVAR
  5
7F65
102
{ACAD_REACTORS
330
1BF
102
}
330
1BF
100
DictionaryVariables
280
     0
  1
1:1
  0
DICTIONARYVAR
  5
7F64
102
{ACAD_REACTORS
330
1BF
102
}
330
1BF
100
DictionaryVariables
280
     0
  1
STANDARD
  0
DICTIONARYVAR
  5
7E52
102
{ACAD_REACTORS
330
1BF
102
}
330
1BF
100
DictionaryVariables
280
     0
  1
STANDARD
  0
DICTIONARYVAR
  5
7E53
102
{ACAD_REACTORS
330
1BF
102
}
330
1BF
100
DictionaryVariables
280
     0
  1
1
  0
DICTIONARYVAR
  5
7F66
102
{ACAD_REACTORS
330
1BF
102
}
330
1BF
100
DictionaryVariables
280
     0
  1
0
  0
DICTIONARYVAR
  5
7E54
102
{ACAD_REACTORS
330
1BF
102
}
330
1BF
100
DictionaryVariables
280
     0
  1

  0
DICTIONARYVAR
  5
1C0
102
{ACAD_REACTORS
330
1BF
102
}
330
1BF
100
DictionaryVariables
280
     0
  1
96
  0
DICTIONARYVAR
  5
8DB6
102
{ACAD_REACTORS
330
1BF
102
}
330
1BF
100
DictionaryVariables
280
     0
  1
2
  0
DICTIONARY
  5
8DBB
330
7D9E
100
AcDbDictionary
280
     1
281
     1
  3
ACAD_XREC_ROUNDTRIP
360
8DBC
  0
DICTIONARY
  5
8DBD
330
7D9F
100
AcDbDictionary
280
     1
281
     1
  3
ACAD_XREC_ROUNDTRIP
360
8DBE
  0
DICTIONARY
  5
7E78
330
7E77
100
AcDbDictionary
280
     1
281
     1
  3
ACAD_XREC_ROUNDTRIP
360
8DC0
  3
BUMPTILE
360
7E7A
  3
DIFFUSETILE
360
7E79
  3
OPACITYTILE
360
7E7D
  3
REFLECTIONTILE
360
7E7C
  3
REFRACTIONTILE
360
7E7E
  3
SPECULARTILE
360
7E7B
  0
DICTIONARY
  5
7E70
330
7E6F
100
AcDbDictionary
280
     1
281
     1
  3
ACAD_XREC_ROUNDTRIP
360
8DBF
  3
BUMPTILE
360
7E72
  3
DIFFUSETILE
360
7E71
  3
OPACITYTILE
360
7E75
  3
REFLECTIONTILE
360
7E74
  3
REFRACTIONTILE
360
7E76
  3
SPECULARTILE
360
7E73
  0
DICTIONARY
  5
7E80
330
7E7F
100
AcDbDictionary
280
     1
281
     1
  3
ACAD_XREC_ROUNDTRIP
360
8DC1
  3
BUMPTILE
360
7E82
  3
DIFFUSETILE
360
7E81
  3
OPACITYTILE
360
7E85
  3
REFLECTIONTILE
360
7E84
  3
REFRACTIONTILE
360
7E86
  3
SPECULARTILE
360
7E83
  0
DICTIONARY
  5
7F67
330
7D9B
100
AcDbDictionary
280
     1
281
     1
  3
ACAD_ROUNDTRIP_2008_TABLESTYLE_CELLSTYLEMAP
360
8DB7
  3
ACAD_XREC_ROUNDTRIP
360
8DBA
  0
DICTIONARY
  5
8DCC
330
7E8D
100
AcDbDictionary
280
     1
281
     1
  3
ACAD_XREC_ROUNDTRIP
360
8DCD
  0
DICTIONARY
  5
8DD0
330
7E8F
100
AcDbDictionary
280
     1
281
     1
  3
ACAD_XREC_ROUNDTRIP
360
8DD1
  0
DICTIONARY
  5
8DCE
330
7E8E
100
AcDbDictionary
280
     1
281
     1
  3
ACAD_XREC_ROUNDTRIP
360
8DCF
  0
DICTIONARY
  5
8DCA
330
7E8C
100
AcDbDictionary
280
     1
281
     1
  3
ACAD_XREC_ROUNDTRIP
360
8DCB
  0
DICTIONARY
  5
8DD8
330
7E93
100
AcDbDictionary
280
     1
281
     1
  3
ACAD_XREC_ROUNDTRIP
360
8DD9
  0
DICTIONARY
  5
8DE0
330
7E97
100
AcDbDictionary
280
     1
281
     1
  3
ACAD_XREC_ROUNDTRIP
360
8DE1
  0
DICTIONARY
  5
8DD2
330
7E90
100
AcDbDictionary
280
     1
281
     1
  3
ACAD_XREC_ROUNDTRIP
360
8DD3
  0
DICTIONARY
  5
8DD6
330
7E92
100
AcDbDictionary
280
     1
281
     1
  3
ACAD_XREC_ROUNDTRIP
360
8DD7
  0
DICTIONARY
  5
8DF4
330
7F85
100
AcDbDictionary
280
     1
281
     1
  3
ACAD_XREC_ROUNDTRIP
360
8DF5
  0
DICTIONARY
  5
8DDE
330
7E96
100
AcDbDictionary
280
     1
281
     1
  3
ACAD_XREC_ROUNDTRIP
360
8DDF
  0
DICTIONARY
  5
8DC2
330
7E88
100
AcDbDictionary
280
     1
281
     1
  3
ACAD_XREC_ROUNDTRIP
360
8DC3
  0
DICTIONARY
  5
8DC4
330
7E89
100
AcDbDictionary
280
     1
281
     1
  3
ACAD_XREC_ROUNDTRIP
360
8DC5
  0
DICTIONARY
  5
8DC6
330
7E8A
100
AcDbDictionary
280
     1
281
     1
  3
ACAD_XREC_ROUNDTRIP
360
8DC7
  0
DICTIONARY
  5
8DC8
330
7E8B
100
AcDbDictionary
280
     1
281
     1
  3
ACAD_XREC_ROUNDTRIP
360
8DC9
  0
DICTIONARY
  5
8DE4
330
7F7D
100
AcDbDictionary
280
     1
281
     1
  3
ACAD_XREC_ROUNDTRIP
360
8DE5
  0
DICTIONARY
  5
8DF0
330
7F83
100
AcDbDictionary
280
     1
281
     1
  3
ACAD_XREC_ROUNDTRIP
360
8DF1
  0
DICTIONARY
  5
8DDC
330
7E95
100
AcDbDictionary
280
     1
281
     1
  3
ACAD_XREC_ROUNDTRIP
360
8DDD
  0
DICTIONARY
  5
8DF2
330
7F84
100
AcDbDictionary
280
     1
281
     1
  3
ACAD_XREC_ROUNDTRIP
360
8DF3
  0
DICTIONARY
  5
8DD4
330
7E91
100
AcDbDictionary
280
     1
281
     1
  3
ACAD_XREC_ROUNDTRIP
360
8DD5
  0
DICTIONARY
  5
8DEE
330
7F82
100
AcDbDictionary
280
     1
281
     1
  3
ACAD_XREC_ROUNDTRIP
360
8DEF
  0
DICTIONARY
  5
8DEC
330
7F81
100
AcDbDictionary
280
     1
281
     1
  3
ACAD_XREC_ROUNDTRIP
360
8DED
  0
DICTIONARY
  5
8DE6
330
7F7E
100
AcDbDictionary
280
     1
281
     1
  3
ACAD_XREC_ROUNDTRIP
360
8DE7
  0
DICTIONARY
  5
8DE8
330
7F7F
100
AcDbDictionary
280
     1
281
     1
  3
ACAD_XREC_ROUNDTRIP
360
8DE9
  0
DICTIONARY
  5
8DDA
330
7E94
100
AcDbDictionary
280
     1
281
     1
  3
ACAD_XREC_ROUNDTRIP
360
8DDB
  0
DICTIONARY
  5
8DE2
330
7F7C
100
AcDbDictionary
280
     1
281
     1
  3
ACAD_XREC_ROUNDTRIP
360
8DE3
  0
DICTIONARY
  5
8DEA
330
7F80
100
AcDbDictionary
280
     1
281
     1
  3
ACAD_XREC_ROUNDTRIP
360
8DEB
  0
XRECORD
  5
8DBC
102
{ACAD_REACTORS
330
8DBB
102
}
330
8DBB
100
AcDbXrecord
280
     1
102
SHADEPLOT
 70
     0
102
SHADEPLOTRESLEVEL
 70
     2
102
SHADEPLOTCUSTOMDPI
 70
   300
  0
XRECORD
  5
8DBE
102
{ACAD_REACTORS
330
8DBD
102
}
330
8DBD
100
AcDbXrecord
280
     1
102
SHADEPLOT
 70
     0
102
SHADEPLOTRESLEVEL
 70
     2
102
SHADEPLOTCUSTOMDPI
 70
   300
  0
XRECORD
  5
8DC0
102
{ACAD_REACTORS
330
7E78
102
}
330
7E78
100
AcDbXrecord
280
     1
102
MATERIAL
148
0.0
149
0.0
149
0.0
 93
        0
 94
      127
282
     0
 72
     0
 77
     0
171
     0
175
     0
179
     0
273
     0
  0
XRECORD
  5
7E7A
102
{ACAD_REACTORS
330
7E78
102
}
330
7E78
100
AcDbXrecord
280
     1
270
     1
271
     1
  0
XRECORD
  5
7E79
102
{ACAD_REACTORS
330
7E78
102
}
330
7E78
100
AcDbXrecord
280
     1
270
     1
271
     1
  0
XRECORD
  5
7E7D
102
{ACAD_REACTORS
330
7E78
102
}
330
7E78
100
AcDbXrecord
280
     1
270
     1
271
     1
  0
XRECORD
  5
7E7C
102
{ACAD_REACTORS
330
7E78
102
}
330
7E78
100
AcDbXrecord
280
     1
270
     1
271
     1
  0
XRECORD
  5
7E7E
102
{ACAD_REACTORS
330
7E78
102
}
330
7E78
100
AcDbXrecord
280
     1
270
     1
271
     1
  0
XRECORD
  5
7E7B
102
{ACAD_REACTORS
330
7E78
102
}
330
7E78
100
AcDbXrecord
280
     1
270
     1
271
     1
  0
XRECORD
  5
8DBF
102
{ACAD_REACTORS
330
7E70
102
}
330
7E70
100
AcDbXrecord
280
     1
102
MATERIAL
148
0.0
149
0.0
149
0.0
 93
        0
 94
      127
282
     0
 72
     0
 77
     0
171
     0
175
     0
179
     0
273
     0
  0
XRECORD
  5
7E72
102
{ACAD_REACTORS
330
7E70
102
}
330
7E70
100
AcDbXrecord
280
     1
270
     1
271
     1
  0
XRECORD
  5
7E71
102
{ACAD_REACTORS
330
7E70
102
}
330
7E70
100
AcDbXrecord
280
     1
270
     1
271
     1
  0
XRECORD
  5
7E75
102
{ACAD_REACTORS
330
7E70
102
}
330
7E70
100
AcDbXrecord
280
     1
270
     1
271
     1
  0
XRECORD
  5
7E74
102
{ACAD_REACTORS
330
7E70
102
}
330
7E70
100
AcDbXrecord
280
     1
270
     1
271
     1
  0
XRECORD
  5
7E76
102
{ACAD_REACTORS
330
7E70
102
}
330
7E70
100
AcDbXrecord
280
     1
270
     1
271
     1
  0
XRECORD
  5
7E73
102
{ACAD_REACTORS
330
7E70
102
}
330
7E70
100
AcDbXrecord
280
     1
270
     1
271
     1
  0
XRECORD
  5
8DC1
102
{ACAD_REACTORS
330
7E80
102
}
330
7E80
100
AcDbXrecord
280
     1
102
MATERIAL
148
0.0
149
0.0
149
0.0
 93
        0
 94
      127
282
     0
 72
     0
 77
     0
171
     0
175
     0
179
     0
273
     0
  0
XRECORD
  5
7E82
102
{ACAD_REACTORS
330
7E80
102
}
330
7E80
100
AcDbXrecord
280
     1
270
     1
271
     1
  0
XRECORD
  5
7E81
102
{ACAD_REACTORS
330
7E80
102
}
330
7E80
100
AcDbXrecord
280
     1
270
     1
271
     1
  0
XRECORD
  5
7E85
102
{ACAD_REACTORS
330
7E80
102
}
330
7E80
100
AcDbXrecord
280
     1
270
     1
271
     1
  0
XRECORD
  5
7E84
102
{ACAD_REACTORS
330
7E80
102
}
330
7E80
100
AcDbXrecord
280
     1
270
     1
271
     1
  0
XRECORD
  5
7E86
102
{ACAD_REACTORS
330
7E80
102
}
330
7E80
100
AcDbXrecord
280
     1
270
     1
271
     1
  0
XRECORD
  5
7E83
102
{ACAD_REACTORS
330
7E80
102
}
330
7E80
100
AcDbXrecord
280
     1
270
     1
271
     1
  0
CELLSTYLEMAP
  5
8DB7
102
{ACAD_REACTORS
330
7F67
102
}
330
7F67
100
AcDbCellStyleMap
 90
        3
300
CELLSTYLE
  1
TABLEFORMAT_BEGIN
 90
        5
170
     1
 91
        0
 92
    32768
 62
   257
 93
        1
300
CONTENTFORMAT
  1
CONTENTFORMAT_BEGIN
 90
        0
 91
        0
 92
        4
 93
        0
300

 40
0.0
140
1.0
 94
        5
 62
     0
340
10
144
0.25
309
CONTENTFORMAT_END
171
     1
301
MARGIN
  1
CELLMARGIN_BEGIN
 40
0.06
 40
0.06
 40
0.06
 40
0.06
 40
0.18
 40
0.18
309
CELLMARGIN_END
 94
        6
 95
        1
302
GRIDFORMAT
  1
GRIDFORMAT_BEGIN
 90
        0
 91
        1
 62
     0
 92
       -2
340
0
 93
        0
 40
0.045
309
GRIDFORMAT_END
 95
        2
302
GRIDFORMAT
  1
GRIDFORMAT_BEGIN
 90
        0
 91
        1
 62
     0
 92
       -2
340
0
 93
        0
 40
0.045
309
GRIDFORMAT_END
 95
        4
302
GRIDFORMAT
  1
GRIDFORMAT_BEGIN
 90
        0
 91
        1
 62
     0
 92
       -2
340
0
 93
        0
 40
0.045
309
GRIDFORMAT_END
 95
        8
302
GRIDFORMAT
  1
GRIDFORMAT_BEGIN
 90
        0
 91
        1
 62
     0
 92
       -2
340
0
 93
        0
 40
0.045
309
GRIDFORMAT_END
 95
       16
302
GRIDFORMAT
  1
GRIDFORMAT_BEGIN
 90
        0
 91
        1
 62
     0
 92
       -2
340
0
 93
        0
 40
0.045
309
GRIDFORMAT_END
 95
       32
302
GRIDFORMAT
  1
GRIDFORMAT_BEGIN
 90
        0
 91
        1
 62
     0
 92
       -2
340
0
 93
        0
 40
0.045
309
GRIDFORMAT_END
309
TABLEFORMAT_END
  1
CELLSTYLE_BEGIN
 90
        1
 91
        1
300
_TITLE
309
CELLSTYLE_END
300
CELLSTYLE
  1
TABLEFORMAT_BEGIN
 90
        5
170
     1
 91
        0
 92
        0
 62
   257
 93
        1
300
CONTENTFORMAT
  1
CONTENTFORMAT_BEGIN
 90
        0
 91
        0
 92
        4
 93
        0
300

 40
0.0
140
1.0
 94
        5
 62
     0
340
10
144
0.18
309
CONTENTFORMAT_END
171
     1
301
MARGIN
  1
CELLMARGIN_BEGIN
 40
0.06
 40
0.06
 40
0.06
 40
0.06
 40
0.18
 40
0.18
309
CELLMARGIN_END
 94
        6
 95
        1
302
GRIDFORMAT
  1
GRIDFORMAT_BEGIN
 90
        0
 91
        1
 62
     0
 92
       -2
340
0
 93
        0
 40
0.045
309
GRIDFORMAT_END
 95
        2
302
GRIDFORMAT
  1
GRIDFORMAT_BEGIN
 90
        0
 91
        1
 62
     0
 92
       -2
340
0
 93
        0
 40
0.045
309
GRIDFORMAT_END
 95
        4
302
GRIDFORMAT
  1
GRIDFORMAT_BEGIN
 90
        0
 91
        1
 62
     0
 92
       -2
340
0
 93
        0
 40
0.045
309
GRIDFORMAT_END
 95
        8
302
GRIDFORMAT
  1
GRIDFORMAT_BEGIN
 90
        0
 91
        1
 62
     0
 92
       -2
340
0
 93
        0
 40
0.045
309
GRIDFORMAT_END
 95
       16
302
GRIDFORMAT
  1
GRIDFORMAT_BEGIN
 90
        0
 91
        1
 62
     0
 92
       -2
340
0
 93
        0
 40
0.045
309
GRIDFORMAT_END
 95
       32
302
GRIDFORMAT
  1
GRIDFORMAT_BEGIN
 90
        0
 91
        1
 62
     0
 92
       -2
340
0
 93
        0
 40
0.045
309
GRIDFORMAT_END
309
TABLEFORMAT_END
  1
CELLSTYLE_BEGIN
 90
        2
 91
        1
300
_HEADER
309
CELLSTYLE_END
300
CELLSTYLE
  1
TABLEFORMAT_BEGIN
 90
        5
170
     1
 91
        0
 92
        0
 62
   257
 93
        1
300
CONTENTFORMAT
  1
CONTENTFORMAT_BEGIN
 90
        0
 91
        0
 92
        4
 93
        0
300

 40
0.0
140
1.0
 94
        2
 62
     0
340
10
144
0.18
309
CONTENTFORMAT_END
171
     1
301
MARGIN
  1
CELLMARGIN_BEGIN
 40
0.06
 40
0.06
 40
0.06
 40
0.06
 40
0.18
 40
0.18
309
CELLMARGIN_END
 94
        6
 95
        1
302
GRIDFORMAT
  1
GRIDFORMAT_BEGIN
 90
        0
 91
        1
 62
     0
 92
       -2
340
0
 93
        0
 40
0.045
309
GRIDFORMAT_END
 95
        2
302
GRIDFORMAT
  1
GRIDFORMAT_BEGIN
 90
        0
 91
        1
 62
     0
 92
       -2
340
0
 93
        0
 40
0.045
309
GRIDFORMAT_END
 95
        4
302
GRIDFORMAT
  1
GRIDFORMAT_BEGIN
 90
        0
 91
        1
 62
     0
 92
       -2
340
0
 93
        0
 40
0.045
309
GRIDFORMAT_END
 95
        8
302
GRIDFORMAT
  1
GRIDFORMAT_BEGIN
 90
        0
 91
        1
 62
     0
 92
       -2
340
0
 93
        0
 40
0.045
309
GRIDFORMAT_END
 95
       16
302
GRIDFORMAT
  1
GRIDFORMAT_BEGIN
 90
        0
 91
        1
 62
     0
 92
       -2
340
0
 93
        0
 40
0.045
309
GRIDFORMAT_END
 95
       32
302
GRIDFORMAT
  1
GRIDFORMAT_BEGIN
 90
        0
 91
        1
 62
     0
 92
       -2
340
0
 93
        0
 40
0.045
309
GRIDFORMAT_END
309
TABLEFORMAT_END
  1
CELLSTYLE_BEGIN
 90
        3
 91
        2
300
_DATA
309
CELLSTYLE_END
  0
XRECORD
  5
8DBA
102
{ACAD_REACTORS
330
7F67
102
}
330
7F67
100
AcDbXrecord
280
     1
102
ACAD_ROUNDTRIP_PRE2007_TABLESTYLE
 90
        4
 91
        0
  1

 92
        4
 93
        0
  2

 94
        4
 95
        0
  3

  0
XRECORD
  5
8DCD
102
{ACAD_REACTORS
330
8DCC
102
}
330
8DCC
100
AcDbXrecord
280
     1
102
RTVSPropertyOp0
 70
     1
102
RTVSPropertyOp1
 70
     1
102
RTVSPropertyOp2
 70
     1
102
RTVSPropertyOp3
 70
     1
102
RTVSPropertyOp4
 70
     1
102
RTVSPropertyOp5
 70
     1
102
RTVSPropertyOp6
 70
     1
102
RTVSPropertyOp7
 70
     1
102
RTVSPropertyOp8
 70
     1
102
RTVSPropertyOp9
 70
     1
102
RTVSPropertyOp10
 70
     1
102
RTVSPropertyOp11
 70
     1
102
RTVSPropertyOp12
 70
     1
102
RTVSPropertyOp13
 70
     1
102
RTVSPropertyOp14
 70
     1
102
RTVSPropertyOp15
 70
     1
102
RTVSPropertyOp16
 70
     1
102
RTVSPropertyOp17
 70
     1
102
RTVSPropertyOp18
 70
     1
102
RTVSPropertyOp19
 70
     1
102
RTVSPropertyOp20
 70
     1
102
RTVSPropertyOp21
 70
     1
102
RTVSPropertyOp22
 70
     1
102
RTVSPropertyOp23
 70
     1
102
RTVSPropertyOp24
 70
     1
102
RTVSPropertyOp25
 70
     1
102
RTVSPropertyOp26
 70
     1
102
RTVSPropertyOp27
 70
     1
102
RTVSPropertyOp28
 70
     1
102
RTVSPropertyOp29
 70
     1
102
RTVSPropertyOp30
 70
     1
102
RTVSPropertyOp31
 70
     1
102
RTVSPropertyOp32
 70
     1
  0
XRECORD
  5
8DD1
102
{ACAD_REACTORS
330
8DD0
102
}
330
8DD0
100
AcDbXrecord
280
     1
102
RTVSPropertyOp0
 70
     1
102
RTVSPropertyOp1
 70
     1
102
RTVSPropertyOp2
 70
     1
102
RTVSPropertyOp3
 70
     1
102
RTVSPropertyOp4
 70
     1
102
RTVSPropertyOp5
 70
     1
102
RTVSPropertyOp6
 70
     1
102
RTVSPropertyOp7
 70
     1
102
RTVSPropertyOp8
 70
     1
102
RTVSPropertyOp9
 70
     1
102
RTVSPropertyOp10
 70
     1
102
RTVSPropertyOp11
 70
     1
102
RTVSPropertyOp12
 70
     1
102
RTVSPropertyOp13
 70
     1
102
RTVSPropertyOp14
 70
     1
102
RTVSPropertyOp15
 70
     1
102
RTVSPropertyOp16
 70
     1
102
RTVSPropertyOp17
 70
     1
102
RTVSPropertyOp18
 70
     1
102
RTVSPropertyOp19
 70
     1
102
RTVSPropertyOp20
 70
     1
102
RTVSPropertyOp21
 70
     1
102
RTVSPropertyOp22
 70
     1
102
RTVSPropertyOp23
 70
     1
102
RTVSPropertyOp24
 70
     1
102
RTVSPropertyOp25
 70
     1
102
RTVSPropertyOp26
 70
     1
102
RTVSPropertyOp27
 70
     1
102
RTVSPropertyOp28
 70
     1
102
RTVSPropertyOp29
 70
     1
102
RTVSPropertyOp30
 70
     1
102
RTVSPropertyOp31
 70
     1
102
RTVSPropertyOp32
 70
     1
  0
XRECORD
  5
8DCF
102
{ACAD_REACTORS
330
8DCE
102
}
330
8DCE
100
AcDbXrecord
280
     1
102
RTVSPropertyOp0
 70
     1
102
RTVSPropertyOp1
 70
     1
102
RTVSPropertyOp2
 70
     1
102
RTVSPropertyOp3
 70
     1
102
RTVSPropertyOp4
 70
     1
102
RTVSPropertyOp5
 70
     1
102
RTVSPropertyOp6
 70
     1
102
RTVSPropertyOp7
 70
     1
102
RTVSPropertyOp8
 70
     1
102
RTVSPropertyOp9
 70
     1
102
RTVSPropertyOp10
 70
     1
102
RTVSPropertyOp11
 70
     1
102
RTVSPropertyOp12
 70
     1
102
RTVSPropertyOp13
 70
     1
102
RTVSPropertyOp14
 70
     1
102
RTVSPropertyOp15
 70
     1
102
RTVSPropertyOp16
 70
     1
102
RTVSPropertyOp17
 70
     1
102
RTVSPropertyOp18
 70
     1
102
RTVSPropertyOp19
 70
     1
102
RTVSPropertyOp20
 70
     1
102
RTVSPropertyOp21
 70
     1
102
RTVSPropertyOp22
 70
     1
102
RTVSPropertyOp23
 70
     1
102
RTVSPropertyOp24
 70
     1
102
RTVSPropertyOp25
 70
     1
102
RTVSPropertyOp26
 70
     1
102
RTVSPropertyOp27
 70
     1
102
RTVSPropertyOp28
 70
     1
102
RTVSPropertyOp29
 70
     1
102
RTVSPropertyOp30
 70
     1
102
RTVSPropertyOp31
 70
     1
102
RTVSPropertyOp32
 70
     1
  0
XRECORD
  5
8DCB
102
{ACAD_REACTORS
330
8DCA
102
}
330
8DCA
100
AcDbXrecord
280
     1
102
RTVSPropertyOp0
 70
     1
102
RTVSPropertyOp1
 70
     1
102
RTVSPropertyOp2
 70
     1
102
RTVSPropertyOp3
 70
     1
102
RTVSPropertyOp4
 70
     1
102
RTVSPropertyOp5
 70
     1
102
RTVSPropertyOp6
 70
     1
102
RTVSPropertyOp7
 70
     1
102
RTVSPropertyOp8
 70
     1
102
RTVSPropertyOp9
 70
     1
102
RTVSPropertyOp10
 70
     1
102
RTVSPropertyOp11
 70
     1
102
RTVSPropertyOp12
 70
     1
102
RTVSPropertyOp13
 70
     1
102
RTVSPropertyOp14
 70
     1
102
RTVSPropertyOp15
 70
     1
102
RTVSPropertyOp16
 70
     1
102
RTVSPropertyOp17
 70
     1
102
RTVSPropertyOp18
 70
     1
102
RTVSPropertyOp19
 70
     1
102
RTVSPropertyOp20
 70
     1
102
RTVSPropertyOp21
 70
     1
102
RTVSPropertyOp22
 70
     1
102
RTVSPropertyOp23
 70
     1
102
RTVSPropertyOp24
 70
     1
102
RTVSPropertyOp25
 70
     1
102
RTVSPropertyOp26
 70
     1
102
RTVSPropertyOp27
 70
     1
102
RTVSPropertyOp28
 70
     1
102
RTVSPropertyOp29
 70
     1
102
RTVSPropertyOp30
 70
     1
102
RTVSPropertyOp31
 70
     1
102
RTVSPropertyOp32
 70
     1
  0
XRECORD
  5
8DD9
102
{ACAD_REACTORS
330
8DD8
102
}
330
8DD8
100
AcDbXrecord
280
     1
102
RTVSPropertyOp0
 70
     1
102
RTVSPropertyOp1
 70
     1
102
RTVSPropertyOp2
 70
     1
102
RTVSPropertyOp3
 70
     1
102
RTVSPropertyOp4
 70
     1
102
RTVSPropertyOp5
 70
     1
102
RTVSPropertyOp6
 70
     1
102
RTVSPropertyOp7
 70
     1
102
RTVSPropertyOp8
 70
     1
102
RTVSPropertyOp9
 70
     1
102
RTVSPropertyOp10
 70
     1
102
RTVSPropertyOp11
 70
     1
102
RTVSPropertyOp12
 70
     1
102
RTVSPropertyOp13
 70
     1
102
RTVSPropertyOp14
 70
     1
102
RTVSPropertyOp15
 70
     1
102
RTVSPropertyOp16
 70
     1
102
RTVSPropertyOp17
 70
     1
102
RTVSPropertyOp18
 70
     1
102
RTVSPropertyOp19
 70
     1
102
RTVSPropertyOp20
 70
     1
102
RTVSPropertyOp21
 70
     1
102
RTVSPropertyOp22
 70
     1
102
RTVSPropertyOp23
 70
     1
102
RTVSPropertyOp24
 70
     1
102
RTVSPropertyOp25
 70
     1
102
RTVSPropertyOp26
 70
     1
102
RTVSPropertyOp27
 70
     1
102
RTVSPropertyOp28
 70
     1
102
RTVSPropertyOp29
 70
     1
102
RTVSPropertyOp30
 70
     1
102
RTVSPropertyOp31
 70
     1
102
RTVSPropertyOp32
 70
     1
  0
XRECORD
  5
8DE1
102
{ACAD_REACTORS
330
8DE0
102
}
330
8DE0
100
AcDbXrecord
280
     1
102
RTVSPropertyOp0
 70
     1
102
RTVSPropertyOp1
 70
     1
102
RTVSPropertyOp2
 70
     1
102
RTVSPropertyOp3
 70
     1
102
RTVSPropertyOp4
 70
     1
102
RTVSPropertyOp5
 70
     1
102
RTVSPropertyOp6
 70
     1
102
RTVSPropertyOp7
 70
     1
102
RTVSPropertyOp8
 70
     1
102
RTVSPropertyOp9
 70
     1
102
RTVSPropertyOp10
 70
     1
102
RTVSPropertyOp11
 70
     1
102
RTVSPropertyOp12
 70
     1
102
RTVSPropertyOp13
 70
     1
102
RTVSPropertyOp14
 70
     1
102
RTVSPropertyOp15
 70
     1
102
RTVSPropertyOp16
 70
     1
102
RTVSPropertyOp17
 70
     1
102
RTVSPropertyOp18
 70
     1
102
RTVSPropertyOp19
 70
     1
102
RTVSPropertyOp20
 70
     1
102
RTVSPropertyOp21
 70
     1
102
RTVSPropertyOp22
 70
     1
102
RTVSPropertyOp23
 70
     1
102
RTVSPropertyOp24
 70
     1
102
RTVSPropertyOp25
 70
     1
102
RTVSPropertyOp26
 70
     1
102
RTVSPropertyOp27
 70
     1
102
RTVSPropertyOp28
 70
     1
102
RTVSPropertyOp29
 70
     1
102
RTVSPropertyOp30
 70
     1
102
RTVSPropertyOp31
 70
     1
102
RTVSPropertyOp32
 70
     1
  0
XRECORD
  5
8DD3
102
{ACAD_REACTORS
330
8DD2
102
}
330
8DD2
100
AcDbXrecord
280
     1
102
RTVSPropertyOp0
 70
     1
102
RTVSPropertyOp1
 70
     1
102
RTVSPropertyOp2
 70
     1
102
RTVSPropertyOp3
 70
     1
102
RTVSPropertyOp4
 70
     1
102
RTVSPropertyOp5
 70
     1
102
RTVSPropertyOp6
 70
     1
102
RTVSPropertyOp7
 70
     1
102
RTVSPropertyOp8
 70
     1
102
RTVSPropertyOp9
 70
     1
102
RTVSPropertyOp10
 70
     1
102
RTVSPropertyOp11
 70
     1
102
RTVSPropertyOp12
 70
     1
102
RTVSPropertyOp13
 70
     1
102
RTVSPropertyOp14
 70
     1
102
RTVSPropertyOp15
 70
     1
102
RTVSPropertyOp16
 70
     1
102
RTVSPropertyOp17
 70
     1
102
RTVSPropertyOp18
 70
     1
102
RTVSPropertyOp19
 70
     1
102
RTVSPropertyOp20
 70
     1
102
RTVSPropertyOp21
 70
     1
102
RTVSPropertyOp22
 70
     1
102
RTVSPropertyOp23
 70
     1
102
RTVSPropertyOp24
 70
     1
102
RTVSPropertyOp25
 70
     1
102
RTVSPropertyOp26
 70
     1
102
RTVSPropertyOp27
 70
     1
102
RTVSPropertyOp28
 70
     1
102
RTVSPropertyOp29
 70
     1
102
RTVSPropertyOp30
 70
     1
102
RTVSPropertyOp31
 70
     1
102
RTVSPropertyOp32
 70
     1
  0
XRECORD
  5
8DD7
102
{ACAD_REACTORS
330
8DD6
102
}
330
8DD6
100
AcDbXrecord
280
     1
102
RTVSPropertyOp0
 70
     1
102
RTVSPropertyOp1
 70
     1
102
RTVSPropertyOp2
 70
     1
102
RTVSPropertyOp3
 70
     1
102
RTVSPropertyOp4
 70
     1
102
RTVSPropertyOp5
 70
     1
102
RTVSPropertyOp6
 70
     1
102
RTVSPropertyOp7
 70
     1
102
RTVSPropertyOp8
 70
     1
102
RTVSPropertyOp9
 70
     1
102
RTVSPropertyOp10
 70
     1
102
RTVSPropertyOp11
 70
     1
102
RTVSPropertyOp12
 70
     1
102
RTVSPropertyOp13
 70
     1
102
RTVSPropertyOp14
 70
     1
102
RTVSPropertyOp15
 70
     1
102
RTVSPropertyOp16
 70
     1
102
RTVSPropertyOp17
 70
     1
102
RTVSPropertyOp18
 70
     1
102
RTVSPropertyOp19
 70
     1
102
RTVSPropertyOp20
 70
     1
102
RTVSPropertyOp21
 70
     1
102
RTVSPropertyOp22
 70
     1
102
RTVSPropertyOp23
 70
     1
102
RTVSPropertyOp24
 70
     1
102
RTVSPropertyOp25
 70
     1
102
RTVSPropertyOp26
 70
     1
102
RTVSPropertyOp27
 70
     1
102
RTVSPropertyOp28
 70
     1
102
RTVSPropertyOp29
 70
     1
102
RTVSPropertyOp30
 70
     1
102
RTVSPropertyOp31
 70
     1
102
RTVSPropertyOp32
 70
     1
  0
XRECORD
  5
8DF5
102
{ACAD_REACTORS
330
8DF4
102
}
330
8DF4
100
AcDbXrecord
280
     1
102
RTVSPropertyOp0
 70
     0
102
RTVSPropertyOp1
 70
     0
102
RTVSPropertyOp2
 70
     0
102
RTVSPropertyOp3
 70
     0
102
RTVSPropertyOp4
 70
     0
102
RTVSPropertyOp5
 70
     0
102
RTVSPropertyOp6
 70
     0
102
RTVSPropertyOp7
 70
     0
102
RTVSPropertyOp8
 70
     0
102
RTVSPropertyOp9
 70
     0
102
RTVSPropertyOp10
 70
     0
102
RTVSPropertyOp11
 70
     0
102
RTVSPropertyOp12
 70
     0
102
RTVSPropertyOp13
 70
     0
102
RTVSPropertyOp14
 70
     2
102
RTVSPropertyOp15
 70
     0
102
RTVSPropertyOp16
 70
     0
102
RTVSPropertyOp17
 70
     0
102
RTVSPropertyOp18
 70
     0
102
RTVSPropertyOp19
 70
     0
102
RTVSPropertyOp20
 70
     0
102
RTVSPropertyOp21
 70
     0
102
RTVSPropertyOp22
 70
     0
102
RTVSPropertyOp23
 70
     0
102
RTVSPropertyOp24
 70
     0
102
RTVSPropertyOp25
 70
     0
102
RTVSPropertyOp26
 70
     0
102
RTVSPropertyOp27
 70
     0
102
RTVSPropertyOp28
 70
     0
102
RTVSPropertyOp29
 70
     0
102
RTVSPropertyOp30
 70
     0
102
RTVSPropertyOp31
 70
     0
102
RTVSPropertyOp32
 70
     0
  0
XRECORD
  5
8DDF
102
{ACAD_REACTORS
330
8DDE
102
}
330
8DDE
100
AcDbXrecord
280
     1
102
RTVSPropertyOp0
 70
     1
102
RTVSPropertyOp1
 70
     1
102
RTVSPropertyOp2
 70
     1
102
RTVSPropertyOp3
 70
     1
102
RTVSPropertyOp4
 70
     1
102
RTVSPropertyOp5
 70
     1
102
RTVSPropertyOp6
 70
     1
102
RTVSPropertyOp7
 70
     1
102
RTVSPropertyOp8
 70
     1
102
RTVSPropertyOp9
 70
     1
102
RTVSPropertyOp10
 70
     1
102
RTVSPropertyOp11
 70
     1
102
RTVSPropertyOp12
 70
     1
102
RTVSPropertyOp13
 70
     1
102
RTVSPropertyOp14
 70
     1
102
RTVSPropertyOp15
 70
     1
102
RTVSPropertyOp16
 70
     1
102
RTVSPropertyOp17
 70
     1
102
RTVSPropertyOp18
 70
     1
102
RTVSPropertyOp19
 70
     1
102
RTVSPropertyOp20
 70
     1
102
RTVSPropertyOp21
 70
     1
102
RTVSPropertyOp22
 70
     1
102
RTVSPropertyOp23
 70
     1
102
RTVSPropertyOp24
 70
     1
102
RTVSPropertyOp25
 70
     1
102
RTVSPropertyOp26
 70
     1
102
RTVSPropertyOp27
 70
     1
102
RTVSPropertyOp28
 70
     1
102
RTVSPropertyOp29
 70
     1
102
RTVSPropertyOp30
 70
     1
102
RTVSPropertyOp31
 70
     1
102
RTVSPropertyOp32
 70
     1
  0
XRECORD
  5
8DC3
102
{ACAD_REACTORS
330
8DC2
102
}
330
8DC2
100
AcDbXrecord
280
     1
102
RTVSPropertyOp0
 70
     1
102
RTVSPropertyOp1
 70
     1
102
RTVSPropertyOp2
 70
     1
102
RTVSPropertyOp3
 70
     1
102
RTVSPropertyOp4
 70
     1
102
RTVSPropertyOp5
 70
     1
102
RTVSPropertyOp6
 70
     1
102
RTVSPropertyOp7
 70
     1
102
RTVSPropertyOp8
 70
     1
102
RTVSPropertyOp9
 70
     1
102
RTVSPropertyOp10
 70
     1
102
RTVSPropertyOp11
 70
     1
102
RTVSPropertyOp12
 70
     1
102
RTVSPropertyOp13
 70
     1
102
RTVSPropertyOp14
 70
     1
102
RTVSPropertyOp15
 70
     1
102
RTVSPropertyOp16
 70
     1
102
RTVSPropertyOp17
 70
     1
102
RTVSPropertyOp18
 70
     1
102
RTVSPropertyOp19
 70
     1
102
RTVSPropertyOp20
 70
     1
102
RTVSPropertyOp21
 70
     1
102
RTVSPropertyOp22
 70
     1
102
RTVSPropertyOp23
 70
     1
102
RTVSPropertyOp24
 70
     1
102
RTVSPropertyOp25
 70
     1
102
RTVSPropertyOp26
 70
     1
102
RTVSPropertyOp27
 70
     1
102
RTVSPropertyOp28
 70
     1
102
RTVSPropertyOp29
 70
     1
102
RTVSPropertyOp30
 70
     1
102
RTVSPropertyOp31
 70
     1
102
RTVSPropertyOp32
 70
     1
  0
XRECORD
  5
8DC5
102
{ACAD_REACTORS
330
8DC4
102
}
330
8DC4
100
AcDbXrecord
280
     1
102
RTVSPropertyOp0
 70
     1
102
RTVSPropertyOp1
 70
     1
102
RTVSPropertyOp2
 70
     1
102
RTVSPropertyOp3
 70
     1
102
RTVSPropertyOp4
 70
     1
102
RTVSPropertyOp5
 70
     1
102
RTVSPropertyOp6
 70
     1
102
RTVSPropertyOp7
 70
     1
102
RTVSPropertyOp8
 70
     1
102
RTVSPropertyOp9
 70
     1
102
RTVSPropertyOp10
 70
     1
102
RTVSPropertyOp11
 70
     1
102
RTVSPropertyOp12
 70
     1
102
RTVSPropertyOp13
 70
     1
102
RTVSPropertyOp14
 70
     1
102
RTVSPropertyOp15
 70
     1
102
RTVSPropertyOp16
 70
     1
102
RTVSPropertyOp17
 70
     1
102
RTVSPropertyOp18
 70
     1
102
RTVSPropertyOp19
 70
     1
102
RTVSPropertyOp20
 70
     1
102
RTVSPropertyOp21
 70
     1
102
RTVSPropertyOp22
 70
     1
102
RTVSPropertyOp23
 70
     1
102
RTVSPropertyOp24
 70
     1
102
RTVSPropertyOp25
 70
     1
102
RTVSPropertyOp26
 70
     1
102
RTVSPropertyOp27
 70
     1
102
RTVSPropertyOp28
 70
     1
102
RTVSPropertyOp29
 70
     1
102
RTVSPropertyOp30
 70
     1
102
RTVSPropertyOp31
 70
     1
102
RTVSPropertyOp32
 70
     1
  0
XRECORD
  5
8DC7
102
{ACAD_REACTORS
330
8DC6
102
}
330
8DC6
100
AcDbXrecord
280
     1
102
RTVSPropertyOp0
 70
     1
102
RTVSPropertyOp1
 70
     1
102
RTVSPropertyOp2
 70
     1
102
RTVSPropertyOp3
 70
     1
102
RTVSPropertyOp4
 70
     1
102
RTVSPropertyOp5
 70
     1
102
RTVSPropertyOp6
 70
     1
102
RTVSPropertyOp7
 70
     1
102
RTVSPropertyOp8
 70
     1
102
RTVSPropertyOp9
 70
     1
102
RTVSPropertyOp10
 70
     1
102
RTVSPropertyOp11
 70
     1
102
RTVSPropertyOp12
 70
     1
102
RTVSPropertyOp13
 70
     1
102
RTVSPropertyOp14
 70
     1
102
RTVSPropertyOp15
 70
     1
102
RTVSPropertyOp16
 70
     1
102
RTVSPropertyOp17
 70
     1
102
RTVSPropertyOp18
 70
     1
102
RTVSPropertyOp19
 70
     1
102
RTVSPropertyOp20
 70
     1
102
RTVSPropertyOp21
 70
     1
102
RTVSPropertyOp22
 70
     1
102
RTVSPropertyOp23
 70
     1
102
RTVSPropertyOp24
 70
     1
102
RTVSPropertyOp25
 70
     1
102
RTVSPropertyOp26
 70
     1
102
RTVSPropertyOp27
 70
     1
102
RTVSPropertyOp28
 70
     1
102
RTVSPropertyOp29
 70
     1
102
RTVSPropertyOp30
 70
     1
102
RTVSPropertyOp31
 70
     1
102
RTVSPropertyOp32
 70
     1
  0
XRECORD
  5
8DC9
102
{ACAD_REACTORS
330
8DC8
102
}
330
8DC8
100
AcDbXrecord
280
     1
102
RTVSPropertyOp0
 70
     1
102
RTVSPropertyOp1
 70
     1
102
RTVSPropertyOp2
 70
     1
102
RTVSPropertyOp3
 70
     1
102
RTVSPropertyOp4
 70
     1
102
RTVSPropertyOp5
 70
     1
102
RTVSPropertyOp6
 70
     1
102
RTVSPropertyOp7
 70
     1
102
RTVSPropertyOp8
 70
     1
102
RTVSPropertyOp9
 70
     1
102
RTVSPropertyOp10
 70
     1
102
RTVSPropertyOp11
 70
     1
102
RTVSPropertyOp12
 70
     1
102
RTVSPropertyOp13
 70
     1
102
RTVSPropertyOp14
 70
     1
102
RTVSPropertyOp15
 70
     1
102
RTVSPropertyOp16
 70
     1
102
RTVSPropertyOp17
 70
     1
102
RTVSPropertyOp18
 70
     1
102
RTVSPropertyOp19
 70
     1
102
RTVSPropertyOp20
 70
     1
102
RTVSPropertyOp21
 70
     1
102
RTVSPropertyOp22
 70
     1
102
RTVSPropertyOp23
 70
     1
102
RTVSPropertyOp24
 70
     1
102
RTVSPropertyOp25
 70
     1
102
RTVSPropertyOp26
 70
     1
102
RTVSPropertyOp27
 70
     1
102
RTVSPropertyOp28
 70
     1
102
RTVSPropertyOp29
 70
     1
102
RTVSPropertyOp30
 70
     1
102
RTVSPropertyOp31
 70
     1
102
RTVSPropertyOp32
 70
     1
  0
XRECORD
  5
8DE5
102
{ACAD_REACTORS
330
8DE4
102
}
330
8DE4
100
AcDbXrecord
280
     1
102
RTVSPropertyOp0
 70
     1
102
RTVSPropertyOp1
 70
     1
102
RTVSPropertyOp2
 70
     1
102
RTVSPropertyOp3
 70
     1
102
RTVSPropertyOp4
 70
     1
102
RTVSPropertyOp5
 70
     1
102
RTVSPropertyOp6
 70
     1
102
RTVSPropertyOp7
 70
     1
102
RTVSPropertyOp8
 70
     1
102
RTVSPropertyOp9
 70
     1
102
RTVSPropertyOp10
 70
     1
102
RTVSPropertyOp11
 70
     1
102
RTVSPropertyOp12
 70
     1
102
RTVSPropertyOp13
 70
     1
102
RTVSPropertyOp14
 70
     1
102
RTVSPropertyOp15
 70
     1
102
RTVSPropertyOp16
 70
     1
102
RTVSPropertyOp17
 70
     1
102
RTVSPropertyOp18
 70
     1
102
RTVSPropertyOp19
 70
     1
102
RTVSPropertyOp20
 70
     1
102
RTVSPropertyOp21
 70
     1
102
RTVSPropertyOp22
 70
     1
102
RTVSPropertyOp23
 70
     1
102
RTVSPropertyOp24
 70
     1
102
RTVSPropertyOp25
 70
     1
102
RTVSPropertyOp26
 70
     1
102
RTVSPropertyOp27
 70
     1
102
RTVSPropertyOp28
 70
     1
102
RTVSPropertyOp29
 70
     1
102
RTVSPropertyOp30
 70
     1
102
RTVSPropertyOp31
 70
     1
102
RTVSPropertyOp32
 70
     1
  0
XRECORD
  5
8DF1
102
{ACAD_REACTORS
330
8DF0
102
}
330
8DF0
100
AcDbXrecord
280
     1
102
RTVSPropertyOp0
 70
     0
102
RTVSPropertyOp1
 70
     0
102
RTVSPropertyOp2
 70
     0
102
RTVSPropertyOp3
 70
     0
102
RTVSPropertyOp4
 70
     0
102
RTVSPropertyOp5
 70
     0
102
RTVSPropertyOp6
 70
     0
102
RTVSPropertyOp7
 70
     0
102
RTVSPropertyOp8
 70
     0
102
RTVSPropertyOp9
 70
     0
102
RTVSPropertyOp10
 70
     0
102
RTVSPropertyOp11
 70
     0
102
RTVSPropertyOp12
 70
     0
102
RTVSPropertyOp13
 70
     0
102
RTVSPropertyOp14
 70
     2
102
RTVSPropertyOp15
 70
     0
102
RTVSPropertyOp16
 70
     0
102
RTVSPropertyOp17
 70
     0
102
RTVSPropertyOp18
 70
     0
102
RTVSPropertyOp19
 70
     0
102
RTVSPropertyOp20
 70
     0
102
RTVSPropertyOp21
 70
     0
102
RTVSPropertyOp22
 70
     0
102
RTVSPropertyOp23
 70
     0
102
RTVSPropertyOp24
 70
     0
102
RTVSPropertyOp25
 70
     0
102
RTVSPropertyOp26
 70
     0
102
RTVSPropertyOp27
 70
     0
102
RTVSPropertyOp28
 70
     0
102
RTVSPropertyOp29
 70
     0
102
RTVSPropertyOp30
 70
     0
102
RTVSPropertyOp31
 70
     0
102
RTVSPropertyOp32
 70
     0
  0
XRECORD
  5
8DDD
102
{ACAD_REACTORS
330
8DDC
102
}
330
8DDC
100
AcDbXrecord
280
     1
102
RTVSPropertyOp0
 70
     1
102
RTVSPropertyOp1
 70
     1
102
RTVSPropertyOp2
 70
     1
102
RTVSPropertyOp3
 70
     1
102
RTVSPropertyOp4
 70
     1
102
RTVSPropertyOp5
 70
     1
102
RTVSPropertyOp6
 70
     1
102
RTVSPropertyOp7
 70
     1
102
RTVSPropertyOp8
 70
     1
102
RTVSPropertyOp9
 70
     1
102
RTVSPropertyOp10
 70
     1
102
RTVSPropertyOp11
 70
     1
102
RTVSPropertyOp12
 70
     1
102
RTVSPropertyOp13
 70
     1
102
RTVSPropertyOp14
 70
     1
102
RTVSPropertyOp15
 70
     1
102
RTVSPropertyOp16
 70
     1
102
RTVSPropertyOp17
 70
     1
102
RTVSPropertyOp18
 70
     1
102
RTVSPropertyOp19
 70
     1
102
RTVSPropertyOp20
 70
     1
102
RTVSPropertyOp21
 70
     1
102
RTVSPropertyOp22
 70
     1
102
RTVSPropertyOp23
 70
     1
102
RTVSPropertyOp24
 70
     1
102
RTVSPropertyOp25
 70
     1
102
RTVSPropertyOp26
 70
     1
102
RTVSPropertyOp27
 70
     1
102
RTVSPropertyOp28
 70
     1
102
RTVSPropertyOp29
 70
     1
102
RTVSPropertyOp30
 70
     1
102
RTVSPropertyOp31
 70
     1
102
RTVSPropertyOp32
 70
     1
  0
XRECORD
  5
8DF3
102
{ACAD_REACTORS
330
8DF2
102
}
330
8DF2
100
AcDbXrecord
280
     1
102
RTVSPropertyOp0
 70
     0
102
RTVSPropertyOp1
 70
     0
102
RTVSPropertyOp2
 70
     0
102
RTVSPropertyOp3
 70
     0
102
RTVSPropertyOp4
 70
     0
102
RTVSPropertyOp5
 70
     0
102
RTVSPropertyOp6
 70
     0
102
RTVSPropertyOp7
 70
     0
102
RTVSPropertyOp8
 70
     0
102
RTVSPropertyOp9
 70
     0
102
RTVSPropertyOp10
 70
     0
102
RTVSPropertyOp11
 70
     0
102
RTVSPropertyOp12
 70
     0
102
RTVSPropertyOp13
 70
     0
102
RTVSPropertyOp14
 70
     2
102
RTVSPropertyOp15
 70
     0
102
RTVSPropertyOp16
 70
     0
102
RTVSPropertyOp17
 70
     0
102
RTVSPropertyOp18
 70
     0
102
RTVSPropertyOp19
 70
     0
102
RTVSPropertyOp20
 70
     0
102
RTVSPropertyOp21
 70
     0
102
RTVSPropertyOp22
 70
     0
102
RTVSPropertyOp23
 70
     0
102
RTVSPropertyOp24
 70
     0
102
RTVSPropertyOp25
 70
     0
102
RTVSPropertyOp26
 70
     0
102
RTVSPropertyOp27
 70
     0
102
RTVSPropertyOp28
 70
     0
102
RTVSPropertyOp29
 70
     0
102
RTVSPropertyOp30
 70
     0
102
RTVSPropertyOp31
 70
     0
102
RTVSPropertyOp32
 70
     0
  0
XRECORD
  5
8DD5
102
{ACAD_REACTORS
330
8DD4
102
}
330
8DD4
100
AcDbXrecord
280
     1
102
RTVSPropertyOp0
 70
     1
102
RTVSPropertyOp1
 70
     1
102
RTVSPropertyOp2
 70
     1
102
RTVSPropertyOp3
 70
     1
102
RTVSPropertyOp4
 70
     1
102
RTVSPropertyOp5
 70
     1
102
RTVSPropertyOp6
 70
     1
102
RTVSPropertyOp7
 70
     1
102
RTVSPropertyOp8
 70
     1
102
RTVSPropertyOp9
 70
     1
102
RTVSPropertyOp10
 70
     1
102
RTVSPropertyOp11
 70
     1
102
RTVSPropertyOp12
 70
     1
102
RTVSPropertyOp13
 70
     1
102
RTVSPropertyOp14
 70
     1
102
RTVSPropertyOp15
 70
     1
102
RTVSPropertyOp16
 70
     1
102
RTVSPropertyOp17
 70
     1
102
RTVSPropertyOp18
 70
     1
102
RTVSPropertyOp19
 70
     1
102
RTVSPropertyOp20
 70
     1
102
RTVSPropertyOp21
 70
     1
102
RTVSPropertyOp22
 70
     1
102
RTVSPropertyOp23
 70
     1
102
RTVSPropertyOp24
 70
     1
102
RTVSPropertyOp25
 70
     1
102
RTVSPropertyOp26
 70
     1
102
RTVSPropertyOp27
 70
     1
102
RTVSPropertyOp28
 70
     1
102
RTVSPropertyOp29
 70
     1
102
RTVSPropertyOp30
 70
     1
102
RTVSPropertyOp31
 70
     1
102
RTVSPropertyOp32
 70
     1
  0
XRECORD
  5
8DEF
102
{ACAD_REACTORS
330
8DEE
102
}
330
8DEE
100
AcDbXrecord
280
     1
102
RTVSPropertyOp0
 70
     1
102
RTVSPropertyOp1
 70
     1
102
RTVSPropertyOp2
 70
     1
102
RTVSPropertyOp3
 70
     1
102
RTVSPropertyOp4
 70
     1
102
RTVSPropertyOp5
 70
     1
102
RTVSPropertyOp6
 70
     1
102
RTVSPropertyOp7
 70
     1
102
RTVSPropertyOp8
 70
     1
102
RTVSPropertyOp9
 70
     1
102
RTVSPropertyOp10
 70
     1
102
RTVSPropertyOp11
 70
     1
102
RTVSPropertyOp12
 70
     1
102
RTVSPropertyOp13
 70
     1
102
RTVSPropertyOp14
 70
     1
102
RTVSPropertyOp15
 70
     1
102
RTVSPropertyOp16
 70
     1
102
RTVSPropertyOp17
 70
     1
102
RTVSPropertyOp18
 70
     1
102
RTVSPropertyOp19
 70
     1
102
RTVSPropertyOp20
 70
     1
102
RTVSPropertyOp21
 70
     1
102
RTVSPropertyOp22
 70
     1
102
RTVSPropertyOp23
 70
     1
102
RTVSPropertyOp24
 70
     1
102
RTVSPropertyOp25
 70
     1
102
RTVSPropertyOp26
 70
     1
102
RTVSPropertyOp27
 70
     1
102
RTVSPropertyOp28
 70
     1
102
RTVSPropertyOp29
 70
     1
102
RTVSPropertyOp30
 70
     1
102
RTVSPropertyOp31
 70
     1
102
RTVSPropertyOp32
 70
     1
  0
XRECORD
  5
8DED
102
{ACAD_REACTORS
330
8DEC
102
}
330
8DEC
100
AcDbXrecord
280
     1
102
RTVSPropertyOp0
 70
     1
102
RTVSPropertyOp1
 70
     1
102
RTVSPropertyOp2
 70
     1
102
RTVSPropertyOp3
 70
     1
102
RTVSPropertyOp4
 70
     1
102
RTVSPropertyOp5
 70
     1
102
RTVSPropertyOp6
 70
     1
102
RTVSPropertyOp7
 70
     1
102
RTVSPropertyOp8
 70
     1
102
RTVSPropertyOp9
 70
     1
102
RTVSPropertyOp10
 70
     1
102
RTVSPropertyOp11
 70
     1
102
RTVSPropertyOp12
 70
     1
102
RTVSPropertyOp13
 70
     1
102
RTVSPropertyOp14
 70
     1
102
RTVSPropertyOp15
 70
     1
102
RTVSPropertyOp16
 70
     1
102
RTVSPropertyOp17
 70
     1
102
RTVSPropertyOp18
 70
     1
102
RTVSPropertyOp19
 70
     1
102
RTVSPropertyOp20
 70
     1
102
RTVSPropertyOp21
 70
     1
102
RTVSPropertyOp22
 70
     1
102
RTVSPropertyOp23
 70
     1
102
RTVSPropertyOp24
 70
     1
102
RTVSPropertyOp25
 70
     1
102
RTVSPropertyOp26
 70
     1
102
RTVSPropertyOp27
 70
     1
102
RTVSPropertyOp28
 70
     1
102
RTVSPropertyOp29
 70
     1
102
RTVSPropertyOp30
 70
     1
102
RTVSPropertyOp31
 70
     1
102
RTVSPropertyOp32
 70
     1
  0
XRECORD
  5
8DE7
102
{ACAD_REACTORS
330
8DE6
102
}
330
8DE6
100
AcDbXrecord
280
     1
102
RTVSPropertyOp0
 70
     1
102
RTVSPropertyOp1
 70
     1
102
RTVSPropertyOp2
 70
     1
102
RTVSPropertyOp3
 70
     1
102
RTVSPropertyOp4
 70
     1
102
RTVSPropertyOp5
 70
     1
102
RTVSPropertyOp6
 70
     1
102
RTVSPropertyOp7
 70
     1
102
RTVSPropertyOp8
 70
     1
102
RTVSPropertyOp9
 70
     1
102
RTVSPropertyOp10
 70
     1
102
RTVSPropertyOp11
 70
     1
102
RTVSPropertyOp12
 70
     1
102
RTVSPropertyOp13
 70
     1
102
RTVSPropertyOp14
 70
     1
102
RTVSPropertyOp15
 70
     1
102
RTVSPropertyOp16
 70
     1
102
RTVSPropertyOp17
 70
     1
102
RTVSPropertyOp18
 70
     1
102
RTVSPropertyOp19
 70
     1
102
RTVSPropertyOp20
 70
     1
102
RTVSPropertyOp21
 70
     1
102
RTVSPropertyOp22
 70
     1
102
RTVSPropertyOp23
 70
     1
102
RTVSPropertyOp24
 70
     1
102
RTVSPropertyOp25
 70
     1
102
RTVSPropertyOp26
 70
     1
102
RTVSPropertyOp27
 70
     1
102
RTVSPropertyOp28
 70
     1
102
RTVSPropertyOp29
 70
     1
102
RTVSPropertyOp30
 70
     1
102
RTVSPropertyOp31
 70
     1
102
RTVSPropertyOp32
 70
     1
  0
XRECORD
  5
8DE9
102
{ACAD_REACTORS
330
8DE8
102
}
330
8DE8
100
AcDbXrecord
280
     1
102
RTVSPropertyOp0
 70
     1
102
RTVSPropertyOp1
 70
     1
102
RTVSPropertyOp2
 70
     1
102
RTVSPropertyOp3
 70
     1
102
RTVSPropertyOp4
 70
     1
102
RTVSPropertyOp5
 70
     1
102
RTVSPropertyOp6
 70
     1
102
RTVSPropertyOp7
 70
     1
102
RTVSPropertyOp8
 70
     1
102
RTVSPropertyOp9
 70
     1
102
RTVSPropertyOp10
 70
     1
102
RTVSPropertyOp11
 70
     1
102
RTVSPropertyOp12
 70
     1
102
RTVSPropertyOp13
 70
     1
102
RTVSPropertyOp14
 70
     1
102
RTVSPropertyOp15
 70
     1
102
RTVSPropertyOp16
 70
     1
102
RTVSPropertyOp17
 70
     1
102
RTVSPropertyOp18
 70
     1
102
RTVSPropertyOp19
 70
     1
102
RTVSPropertyOp20
 70
     1
102
RTVSPropertyOp21
 70
     1
102
RTVSPropertyOp22
 70
     1
102
RTVSPropertyOp23
 70
     1
102
RTVSPropertyOp24
 70
     1
102
RTVSPropertyOp25
 70
     1
102
RTVSPropertyOp26
 70
     1
102
RTVSPropertyOp27
 70
     1
102
RTVSPropertyOp28
 70
     1
102
RTVSPropertyOp29
 70
     1
102
RTVSPropertyOp30
 70
     1
102
RTVSPropertyOp31
 70
     1
102
RTVSPropertyOp32
 70
     1
  0
XRECORD
  5
8DDB
102
{ACAD_REACTORS
330
8DDA
102
}
330
8DDA
100
AcDbXrecord
280
     1
102
RTVSPropertyOp0
 70
     1
102
RTVSPropertyOp1
 70
     1
102
RTVSPropertyOp2
 70
     1
102
RTVSPropertyOp3
 70
     1
102
RTVSPropertyOp4
 70
     1
102
RTVSPropertyOp5
 70
     1
102
RTVSPropertyOp6
 70
     1
102
RTVSPropertyOp7
 70
     1
102
RTVSPropertyOp8
 70
     1
102
RTVSPropertyOp9
 70
     1
102
RTVSPropertyOp10
 70
     1
102
RTVSPropertyOp11
 70
     1
102
RTVSPropertyOp12
 70
     1
102
RTVSPropertyOp13
 70
     1
102
RTVSPropertyOp14
 70
     1
102
RTVSPropertyOp15
 70
     1
102
RTVSPropertyOp16
 70
     1
102
RTVSPropertyOp17
 70
     1
102
RTVSPropertyOp18
 70
     1
102
RTVSPropertyOp19
 70
     1
102
RTVSPropertyOp20
 70
     1
102
RTVSPropertyOp21
 70
     1
102
RTVSPropertyOp22
 70
     1
102
RTVSPropertyOp23
 70
     1
102
RTVSPropertyOp24
 70
     1
102
RTVSPropertyOp25
 70
     1
102
RTVSPropertyOp26
 70
     1
102
RTVSPropertyOp27
 70
     1
102
RTVSPropertyOp28
 70
     1
102
RTVSPropertyOp29
 70
     1
102
RTVSPropertyOp30
 70
     1
102
RTVSPropertyOp31
 70
     1
102
RTVSPropertyOp32
 70
     1
  0
XRECORD
  5
8DE3
102
{ACAD_REACTORS
330
8DE2
102
}
330
8DE2
100
AcDbXrecord
280
     1
102
RTVSPropertyOp0
 70
     1
102
RTVSPropertyOp1
 70
     1
102
RTVSPropertyOp2
 70
     1
102
RTVSPropertyOp3
 70
     1
102
RTVSPropertyOp4
 70
     1
102
RTVSPropertyOp5
 70
     1
102
RTVSPropertyOp6
 70
     1
102
RTVSPropertyOp7
 70
     1
102
RTVSPropertyOp8
 70
     1
102
RTVSPropertyOp9
 70
     1
102
RTVSPropertyOp10
 70
     1
102
RTVSPropertyOp11
 70
     1
102
RTVSPropertyOp12
 70
     1
102
RTVSPropertyOp13
 70
     1
102
RTVSPropertyOp14
 70
     1
102
RTVSPropertyOp15
 70
     1
102
RTVSPropertyOp16
 70
     1
102
RTVSPropertyOp17
 70
     1
102
RTVSPropertyOp18
 70
     1
102
RTVSPropertyOp19
 70
     1
102
RTVSPropertyOp20
 70
     1
102
RTVSPropertyOp21
 70
     1
102
RTVSPropertyOp22
 70
     1
102
RTVSPropertyOp23
 70
     1
102
RTVSPropertyOp24
 70
     1
102
RTVSPropertyOp25
 70
     1
102
RTVSPropertyOp26
 70
     1
102
RTVSPropertyOp27
 70
     1
102
RTVSPropertyOp28
 70
     1
102
RTVSPropertyOp29
 70
     1
102
RTVSPropertyOp30
 70
     1
102
RTVSPropertyOp31
 70
     1
102
RTVSPropertyOp32
 70
     1
  0
XRECORD
  5
8DEB
102
{ACAD_REACTORS
330
8DEA
102
}
330
8DEA
100
AcDbXrecord
280
     1
102
RTVSPropertyOp0
 70
     1
102
RTVSPropertyOp1
 70
     1
102
RTVSPropertyOp2
 70
     1
102
RTVSPropertyOp3
 70
     1
102
RTVSPropertyOp4
 70
     1
102
RTVSPropertyOp5
 70
     1
102
RTVSPropertyOp6
 70
     1
102
RTVSPropertyOp7
 70
     1
102
RTVSPropertyOp8
 70
     1
102
RTVSPropertyOp9
 70
     1
102
RTVSPropertyOp10
 70
     1
102
RTVSPropertyOp11
 70
     1
102
RTVSPropertyOp12
 70
     1
102
RTVSPropertyOp13
 70
     1
102
RTVSPropertyOp14
 70
     1
102
RTVSPropertyOp15
 70
     1
102
RTVSPropertyOp16
 70
     1
102
RTVSPropertyOp17
 70
     1
102
RTVSPropertyOp18
 70
     1
102
RTVSPropertyOp19
 70
     1
102
RTVSPropertyOp20
 70
     1
102
RTVSPropertyOp21
 70
     1
102
RTVSPropertyOp22
 70
     1
102
RTVSPropertyOp23
 70
     1
102
RTVSPropertyOp24
 70
     1
102
RTVSPropertyOp25
 70
     1
102
RTVSPropertyOp26
 70
     1
102
RTVSPropertyOp27
 70
     1
102
RTVSPropertyOp28
 70
     1
102
RTVSPropertyOp29
 70
     1
102
RTVSPropertyOp30
 70
     1
102
RTVSPropertyOp31
 70
     1
102
RTVSPropertyOp32
 70
     1
  0
ENDSEC
  0
EOF
