  0
SECTION
  2
HEADER
  9
$ACADVER
  1
AC1015
  9
$ACADMAINTVER
 70
    20
  9
$DWGCODEPAGE
  3
ANSI_949
  9
$INSBASE
 10
0.0
 20
0.0
 30
0.0
  9
$EXTMIN
 10
0.0000014720044866
 20
0.0000002606565204
 30
0.0
  9
$EXTMAX
 10
411.0000014720038
 20
106.8494175742504
 30
0.0
  9
$LIMMIN
 10
0.0
 20
0.0
  9
$LIMMAX
 10
420.0
 20
297.0
  9
$ORTHOMODE
 70
     1
  9
$REGENMODE
 70
     1
  9
$FILLMODE
 70
     1
  9
$QTEXTMODE
 70
     0
  9
$MIRRTEXT
 70
     1
  9
$LTSCALE
 40
10.0
  9
$ATTMODE
 70
     1
  9
$TEXTSIZE
 40
3.149999999999999
  9
$TRACEWID
 40
0.05
  9
$TEXTSTYLE
  7
H
  9
$CLAYER
  8
0
  9
$CELTYPE
  6
BYLAYER
  9
$CECOLOR
 62
   256
  9
$CELTSCALE
 40
1.0
  9
$DISPSILH
 70
     0
  9
$DIMSCALE
 40
1.5
  9
$DIMASZ
 40
2.5
  9
$DIMEXO
 40
0.8
  9
$DIMDLI
 40
0.8
  9
$DIMRND
 40
0.0
  9
$DIMDLE
 40
0.0
  9
$DIMEXE
 40
0.8
  9
$DIMTP
 40
0.0
  9
$DIMTM
 40
0.0
  9
$DIMTXT
 40
3.0
  9
$DIMCEN
 40
-1.0
  9
$DIMTSZ
 40
0.0
  9
$DIMTOL
 70
     0
  9
$DIMLIM
 70
     0
  9
$DIMTIH
 70
     0
  9
$DIMTOH
 70
     0
  9
$DIMSE1
 70
     0
  9
$DIMSE2
 70
     0
  9
$DIMTAD
 70
     3
  9
$DIMZIN
 70
     8
  9
$DIMBLK
  1

  9
$DIMASO
 70
     1
  9
$DIMSHO
 70
     1
  9
$DIMPOST
  1

  9
$DIMAPOST
  1

  9
$DIMALT
 70
     0
  9
$DIMALTD
 70
     2
  9
$DIMALTF
 40
25.4
  9
$DIMLFAC
 40
1.0
  9
$DIMTOFL
 70
     1
  9
$DIMTVP
 40
0.0
  9
$DIMTIX
 70
     0
  9
$DIMSOXD
 70
     0
  9
$DIMSAH
 70
     0
  9
$DIMBLK1
  1

  9
$DIMBLK2
  1

  9
$DIMSTYLE
  2
STANDARD
  9
$DIMCLRD
 70
   115
  9
$DIMCLRE
 70
   115
  9
$DIMCLRT
 70
     7
  9
$DIMTFAC
 40
1.0
  9
$DIMGAP
 40
1.0
  9
$DIMJUST
 70
     0
  9
$DIMSD1
 70
     0
  9
$DIMSD2
 70
     0
  9
$DIMTOLJ
 70
     1
  9
$DIMTZIN
 70
     0
  9
$DIMALTZ
 70
     0
  9
$DIMALTTZ
 70
     0
  9
$DIMUPT
 70
     0
  9
$DIMDEC
 70
     3
  9
$DIMTDEC
 70
     4
  9
$DIMALTU
 70
     2
  9
$DIMALTTD
 70
     2
  9
$DIMTXSTY
  7
STANDARD
  9
$DIMAUNIT
 70
     0
  9
$DIMADEC
 70
     0
  9
$DIMALTRND
 40
0.0
  9
$DIMAZIN
 70
     0
  9
$DIMDSEP
 70
    46
  9
$DIMATFIT
 70
     3
  9
$DIMFRAC
 70
     0
  9
$DIMLDRBLK
  1

  9
$DIMLUNIT
 70
     2
  9
$DIMLWD
 70
    -2
  9
$DIMLWE
 70
    -2
  9
$DIMTMOVE
 70
     0
  9
$LUNITS
 70
     2
  9
$LUPREC
 70
     4
  9
$SKETCHINC
 40
0.1
  9
$FILLETRAD
 40
0.0
  9
$AUNITS
 70
     0
  9
$AUPREC
 70
     0
  9
$MENU
  1
.
  9
$ELEVATION
 40
0.0
  9
$PELEVATION
 40
0.0
  9
$THICKNESS
 40
0.0
  9
$LIMCHECK
 70
     0
  9
$CHAMFERA
 40
1.0
  9
$CHAMFERB
 40
1.0
  9
$CHAMFERC
 40
1.0
  9
$CHAMFERD
 40
0.0
  9
$SKPOLY
 70
     1
  9
$TDCREATE
 40
2452464.575009942
  9
$TDUCREATE
 40
2452464.200009942
  9
$TDUPDATE
 40
2456842.717336400
  9
$TDUUPDATE
 40
2456842.342336400
  9
$TDINDWG
 40
0.2719614120
  9
$TDUSRTIMER
 40
0.2719613657
  9
$USRTIMER
 70
     1
  9
$ANGBASE
 50
0.0
  9
$ANGDIR
 70
     0
  9
$PDMODE
 70
     0
  9
$PDSIZE
 40
0.0
  9
$PLINEWID
 40
0.5
  9
$SPLFRAME
 70
     0
  9
$SPLINETYPE
 70
     6
  9
$SPLINESEGS
 70
     8
  9
$HANDSEED
  5
8358
  9
$SURFTAB1
 70
     6
  9
$SURFTAB2
 70
     6
  9
$SURFTYPE
 70
     6
  9
$SURFU
 70
     6
  9
$SURFV
 70
     6
  9
$UCSBASE
  2

  9
$UCSNAME
  2

  9
$UCSORG
 10
0.0
 20
0.0
 30
0.0
  9
$UCSXDIR
 10
1.0
 20
0.0
 30
0.0
  9
$UCSYDIR
 10
0.0
 20
1.0
 30
0.0
  9
$UCSORTHOREF
  2

  9
$UCSORTHOVIEW
 70
     0
  9
$UCSORGTOP
 10
0.0
 20
0.0
 30
0.0
  9
$UCSORGBOTTOM
 10
0.0
 20
0.0
 30
0.0
  9
$UCSORGLEFT
 10
0.0
 20
0.0
 30
0.0
  9
$UCSORGRIGHT
 10
0.0
 20
0.0
 30
0.0
  9
$UCSORGFRONT
 10
0.0
 20
0.0
 30
0.0
  9
$UCSORGBACK
 10
0.0
 20
0.0
 30
0.0
  9
$PUCSBASE
  2

  9
$PUCSNAME
  2

  9
$PUCSORG
 10
0.0
 20
0.0
 30
0.0
  9
$PUCSXDIR
 10
1.0
 20
0.0
 30
0.0
  9
$PUCSYDIR
 10
0.0
 20
1.0
 30
0.0
  9
$PUCSORTHOREF
  2

  9
$PUCSORTHOVIEW
 70
     0
  9
$PUCSORGTOP
 10
0.0
 20
0.0
 30
0.0
  9
$PUCSORGBOTTOM
 10
0.0
 20
0.0
 30
0.0
  9
$PUCSORGLEFT
 10
0.0
 20
0.0
 30
0.0
  9
$PUCSORGRIGHT
 10
0.0
 20
0.0
 30
0.0
  9
$PUCSORGFRONT
 10
0.0
 20
0.0
 30
0.0
  9
$PUCSORGBACK
 10
0.0
 20
0.0
 30
0.0
  9
$USERI1
 70
     0
  9
$USERI2
 70
   452
  9
$USERI3
 70
     1
  9
$USERI4
 70
     0
  9
$USERI5
 70
     0
  9
$USERR1
 40
0.0
  9
$USERR2
 40
0.0
  9
$USERR3
 40
0.0
  9
$USERR4
 40
0.0
  9
$USERR5
 40
0.0
  9
$WORLDVIEW
 70
     1
  9
$SHADEDGE
 70
     3
  9
$SHADEDIF
 70
    70
  9
$TILEMODE
 70
     1
  9
$MAXACTVP
 70
    48
  9
$PINSBASE
 10
0.0
 20
0.0
 30
0.0
  9
$PLIMCHECK
 70
     0
  9
$PEXTMIN
 10
1.000000000000000E+20
 20
1.000000000000000E+20
 30
1.000000000000000E+20
  9
$PEXTMAX
 10
-1.000000000000000E+20
 20
-1.000000000000000E+20
 30
-1.000000000000000E+20
  9
$PLIMMIN
 10
0.0
 20
0.0
  9
$PLIMMAX
 10
12.0
 20
9.0
  9
$UNITMODE
 70
     0
  9
$VISRETAIN
 70
     1
  9
$PLINEGEN
 70
     0
  9
$PSLTSCALE
 70
     1
  9
$TREEDEPTH
 70
  3020
  9
$CMLSTYLE
  2
STANDARD
  9
$CMLJUST
 70
     0
  9
$CMLSCALE
 40
1.0
  9
$PROXYGRAPHICS
 70
     1
  9
$MEASUREMENT
 70
     0
  9
$CELWEIGHT
370
    -1
  9
$ENDCAPS
280
     0
  9
$JOINSTYLE
280
     0
  9
$LWDISPLAY
290
     0
  9
$INSUNITS
 70
     0
  9
$HYPERLINKBASE
  1

  9
$STYLESHEET
  1

  9
$XEDIT
290
     1
  9
$CEPSNTYPE
380
     0
  9
$PSTYLEMODE
290
     1
  9
$FINGERPRINTGUID
  2
{2CFC330B-70A6-4C03-853A-EE4F5269D331}
  9
$VERSIONGUID
  2
{8FA19A6D-6F07-44DB-B9CF-49975BB67724}
  9
$EXTNAMES
290
     1
  9
$PSVPSCALE
 40
0.0
  9
$OLESTARTUP
290
     0
  0
ENDSEC
  0
SECTION
  2
CLASSES
  0
CLASS
  1
DICTIONARYVAR
  2
AcDbDictionaryVar
  3
ObjectDBX Classes
 90
        0
280
     0
281
     0
  0
CLASS
  1
ACDBDICTIONARYWDFLT
  2
AcDbDictionaryWithDefault
  3
ObjectDBX Classes
 90
        0
280
     0
281
     0
  0
CLASS
  1
TABLESTYLE
  2
AcDbTableStyle
  3
ObjectDBX Classes
 90
     4095
280
     0
281
     0
  0
CLASS
  1
ACDBPLACEHOLDER
  2
AcDbPlaceHolder
  3
ObjectDBX Classes
 90
        0
280
     0
281
     0
  0
CLASS
  1
LAYOUT
  2
AcDbLayout
  3
ObjectDBX Classes
 90
        0
280
     0
281
     0
  0
CLASS
  1
MATERIAL
  2
AcDbMaterial
  3
ObjectDBX Classes
 90
     1153
280
     0
281
     0
  0
CLASS
  1
VISUALSTYLE
  2
AcDbVisualStyle
  3
ObjectDBX Classes
 90
     4095
280
     0
281
     0
  0
CLASS
  1
SCALE
  2
AcDbScale
  3
ObjectDBX Classes
 90
     1153
280
     0
281
     0
  0
CLASS
  1
MLEADERSTYLE
  2
AcDbMLeaderStyle
  3
ACDB_MLEADERSTYLE_CLASS
 90
     4095
280
     0
281
     0
  0
CLASS
  1
CELLSTYLEMAP
  2
AcDbCellStyleMap
  3
ObjectDBX Classes
 90
     1152
280
     0
281
     0
  0
CLASS
  1
SORTENTSTABLE
  2
AcDbSortentsTable
  3
ObjectDBX Classes
 90
        0
280
     0
281
     0
  0
CLASS
  1
ACAD_EVALUATION_GRAPH
  2
AcDbEvalGraph
  3
ObjectDBX Classes
 90
     1153
280
     0
281
     0
  0
CLASS
  1
ACAECUSTOBJ
  2
AcAeEditorObj
  3
AcAeEditorObj
 90
    33792
280
     0
281
     0
  0
CLASS
  1
ACDB_DYNAMICBLOCKPURGEPREVENTER_VERSION
  2
AcDbDynamicBlockPurgePreventer
  3
ObjectDBX Classes
 90
     1153
280
     0
281
     0
  0
ENDSEC
  0
SECTION
  2
TABLES
  0
TABLE
  2
VPORT
  5
8
102
{ACAD_XDICTIONARY
360
7FE5
102
}
330
0
100
AcDbSymbolTable
 70
     1
  0
VPORT
  5
7336
330
8
100
AcDbSymbolTableRecord
100
AcDbViewportTableRecord
  2
*Active
 70
     0
 10
0.0
 20
0.0
 11
1.0
 21
1.0
 12
205.4978952597569
 22
53.42157040503991
 13
0.0
 23
0.0
 14
0.5
 24
0.5
 15
0.5
 25
0.5
 16
0.0
 26
0.0
 36
1.0
 17
0.0
 27
0.0
 37
0.0
 40
182.6990671280175
 41
2.257287705956907
 42
50.0
 43
0.0
 44
0.0
 50
0.0
 51
0.0
 71
     0
 72
   100
 73
     1
 74
     1
 75
     0
 76
     0
 77
     0
 78
     0
281
     0
 65
     1
110
0.0
120
0.0
130
0.0
111
1.0
121
0.0
131
0.0
112
0.0
122
1.0
132
0.0
 79
     0
146
0.0
1001
ACAD_NAV_VCDISPLAY
1070
     3
  0
ENDTAB
  0
TABLE
  2
LTYPE
  5
5
330
0
100
AcDbSymbolTable
 70
     3
  0
LTYPE
  5
13
330
5
100
AcDbSymbolTableRecord
100
AcDbLinetypeTableRecord
  2
BYBLOCK
 70
     0
  3

 72
    65
 73
     0
 40
0.0
  0
LTYPE
  5
14
330
5
100
AcDbSymbolTableRecord
100
AcDbLinetypeTableRecord
  2
BYLAYER
 70
     0
  3

 72
    65
 73
     0
 40
0.0
  0
LTYPE
  5
15
330
5
100
AcDbSymbolTableRecord
100
AcDbLinetypeTableRecord
  2
CONTINUOUS
 70
     0
  3
Solid line
 72
    65
 73
     0
 40
0.0
  0
LTYPE
  5
7DAA
330
5
100
AcDbSymbolTableRecord
100
AcDbLinetypeTableRecord
  2
CENTER
 70
     0
  3
Center ____ _ ____ _ ____ _ ____ _ ____ _ ____
 72
    65
 73
     4
 40
2.0
 49
1.25
 74
     0
 49
-0.25
 74
     0
 49
0.25
 74
     0
 49
-0.25
 74
     0
  0
LTYPE
  5
7DAB
330
5
100
AcDbSymbolTableRecord
100
AcDbLinetypeTableRecord
  2
HIDDEN
 70
     0
  3
Hidden __ __ __ __ __ __ __ __ __ __ __ __ __ _
 72
    65
 73
     2
 40
0.375
 49
0.25
 74
     0
 49
-0.125
 74
     0
  0
ENDTAB
  0
TABLE
  2
LAYER
  5
2
330
0
100
AcDbSymbolTable
 70
     5
  0
LAYER
  5
F
102
{ACAD_XDICTIONARY
360
7409
102
}
330
2
100
AcDbSymbolTableRecord
100
AcDbLayerTableRecord
  2
0
 70
     0
 62
     7
  6
CONTINUOUS
370
    -3
390
728C
  0
LAYER
  5
24EF
330
2
100
AcDbSymbolTableRecord
100
AcDbLayerTableRecord
  2
DEFPOINTS
 70
     0
 62
     7
  6
CONTINUOUS
290
     0
370
    -3
390
728C
  0
LAYER
  5
7DAC
102
{ACAD_XDICTIONARY
360
7DAD
102
}
330
2
100
AcDbSymbolTableRecord
100
AcDbLayerTableRecord
  2
9
 70
     0
 62
     3
  6
CONTINUOUS
370
    -3
390
728C
  0
LAYER
  5
7DAE
102
{ACAD_XDICTIONARY
360
7DAF
102
}
330
2
100
AcDbSymbolTableRecord
100
AcDbLayerTableRecord
  2
1
 70
     0
 62
     1
  6
CENTER
370
    -3
390
728C
  0
LAYER
  5
7DB0
102
{ACAD_XDICTIONARY
360
7DB1
102
}
330
2
100
AcDbSymbolTableRecord
100
AcDbLayerTableRecord
  2
2
 70
     0
 62
     2
  6
HIDDEN
370
    -3
390
728C
  0
ENDTAB
  0
TABLE
  2
STYLE
  5
3
330
0
100
AcDbSymbolTable
 70
     2
  0
STYLE
  5
10
330
3
100
AcDbSymbolTableRecord
100
AcDbTextStyleTableRecord
  2
STANDARD
 70
     0
 40
0.0
 41
1.0
 50
0.0
 71
     0
 42
3.0
  3
romans.shx
  4

  0
STYLE
  5
72A0
330
3
100
AcDbSymbolTableRecord
100
AcDbTextStyleTableRecord
  2
H
 70
     0
 40
0.0
 41
1.0
 50
0.0
 71
     0
 42
3.149999999999999
  3
txt.shx
  4

  0
ENDTAB
  0
TABLE
  2
VIEW
  5
6
330
0
100
AcDbSymbolTable
 70
     0
  0
ENDTAB
  0
TABLE
  2
UCS
  5
7
330
0
100
AcDbSymbolTable
 70
     0
  0
ENDTAB
  0
TABLE
  2
APPID
  5
9
330
0
100
AcDbSymbolTable
 70
     9
  0
APPID
  5
11
330
9
100
AcDbSymbolTableRecord
100
AcDbRegAppTableRecord
  2
ACAD
 70
     0
  0
APPID
  5
2325
330
9
100
AcDbSymbolTableRecord
100
AcDbRegAppTableRecord
  2
MCLBOMATTRIB
 70
     0
  0
APPID
  5
2326
330
9
100
AcDbSymbolTableRecord
100
AcDbRegAppTableRecord
  2
MCLBOM
 70
     0
  0
APPID
  5
7390
330
9
100
AcDbSymbolTableRecord
100
AcDbRegAppTableRecord
  2
ACAD_MLEADERVER
 70
     0
  0
APPID
  5
7392
330
9
100
AcDbSymbolTableRecord
100
AcDbRegAppTableRecord
  2
ACAD_EXEMPT_FROM_CAD_STANDARDS
 70
     0
  0
APPID
  5
7582
330
9
100
AcDbSymbolTableRecord
100
AcDbRegAppTableRecord
  2
ACAD_NAV_VCDISPLAY
 70
     0
  0
APPID
  5
8139
330
9
100
AcDbSymbolTableRecord
100
AcDbRegAppTableRecord
  2
ACAUTHENVIRON
 70
     0
  0
APPID
  5
8143
330
9
100
AcDbSymbolTableRecord
100
AcDbRegAppTableRecord
  2
AcDbDynamicBlockTrueName
 70
     0
  0
APPID
  5
8144
330
9
100
AcDbSymbolTableRecord
100
AcDbRegAppTableRecord
  2
AcDbDynamicBlockGUID
 70
     0
  0
ENDTAB
  0
TABLE
  2
DIMSTYLE
  5
A
330
0
100
AcDbSymbolTable
 70
     1
100
AcDbDimStyleTable
 71
     1
340
1D
  0
DIMSTYLE
105
1D
102
{ACAD_REACTORS
330
7DDA
330
7DDB
330
7DDC
330
7DDD
330
7DDE
330
7DDF
330
7DE0
330
7DE1
330
7DE2
330
7DE3
330
7DE4
330
7DE5
330
7DE8
330
7DEA
330
7DEB
330
7DEC
330
7DED
330
7DEE
102
}
330
A
100
AcDbSymbolTableRecord
100
AcDbDimStyleTableRecord
  2
STANDARD
 70
     0
 41
2.0
140
3.0
176
     2
177
     2
178
     4
340
10
  0
ENDTAB
  0
TABLE
  2
BLOCK_RECORD
  5
1
330
0
100
AcDbSymbolTable
 70
    22
  0
BLOCK_RECORD
  5
19
102
{ACAD_XDICTIONARY
360
782C
102
}
330
1
100
AcDbSymbolTableRecord
100
AcDbBlockTableRecord
  2
*MODEL_SPACE
340
7293
  0
BLOCK_RECORD
  5
16
330
1
100
AcDbSymbolTableRecord
100
AcDbBlockTableRecord
  2
*PAPER_SPACE
340
7294
  0
BLOCK_RECORD
  5
7D59
102
{ACAD_XDICTIONARY
360
7D5A
102
}
330
1
100
AcDbSymbolTableRecord
100
AcDbBlockTableRecord
  2
A$C753C6721
340
0
102
{BLKREFS
331
7DEF
102
}
  0
BLOCK_RECORD
  5
7D8E
102
{ACAD_XDICTIONARY
360
8160
102
}
330
1
100
AcDbSymbolTableRecord
100
AcDbBlockTableRecord
  2
*U2
340
0
102
{BLKREFS
331
7DF9
102
}
1001
ACAUTHENVIRON
1005
8146
1001
AcDbDynamicBlockTrueName
1000
A$C4FB77556
1001
AcDbDynamicBlockGUID
1000
{C5045BE8-D7B2-437A-8635-8DE5325D7DED}
  0
BLOCK_RECORD
  5
7DFA
330
1
100
AcDbSymbolTableRecord
100
AcDbBlockTableRecord
  2
*D3
340
0
  0
BLOCK_RECORD
  5
7E06
330
1
100
AcDbSymbolTableRecord
100
AcDbBlockTableRecord
  2
*D4
340
0
  0
BLOCK_RECORD
  5
7E12
330
1
100
AcDbSymbolTableRecord
100
AcDbBlockTableRecord
  2
*D5
340
0
  0
BLOCK_RECORD
  5
7E1E
330
1
100
AcDbSymbolTableRecord
100
AcDbBlockTableRecord
  2
*D6
340
0
  0
BLOCK_RECORD
  5
7E2A
330
1
100
AcDbSymbolTableRecord
100
AcDbBlockTableRecord
  2
*D7
340
0
  0
BLOCK_RECORD
  5
7E36
330
1
100
AcDbSymbolTableRecord
100
AcDbBlockTableRecord
  2
*D8
340
0
  0
BLOCK_RECORD
  5
7E42
330
1
100
AcDbSymbolTableRecord
100
AcDbBlockTableRecord
  2
*D9
340
0
  0
BLOCK_RECORD
  5
7E4E
330
1
100
AcDbSymbolTableRecord
100
AcDbBlockTableRecord
  2
*D10
340
0
  0
BLOCK_RECORD
  5
7E5C
330
1
100
AcDbSymbolTableRecord
100
AcDbBlockTableRecord
  2
*D11
340
0
  0
BLOCK_RECORD
  5
7E68
330
1
100
AcDbSymbolTableRecord
100
AcDbBlockTableRecord
  2
*D12
340
0
  0
BLOCK_RECORD
  5
7E74
330
1
100
AcDbSymbolTableRecord
100
AcDbBlockTableRecord
  2
*D13
340
0
  0
BLOCK_RECORD
  5
7E80
330
1
100
AcDbSymbolTableRecord
100
AcDbBlockTableRecord
  2
*D14
340
0
  0
BLOCK_RECORD
  5
7E8E
330
1
100
AcDbSymbolTableRecord
100
AcDbBlockTableRecord
  2
*D15
340
0
  0
BLOCK_RECORD
  5
7EA7
330
1
100
AcDbSymbolTableRecord
100
AcDbBlockTableRecord
  2
*D16
340
0
  0
BLOCK_RECORD
  5
7EB5
330
1
100
AcDbSymbolTableRecord
100
AcDbBlockTableRecord
  2
*D17
340
0
  0
BLOCK_RECORD
  5
7EC1
330
1
100
AcDbSymbolTableRecord
100
AcDbBlockTableRecord
  2
*D18
340
0
  0
BLOCK_RECORD
  5
7ECF
330
1
100
AcDbSymbolTableRecord
100
AcDbBlockTableRecord
  2
*D19
340
0
  0
BLOCK_RECORD
  5
7EDD
330
1
100
AcDbSymbolTableRecord
100
AcDbBlockTableRecord
  2
*D20
340
0
  0
BLOCK_RECORD
  5
804C
102
{ACAD_XDICTIONARY
360
8237
102
}
330
1
100
AcDbSymbolTableRecord
100
AcDbBlockTableRecord
  2
2005SDK
340
0
310
2800000020000000200000000100080000000000000400000000000000000000000000000000000000000000000080000080000000808000800000008000800080800000C0C0C000C0DCC000F0CAA6000020400000206000002080000020A0000020C0000020E00000400000004020000040400000406000004080000040A0
310
000040C0000040E00000600000006020000060400000606000006080000060A0000060C0000060E00000800000008020000080400000806000008080000080A0000080C0000080E00000A0000000A0200000A0400000A0600000A0800000A0A00000A0C00000A0E00000C0000000C0200000C0400000C0600000C0800000C0
310
A00000C0C00000C0E00000E0000000E0200000E0400000E0600000E0800000E0A00000E0C00000E0E00040000000400020004000400040006000400080004000A0004000C0004000E00040200000402020004020400040206000402080004020A0004020C0004020E000404000004040200040404000404060004040800040
310
40A0004040C0004040E00040600000406020004060400040606000406080004060A0004060C0004060E00040800000408020004080400040806000408080004080A0004080C0004080E00040A0000040A0200040A0400040A0600040A0800040A0A00040A0C00040A0E00040C0000040C0200040C0400040C0600040C08000
310
40C0A00040C0C00040C0E00040E0000040E0200040E0400040E0600040E0800040E0A00040E0C00040E0E00080000000800020008000400080006000800080008000A0008000C0008000E00080200000802020008020400080206000802080008020A0008020C0008020E00080400000804020008040400080406000804080
310
008040A0008040C0008040E00080600000806020008060400080606000806080008060A0008060C0008060E00080800000808020008080400080806000808080008080A0008080C0008080E00080A0000080A0200080A0400080A0600080A0800080A0A00080A0C00080A0E00080C0000080C0200080C0400080C0600080C0
310
800080C0A00080C0C00080C0E00080E0000080E0200080E0400080E0600080E0800080E0A00080E0C00080E0E000C0000000C0002000C0004000C0006000C0008000C000A000C000C000C000E000C0200000C0202000C0204000C0206000C0208000C020A000C020C000C020E000C0400000C0402000C0404000C0406000C0
310
408000C040A000C040C000C040E000C0600000C0602000C0604000C0606000C0608000C060A000C060C000C060E000C0800000C0802000C0804000C0806000C0808000C080A000C080C000C080E000C0A00000C0A02000C0A04000C0A06000C0A08000C0A0A000C0A0C000C0A0E000C0C00000C0C02000C0C04000C0C06000
310
C0C08000C0C0A000F0FBFF00A4A0A000808080000000FF0000FF000000FFFF00FF000000FF00FF00FFFF0000FFFFFF0049494949494949494949494949494949494949494949494949494949494949494949494949494949494949494949494949494949FFFFFFFFFF49494949494949494949494949494949494949494949
310
4949494949FF494949FFFF4949494949494949494949494949494949494949494949494949FF494949FFFF4949494949494949494949494949494949494949494949494949FF494949FFFF4949494949494949494949494949494949494949494949494949FF494949FFFF4949494949494949494949494949494949494949
310
494949494949FFFFFFFFFFFF49494949494949494949FFFFFFFFFFFFFFFFFFFFFFFFFFFFFFFFFF49494949FFFFFF4949494949494949FF494949494949494949494949494949FFFA4949FAFF49FF4949494949494949FF494949494949494949494949494949FFFA4949FAFF49FF4949494949494949FF4949494949494949
310
49494949494949FFFA4949FAFF49FF4949494949494949FBFBFBFBFBFBFBFBFBFBFBFBFBFBFBFBFBFBFBFBFBFBFBFB4949494949494949FF494949494949494949494949494949FF49FAFA49FF49FF4949494949494949FF494949494949494949494949494949FF49FAFA49FF49FF4949494949494949FF49494949494949
310
4949494949494949FF49FAFA49FF49FF4949494949494949FFFFFFFFFFFFFFFFFFFFFFFFFFFFFF49FF49FAFA49FF49FF4949494949494949FF49FFFFFFFFFFFFFFFFFFFFFFFFFF49FF49FAFA49FF49FF4949494949494949FF494949494949494949494949494949FF49FAFA49FF49FF4949494949494949FF494949494949
310
494949494949494949FF49FAFA49FF49FF4949494949494949FF494949494949494949494949494949FF49FAFA49FF49FF4949494949494949FBFBFBFBFBFBFBFBFBFBFBFBFBFBFBFBFBFBFBFBFBFBFBFB4949494949494949FF494949494949494949494949494949FFFA4949FAFF49FF4949494949494949FF4949494949
310
49494949494949494949FFFA4949FAFF49FF4949494949494949FF494949494949494949494949494949FFFA4949FAFF49FF4949494949494949FFFFFFFFFFFFFFFFFFFFFFFFFFFFFFFFFF49494949FFFFFF494949494949494949494949494949494949494949494949FFFFFFFFFFFF494949494949494949494949494949
310
4949494949494949494949FF494949FFFF4949494949494949494949494949494949494949494949494949FF494949FFFF4949494949494949494949494949494949494949494949494949FFFFFFFFFAFF4949494949494949494949494949494949494949494949494949FFFAFFFAFFFF4949494949494949494949494949
310
494949494949494949494949FFFFFFFFFF494949494949494949494949494949494949494949494949494949494949494949494949494949
102
{BLKREFS
331
806F
102
}
1001
AcDbDynamicBlockGUID
1000
{54B6FA80-8A79-43FF-8CAE-C1A5B3163A4A}
  0
ENDTAB
  0
ENDSEC
  0
SECTION
  2
BLOCKS
  0
BLOCK
  5
1A
330
19
100
AcDbEntity
  8
0
100
AcDbBlockBegin
  2
*MODEL_SPACE
 70
     0
 10
0.0
 20
0.0
 30
0.0
  3
*MODEL_SPACE
  1

  0
ENDBLK
  5
1B
330
19
100
AcDbEntity
  8
0
100
AcDbBlockEnd
  0
BLOCK
  5
17
330
16
100
AcDbEntity
 67
     1
  8
0
100
AcDbBlockBegin
  2
*PAPER_SPACE
 70
     0
 10
0.0
 20
0.0
 30
0.0
  3
*PAPER_SPACE
  1

  0
ENDBLK
  5
18
330
16
100
AcDbEntity
 67
     1
  8
0
100
AcDbBlockEnd
  0
BLOCK
  5
7D5C
330
7D59
100
AcDbEntity
  8
0
100
AcDbBlockBegin
  2
A$C753C6721
 70
     0
 10
0.0
 20
0.0
 30
0.0
  3
A$C753C6721
  1

  0
LINE
  5
7D5D
330
7D59
100
AcDbEntity
  8
0
  6
Continuous
100
AcDbLine
 10
0.0000011263843476
 20
0.0000002862632869
 30
0.0
 11
300.0000011263845
 21
0.0000002862633437
 31
0.0
  0
LINE
  5
7D5E
330
7D59
100
AcDbEntity
  8
0
  6
Continuous
100
AcDbLine
 10
0.0000011263845181
 20
19.60000028626336
 30
0.0
 11
300.0000011263845
 21
19.60000028626291
 31
0.0
  0
LINE
  5
7D5F
330
7D59
100
AcDbEntity
  8
9
  6
Continuous
100
AcDbLine
 10
0.0000011263843476
 20
1.450000286263332
 30
0.0
 11
300.0000011263845
 21
1.450000286262877
 31
0.0
  0
LINE
  5
7D60
330
7D59
100
AcDbEntity
  8
9
  6
Continuous
100
AcDbLine
 10
0.0000011263845181
 20
18.15000028626332
 30
0.0
 11
300.0000011263845
 21
18.15000028626338
 31
0.0
  0
LINE
  5
7D61
330
7D59
100
AcDbEntity
  8
0
100
AcDbLine
 10
0.0000011263843476
 20
0.0000002862632869
 30
0.0
 11
0.0000011263845181
 21
19.60000028626336
 31
0.0
  0
LINE
  5
7D62
330
7D59
100
AcDbEntity
  8
0
100
AcDbLine
 10
300.0000011263844
 20
0.0000002862632869
 30
0.0
 11
300.0000011263845
 21
19.60000028626336
 31
0.0
  0
TEXT
  5
7D63
330
7D59
100
AcDbEntity
  8
0
100
AcDbText
 10
32.2500041263844
 20
7.800000286263298
 30
0.0
 40
4.0
  1
RM2005
 72
     4
 11
44.25000412638439
 21
9.800000286263298
 31
0.0
100
AcDbText
  0
ENDBLK
  5
7D64
330
7D59
100
AcDbEntity
  8
0
100
AcDbBlockEnd
  0
BLOCK
  5
7D91
330
7D8E
100
AcDbEntity
  8
0
100
AcDbBlockBegin
  2
*U2
 70
     1
 10
0.0
 20
0.0
 30
0.0
  3
*U2
  1

  0
LWPOLYLINE
  5
8149
330
7D8E
100
AcDbEntity
  8
2
100
AcDbPolyline
 90
        4
 70
     0
 43
0.0
 10
8.513224257840079
 20
53.72057663553488
 10
11.57469167320766
 20
46.32954009598285
 10
17.11796867320765
 20
48.62564109598287
 10
14.05650125784007
 20
56.01667763553479
  0
CIRCLE
  5
814A
330
7D8E
100
AcDbEntity
  8
0
100
AcDbCircle
 10
21.99999925784005
 20
52.49999963553483
 30
0.0
 40
3.299999999999998
  0
CIRCLE
  5
814B
330
7D8E
100
AcDbEntity
  8
0
100
AcDbCircle
 10
5.382990257840049
 20
45.61700963553477
 30
0.0
 40
3.299999999999998
  0
CIRCLE
  5
814C
330
7D8E
100
AcDbEntity
  8
0
100
AcDbCircle
 10
5.382990257839992
 20
12.38299063553478
 30
0.0
 40
3.299999999999998
  0
CIRCLE
  5
814D
330
7D8E
100
AcDbEntity
  8
0
100
AcDbCircle
 10
21.99999925784005
 20
28.99999963553472
 30
0.0
 40
18.0
  0
CIRCLE
  5
814E
330
7D8E
100
AcDbEntity
  8
0
100
AcDbCircle
 10
38.61700825784004
 20
12.38299063553478
 30
0.0
 40
3.299999999999998
  0
CIRCLE
  5
814F
330
7D8E
100
AcDbEntity
  8
0
100
AcDbCircle
 10
21.99999925784005
 20
5.499999635534834
 30
0.0
 40
3.299999999999998
  0
CIRCLE
  5
8150
330
7D8E
100
AcDbEntity
  8
0
100
AcDbCircle
 10
38.6170082578401
 20
45.61700963553477
 30
0.0
 40
3.299999999999998
  0
LINE
  5
8151
330
7D8E
100
AcDbEntity
  8
2
100
AcDbLine
 10
8.975164489693042
 20
53.91191792391845
 30
0.0
 11
16.06408458751451
 21
36.79775040268646
 31
0.0
  0
LINE
  5
8152
330
7D8E
100
AcDbEntity
  8
2
100
AcDbLine
 10
13.59456202332024
 20
55.82533535358942
 30
0.0
 11
20.68348248909064
 21
38.71116761871792
 31
0.0
  0
ARC
  5
8153
330
7D8E
100
AcDbEntity
  8
0
100
AcDbCircle
 10
21.99999925784005
 20
28.99999963553472
 30
0.0
 40
28.0
100
AcDbArc
 50
38.21321070173933
 51
141.7867892982607
  0
LINE
  5
8154
330
7D8E
100
AcDbEntity
  8
0
100
AcDbLine
 10
18.26000066021305
 20
57.75782310132837
 30
0.0
 11
4.30972564302192
 21
51.97942999037326
 31
0.0
  0
ARC
  5
8155
330
7D8E
100
AcDbEntity
  8
0
100
AcDbCircle
 10
21.99999925784005
 20
28.99999963553472
 30
0.0
 40
29.0
100
AcDbArc
 50
127.590185179438
 51
139.342751362001
  0
LINE
  5
8156
330
7D8E
100
AcDbEntity
  8
0
100
AcDbLine
 10
-0.0000007421599548
 20
47.89444326322604
 30
0.0
 11
-0.0000007421599548
 21
10.10555600784363
 31
0.0
  0
LINE
  5
8157
330
7D8E
100
AcDbEntity
  8
0
100
AcDbLine
 10
43.99999925784004
 20
47.89444326322592
 30
0.0
 11
43.99999925784004
 21
10.10555600784352
 31
0.0
  0
ARC
  5
8158
330
7D8E
100
AcDbEntity
  8
0
100
AcDbCircle
 10
21.99999925784005
 20
28.99999963553472
 30
0.0
 40
29.0
100
AcDbArc
 50
40.65724863799896
 51
97.40981482056547
  0
ARC
  5
8159
330
7D8E
100
AcDbEntity
  8
0
100
AcDbCircle
 10
21.99999925784005
 20
28.99999963553472
 30
0.0
 40
29.0
100
AcDbArc
 50
220.657248637999
 51
319.342751362001
  0
ARC
  5
815A
330
7D8E
100
AcDbEntity
  8
0
100
AcDbCircle
 10
21.99999925784005
 20
28.99999963553472
 30
0.0
 40
28.0
100
AcDbArc
 50
218.2132107017393
 51
321.7867892982607
  0
POINT
  5
815B
330
7D8E
100
AcDbEntity
  8
DEFPOINTS
  6
ByBlock
 62
     0
100
AcDbPoint
 10
4.309725643022034
 20
51.97942999037326
 30
0.0
 50
89.99999999999998
  0
POINT
  5
815C
330
7D8E
100
AcDbEntity
  8
DEFPOINTS
  6
ByBlock
 62
     0
100
AcDbPoint
 10
11.57469167320766
 20
46.32954009598285
 30
0.0
 50
89.99999999999998
  0
POINT
  5
815D
330
7D8E
100
AcDbEntity
  8
DEFPOINTS
  6
ByBlock
 62
     0
100
AcDbPoint
 10
4.309725643022034
 20
51.97942999037326
 30
0.0
 50
89.99999999999998
  0
ARC
  5
815E
330
7D8E
100
AcDbEntity
  8
9
100
AcDbCircle
 10
21.99999925784005
 20
28.99999963553472
 30
0.0
 40
8.350000000000079
100
AcDbArc
 50
180.0
 51
90.0
  0
CIRCLE
  5
815F
330
7D8E
100
AcDbEntity
  8
0
100
AcDbCircle
 10
21.99999925784005
 20
28.99999963553472
 30
0.0
 40
9.800000000000068
  0
ENDBLK
  5
7DA9
330
7D8E
100
AcDbEntity
  8
0
100
AcDbBlockEnd
  0
BLOCK
  5
7DFB
330
7DFA
100
AcDbEntity
  8
0
100
AcDbBlockBegin
  2
*D3
 70
     1
 10
0.0
 20
0.0
 30
0.0
  3
*D3
  1

  0
LINE
  5
7EEB
330
7DFA
100
AcDbEntity
  8
0
 62
   115
370
    -2
100
AcDbLine
 10
21.00000147200461
 20
47.65000026065678
 30
0.0
 11
11.00000147200452
 21
47.65000026065679
 31
0.0
  0
LINE
  5
7EEC
330
7DFA
100
AcDbEntity
  8
0
 62
   115
370
    -2
100
AcDbLine
 10
21.00000147200479
 20
64.35000026065677
 30
0.0
 11
11.00000147200453
 21
64.35000026065677
 31
0.0
  0
LINE
  5
7EED
330
7DFA
100
AcDbEntity
  8
0
 62
   115
370
    -2
100
AcDbLine
 10
12.00000147200452
 20
50.65000026065678
 30
0.0
 11
12.00000147200453
 21
61.35000026065677
 31
0.0
  0
SOLID
  5
7EEE
330
7DFA
100
AcDbEntity
  8
0
 62
   115
100
AcDbTrace
 10
11.50000147200452
 20
50.65000026065678
 30
0.0
 11
12.50000147200452
 21
50.65000026065678
 31
0.0
 12
12.00000147200452
 22
47.65000026065679
 32
0.0
 13
12.00000147200452
 23
47.65000026065679
 33
0.0
  0
SOLID
  5
7EEF
330
7DFA
100
AcDbEntity
  8
0
 62
   115
100
AcDbTrace
 10
11.50000147200453
 20
61.35000026065677
 30
0.0
 11
12.50000147200452
 21
61.35000026065677
 31
0.0
 12
12.00000147200453
 22
64.35000026065677
 32
0.0
 13
12.00000147200453
 23
64.35000026065677
 33
0.0
  0
MTEXT
  5
7EF0
330
7DFA
100
AcDbEntity
  8
0
 62
     7
100
AcDbMText
 10
9.500001472004516
 20
56.00000026065678
 30
0.0
 40
3.0
 41
0.0
 71
     5
 72
     1
  1
\A1;%%C16.7
 11
0.0000000000000001
 21
1.0
 31
0.0
 73
     1
 44
1.0
1001
ACAD
1000
MTEXTBEGIN
1070
    73
1070
     1
1070
    44
1040
1.0
1070
    74
1070
     0
1000
MTEXTEND
  0
POINT
  5
7EF1
330
7DFA
100
AcDbEntity
  8
DEFPOINTS
 62
     0
100
AcDbPoint
 10
22.00000147200461
 20
47.65000026065678
 30
0.0
  0
POINT
  5
7EF2
330
7DFA
100
AcDbEntity
  8
DEFPOINTS
 62
     0
100
AcDbPoint
 10
22.00000147200478
 20
64.35000026065677
 30
0.0
  0
POINT
  5
7EF3
330
7DFA
100
AcDbEntity
  8
DEFPOINTS
 62
     0
100
AcDbPoint
 10
12.00000147200453
 20
64.35000026065677
 30
0.0
  0
ENDBLK
  5
7DFC
330
7DFA
100
AcDbEntity
  8
0
100
AcDbBlockEnd
  0
BLOCK
  5
7E07
330
7E06
100
AcDbEntity
  8
0
100
AcDbBlockBegin
  2
*D4
 70
     1
 10
0.0
 20
0.0
 30
0.0
  3
*D4
  1

  0
LINE
  5
7EF4
330
7E06
100
AcDbEntity
  8
0
 62
   115
370
    -2
100
AcDbLine
 10
21.00000147200461
 20
46.20000026065674
 30
0.0
 11
3.000001472004494
 21
46.20000026065674
 31
0.0
  0
LINE
  5
7EF5
330
7E06
100
AcDbEntity
  8
0
 62
   115
370
    -2
100
AcDbLine
 10
21.00000147200479
 20
65.80000026065682
 30
0.0
 11
3.000001472004499
 21
65.80000026065682
 31
0.0
  0
LINE
  5
7EF6
330
7E06
100
AcDbEntity
  8
0
 62
   115
370
    -2
100
AcDbLine
 10
4.000001472004495
 20
49.20000026065674
 30
0.0
 11
4.000001472004498
 21
62.80000026065682
 31
0.0
  0
SOLID
  5
7EF7
330
7E06
100
AcDbEntity
  8
0
 62
   115
100
AcDbTrace
 10
3.500001472004495
 20
49.20000026065674
 30
0.0
 11
4.500001472004495
 21
49.20000026065674
 31
0.0
 12
4.000001472004495
 22
46.20000026065674
 32
0.0
 13
4.000001472004495
 23
46.20000026065674
 33
0.0
  0
SOLID
  5
7EF8
330
7E06
100
AcDbEntity
  8
0
 62
   115
100
AcDbTrace
 10
3.500001472004498
 20
62.80000026065682
 30
0.0
 11
4.500001472004498
 21
62.80000026065682
 31
0.0
 12
4.000001472004498
 22
65.80000026065682
 32
0.0
 13
4.000001472004498
 23
65.80000026065682
 33
0.0
  0
MTEXT
  5
7EF9
330
7E06
100
AcDbEntity
  8
0
 62
     7
100
AcDbMText
 10
1.500001472004487
 20
56.00000026065678
 30
0.0
 40
3.0
 41
0.0
 71
     5
 72
     1
  1
\A1;%%C19.6
 11
0.0000000000000001
 21
1.0
 31
0.0
 73
     1
 44
1.0
1001
ACAD
1000
MTEXTBEGIN
1070
    73
1070
     1
1070
    44
1040
1.0
1070
    74
1070
     0
1000
MTEXTEND
  0
POINT
  5
7EFA
330
7E06
100
AcDbEntity
  8
DEFPOINTS
 62
     0
100
AcDbPoint
 10
22.00000147200461
 20
46.20000026065674
 30
0.0
  0
POINT
  5
7EFB
330
7E06
100
AcDbEntity
  8
DEFPOINTS
 62
     0
100
AcDbPoint
 10
22.00000147200478
 20
65.80000026065682
 30
0.0
  0
POINT
  5
7EFC
330
7E06
100
AcDbEntity
  8
DEFPOINTS
 62
     0
100
AcDbPoint
 10
4.000001472004498
 20
65.80000026065682
 30
0.0
  0
ENDBLK
  5
7E08
330
7E06
100
AcDbEntity
  8
0
100
AcDbBlockEnd
  0
BLOCK
  5
7E13
330
7E12
100
AcDbEntity
  8
0
100
AcDbBlockBegin
  2
*D5
 70
     1
 10
0.0
 20
0.0
 30
0.0
  3
*D5
  1

  0
LINE
  5
8079
330
7E12
100
AcDbEntity
  8
0
 62
   115
370
    -2
100
AcDbLine
 10
147.2499983220048
 20
38.00001171065638
 30
0.0
 11
136.7499983220046
 21
38.00001171065639
 31
0.0
  0
LINE
  5
807A
330
7E12
100
AcDbEntity
  8
0
 62
   115
370
    -2
100
AcDbLine
 10
147.2499983220048
 20
74.00000391065647
 30
0.0
 11
136.7499983220046
 21
74.00000391065647
 31
0.0
  0
LINE
  5
807B
330
7E12
100
AcDbEntity
  8
0
 62
   115
370
    -2
100
AcDbLine
 10
137.7499983220046
 20
41.00001171065638
 30
0.0
 11
137.7499983220046
 21
71.00000391065647
 31
0.0
  0
SOLID
  5
807C
330
7E12
100
AcDbEntity
  8
0
 62
   115
100
AcDbTrace
 10
137.2499983220046
 20
41.00001171065638
 30
0.0
 11
138.2499983220046
 21
41.00001171065638
 31
0.0
 12
137.7499983220046
 22
38.00001171065639
 32
0.0
 13
137.7499983220046
 23
38.00001171065639
 33
0.0
  0
SOLID
  5
807D
330
7E12
100
AcDbEntity
  8
0
 62
   115
100
AcDbTrace
 10
137.2499983220047
 20
71.00000391065647
 30
0.0
 11
138.2499983220046
 21
71.00000391065647
 31
0.0
 12
137.7499983220046
 22
74.00000391065647
 32
0.0
 13
137.7499983220046
 23
74.00000391065647
 33
0.0
  0
MTEXT
  5
807E
330
7E12
100
AcDbEntity
  8
0
 62
     7
100
AcDbMText
 10
134.4642840362903
 20
56.00000781065645
 30
0.0
 40
3.0
 41
0.0
 71
     5
 72
     1
  1
\A1;%%C36 g6 ({\H0.5x;\S-0.009^ -0.025;})
 11
0.0000000000000001
 21
1.0
 31
0.0
 73
     1
 44
1.0
1001
ACAD
1000
MTEXTBEGIN
1070
    73
1070
     1
1070
    44
1040
1.0
1070
    74
1070
     0
1000
MTEXTEND
  0
POINT
  5
807F
330
7E12
100
AcDbEntity
  8
DEFPOINTS
 62
     0
100
AcDbPoint
 10
148.2499983220048
 20
38.00001171065638
 30
0.0
  0
POINT
  5
8080
330
7E12
100
AcDbEntity
  8
DEFPOINTS
 62
     0
100
AcDbPoint
 10
148.2499983220048
 20
74.00000391065647
 30
0.0
  0
POINT
  5
8081
330
7E12
100
AcDbEntity
  8
DEFPOINTS
 62
     0
100
AcDbPoint
 10
137.7499983220046
 20
74.00000391065647
 30
0.0
  0
ENDBLK
  5
7E14
330
7E12
100
AcDbEntity
  8
0
100
AcDbBlockEnd
  0
BLOCK
  5
7E1F
330
7E1E
100
AcDbEntity
  8
0
100
AcDbBlockBegin
  2
*D6
 70
     1
 10
0.0
 20
0.0
 30
0.0
  3
*D6
  1

  0
LINE
  5
80A8
330
7E1E
100
AcDbEntity
  8
0
 62
   115
370
    -2
100
AcDbLine
 10
180.7500046220048
 20
26.50000026065652
 30
0.0
 11
180.7500046220048
 21
16.00000026065652
 31
0.0
  0
LINE
  5
80A9
330
7E1E
100
AcDbEntity
  8
0
 62
   115
370
    -2
100
AcDbLine
 10
147.7499983220048
 20
37.60000271065644
 30
0.0
 11
147.7499983220048
 21
16.00000026065652
 31
0.0
  0
LINE
  5
80AA
330
7E1E
100
AcDbEntity
  8
0
 62
   115
370
    -2
100
AcDbLine
 10
177.7500046220048
 20
17.00000026065652
 30
0.0
 11
150.7499983220048
 21
17.00000026065652
 31
0.0
  0
SOLID
  5
80AB
330
7E1E
100
AcDbEntity
  8
0
 62
   115
100
AcDbTrace
 10
177.7500046220048
 20
17.50000026065652
 30
0.0
 11
177.7500046220048
 21
16.50000026065652
 31
0.0
 12
180.7500046220048
 22
17.00000026065652
 32
0.0
 13
180.7500046220048
 23
17.00000026065652
 33
0.0
  0
SOLID
  5
80AC
330
7E1E
100
AcDbEntity
  8
0
 62
   115
100
AcDbTrace
 10
150.7499983220048
 20
17.50000026065652
 30
0.0
 11
150.7499983220048
 21
16.50000026065652
 31
0.0
 12
147.7499983220048
 22
17.00000026065652
 32
0.0
 13
147.7499983220048
 23
17.00000026065652
 33
0.0
  0
MTEXT
  5
80AD
330
7E1E
100
AcDbEntity
  8
0
 62
     7
100
AcDbMText
 10
164.2500014720048
 20
19.50000026065652
 30
0.0
 40
3.0
 41
0.0
 71
     5
 72
     1
  1
\A1;33
 73
     1
 44
1.0
1001
ACAD
1000
MTEXTBEGIN
1070
    73
1070
     1
1070
    44
1040
1.0
1070
    74
1070
     0
1000
MTEXTEND
  0
POINT
  5
80AE
330
7E1E
100
AcDbEntity
  8
DEFPOINTS
 62
     0
100
AcDbPoint
 10
180.7500046220048
 20
27.50000026065652
 30
0.0
  0
POINT
  5
80AF
330
7E1E
100
AcDbEntity
  8
DEFPOINTS
 62
     0
100
AcDbPoint
 10
147.7499983220048
 20
38.60000271065644
 30
0.0
  0
POINT
  5
80B0
330
7E1E
100
AcDbEntity
  8
DEFPOINTS
 62
     0
100
AcDbPoint
 10
147.7499983220048
 20
17.00000026065652
 30
0.0
  0
ENDBLK
  5
7E20
330
7E1E
100
AcDbEntity
  8
0
100
AcDbBlockEnd
  0
BLOCK
  5
7E2B
330
7E2A
100
AcDbEntity
  8
0
100
AcDbBlockBegin
  2
*D7
 70
     1
 10
0.0
 20
0.0
 30
0.0
  3
*D7
  1

  0
LINE
  5
8094
330
7E2A
100
AcDbEntity
  8
0
 62
   115
370
    -2
100
AcDbLine
 10
180.7500046220048
 20
26.50000026065652
 30
0.0
 11
180.7500046220048
 21
16.00000026065652
 31
0.0
  0
LINE
  5
8095
330
7E2A
100
AcDbEntity
  8
0
 62
   115
370
    -2
100
AcDbLine
 10
190.7500046220047
 20
26.50000026065652
 30
0.0
 11
190.7500046220047
 21
16.00000026065652
 31
0.0
  0
LINE
  5
8096
330
7E2A
100
AcDbEntity
  8
0
 62
   115
370
    -2
100
AcDbLine
 10
183.7500046220048
 20
17.00000026065652
 30
0.0
 11
187.7500046220047
 21
17.00000026065652
 31
0.0
  0
SOLID
  5
8097
330
7E2A
100
AcDbEntity
  8
0
 62
   115
100
AcDbTrace
 10
183.7500046220048
 20
17.50000026065652
 30
0.0
 11
183.7500046220048
 21
16.50000026065652
 31
0.0
 12
180.7500046220048
 22
17.00000026065652
 32
0.0
 13
180.7500046220048
 23
17.00000026065652
 33
0.0
  0
SOLID
  5
8098
330
7E2A
100
AcDbEntity
  8
0
 62
   115
100
AcDbTrace
 10
187.7500046220047
 20
17.50000026065652
 30
0.0
 11
187.7500046220047
 21
16.50000026065652
 31
0.0
 12
190.7500046220047
 22
17.00000026065652
 32
0.0
 13
190.7500046220047
 23
17.00000026065652
 33
0.0
  0
MTEXT
  5
8099
330
7E2A
100
AcDbEntity
  8
0
 62
     7
100
AcDbMText
 10
185.7500046220048
 20
19.50000026065652
 30
0.0
 40
3.0
 41
0.0
 71
     5
 72
     1
  1
\A1;10
 73
     1
 44
1.0
1001
ACAD
1000
MTEXTBEGIN
1070
    73
1070
     1
1070
    44
1040
1.0
1070
    74
1070
     0
1000
MTEXTEND
  0
POINT
  5
809A
330
7E2A
100
AcDbEntity
  8
DEFPOINTS
 62
     0
100
AcDbPoint
 10
180.7500046220048
 20
27.50000026065652
 30
0.0
  0
POINT
  5
809B
330
7E2A
100
AcDbEntity
  8
DEFPOINTS
 62
     0
100
AcDbPoint
 10
190.7500046220047
 20
27.50000026065652
 30
0.0
  0
POINT
  5
809C
330
7E2A
100
AcDbEntity
  8
DEFPOINTS
 62
     0
100
AcDbPoint
 10
190.7500046220047
 20
17.00000026065652
 30
0.0
  0
ENDBLK
  5
7E2C
330
7E2A
100
AcDbEntity
  8
0
100
AcDbBlockEnd
  0
BLOCK
  5
7E37
330
7E36
100
AcDbEntity
  8
0
100
AcDbBlockBegin
  2
*D8
 70
     1
 10
0.0
 20
0.0
 30
0.0
  3
*D8
  1

  0
LINE
  5
80BC
330
7E36
100
AcDbEntity
  8
0
 62
   115
370
    -2
100
AcDbLine
 10
147.7499983220048
 20
37.60000271065644
 30
0.0
 11
147.7499983220048
 21
8.00000026065652
 31
0.0
  0
LINE
  5
80BD
330
7E36
100
AcDbEntity
  8
0
 62
   115
370
    -2
100
AcDbLine
 10
196.2500046220048
 20
37.50001171065628
 30
0.0
 11
196.2500046220048
 21
8.00000026065652
 31
0.0
  0
LINE
  5
80BE
330
7E36
100
AcDbEntity
  8
0
 62
   115
370
    -2
100
AcDbLine
 10
150.7499983220048
 20
9.00000026065652
 30
0.0
 11
193.2500046220048
 21
9.00000026065652
 31
0.0
  0
SOLID
  5
80BF
330
7E36
100
AcDbEntity
  8
0
 62
   115
100
AcDbTrace
 10
150.7499983220048
 20
9.50000026065652
 30
0.0
 11
150.7499983220048
 21
8.50000026065652
 31
0.0
 12
147.7499983220048
 22
9.00000026065652
 32
0.0
 13
147.7499983220048
 23
9.00000026065652
 33
0.0
  0
SOLID
  5
80C0
330
7E36
100
AcDbEntity
  8
0
 62
   115
100
AcDbTrace
 10
193.2500046220048
 20
9.50000026065652
 30
0.0
 11
193.2500046220048
 21
8.50000026065652
 31
0.0
 12
196.2500046220048
 22
9.00000026065652
 32
0.0
 13
196.2500046220048
 23
9.00000026065652
 33
0.0
  0
MTEXT
  5
80C1
330
7E36
100
AcDbEntity
  8
0
 62
     7
100
AcDbMText
 10
172.0000014720048
 20
11.50000026065652
 30
0.0
 40
3.0
 41
0.0
 71
     5
 72
     1
  1
\A1;48.5
 73
     1
 44
1.0
1001
ACAD
1000
MTEXTBEGIN
1070
    73
1070
     1
1070
    44
1040
1.0
1070
    74
1070
     0
1000
MTEXTEND
  0
POINT
  5
80C2
330
7E36
100
AcDbEntity
  8
DEFPOINTS
 62
     0
100
AcDbPoint
 10
147.7499983220048
 20
38.60000271065644
 30
0.0
  0
POINT
  5
80C3
330
7E36
100
AcDbEntity
  8
DEFPOINTS
 62
     0
100
AcDbPoint
 10
196.2500046220048
 20
38.50001171065628
 30
0.0
  0
POINT
  5
80C4
330
7E36
100
AcDbEntity
  8
DEFPOINTS
 62
     0
100
AcDbPoint
 10
196.2500046220048
 20
9.00000026065652
 30
0.0
  0
ENDBLK
  5
7E38
330
7E36
100
AcDbEntity
  8
0
100
AcDbBlockEnd
  0
BLOCK
  5
7E43
330
7E42
100
AcDbEntity
  8
0
100
AcDbBlockBegin
  2
*D9
 70
     1
 10
0.0
 20
0.0
 30
0.0
  3
*D9
  1

  0
LINE
  5
7F21
330
7E42
100
AcDbEntity
  8
0
 62
   115
370
    -2
100
AcDbLine
 10
348.0000014720047
 20
36.10555663296555
 30
0.0
 11
348.0000014720047
 21
0.0000002606565204
 31
0.0
  0
LINE
  5
7F22
330
7E42
100
AcDbEntity
  8
0
 62
   115
370
    -2
100
AcDbLine
 10
392.0000014720047
 20
36.10555663296543
 30
0.0
 11
392.0000014720047
 21
0.0000002606565204
 31
0.0
  0
LINE
  5
7F23
330
7E42
100
AcDbEntity
  8
0
 62
   115
370
    -2
100
AcDbLine
 10
351.0000014720047
 20
1.00000026065652
 30
0.0
 11
389.0000014720047
 21
1.00000026065652
 31
0.0
  0
SOLID
  5
7F24
330
7E42
100
AcDbEntity
  8
0
 62
   115
100
AcDbTrace
 10
351.0000014720047
 20
1.50000026065652
 30
0.0
 11
351.0000014720047
 21
0.5000002606565204
 31
0.0
 12
348.0000014720047
 22
1.00000026065652
 32
0.0
 13
348.0000014720047
 23
1.00000026065652
 33
0.0
  0
SOLID
  5
7F25
330
7E42
100
AcDbEntity
  8
0
 62
   115
100
AcDbTrace
 10
389.0000014720047
 20
1.50000026065652
 30
0.0
 11
389.0000014720047
 21
0.5000002606565204
 31
0.0
 12
392.0000014720047
 22
1.00000026065652
 32
0.0
 13
392.0000014720047
 23
1.00000026065652
 33
0.0
  0
MTEXT
  5
7F26
330
7E42
100
AcDbEntity
  8
0
 62
     7
100
AcDbMText
 10
370.0000014720047
 20
3.50000026065652
 30
0.0
 40
3.0
 41
0.0
 71
     5
 72
     1
  1
\A1;44
 73
     1
 44
1.0
1001
ACAD
1000
MTEXTBEGIN
1070
    73
1070
     1
1070
    44
1040
1.0
1070
    74
1070
     0
1000
MTEXTEND
  0
POINT
  5
7F27
330
7E42
100
AcDbEntity
  8
DEFPOINTS
 62
     0
100
AcDbPoint
 10
348.0000014720047
 20
37.10555663296555
 30
0.0
  0
POINT
  5
7F28
330
7E42
100
AcDbEntity
  8
DEFPOINTS
 62
     0
100
AcDbPoint
 10
392.0000014720047
 20
37.10555663296543
 30
0.0
  0
POINT
  5
7F29
330
7E42
100
AcDbEntity
  8
DEFPOINTS
 62
     0
100
AcDbPoint
 10
392.0000014720047
 20
1.00000026065652
 30
0.0
  0
ENDBLK
  5
7E44
330
7E42
100
AcDbEntity
  8
0
100
AcDbBlockEnd
  0
BLOCK
  5
7E4F
330
7E4E
100
AcDbEntity
  8
0
100
AcDbBlockBegin
  2
*D10
 70
     1
 10
0.0
 20
0.0
 30
0.0
  3
*D10
  1

  0
LINE
  5
7F2A
330
7E4E
100
AcDbEntity
  8
0
 62
   115
370
    -2
100
AcDbLine
 10
348.2211129693427
 20
34.2211117579949
 30
0.0
 11
342.0516282465789
 21
28.05162703523116
 31
0.0
  0
LINE
  5
7F2B
330
7E4E
100
AcDbEntity
  8
0
 62
   115
370
    -2
100
AcDbLine
 10
391.7788899746666
 20
34.2211117579949
 30
0.0
 11
397.9483746974305
 21
28.0516270352311
 31
0.0
  0
ARC
  5
7F2C
330
7E4E
100
AcDbEntity
  8
0
 62
   115
370
    -2
100
AcDbCircle
 10
370.0000014720048
 20
56.0000002606567
 30
0.0
 40
38.52496846166206
100
AcDbArc
 50
229.4628407272854
 51
310.5371592727145
  0
SOLID
  5
7F2D
330
7E4E
100
AcDbEntity
  8
0
 62
   115
100
AcDbTrace
 10
344.6215226677963
 20
26.35456614170188
 30
0.0
 11
345.3005615006754
 21
27.08866849385867
 31
0.0
 12
342.7587350277655
 22
28.7587338164177
 32
0.0
 13
342.7587350277655
 23
28.7587338164177
 33
0.0
  0
SOLID
  5
7F2E
330
7E4E
100
AcDbEntity
  8
0
 62
   115
100
AcDbTrace
 10
394.699441443334
 20
27.08866849385862
 30
0.0
 11
395.3784802762132
 21
26.35456614170183
 31
0.0
 12
397.2412679162439
 22
28.75873381641765
 32
0.0
 13
397.2412679162439
 23
28.75873381641765
 33
0.0
  0
MTEXT
  5
7F2F
102
{ACAD_XDICTIONARY
360
8354
102
}
330
7E4E
100
AcDbEntity
  8
0
 62
     7
100
AcDbMText
 10
370.0000014720047
 20
19.97503179899463
 30
0.0
 40
3.0
 41
0.0
 71
     5
 72
     1
  1
\A1;90\U+00B0
 73
     1
 44
1.0
1001
ACAD
1000
MTEXTBEGIN
1070
    73
1070
     1
1070
    44
1040
1.0
1070
    74
1070
     0
1000
MTEXTEND
  0
POINT
  5
7F30
330
7E4E
100
AcDbEntity
  8
DEFPOINTS
 62
     0
100
AcDbPoint
 10
360.0290059221525
 20
18.7877382665655
 30
0.0
  0
POINT
  5
7F31
330
7E4E
100
AcDbEntity
  8
DEFPOINTS
 62
     0
100
AcDbPoint
 10
348.9282197505293
 20
34.92821853918144
 30
0.0
  0
POINT
  5
7F32
330
7E4E
100
AcDbEntity
  8
DEFPOINTS
 62
     0
100
AcDbPoint
 10
391.0717831934801
 20
34.92821853918144
 30
0.0
  0
POINT
  5
7F33
330
7E4E
100
AcDbEntity
  8
DEFPOINTS
 62
     0
100
AcDbPoint
 10
382.1622377505296
 20
43.83776398213194
 30
0.0
  0
POINT
  5
7F34
330
7E4E
100
AcDbEntity
  8
DEFPOINTS
 62
     0
100
AcDbPoint
 10
357.8377651934799
 20
43.83776398213194
 30
0.0
  0
ENDBLK
  5
7E50
330
7E4E
100
AcDbEntity
  8
0
100
AcDbBlockEnd
  0
BLOCK
  5
7E5D
330
7E5C
100
AcDbEntity
  8
0
100
AcDbBlockBegin
  2
*D11
 70
     1
 10
0.0
 20
0.0
 30
0.0
  3
*D11
  1

  0
LINE
  5
7F35
330
7E5C
100
AcDbEntity
  8
0
 62
   115
370
    -2
100
AcDbLine
 10
352.3829924720047
 20
39.3829912606567
 30
0.0
 11
337.0000014720046
 21
39.3829912606567
 31
0.0
  0
LINE
  5
7F36
330
7E5C
100
AcDbEntity
  8
0
 62
   115
370
    -2
100
AcDbLine
 10
352.3829924720047
 20
72.61701026065669
 30
0.0
 11
337.0000014720046
 21
72.6170102606567
 31
0.0
  0
LINE
  5
7F37
330
7E5C
100
AcDbEntity
  8
0
 62
   115
370
    -2
100
AcDbLine
 10
338.0000014720046
 20
42.38299126065669
 30
0.0
 11
338.0000014720046
 21
69.6170102606567
 31
0.0
  0
SOLID
  5
7F38
330
7E5C
100
AcDbEntity
  8
0
 62
   115
100
AcDbTrace
 10
337.5000014720046
 20
42.38299126065669
 30
0.0
 11
338.5000014720046
 21
42.38299126065669
 31
0.0
 12
338.0000014720046
 22
39.3829912606567
 32
0.0
 13
338.0000014720046
 23
39.3829912606567
 33
0.0
  0
SOLID
  5
7F39
330
7E5C
100
AcDbEntity
  8
0
 62
   115
100
AcDbTrace
 10
337.5000014720046
 20
69.6170102606567
 30
0.0
 11
338.5000014720046
 21
69.6170102606567
 31
0.0
 12
338.0000014720046
 22
72.6170102606567
 32
0.0
 13
338.0000014720046
 23
72.6170102606567
 33
0.0
  0
MTEXT
  5
7F3A
330
7E5C
100
AcDbEntity
  8
0
 62
     7
100
AcDbMText
 10
334.7142871862903
 20
56.00000076065676
 30
0.0
 40
3.0
 41
0.0
 71
     5
 72
     1
  1
\A1;(33.23)
 11
0.0000000000000001
 21
1.0
 31
0.0
 73
     1
 44
1.0
1001
ACAD
1000
MTEXTBEGIN
1070
    73
1070
     1
1070
    44
1040
1.0
1070
    74
1070
     0
1000
MTEXTEND
  0
POINT
  5
7F3B
330
7E5C
100
AcDbEntity
  8
DEFPOINTS
 62
     0
100
AcDbPoint
 10
353.3829924720047
 20
39.3829912606567
 30
0.0
  0
POINT
  5
7F3C
330
7E5C
100
AcDbEntity
  8
DEFPOINTS
 62
     0
100
AcDbPoint
 10
353.3829924720047
 20
72.61701026065669
 30
0.0
  0
POINT
  5
7F3D
330
7E5C
100
AcDbEntity
  8
DEFPOINTS
 62
     0
100
AcDbPoint
 10
338.0000014720046
 20
72.6170102606567
 30
0.0
  0
ENDBLK
  5
7E5E
330
7E5C
100
AcDbEntity
  8
0
100
AcDbBlockEnd
  0
BLOCK
  5
7E69
330
7E68
100
AcDbEntity
  8
0
100
AcDbBlockBegin
  2
*D12
 70
     1
 10
0.0
 20
0.0
 30
0.0
  3
*D12
  1

  0
LINE
  5
7F3E
330
7E68
100
AcDbEntity
  8
0
 62
   115
370
    -2
100
AcDbLine
 10
353.3829924720047
 20
38.3829912606567
 30
0.0
 11
353.3829924720047
 21
8.00000026065652
 31
0.0
  0
LINE
  5
7F3F
330
7E68
100
AcDbEntity
  8
0
 62
   115
370
    -2
100
AcDbLine
 10
386.6170104720047
 20
38.3829912606567
 30
0.0
 11
386.6170104720047
 21
8.00000026065652
 31
0.0
  0
LINE
  5
7F40
330
7E68
100
AcDbEntity
  8
0
 62
   115
370
    -2
100
AcDbLine
 10
356.3829924720047
 20
9.00000026065652
 30
0.0
 11
383.6170104720047
 21
9.00000026065652
 31
0.0
  0
SOLID
  5
7F41
330
7E68
100
AcDbEntity
  8
0
 62
   115
100
AcDbTrace
 10
356.3829924720047
 20
9.50000026065652
 30
0.0
 11
356.3829924720047
 21
8.50000026065652
 31
0.0
 12
353.3829924720047
 22
9.00000026065652
 32
0.0
 13
353.3829924720047
 23
9.00000026065652
 33
0.0
  0
SOLID
  5
7F42
330
7E68
100
AcDbEntity
  8
0
 62
   115
100
AcDbTrace
 10
383.6170104720047
 20
9.50000026065652
 30
0.0
 11
383.6170104720047
 21
8.50000026065652
 31
0.0
 12
386.6170104720047
 22
9.00000026065652
 32
0.0
 13
386.6170104720047
 23
9.00000026065652
 33
0.0
  0
MTEXT
  5
7F43
330
7E68
100
AcDbEntity
  8
0
 62
     7
100
AcDbMText
 10
370.0000014720047
 20
12.2857145463708
 30
0.0
 40
3.0
 41
0.0
 71
     5
 72
     1
  1
\A1;(33.23)
 73
     1
 44
1.0
1001
ACAD
1000
MTEXTBEGIN
1070
    73
1070
     1
1070
    44
1040
1.0
1070
    74
1070
     0
1000
MTEXTEND
  0
POINT
  5
7F44
330
7E68
100
AcDbEntity
  8
DEFPOINTS
 62
     0
100
AcDbPoint
 10
353.3829924720047
 20
39.3829912606567
 30
0.0
  0
POINT
  5
7F45
330
7E68
100
AcDbEntity
  8
DEFPOINTS
 62
     0
100
AcDbPoint
 10
386.6170104720047
 20
39.3829912606567
 30
0.0
  0
POINT
  5
7F46
330
7E68
100
AcDbEntity
  8
DEFPOINTS
 62
     0
100
AcDbPoint
 10
386.6170104720047
 20
9.00000026065652
 30
0.0
  0
ENDBLK
  5
7E6A
330
7E68
100
AcDbEntity
  8
0
100
AcDbBlockEnd
  0
BLOCK
  5
7E75
330
7E74
100
AcDbEntity
  8
0
100
AcDbBlockBegin
  2
*D13
 70
     1
 10
0.0
 20
0.0
 30
0.0
  3
*D13
  1

  0
LINE
  5
7F47
330
7E74
100
AcDbEntity
  8
0
 62
   115
370
    -2
100
AcDbLine
 10
371.0000014720047
 20
32.50000026065652
 30
0.0
 11
411.0000014720038
 21
32.50000026065651
 31
0.0
  0
LINE
  5
7F48
330
7E74
100
AcDbEntity
  8
0
 62
   115
370
    -2
100
AcDbLine
 10
371.0000014720047
 20
79.50000026065675
 30
0.0
 11
411.0000014720038
 21
79.50000026065675
 31
0.0
  0
LINE
  5
7F49
330
7E74
100
AcDbEntity
  8
0
 62
   115
370
    -2
100
AcDbLine
 10
410.0000014720039
 20
35.50000026065652
 30
0.0
 11
410.0000014720039
 21
76.50000026065675
 31
0.0
  0
SOLID
  5
7F4A
330
7E74
100
AcDbEntity
  8
0
 62
   115
100
AcDbTrace
 10
409.5000014720039
 20
35.50000026065652
 30
0.0
 11
410.5000014720038
 21
35.50000026065652
 31
0.0
 12
410.0000014720039
 22
32.50000026065651
 32
0.0
 13
410.0000014720039
 23
32.50000026065651
 33
0.0
  0
SOLID
  5
7F4B
330
7E74
100
AcDbEntity
  8
0
 62
   115
100
AcDbTrace
 10
409.5000014720039
 20
76.50000026065675
 30
0.0
 11
410.5000014720038
 21
76.50000026065675
 31
0.0
 12
410.0000014720039
 22
79.50000026065675
 32
0.0
 13
410.0000014720039
 23
79.50000026065675
 33
0.0
  0
MTEXT
  5
7F4C
330
7E74
100
AcDbEntity
  8
0
 62
     7
100
AcDbMText
 10
407.5000014720038
 20
56.00000026065669
 30
0.0
 40
3.0
 41
0.0
 71
     5
 72
     1
  1
\A1;PCD 47
 11
0.0000000000000001
 21
1.0
 31
0.0
 73
     1
 44
1.0
1001
ACAD
1000
MTEXTBEGIN
1070
    73
1070
     1
1070
    44
1040
1.0
1070
    74
1070
     0
1000
MTEXTEND
  0
POINT
  5
7F4D
330
7E74
100
AcDbEntity
  8
DEFPOINTS
 62
     0
100
AcDbPoint
 10
370.0000014720047
 20
32.50000026065652
 30
0.0
  0
POINT
  5
7F4E
330
7E74
100
AcDbEntity
  8
DEFPOINTS
 62
     0
100
AcDbPoint
 10
370.0000014720047
 20
79.50000026065675
 30
0.0
  0
POINT
  5
7F4F
330
7E74
100
AcDbEntity
  8
DEFPOINTS
 62
     0
100
AcDbPoint
 10
410.0000014720039
 20
79.50000026065675
 30
0.0
  0
ENDBLK
  5
7E76
330
7E74
100
AcDbEntity
  8
0
100
AcDbBlockEnd
  0
BLOCK
  5
7E81
330
7E80
100
AcDbEntity
  8
0
100
AcDbBlockBegin
  2
*D14
 70
     1
 10
0.0
 20
0.0
 30
0.0
  3
*D14
  1

  0
LINE
  5
7F50
330
7E80
100
AcDbEntity
  8
0
 62
   115
370
    -2
100
AcDbLine
 10
387.6170104720047
 20
69.31701026065667
 30
0.0
 11
403.0000014720038
 21
69.31701026065667
 31
0.0
  0
LINE
  5
7F51
330
7E80
100
AcDbEntity
  8
0
 62
   115
370
    -2
100
AcDbLine
 10
387.6170104720047
 20
75.9170102606567
 30
0.0
 11
403.0000014720038
 21
75.9170102606567
 31
0.0
  0
LINE
  5
7F52
330
7E80
100
AcDbEntity
  8
0
 62
   115
370
    -2
100
AcDbLine
 10
402.0000014720038
 20
66.31701026065667
 30
0.0
 11
402.0000014720038
 21
63.31701026065666
 31
0.0
  0
LINE
  5
7F53
330
7E80
100
AcDbEntity
  8
0
 62
   115
370
    -2
100
AcDbLine
 10
402.0000014720038
 20
78.91701026065669
 30
0.0
 11
402.0000014720038
 21
99.34558168922812
 31
0.0
  0
LINE
  5
7F54
330
7E80
100
AcDbEntity
  8
0
 62
   115
370
    -2
100
AcDbLine
 10
402.0000014720038
 20
69.31701026065667
 30
0.0
 11
402.0000014720038
 21
75.9170102606567
 31
0.0
  0
SOLID
  5
7F55
330
7E80
100
AcDbEntity
  8
0
 62
   115
100
AcDbTrace
 10
401.5000014720039
 20
66.31701026065667
 30
0.0
 11
402.5000014720038
 21
66.31701026065667
 31
0.0
 12
402.0000014720038
 22
69.31701026065667
 32
0.0
 13
402.0000014720038
 23
69.31701026065667
 33
0.0
  0
SOLID
  5
7F56
330
7E80
100
AcDbEntity
  8
0
 62
   115
100
AcDbTrace
 10
401.5000014720039
 20
78.91701026065669
 30
0.0
 11
402.5000014720038
 21
78.91701026065669
 31
0.0
 12
402.0000014720038
 22
75.9170102606567
 32
0.0
 13
402.0000014720038
 23
75.9170102606567
 33
0.0
  0
MTEXT
  5
7F57
330
7E80
100
AcDbEntity
  8
0
 62
     7
100
AcDbMText
 10
399.5000014720039
 20
90.63129597494246
 30
0.0
 40
3.0
 41
0.0
 71
     5
 72
     1
  1
\A1;6-%%C6.6
 11
0.0000000000000001
 21
1.0
 31
0.0
 73
     1
 44
1.0
1001
ACAD
1000
MTEXTBEGIN
1070
    73
1070
     1
1070
    44
1040
1.0
1070
    74
1070
     0
1000
MTEXTEND
  0
POINT
  5
7F58
330
7E80
100
AcDbEntity
  8
DEFPOINTS
 62
     0
100
AcDbPoint
 10
386.6170104720047
 20
69.31701026065667
 30
0.0
  0
POINT
  5
7F59
330
7E80
100
AcDbEntity
  8
DEFPOINTS
 62
     0
100
AcDbPoint
 10
386.6170104720047
 20
75.9170102606567
 30
0.0
  0
POINT
  5
7F5A
330
7E80
100
AcDbEntity
  8
DEFPOINTS
 62
     0
100
AcDbPoint
 10
402.0000014720038
 20
75.9170102606567
 30
0.0
  0
ENDBLK
  5
7E82
330
7E80
100
AcDbEntity
  8
0
100
AcDbBlockEnd
  0
BLOCK
  5
7E8F
330
7E8E
100
AcDbEntity
  8
0
100
AcDbBlockBegin
  2
*D15
 70
     1
 10
0.0
 20
0.0
 30
0.0
  3
*D15
  1

  0
LINE
  5
7F5B
330
7E8E
100
AcDbEntity
  8
0
 62
   115
370
    -2
100
AcDbLine
 10
196.750004622005
 20
38.0000117106564
 30
0.0
 11
207.2500046220047
 21
38.0000117106564
 31
0.0
  0
LINE
  5
7F5C
330
7E8E
100
AcDbEntity
  8
0
 62
   115
370
    -2
100
AcDbLine
 10
196.750004622005
 20
74.00000391065645
 30
0.0
 11
207.2500046220047
 21
74.00000391065645
 31
0.0
  0
LINE
  5
7F5D
330
7E8E
100
AcDbEntity
  8
0
 62
   115
370
    -2
100
AcDbLine
 10
206.2500046220047
 20
41.00001171065639
 30
0.0
 11
206.2500046220047
 21
71.00000391065646
 31
0.0
  0
SOLID
  5
7F5E
330
7E8E
100
AcDbEntity
  8
0
 62
   115
100
AcDbTrace
 10
205.7500046220047
 20
41.00001171065639
 30
0.0
 11
206.7500046220047
 21
41.00001171065639
 31
0.0
 12
206.2500046220047
 22
38.0000117106564
 32
0.0
 13
206.2500046220047
 23
38.0000117106564
 33
0.0
  0
SOLID
  5
7F5F
330
7E8E
100
AcDbEntity
  8
0
 62
   115
100
AcDbTrace
 10
205.7500046220047
 20
71.00000391065646
 30
0.0
 11
206.7500046220047
 21
71.00000391065646
 31
0.0
 12
206.2500046220047
 22
74.00000391065645
 32
0.0
 13
206.2500046220047
 23
74.00000391065645
 33
0.0
  0
MTEXT
  5
7F60
330
7E8E
100
AcDbEntity
  8
0
 62
     7
100
AcDbMText
 10
202.9642903362904
 20
56.00000781065645
 30
0.0
 40
3.0
 41
0.0
 71
     5
 72
     1
  1
\A1;%%C36 g6 ({\H0.5x;\S-0.009^ -0.025;})
 11
0.0000000000000001
 21
1.0
 31
0.0
 73
     1
 44
1.0
1001
ACAD
1000
MTEXTBEGIN
1070
    73
1070
     1
1070
    44
1040
1.0
1070
    74
1070
     0
1000
MTEXTEND
  0
POINT
  5
7F61
330
7E8E
100
AcDbEntity
  8
DEFPOINTS
 62
     0
100
AcDbPoint
 10
195.750004622005
 20
38.0000117106564
 30
0.0
  0
POINT
  5
7F62
330
7E8E
100
AcDbEntity
  8
DEFPOINTS
 62
     0
100
AcDbPoint
 10
195.750004622005
 20
74.00000391065645
 30
0.0
  0
POINT
  5
7F63
330
7E8E
100
AcDbEntity
  8
DEFPOINTS
 62
     0
100
AcDbPoint
 10
206.2500046220047
 20
74.00000391065645
 30
0.0
  0
ENDBLK
  5
7E90
330
7E8E
100
AcDbEntity
  8
0
100
AcDbBlockEnd
  0
BLOCK
  5
7EA8
330
7EA7
100
AcDbEntity
  8
0
100
AcDbBlockBegin
  2
*D16
 70
     1
 10
0.0
 20
0.0
 30
0.0
  3
*D16
  1

  0
LINE
  5
80B1
330
7EA7
100
AcDbEntity
  8
0
 62
   115
370
    -2
100
AcDbLine
 10
190.7500046220047
 20
26.50000026065652
 30
0.0
 11
190.7500046220047
 21
16.00000026065652
 31
0.0
  0
LINE
  5
80B2
330
7EA7
100
AcDbEntity
  8
0
 62
   115
370
    -2
100
AcDbLine
 10
196.2500046220048
 20
37.50001171065628
 30
0.0
 11
196.2500046220048
 21
16.00000026065652
 31
0.0
  0
LINE
  5
80B3
330
7EA7
100
AcDbEntity
  8
0
 62
   115
370
    -2
100
AcDbLine
 10
187.7500046220047
 20
17.00000026065652
 30
0.0
 11
184.7500046220048
 21
17.00000026065652
 31
0.0
  0
LINE
  5
80B4
330
7EA7
100
AcDbEntity
  8
0
 62
   115
370
    -2
100
AcDbLine
 10
199.2500046220048
 20
17.00000026065652
 30
0.0
 11
210.535718907719
 21
17.00000026065652
 31
0.0
  0
LINE
  5
80B5
330
7EA7
100
AcDbEntity
  8
0
 62
   115
370
    -2
100
AcDbLine
 10
190.7500046220047
 20
17.00000026065652
 30
0.0
 11
196.2500046220048
 21
17.00000026065652
 31
0.0
  0
SOLID
  5
80B6
330
7EA7
100
AcDbEntity
  8
0
 62
   115
100
AcDbTrace
 10
187.7500046220047
 20
17.50000026065652
 30
0.0
 11
187.7500046220047
 21
16.50000026065652
 31
0.0
 12
190.7500046220047
 22
17.00000026065652
 32
0.0
 13
190.7500046220047
 23
17.00000026065652
 33
0.0
  0
SOLID
  5
80B7
330
7EA7
100
AcDbEntity
  8
0
 62
   115
100
AcDbTrace
 10
199.2500046220048
 20
17.50000026065652
 30
0.0
 11
199.2500046220048
 21
16.50000026065652
 31
0.0
 12
196.2500046220048
 22
17.00000026065652
 32
0.0
 13
196.2500046220048
 23
17.00000026065652
 33
0.0
  0
MTEXT
  5
80B8
330
7EA7
100
AcDbEntity
  8
0
 62
     7
100
AcDbMText
 10
206.3928617648619
 20
19.50000026065652
 30
0.0
 40
3.0
 41
0.0
 71
     5
 72
     1
  1
\A1;5.5
 73
     1
 44
1.0
1001
ACAD
1000
MTEXTBEGIN
1070
    73
1070
     1
1070
    44
1040
1.0
1070
    74
1070
     0
1000
MTEXTEND
  0
POINT
  5
80B9
330
7EA7
100
AcDbEntity
  8
DEFPOINTS
 62
     0
100
AcDbPoint
 10
190.7500046220047
 20
27.50000026065652
 30
0.0
  0
POINT
  5
80BA
330
7EA7
100
AcDbEntity
  8
DEFPOINTS
 62
     0
100
AcDbPoint
 10
196.2500046220048
 20
38.50001171065628
 30
0.0
  0
POINT
  5
80BB
330
7EA7
100
AcDbEntity
  8
DEFPOINTS
 62
     0
100
AcDbPoint
 10
196.2500046220048
 20
17.00000026065652
 30
0.0
  0
ENDBLK
  5
7EA9
330
7EA7
100
AcDbEntity
  8
0
100
AcDbBlockEnd
  0
BLOCK
  5
7EB6
330
7EB5
100
AcDbEntity
  8
0
100
AcDbBlockBegin
  2
*D17
 70
     1
 10
0.0
 20
0.0
 30
0.0
  3
*D17
  1

  0
LINE
  5
7F79
330
7EB5
100
AcDbEntity
  8
0
 62
   115
370
    -2
100
AcDbLine
 10
191.2500046220048
 20
27.00000026065652
 30
0.0
 11
215.2500046220047
 21
27.00000026065652
 31
0.0
  0
LINE
  5
7F7A
330
7EB5
100
AcDbEntity
  8
0
 62
   115
370
    -2
100
AcDbLine
 10
191.2500046220048
 20
85.00000026065652
 30
0.0
 11
215.2500046220047
 21
85.00000026065652
 31
0.0
  0
LINE
  5
7F7B
330
7EB5
100
AcDbEntity
  8
0
 62
   115
370
    -2
100
AcDbLine
 10
214.2500046220047
 20
30.00000026065652
 30
0.0
 11
214.2500046220047
 21
82.00000026065652
 31
0.0
  0
SOLID
  5
7F7C
330
7EB5
100
AcDbEntity
  8
0
 62
   115
100
AcDbTrace
 10
213.7500046220047
 20
30.00000026065652
 30
0.0
 11
214.7500046220047
 21
30.00000026065652
 31
0.0
 12
214.2500046220047
 22
27.00000026065652
 32
0.0
 13
214.2500046220047
 23
27.00000026065652
 33
0.0
  0
SOLID
  5
7F7D
330
7EB5
100
AcDbEntity
  8
0
 62
   115
100
AcDbTrace
 10
213.7500046220047
 20
82.00000026065652
 30
0.0
 11
214.7500046220047
 21
82.00000026065652
 31
0.0
 12
214.2500046220047
 22
85.00000026065652
 32
0.0
 13
214.2500046220047
 23
85.00000026065652
 33
0.0
  0
MTEXT
  5
7F7E
330
7EB5
100
AcDbEntity
  8
0
 62
     7
100
AcDbMText
 10
211.7500046220047
 20
56.00000026065655
 30
0.0
 40
3.0
 41
0.0
 71
     5
 72
     1
  1
\A1;%%C58
 11
0.0000000000000001
 21
1.0
 31
0.0
 73
     1
 44
1.0
1001
ACAD
1000
MTEXTBEGIN
1070
    73
1070
     1
1070
    44
1040
1.0
1070
    74
1070
     0
1000
MTEXTEND
  0
POINT
  5
7F7F
330
7EB5
100
AcDbEntity
  8
DEFPOINTS
 62
     0
100
AcDbPoint
 10
190.2500046220048
 20
27.00000026065652
 30
0.0
  0
POINT
  5
7F80
330
7EB5
100
AcDbEntity
  8
DEFPOINTS
 62
     0
100
AcDbPoint
 10
190.2500046220048
 20
85.00000026065652
 30
0.0
  0
POINT
  5
7F81
330
7EB5
100
AcDbEntity
  8
DEFPOINTS
 62
     0
100
AcDbPoint
 10
214.2500046220047
 20
85.00000026065652
 30
0.0
  0
ENDBLK
  5
7EB7
330
7EB5
100
AcDbEntity
  8
0
100
AcDbBlockEnd
  0
BLOCK
  5
7EC2
330
7EC1
100
AcDbEntity
  8
0
100
AcDbBlockBegin
  2
*D18
 70
     1
 10
0.0
 20
0.0
 30
0.0
  3
*D18
  1

  0
LINE
  5
7F82
330
7EC1
100
AcDbEntity
  8
0
 62
   115
370
    -2
100
AcDbLine
 10
366.0418471361136
 20
76.00832457145557
 30
0.0
 11
388.7285806877824
 21
85.40547775127908
 31
0.0
  0
LINE
  5
7F83
330
7EC1
100
AcDbEntity
  8
0
 62
   115
370
    -2
100
AcDbLine
 10
366.5425438589949
 20
84.87485605280637
 30
0.0
 11
385.6671136554941
 21
92.79651262212368
 31
0.0
  0
LINE
  5
7F84
330
7EC1
100
AcDbEntity
  8
0
 62
   115
370
    -2
100
AcDbLine
 10
388.9527515065752
 20
82.25115572523261
 30
0.0
 11
390.1008018513025
 21
79.47951714742862
 31
0.0
  0
LINE
  5
7F85
330
7EC1
100
AcDbEntity
  8
0
 62
   115
370
    -2
100
AcDbLine
 10
383.595183784832
 20
95.18546775168516
 30
0.0
 11
382.4471334401046
 21
97.95710632948917
 31
0.0
  0
LINE
  5
7F86
330
7EC1
100
AcDbEntity
  8
0
 62
   115
370
    -2
100
AcDbLine
 10
387.8047011618477
 20
85.02279430303659
 30
0.0
 11
384.7432341295594
 21
92.4138291738812
 31
0.0
  0
SOLID
  5
7F87
330
7EC1
100
AcDbEntity
  8
0
 62
   115
100
AcDbTrace
 10
389.4146912695425
 20
82.44249744935386
 30
0.0
 11
388.4908117436078
 21
82.05981400111138
 31
0.0
 12
387.8047011618477
 22
85.02279430303659
 32
0.0
 13
387.8047011618477
 23
85.02279430303659
 33
0.0
  0
SOLID
  5
7F88
330
7EC1
100
AcDbEntity
  8
0
 62
   115
100
AcDbTrace
 10
384.0571235477993
 20
95.37680947580643
 30
0.0
 11
383.1332440218647
 21
94.99412602756393
 31
0.0
 12
384.7432341295594
 22
92.4138291738812
 32
0.0
 13
384.7432341295594
 23
92.4138291738812
 33
0.0
  0
MTEXT
  5
7F89
330
7EC1
100
AcDbEntity
  8
0
 62
     7
100
AcDbMText
 10
388.5836664605403
 20
89.67502035906509
 30
0.0
 40
3.0
 41
0.0
 71
     5
 72
     1
  1
\A1;8
 11
0.3826834482424688
 21
-0.9238795259346607
 31
0.0
 73
     1
 44
1.0
1001
ACAD
1000
MTEXTBEGIN
1070
    73
1070
     1
1070
    44
1040
1.0
1070
    74
1070
     0
1000
MTEXTEND
  0
POINT
  5
7F8A
330
7EC1
100
AcDbEntity
  8
DEFPOINTS
 62
     0
100
AcDbPoint
 10
365.117967610179
 20
75.62564112321311
 30
0.0
  0
POINT
  5
7F8B
330
7EC1
100
AcDbEntity
  8
DEFPOINTS
 62
     0
100
AcDbPoint
 10
365.6186643330602
 20
84.49217260456387
 30
0.0
  0
POINT
  5
7F8C
330
7EC1
100
AcDbEntity
  8
DEFPOINTS
 62
     0
100
AcDbPoint
 10
384.7432341295594
 20
92.4138291738812
 30
0.0
  0
ENDBLK
  5
7EC3
330
7EC1
100
AcDbEntity
  8
0
100
AcDbBlockEnd
  0
BLOCK
  5
7ED0
330
7ECF
100
AcDbEntity
  8
0
100
AcDbBlockBegin
  2
*D19
 70
     1
 10
0.0
 20
0.0
 30
0.0
  3
*D19
  1

  0
LINE
  5
7F8D
330
7ECF
100
AcDbEntity
  8
0
 62
   115
370
    -2
100
AcDbLine
 10
361.6738166619366
 20
83.94055664914791
 30
0.0
 11
357.8469826021364
 21
93.17935088818897
 31
0.0
  0
LINE
  5
7F8E
330
7ECF
100
AcDbEntity
  8
0
 62
   115
370
    -2
100
AcDbLine
 10
356.1305401150912
 20
81.64445507229302
 30
0.0
 11
352.3037056523965
 21
90.88325028400758
 31
0.0
  0
LINE
  5
7F8F
330
7ECF
100
AcDbEntity
  8
0
 62
   115
370
    -2
100
AcDbLine
 10
361.0013046281829
 20
93.40352170698167
 30
0.0
 11
363.7729432059868
 21
94.55157205170905
 31
0.0
  0
LINE
  5
7F90
330
7ECF
100
AcDbEntity
  8
0
 62
   115
370
    -2
100
AcDbLine
 10
349.914750522835
 20
88.81132041334552
 30
0.0
 11
336.3205232126535
 21
83.18040681777791
 31
0.0
  0
LINE
  5
7F91
330
7ECF
100
AcDbEntity
  8
0
 62
   115
370
    -2
100
AcDbLine
 10
358.2296660503788
 20
92.25547136225429
 30
0.0
 11
352.686389100639
 21
89.9593707580729
 31
0.0
  0
SOLID
  5
7F92
330
7ECF
100
AcDbEntity
  8
0
 62
   115
100
AcDbTrace
 10
360.8099629040617
 20
93.865461469949
 30
0.0
 11
361.1926463523041
 21
92.94158194401434
 31
0.0
 12
358.2296660503788
 22
92.25547136225429
 32
0.0
 13
358.2296660503788
 23
92.25547136225429
 33
0.0
  0
SOLID
  5
7F93
330
7ECF
100
AcDbEntity
  8
0
 62
   115
100
AcDbTrace
 10
349.7234087987138
 20
89.27326017631285
 30
0.0
 11
350.1060922469562
 21
88.34938065037819
 31
0.0
 12
352.686389100639
 22
89.9593707580729
 32
0.0
 13
352.686389100639
 23
89.9593707580729
 33
0.0
  0
MTEXT
  5
7F94
330
7ECF
100
AcDbEntity
  8
0
 62
     7
100
AcDbMText
 10
340.7751089582361
 20
87.73153725803469
 30
0.0
 40
3.0
 41
0.0
 71
     5
 72
     1
  1
\A1;M6x1
 11
0.9238795259346645
 21
0.3826834482424597
 31
0.0
 73
     1
 44
1.0
1001
ACAD
1000
MTEXTBEGIN
1070
    73
1070
     1
1070
    44
1040
1.0
1070
    74
1070
     0
1000
MTEXTEND
  0
POINT
  5
7F95
330
7ECF
100
AcDbEntity
  8
DEFPOINTS
 62
     0
100
AcDbPoint
 10
362.056500110179
 20
83.01667712321323
 30
0.0
  0
POINT
  5
7F96
330
7ECF
100
AcDbEntity
  8
DEFPOINTS
 62
     0
100
AcDbPoint
 10
356.5132235633337
 20
80.72057554635836
 30
0.0
  0
POINT
  5
7F97
330
7ECF
100
AcDbEntity
  8
DEFPOINTS
 62
     0
100
AcDbPoint
 10
352.686389100639
 20
89.9593707580729
 30
0.0
  0
ENDBLK
  5
7ED1
330
7ECF
100
AcDbEntity
  8
0
100
AcDbBlockEnd
  0
BLOCK
  5
7EDE
330
7EDD
100
AcDbEntity
  8
0
100
AcDbBlockBegin
  2
*D20
 70
     1
 10
0.0
 20
0.0
 30
0.0
  3
*D20
  1

  0
LINE
  5
7F98
330
7EDD
100
AcDbEntity
  8
0
 62
   115
370
    -2
100
AcDbLine
 10
370.0000014720048
 20
89.00000026065663
 30
0.0
 11
370.0000014720048
 21
103.8226386642607
 31
0.0
  0
LINE
  5
7F99
330
7EDD
100
AcDbEntity
  8
0
 62
   115
370
    -2
100
AcDbLine
 10
357.7541316363217
 20
85.56414530101788
 30
0.0
 11
351.699070062959
 21
100.1823570724347
 31
0.0
  0
ARC
  5
7F9A
330
7EDD
100
AcDbEntity
  8
0
 62
   115
370
    -2
100
AcDbCircle
 10
370.0000014720047
 20
56.00000026065597
 30
0.0
 40
46.82263840360472
100
AcDbArc
 50
93.67165881877966
 51
108.82834118122
  0
SOLID
  5
7F9B
330
7EDD
100
AcDbEntity
  8
0
 62
   115
100
AcDbTrace
 10
366.9855234117682
 20
103.2262746690375
 30
0.0
 11
367.0175591972587
 21
102.2267879465404
 31
0.0
 12
370.0000014720047
 22
102.8226386642607
 32
0.0
 13
370.0000014720047
 23
102.8226386642607
 33
0.0
  0
SOLID
  5
7F9C
330
7EDD
100
AcDbEntity
  8
0
 62
   115
100
AcDbTrace
 10
355.0651930676928
 20
99.84931450392007
 30
0.0
 11
354.7123032646468
 21
100.7849793942019
 31
0.0
 12
352.081753495324
 22
99.25847753992343
 32
0.0
 13
352.081753495324
 23
99.25847753992343
 33
0.0
  0
MTEXT
  5
7F9D
102
{ACAD_XDICTIONARY
360
8356
102
}
330
7EDD
100
AcDbEntity
  8
0
 62
     7
100
AcDbMText
 10
360.3776320631606
 20
104.3749179975626
 30
0.0
 40
3.0
 41
0.0
 71
     5
 72
     1
  1
\A1;22.5\U+00B0
 11
0.9807852804032309
 21
0.1950903220161254
 31
0.0
 73
     1
 44
1.0
1001
ACAD
1000
MTEXTBEGIN
1070
    73
1070
     1
1070
    44
1040
1.0
1070
    74
1070
     0
1000
MTEXTEND
  0
POINT
  5
7F9E
330
7EDD
100
AcDbEntity
  8
DEFPOINTS
 62
     0
100
AcDbPoint
 10
363.8884207714859
 20
102.4220645018739
 30
0.0
  0
POINT
  5
7F9F
330
7EDD
100
AcDbEntity
  8
DEFPOINTS
 62
     0
100
AcDbPoint
 10
358.1368150686869
 20
84.6402657685066
 30
0.0
  0
POINT
  5
7FA0
330
7EDD
100
AcDbEntity
  8
DEFPOINTS
 62
     0
100
AcDbPoint
 10
370.0000014720047
 20
24.00000026065664
 30
0.0
  0
POINT
  5
7FA1
330
7EDD
100
AcDbEntity
  8
DEFPOINTS
 62
     0
100
AcDbPoint
 10
370.0000014720047
 20
88.00000026065664
 30
0.0
  0
POINT
  5
7FA2
330
7EDD
100
AcDbEntity
  8
DEFPOINTS
 62
     0
100
AcDbPoint
 10
366.2497032783295
 20
65.0540210227702
 30
0.0
  0
ENDBLK
  5
7EDF
330
7EDD
100
AcDbEntity
  8
0
100
AcDbBlockEnd
  0
BLOCK
  5
804D
330
804C
100
AcDbEntity
  8
0
100
AcDbBlockBegin
  2
2005SDK
 70
     0
 10
0.0
 20
0.0
 30
0.0
  3
2005SDK
  1

  0
LINE
  5
8217
330
804C
100
AcDbEntity
  8
0
100
AcDbLine
 10
181.7500046220048
 20
185.0043186399919
 30
0.0
 11
181.7500046220048
 21
174.8987622676832
 31
0.0
  0
LINE
  5
8218
330
804C
100
AcDbEntity
  8
0
100
AcDbLine
 10
181.7500046220047
 20
137.1055566329654
 30
0.0
 11
181.7500046220047
 21
127.0000002606565
 31
0.0
  0
LINE
  5
8219
330
804C
100
AcDbEntity
  8
0
100
AcDbLine
 10
180.7500046220048
 20
184.0000002606566
 30
0.0
 11
180.7500046220047
 21
128.0000002606565
 31
0.0
  0
LINE
  5
821A
330
804C
100
AcDbEntity
  8
0
100
AcDbLine
 10
195.750004622005
 20
138.0000117106564
 30
0.0
 11
195.750004622005
 21
174.0000039106564
 31
0.0
  0
LINE
  5
821B
330
804C
100
AcDbEntity
  8
0
100
AcDbLine
 10
190.7500046220048
 20
184.0000002606565
 30
0.0
 11
190.7500046220048
 21
128.0000002606565
 31
0.0
  0
LINE
  5
821C
330
804C
100
AcDbEntity
  8
0
100
AcDbLine
 10
189.7500046220048
 20
127.0000002606565
 30
0.0
 11
189.7500046220048
 21
137.1055566329654
 31
0.0
  0
LINE
  5
821D
330
804C
100
AcDbEntity
  8
0
100
AcDbLine
 10
189.7500046220048
 20
174.8944438883478
 30
0.0
 11
189.7500046220048
 21
185.0000002606565
 31
0.0
  0
LINE
  5
821E
330
804C
100
AcDbEntity
  8
0
100
AcDbLine
 10
147.7499983220048
 20
173.5000039106564
 30
0.0
 11
147.7499983220048
 21
138.5000117106564
 31
0.0
  0
LINE
  5
821F
330
804C
100
AcDbEntity
  8
0
100
AcDbLine
 10
148.2499983220048
 20
138.0000117106564
 30
0.0
 11
147.7499983220048
 21
138.5000117106564
 31
0.0
  0
LINE
  5
8220
330
804C
100
AcDbEntity
  8
0
100
AcDbLine
 10
148.2499983220048
 20
138.0000117106564
 30
0.0
 11
180.749998622005
 21
138.0000117106564
 31
0.0
  0
LINE
  5
8221
330
804C
100
AcDbEntity
  8
0
100
AcDbLine
 10
181.7500046220047
 20
127.0000002606565
 30
0.0
 11
189.7500046220048
 21
127.0000002606565
 31
0.0
  0
LINE
  5
8222
330
804C
100
AcDbEntity
  8
0
100
AcDbLine
 10
190.7500046220047
 20
138.0000117106564
 30
0.0
 11
195.750004622005
 21
138.0000117106564
 31
0.0
  0
LINE
  5
8223
330
804C
100
AcDbEntity
  8
0
100
AcDbLine
 10
195.750004622005
 20
138.0000117106564
 30
0.0
 11
196.2500046220048
 21
138.5000117106563
 31
0.0
  0
LINE
  5
8224
330
804C
100
AcDbEntity
  8
0
100
AcDbLine
 10
196.2500046220048
 20
138.5000117106563
 30
0.0
 11
196.2500046220048
 21
173.5000039106564
 31
0.0
  0
LINE
  5
8225
330
804C
100
AcDbEntity
  8
0
100
AcDbLine
 10
196.2500046220048
 20
173.5000039106564
 30
0.0
 11
195.750004622005
 21
174.0000039106564
 31
0.0
  0
LINE
  5
8226
330
804C
100
AcDbEntity
  8
0
100
AcDbLine
 10
195.750004622005
 20
174.0000039106564
 30
0.0
 11
190.7500046220047
 21
174.0000039106564
 31
0.0
  0
LINE
  5
8227
330
804C
100
AcDbEntity
  8
0
100
AcDbLine
 10
189.7500046220048
 20
185.0000002606565
 30
0.0
 11
181.7500046220048
 21
185.0000002606566
 31
0.0
  0
LINE
  5
8228
330
804C
100
AcDbEntity
  8
0
100
AcDbLine
 10
180.749998622005
 20
174.0000039106564
 30
0.0
 11
148.2499983220048
 21
174.0000039106564
 31
0.0
  0
LINE
  5
8229
330
804C
100
AcDbEntity
  8
0
100
AcDbLine
 10
147.7499983220048
 20
173.5000039106564
 30
0.0
 11
148.2499983220048
 21
174.0000039106564
 31
0.0
  0
LINE
  5
822A
330
804C
100
AcDbEntity
  8
0
100
AcDbLine
 10
180.7500046220048
 20
137.1055566329654
 30
0.0
 11
190.7500046220048
 21
137.1055566329654
 31
0.0
  0
LINE
  5
822B
330
804C
100
AcDbEntity
  8
0
100
AcDbLine
 10
180.7500046220048
 20
174.8944438883478
 30
0.0
 11
190.7500046220047
 21
174.8944438883478
 31
0.0
  0
LINE
  5
822C
330
804C
100
AcDbEntity
  8
9
100
AcDbLine
 10
180.7500046220048
 20
137.1055566329654
 30
0.0
 11
190.7500046220047
 21
174.8944438883478
 31
0.0
  0
LINE
  5
822D
330
804C
100
AcDbEntity
  8
9
100
AcDbLine
 10
180.7500046220048
 20
174.8944438883478
 30
0.0
 11
190.7500046220048
 21
137.1055566329654
 31
0.0
  0
TEXT
  5
822E
330
804C
100
AcDbEntity
  8
0
100
AcDbText
 10
150.7261919481952
 20
154.0000011106564
 30
0.0
 40
4.0
  1
SDK2005
 72
     4
 11
164.2500014720047
 21
156.0000011106564
 31
0.0
100
AcDbText
  0
LINE
  5
822F
330
804C
100
AcDbEntity
  8
2
100
AcDbLine
 10
147.7499983220048
 20
165.8000002606566
 30
0.0
 11
196.2500046220048
 21
165.8000002606566
 31
0.0
  0
LINE
  5
8230
330
804C
100
AcDbEntity
  8
2
100
AcDbLine
 10
196.2500046220048
 20
146.2000002606564
 30
0.0
 11
147.7499983220048
 21
146.2000002606564
 31
0.0
  0
ELLIPSE
  5
8231
330
804C
100
AcDbEntity
  8
9
100
AcDbEllipse
 10
185.7500046220048
 20
181.8687546709728
 30
0.0
 11
2.999463687718955
 21
-0.0000000000000945
 31
0.0
210
0.0
220
0.0
230
-1.0
 40
0.3827521957271129
 41
3.141592653589758
 42
7.853981633974454
  0
ELLIPSE
  5
8232
330
804C
100
AcDbEntity
  8
0
100
AcDbEllipse
 10
185.7500046220048
 20
181.8686271709727
 30
0.0
 11
-2.499554249533093
 21
-0.0000000000001227
 31
0.0
210
0.0
220
0.0
230
-1.0
 40
0.3828033789051975
 41
0.0
 42
6.283185307179584
  0
LINE
  5
8233
330
804C
100
AcDbEntity
  8
0
100
AcDbLine
 10
180.7500046220048
 20
184.0000002606566
 30
0.0
 11
181.7500046220048
 21
185.0000002606566
 31
0.0
  0
LINE
  5
8234
330
804C
100
AcDbEntity
  8
0
100
AcDbLine
 10
189.7500046220048
 20
185.0000002606565
 30
0.0
 11
190.7500046220048
 21
184.0000002606565
 31
0.0
  0
LINE
  5
8235
330
804C
100
AcDbEntity
  8
0
100
AcDbLine
 10
189.7500046220048
 20
127.0000002606565
 30
0.0
 11
190.7500046220048
 21
128.0000002606565
 31
0.0
  0
LINE
  5
8236
330
804C
100
AcDbEntity
  8
0
100
AcDbLine
 10
181.7500046220047
 20
127.0000002606565
 30
0.0
 11
180.7500046220047
 21
128.0000002606565
 31
0.0
  0
ENDBLK
  5
804E
330
804C
100
AcDbEntity
  8
0
100
AcDbBlockEnd
  0
ENDSEC
  0
SECTION
  2
ENTITIES
  0
LINE
  5
7DD9
330
19
100
AcDbEntity
  8
1
100
AcDbLine
 10
19.00000147200472
 20
56.00000026065675
 30
0.0
 11
325.0000014720047
 21
56.00000026065675
 31
0.0
  0
DIMENSION
  5
7DDA
330
19
100
AcDbEntity
  8
0
100
AcDbDimension
  2
*D3
 10
12.00000147200453
 20
64.35000026065677
 30
0.0
 11
9.500001472004516
 21
56.00000026065678
 31
0.0
 70
    32
  1
%%C<>
 71
     5
 42
16.69999999999998
  3
STANDARD
100
AcDbAlignedDimension
 13
22.00000147200461
 23
47.65000026065678
 33
0.0
 14
22.00000147200478
 24
64.35000026065677
 34
0.0
 50
90.0
100
AcDbRotatedDimension
1001
ACAD
1000
DSTYLE
1002
{
1070
    41
1040
3.0
1070
    42
1040
1.0
1070
    43
1040
1.0
1070
    44
1040
1.0
1070
    73
1070
     0
1070
    74
1070
     0
1070
    77
1070
     3
1070
    78
1070
     8
1070
   141
1040
-1.0
1070
   147
1040
1.0
1070
   172
1070
     1
1070
   176
1070
   115
1070
   177
1070
   115
1070
   178
1070
     7
1070
   271
1070
     2
1070
   272
1070
     2
1002
}
  0
DIMENSION
  5
7DDB
330
19
100
AcDbEntity
  8
0
100
AcDbDimension
  2
*D4
 10
4.000001472004498
 20
65.80000026065682
 30
0.0
 11
1.500001472004487
 21
56.00000026065678
 31
0.0
 70
    32
  1
%%C<>
 71
     5
 42
19.60000000000007
  3
STANDARD
100
AcDbAlignedDimension
 13
22.00000147200461
 23
46.20000026065674
 33
0.0
 14
22.00000147200478
 24
65.80000026065682
 34
0.0
 50
90.0
100
AcDbRotatedDimension
1001
ACAD
1000
DSTYLE
1002
{
1070
    41
1040
3.0
1070
    42
1040
1.0
1070
    43
1040
1.0
1070
    44
1040
1.0
1070
    73
1070
     0
1070
    74
1070
     0
1070
    77
1070
     3
1070
    78
1070
     8
1070
   141
1040
-1.0
1070
   147
1040
1.0
1070
   172
1070
     1
1070
   176
1070
   115
1070
   177
1070
   115
1070
   178
1070
     7
1070
   271
1070
     2
1070
   272
1070
     2
1002
}
  0
DIMENSION
  5
7DDC
330
19
100
AcDbEntity
  8
0
100
AcDbDimension
  2
*D5
 10
137.7499983220046
 20
74.00000391065647
 30
0.0
 11
134.4642840362903
 21
56.00000781065645
 31
0.0
 70
    32
  1
%%C<> g6 ({\H0.5x;\S-0.009^ -0.025;})
 71
     5
 42
35.99999220000009
  3
STANDARD
100
AcDbAlignedDimension
 13
148.2499983220048
 23
38.00001171065638
 33
0.0
 14
148.2499983220048
 24
74.00000391065647
 34
0.0
 50
90.0
100
AcDbRotatedDimension
1001
ACAD
1000
DSTYLE
1002
{
1070
   998
1000
1,1,-0.009,-0.025,0,0,2,H7,g6,256
1070
    48
1040
0.025
1070
    47
1040
-0.009
1070
    71
1070
     0
1070
    72
1070
     0
1070
   284
1070
     8
1070
   283
1070
     1
1070
   146
1040
1.0
1070
     3
1000

1070
    41
1040
3.0
1070
    42
1040
1.0
1070
    43
1040
1.0
1070
    44
1040
1.0
1070
    73
1070
     0
1070
    74
1070
     0
1070
    77
1070
     3
1070
    78
1070
     8
1070
   141
1040
-1.0
1070
   147
1040
1.0
1070
   172
1070
     1
1070
   176
1070
   115
1070
   177
1070
   115
1070
   178
1070
     7
1070
   271
1070
     2
1070
   272
1070
     3
1002
}
  0
DIMENSION
  5
7DDD
330
19
100
AcDbEntity
  8
0
100
AcDbDimension
  2
*D6
 10
147.7499983220048
 20
17.00000026065652
 30
0.0
 11
164.2500014720048
 21
19.50000026065652
 31
0.0
 70
    32
 71
     5
 42
33.00000629999999
  3
STANDARD
100
AcDbAlignedDimension
 13
180.7500046220048
 23
27.50000026065652
 33
0.0
 14
147.7499983220048
 24
38.60000271065644
 34
0.0
100
AcDbRotatedDimension
1001
ACAD
1000
DSTYLE
1002
{
1070
    41
1040
3.0
1070
    42
1040
1.0
1070
    43
1040
1.0
1070
    44
1040
1.0
1070
    47
1040
1.0
1070
    48
1040
1.0
1070
    73
1070
     0
1070
    74
1070
     0
1070
    77
1070
     3
1070
    78
1070
     8
1070
   141
1040
-1.0
1070
   147
1040
1.0
1070
   172
1070
     1
1070
   176
1070
   115
1070
   177
1070
   115
1070
   178
1070
     7
1070
   271
1070
     2
1070
   272
1070
     3
1070
   284
1070
     8
1002
}
  0
DIMENSION
  5
7DDE
330
19
100
AcDbEntity
  8
0
100
AcDbDimension
  2
*D7
 10
190.7500046220047
 20
17.00000026065652
 30
0.0
 11
185.7500046220048
 21
19.50000026065652
 31
0.0
 70
    32
 71
     5
 42
10.0
  3
STANDARD
100
AcDbAlignedDimension
 13
180.7500046220048
 23
27.50000026065652
 33
0.0
 14
190.7500046220047
 24
27.50000026065652
 34
0.0
100
AcDbRotatedDimension
1001
ACAD
1000
DSTYLE
1002
{
1070
    41
1040
3.0
1070
    42
1040
1.0
1070
    43
1040
1.0
1070
    44
1040
1.0
1070
    73
1070
     0
1070
    74
1070
     0
1070
    77
1070
     3
1070
    78
1070
     8
1070
   141
1040
-1.0
1070
   147
1040
1.0
1070
   172
1070
     1
1070
   176
1070
   115
1070
   177
1070
   115
1070
   178
1070
     7
1070
   271
1070
     2
1070
   272
1070
     2
1002
}
  0
DIMENSION
  5
7DDF
330
19
100
AcDbEntity
  8
0
100
AcDbDimension
  2
*D8
 10
196.2500046220048
 20
9.00000026065652
 30
0.0
 11
172.0000014720048
 21
11.50000026065652
 31
0.0
 70
    32
 71
     5
 42
48.5000063
  3
STANDARD
100
AcDbAlignedDimension
 13
147.7499983220048
 23
38.60000271065644
 33
0.0
 14
196.2500046220048
 24
38.50001171065628
 34
0.0
100
AcDbRotatedDimension
1001
ACAD
1000
DSTYLE
1002
{
1070
    41
1040
3.0
1070
    42
1040
1.0
1070
    43
1040
1.0
1070
    44
1040
1.0
1070
    47
1040
1.0
1070
    48
1040
1.0
1070
    73
1070
     0
1070
    74
1070
     0
1070
    77
1070
     3
1070
    78
1070
     8
1070
   141
1040
-1.0
1070
   147
1040
1.0
1070
   172
1070
     1
1070
   176
1070
   115
1070
   177
1070
   115
1070
   178
1070
     7
1070
   271
1070
     2
1070
   272
1070
     3
1070
   284
1070
     8
1002
}
  0
DIMENSION
  5
7DE0
330
19
100
AcDbEntity
  8
0
100
AcDbDimension
  2
*D9
 10
392.0000014720047
 20
1.00000026065652
 30
0.0
 11
370.0000014720047
 21
3.50000026065652
 31
0.0
 70
    32
 71
     5
 42
43.99999999999994
  3
STANDARD
100
AcDbAlignedDimension
 13
348.0000014720047
 23
37.10555663296555
 33
0.0
 14
392.0000014720047
 24
37.10555663296543
 34
0.0
100
AcDbRotatedDimension
1001
ACAD
1000
DSTYLE
1002
{
1070
    41
1040
3.0
1070
    42
1040
1.0
1070
    43
1040
1.0
1070
    44
1040
1.0
1070
    73
1070
     0
1070
    74
1070
     0
1070
    77
1070
     3
1070
    78
1070
     8
1070
   141
1040
-1.0
1070
   147
1040
1.0
1070
   172
1070
     1
1070
   176
1070
   115
1070
   177
1070
   115
1070
   178
1070
     7
1070
   271
1070
     2
1070
   272
1070
     2
1002
}
  0
DIMENSION
  5
7DE1
330
19
100
AcDbEntity
  8
0
100
AcDbDimension
  2
*D10
 10
357.8377651934799
 20
43.83776398213194
 30
0.0
 11
370.0000014720047
 21
19.97503179899463
 31
0.0
 70
    34
 71
     5
 42
1.570796326794903
  3
STANDARD
100
AcDb2LineAngularDimension
 13
391.0717831934801
 23
34.92821853918144
 33
0.0
 14
382.1622377505296
 24
43.83776398213194
 34
0.0
 15
348.9282197505293
 25
34.92821853918144
 35
0.0
 16
360.0290059221525
 26
18.7877382665655
 36
0.0
1001
ACAD
1000
DSTYLE
1002
{
1070
    41
1040
3.0
1070
    42
1040
1.0
1070
    43
1040
1.0
1070
    44
1040
1.0
1070
    73
1070
     0
1070
    74
1070
     0
1070
    77
1070
     3
1070
    78
1070
     8
1070
    79
1070
     2
1070
   141
1040
-1.0
1070
   147
1040
1.0
1070
   172
1070
     1
1070
   176
1070
   115
1070
   177
1070
   115
1070
   178
1070
     7
1070
   271
1070
     2
1070
   272
1070
     2
1002
}
  0
DIMENSION
  5
7DE2
330
19
100
AcDbEntity
  8
0
100
AcDbDimension
  2
*D11
 10
338.0000014720046
 20
72.6170102606567
 30
0.0
 11
334.7142871862903
 21
56.00000076065676
 31
0.0
 70
    32
  1
(<>)
 71
     5
 42
33.234019
  3
STANDARD
100
AcDbAlignedDimension
 13
353.3829924720047
 23
39.3829912606567
 33
0.0
 14
353.3829924720047
 24
72.61701026065669
 34
0.0
 50
90.0
100
AcDbRotatedDimension
1001
ACAD
1000
DSTYLE
1002
{
1070
    41
1040
3.0
1070
    42
1040
1.0
1070
    43
1040
1.0
1070
    44
1040
1.0
1070
    73
1070
     0
1070
    74
1070
     0
1070
    77
1070
     3
1070
    78
1070
     8
1070
   141
1040
-1.0
1070
   147
1040
1.0
1070
   172
1070
     1
1070
   176
1070
   115
1070
   177
1070
   115
1070
   178
1070
     7
1070
   271
1070
     2
1070
   272
1070
     2
1002
}
  0
DIMENSION
  5
7DE3
330
19
100
AcDbEntity
  8
0
100
AcDbDimension
  2
*D12
 10
386.6170104720047
 20
9.00000026065652
 30
0.0
 11
370.0000014720047
 21
12.2857145463708
 31
0.0
 70
    32
  1
(<>)
 71
     5
 42
33.23401800000005
  3
STANDARD
100
AcDbAlignedDimension
 13
353.3829924720047
 23
39.3829912606567
 33
0.0
 14
386.6170104720047
 24
39.3829912606567
 34
0.0
100
AcDbRotatedDimension
1001
ACAD
1000
DSTYLE
1002
{
1070
    41
1040
3.0
1070
    42
1040
1.0
1070
    43
1040
1.0
1070
    44
1040
1.0
1070
    73
1070
     0
1070
    74
1070
     0
1070
    77
1070
     3
1070
    78
1070
     8
1070
   141
1040
-1.0
1070
   147
1040
1.0
1070
   172
1070
     1
1070
   176
1070
   115
1070
   177
1070
   115
1070
   178
1070
     7
1070
   271
1070
     2
1070
   272
1070
     2
1002
}
  0
DIMENSION
  5
7DE4
330
19
100
AcDbEntity
  8
0
100
AcDbDimension
  2
*D13
 10
410.0000014720039
 20
79.50000026065675
 30
0.0
 11
407.5000014720038
 21
56.00000026065669
 31
0.0
 70
    32
  1
PCD <>
 71
     5
 42
47.00000000000023
  3
STANDARD
100
AcDbAlignedDimension
 13
370.0000014720047
 23
32.50000026065652
 33
0.0
 14
370.0000014720047
 24
79.50000026065675
 34
0.0
 50
90.0
100
AcDbRotatedDimension
1001
ACAD
1000
DSTYLE
1002
{
1070
    41
1040
3.0
1070
    42
1040
1.0
1070
    43
1040
1.0
1070
    44
1040
1.0
1070
    73
1070
     0
1070
    74
1070
     0
1070
    77
1070
     3
1070
    78
1070
     8
1070
   141
1040
-1.0
1070
   147
1040
1.0
1070
   172
1070
     1
1070
   176
1070
   115
1070
   177
1070
   115
1070
   178
1070
     7
1070
   271
1070
     2
1070
   272
1070
     2
1002
}
  0
DIMENSION
  5
7DE5
330
19
100
AcDbEntity
  8
0
100
AcDbDimension
  2
*D14
 10
402.0000014720038
 20
75.9170102606567
 30
0.0
 11
399.5000014720039
 21
90.63129597494246
 31
0.0
 70
    32
  1
6-%%C<>
 71
     5
 42
6.600000000000022
  3
STANDARD
100
AcDbAlignedDimension
 13
386.6170104720047
 23
69.31701026065667
 33
0.0
 14
386.6170104720047
 24
75.9170102606567
 34
0.0
 50
90.0
100
AcDbRotatedDimension
1001
ACAD
1000
DSTYLE
1002
{
1070
    41
1040
3.0
1070
    42
1040
1.0
1070
    43
1040
1.0
1070
    44
1040
1.0
1070
    73
1070
     0
1070
    74
1070
     0
1070
    77
1070
     3
1070
    78
1070
     8
1070
   141
1040
-1.0
1070
   147
1040
1.0
1070
   172
1070
     1
1070
   176
1070
   115
1070
   177
1070
   115
1070
   178
1070
     7
1070
   271
1070
     2
1070
   272
1070
     2
1002
}
  0
LINE
  5
7DE6
330
19
100
AcDbEntity
  8
1
100
AcDbLine
 10
179.7505409342858
 20
81.86862717097273
 30
0.0
 11
191.7494683097237
 21
81.86862717097273
 31
0.0
  0
LINE
  5
7DE7
330
19
100
AcDbEntity
  8
1
100
AcDbLine
 10
185.7500046220048
 20
77.72057585849456
 30
0.0
 11
185.7500046220048
 21
86.01667848345091
 31
0.0
  0
DIMENSION
  5
7DE8
330
19
100
AcDbEntity
  8
0
100
AcDbDimension
  2
*D15
 10
206.2500046220047
 20
74.00000391065645
 30
0.0
 11
202.9642903362904
 21
56.00000781065645
 31
0.0
 70
    32
  1
%%C<> g6 ({\H0.5x;\S-0.009^ -0.025;})
 71
     5
 42
35.99999220000007
  3
STANDARD
100
AcDbAlignedDimension
 13
195.750004622005
 23
38.0000117106564
 33
0.0
 14
195.750004622005
 24
74.00000391065645
 34
0.0
 50
90.0
100
AcDbRotatedDimension
1001
ACAD
1000
DSTYLE
1002
{
1070
   998
1000
1,1,-0.009,-0.025,0,0,2,H7,g6,256
1070
    47
1040
-0.009
1070
    71
1070
     0
1070
    72
1070
     0
1070
   283
1070
     1
1070
   146
1040
1.0
1070
     3
1000

1070
    41
1040
3.0
1070
    42
1040
1.0
1070
    43
1040
1.0
1070
    44
1040
1.0
1070
    48
1040
0.025
1070
    73
1070
     0
1070
    74
1070
     0
1070
    77
1070
     3
1070
    78
1070
     8
1070
   141
1040
-1.0
1070
   147
1040
1.0
1070
   172
1070
     1
1070
   176
1070
   115
1070
   177
1070
   115
1070
   178
1070
     7
1070
   271
1070
     2
1070
   272
1070
     3
1070
   284
1070
     8
1002
}
  0
DIMENSION
  5
7DEA
330
19
100
AcDbEntity
  8
0
100
AcDbDimension
  2
*D16
 10
196.2500046220048
 20
17.00000026065652
 30
0.0
 11
206.3928617648619
 21
19.50000026065652
 31
0.0
 70
    32
 71
     5
 42
5.5
  3
STANDARD
100
AcDbAlignedDimension
 13
190.7500046220047
 23
27.50000026065652
 33
0.0
 14
196.2500046220048
 24
38.50001171065628
 34
0.0
100
AcDbRotatedDimension
1001
ACAD
1000
DSTYLE
1002
{
1070
    41
1040
3.0
1070
    42
1040
1.0
1070
    43
1040
1.0
1070
    44
1040
1.0
1070
    73
1070
     0
1070
    74
1070
     0
1070
    77
1070
     3
1070
    78
1070
     8
1070
   141
1040
-1.0
1070
   147
1040
1.0
1070
   172
1070
     1
1070
   176
1070
   115
1070
   177
1070
   115
1070
   178
1070
     7
1070
   271
1070
     2
1070
   272
1070
     2
1002
}
  0
DIMENSION
  5
7DEB
330
19
100
AcDbEntity
  8
0
100
AcDbDimension
  2
*D17
 10
214.2500046220047
 20
85.00000026065652
 30
0.0
 11
211.7500046220047
 21
56.00000026065655
 31
0.0
 70
    32
  1
%%C<>
 71
     5
 42
58.0
  3
STANDARD
100
AcDbAlignedDimension
 13
190.2500046220048
 23
27.00000026065652
 33
0.0
 14
190.2500046220048
 24
85.00000026065652
 34
0.0
 50
90.0
100
AcDbRotatedDimension
1001
ACAD
1000
DSTYLE
1002
{
1070
   998
1000
1,1,-0.007,-0.02,0,0,2,H7,g6,256
1070
    47
1040
-0.007
1070
    71
1070
     0
1070
    72
1070
     0
1070
   283
1070
     1
1070
   146
1040
1.0
1070
     3
1000

1070
    41
1040
3.0
1070
    42
1040
1.0
1070
    43
1040
1.0
1070
    44
1040
1.0
1070
    48
1040
0.02
1070
    73
1070
     0
1070
    74
1070
     0
1070
    77
1070
     3
1070
    78
1070
     8
1070
   141
1040
-1.0
1070
   147
1040
1.0
1070
   172
1070
     1
1070
   176
1070
   115
1070
   177
1070
   115
1070
   178
1070
     7
1070
   271
1070
     2
1070
   272
1070
     3
1070
   284
1070
     8
1002
}
  0
DIMENSION
  5
7DEC
330
19
100
AcDbEntity
  8
0
100
AcDbDimension
  2
*D18
 10
384.7432341295594
 20
92.4138291738812
 30
0.0
 11
388.5836664605403
 21
89.67502035906509
 31
0.0
 70
    32
 71
     5
 42
7.999998553239194
  3
STANDARD
100
AcDbAlignedDimension
 13
365.117967610179
 23
75.62564112321314
 33
0.0
 14
365.6186643330603
 24
84.49217260456391
 34
0.0
 50
112.5000009846595
100
AcDbRotatedDimension
1001
ACAD
1000
DSTYLE
1002
{
1070
    41
1040
3.0
1070
    42
1040
1.0
1070
    43
1040
1.0
1070
    44
1040
1.0
1070
    73
1070
     0
1070
    74
1070
     0
1070
    77
1070
     3
1070
    78
1070
     8
1070
   141
1040
-1.0
1070
   147
1040
1.0
1070
   172
1070
     1
1070
   176
1070
   115
1070
   177
1070
   115
1070
   178
1070
     7
1070
   271
1070
     2
1070
   272
1070
     2
1002
}
  0
DIMENSION
  5
7DED
330
19
100
AcDbEntity
  8
0
100
AcDbDimension
  2
*D19
 10
352.686389100639
 20
89.9593707580729
 30
0.0
 11
340.7751089582361
 21
87.73153725803469
 31
0.0
 70
    32
  1
M<>x1
 71
     5
 42
5.999999777169989
  3
STANDARD
100
AcDbAlignedDimension
 13
362.056500110179
 23
83.01667712321323
 33
0.0
 14
356.5132235633337
 24
80.72057554635836
 34
0.0
 50
202.500000984659
100
AcDbRotatedDimension
1001
ACAD
1000
DSTYLE
1002
{
1070
    41
1040
3.0
1070
    42
1040
1.0
1070
    43
1040
1.0
1070
    44
1040
1.0
1070
    73
1070
     0
1070
    74
1070
     0
1070
    77
1070
     3
1070
    78
1070
     8
1070
   141
1040
-1.0
1070
   147
1040
1.0
1070
   172
1070
     1
1070
   176
1070
   115
1070
   177
1070
   115
1070
   178
1070
     7
1070
   271
1070
     2
1070
   272
1070
     2
1002
}
  0
DIMENSION
  5
7DEE
330
19
100
AcDbEntity
  8
0
100
AcDbDimension
  2
*D20
 10
366.2497032783296
 20
65.0540210227702
 30
0.0
 11
360.3776320631606
 21
104.3749179975626
 31
0.0
 70
    34
 71
     5
 42
0.3926990816987184
  3
STANDARD
100
AcDb2LineAngularDimension
 13
370.0000014720047
 23
24.00000026065664
 33
0.0
 14
370.0000014720047
 24
88.00000026065664
 34
0.0
 15
358.1368150686869
 25
84.6402657685066
 35
0.0
 16
363.8884207714859
 26
102.4220645018739
 36
0.0
1001
ACAD
1000
DSTYLE
1002
{
1070
    41
1040
3.0
1070
    42
1040
1.0
1070
    43
1040
1.0
1070
    44
1040
1.0
1070
    73
1070
     0
1070
    74
1070
     0
1070
    77
1070
     3
1070
    78
1070
     8
1070
   141
1040
-1.0
1070
   147
1040
1.0
1070
   172
1070
     1
1070
   176
1070
   115
1070
   177
1070
   115
1070
   178
1070
     7
1070
   179
1070
     1
1070
   271
1070
     2
1070
   272
1070
     2
1002
}
  0
INSERT
  5
7DEF
330
19
100
AcDbEntity
  8
0
100
AcDbBlockReference
  2
A$C753C6721
 10
22.00000034562027
 20
46.19999997439345
 30
0.0
  0
LINE
  5
7DF1
330
19
100
AcDbEntity
  8
1
100
AcDbLine
 10
348.9282197505293
 20
34.92821853918144
 30
0.0
 11
357.8377651934799
 21
43.83776398213194
 31
0.0
  0
LINE
  5
7DF2
330
19
100
AcDbEntity
  8
1
100
AcDbLine
 10
370.0000014720047
 20
24.00000026065664
 30
0.0
 11
370.0000014720047
 21
88.00000026065664
 31
0.0
  0
LINE
  5
7DF3
330
19
100
AcDbEntity
  8
1
100
AcDbLine
 10
345.0000014720047
 20
56.00000026065675
 30
0.0
 11
395.0000014720047
 21
56.00000026065663
 31
0.0
  0
LINE
  5
7DF4
330
19
100
AcDbEntity
  8
1
100
AcDbLine
 10
391.0717831934801
 20
34.92821853918144
 30
0.0
 11
382.1622377505296
 21
43.83776398213194
 31
0.0
  0
LINE
  5
7DF5
330
19
100
AcDbEntity
  8
1
100
AcDbLine
 10
348.9282197505293
 20
77.07178198213182
 30
0.0
 11
357.8377651934799
 21
68.16223653918132
 31
0.0
  0
LINE
  5
7DF6
330
19
100
AcDbEntity
  8
1
100
AcDbLine
 10
391.0717831934801
 20
77.07178198213182
 30
0.0
 11
382.1622377505296
 21
68.16223653918132
 31
0.0
  0
LINE
  5
7DF7
330
19
100
AcDbEntity
  8
1
100
AcDbLine
 10
358.1368184458801
 20
84.64026586639812
 30
0.0
 11
366.2497066555228
 21
65.05402112066173
 31
0.0
  0
CIRCLE
  5
7DF8
330
19
100
AcDbEntity
  8
1
100
AcDbCircle
 10
370.0000014720047
 20
56.00000026065663
 30
0.0
 40
23.50000000000012
  0
INSERT
  5
7DF9
330
19
100
AcDbEntity
  8
0
100
AcDbBlockReference
  2
*U2
 10
348.0000022141647
 20
27.00000062512192
 30
0.0
  0
INSERT
  5
806F
330
19
100
AcDbEntity
  8
0
100
AcDbBlockReference
  2
2005SDK
 10
0.0
 20
-100.0
 30
0.0
  0
ENDSEC
  0
SECTION
  2
OBJECTS
  0
DICTIONARY
  5
C
330
0
100
AcDbDictionary
281
     1
  3
ACAD_CIP_PREVIOUS_PRODUCT_INFO
350
7439
  3
ACAD_COLOR
350
728E
  3
ACAD_GROUP
350
D
  3
ACAD_LAYOUT
350
7291
  3
ACAD_MATERIAL
350
728D
  3
ACAD_MLEADERSTYLE
350
738E
  3
ACAD_MLINESTYLE
350
E
  3
ACAD_PLOTSETTINGS
350
7292
  3
ACAD_PLOTSTYLENAME
350
728B
  3
ACAD_SCALELIST
350
736C
  3
ACAD_TABLESTYLE
350
728F
  3
ACAD_VISUALSTYLE
350
735B
  3
ACDB_RECOMPOSE_DATA
350
8316
  3
ACDBVARIABLEDICTIONARY
350
1BF
  3
DWGPROPS
350
8317
  0
DICTIONARY
  5
7FE5
330
8
100
AcDbDictionary
280
     1
281
     1
  0
DICTIONARY
  5
7409
330
F
100
AcDbDictionary
280
     1
281
     1
  3
ADSK_XREC_LAYER_RECONCILED
360
740A
  0
DICTIONARY
  5
7DAD
330
7DAC
100
AcDbDictionary
280
     1
281
     1
  0
DICTIONARY
  5
7DAF
330
7DAE
100
AcDbDictionary
280
     1
281
     1
  0
DICTIONARY
  5
7DB1
330
7DB0
100
AcDbDictionary
280
     1
281
     1
  0
DICTIONARY
  5
782C
330
19
100
AcDbDictionary
280
     1
281
     1
  3
ACAD_SORTENTS
360
782D
  0
DICTIONARY
  5
7D5A
330
7D59
100
AcDbDictionary
280
     1
281
     1
  3
ACAD_SORTENTS
360
7D5B
  0
DICTIONARY
  5
8160
330
7D8E
100
AcDbDictionary
280
     1
281
     1
  3
ACAD_ENHANCEDBLOCK
360
8162
  3
ACAD_SORTENTS
360
8161
  3
AcDbDynamicBlockRoundTripPurgePreventer
360
8164
  0
DICTIONARY
  5
8237
330
804C
100
AcDbDictionary
280
     1
281
     1
  3
ACAD_SORTENTS
360
8238
  0
DICTIONARY
  5
8354
330
7F2F
100
AcDbDictionary
280
     1
281
     1
  3
ACAD_MTEXT_RT
360
8355
  0
DICTIONARY
  5
8356
330
7F9D
100
AcDbDictionary
280
     1
281
     1
  3
ACAD_MTEXT_RT
360
8357
  0
XRECORD
  5
7439
102
{ACAD_REACTORS
330
C
102
}
330
C
100
AcDbXrecord
280
     1
300
ACDLT
300
2012
300
ACDLT_F_S
  0
DICTIONARY
  5
728E
102
{ACAD_REACTORS
330
C
102
}
330
C
100
AcDbDictionary
281
     1
  0
DICTIONARY
  5
D
102
{ACAD_REACTORS
330
C
102
}
330
C
100
AcDbDictionary
281
     1
  0
DICTIONARY
  5
7291
102
{ACAD_REACTORS
330
C
102
}
330
C
100
AcDbDictionary
281
     1
  3
Model
350
7293
  3
배치1
350
7294
  0
DICTIONARY
  5
728D
102
{ACAD_REACTORS
330
C
102
}
330
C
100
AcDbDictionary
281
     1
  3
ByBlock
350
734B
  3
ByLayer
350
7343
  3
Global
350
7353
  0
DICTIONARY
  5
738E
102
{ACAD_REACTORS
330
C
102
}
330
C
100
AcDbDictionary
281
     1
  3
Standard
350
738F
  0
DICTIONARY
  5
E
102
{ACAD_REACTORS
330
C
102
}
330
C
100
AcDbDictionary
281
     1
  3
STANDARD
350
1C
  0
DICTIONARY
  5
7292
102
{ACAD_REACTORS
330
C
102
}
330
C
100
AcDbDictionary
281
     1
  0
ACDBDICTIONARYWDFLT
  5
728B
102
{ACAD_REACTORS
330
C
102
}
330
C
100
AcDbDictionary
281
     1
  3
Normal
350
728C
100
AcDbDictionaryWithDefault
340
728C
  0
DICTIONARY
  5
736C
102
{ACAD_REACTORS
330
C
102
}
330
C
100
AcDbDictionary
281
     1
  3
A0
350
736D
  3
A1
350
736E
  3
A2
350
736F
  3
A3
350
7370
  3
A4
350
7371
  3
A5
350
7372
  3
A6
350
7373
  3
A7
350
7374
  3
A8
350
7375
  3
A9
350
7376
  3
B0
350
7377
  3
B1
350
7378
  3
B2
350
7379
  3
B3
350
737A
  3
B4
350
737B
  3
B5
350
737C
  3
B6
350
737D
  3
B7
350
737E
  3
B8
350
737F
  3
B9
350
7380
  3
C0
350
7381
  3
C1
350
7382
  3
C2
350
7383
  3
C3
350
7384
  3
C4
350
7385
  3
C5
350
7386
  3
C6
350
7387
  3
C7
350
7388
  3
C8
350
7389
  3
C9
350
738A
  3
D0
350
738B
  3
D1
350
738C
  3
D2
350
738D
  0
DICTIONARY
  5
728F
102
{ACAD_REACTORS
330
C
102
}
330
C
100
AcDbDictionary
281
     1
  3
Standard
350
7290
  0
DICTIONARY
  5
735B
102
{ACAD_REACTORS
330
C
102
}
330
C
100
AcDbDictionary
281
     1
  3
2dWireframe
350
7361
  3
3D Hidden
350
7363
  3
3dWireframe
350
7362
  3
Basic
350
7360
  3
Brighten
350
7367
  3
ColorChange
350
736B
  3
Conceptual
350
7364
  3
Dim
350
7366
  3
EdgeColorOff
350
7436
  3
Facepattern
350
736A
  3
Flat
350
735C
  3
FlatWithEdges
350
735D
  3
Gouraud
350
735E
  3
GouraudWithEdges
350
735F
  3
Hidden
350
742E
  3
JitterOff
350
7434
  3
Linepattern
350
7369
  3
OverhangOff
350
7435
  3
Realistic
350
7365
  3
Shaded
350
7433
  3
Shaded with edges
350
7432
  3
Shades of Gray
350
742F
  3
Sketchy
350
7430
  3
Thicken
350
7368
  3
Wireframe
350
742D
  3
X-Ray
350
7431
  0
XRECORD
  5
8316
102
{ACAD_REACTORS
330
C
102
}
330
C
100
AcDbXrecord
280
     1
 90
        1
330
7290
  0
DICTIONARY
  5
1BF
102
{ACAD_REACTORS
330
C
102
}
330
C
100
AcDbDictionary
281
     1
  3
CANNOSCALE
350
7416
  3
CMLEADERSTYLE
350
7415
  3
CTABLESTYLE
350
7326
  3
DIMASSOC
350
7327
  3
INDEXCTL
350
7417
  3
PROJECTNAME
350
7328
  3
SORTENTS
350
1C0
  3
XCLIPFRAME
350
8314
  0
XRECORD
  5
8317
102
{ACAD_REACTORS
330
C
102
}
330
C
100
AcDbXrecord
280
     1
  1
DWGPROPS COOKIE
  2

  3

  4

  6

  7

  8
woni
  9

300
=
301
=
302
=
303
=
304
=
305
=
306
=
307
=
308
=
309
=
 40
0.2719612384259259
 41
2452464.575009942
 42
2456842.7173364
  1

 90
        0
  0
XRECORD
  5
740A
102
{ACAD_REACTORS
330
7409
102
}
330
7409
100
AcDbXrecord
280
     1
290
     1
  0
SORTENTSTABLE
  5
782D
102
{ACAD_REACTORS
330
782C
102
}
330
782C
100
AcDbSortentsTable
330
19
331
7DDB
  5
7DDB
331
7DEB
  5
7DEB
331
7DE3
  5
7DE3
331
7DF3
  5
8044
331
7DDC
  5
7DDC
331
7DEC
  5
7DEC
331
7DE4
  5
7DE4
331
7DF4
  5
8045
331
7DDD
  5
7DDD
331
7DED
  5
7DED
331
7DE5
  5
7DE5
331
7DF5
  5
8046
331
7DDE
  5
7DDE
331
7DEE
  5
7DEE
331
7DE6
  5
7DE6
331
7DF6
  5
8047
331
7DDF
  5
7DDF
331
7DEF
  5
7DEF
331
7DE7
  5
7DE7
331
7DF7
  5
8048
331
7DE8
  5
7DE8
331
7DE0
  5
7DE0
331
7DF8
  5
804A
331
7DD9
  5
7DD9
331
7DE1
  5
7DE1
331
7DF1
  5
8042
331
7DF9
  5
804B
331
7DDA
  5
7DDA
331
7DEA
  5
7DEA
331
7DE2
  5
7DE2
331
7DF2
  5
8043
  0
SORTENTSTABLE
  5
7D5B
102
{ACAD_REACTORS
330
7D5A
102
}
330
7D5A
100
AcDbSortentsTable
330
7D59
  0
ACAD_EVALUATION_GRAPH
  5
8162
102
{ACAD_REACTORS
330
8160
102
}
330
8160
100
AcDbEvalGraph
 96
        0
 97
        0
  0
SORTENTSTABLE
  5
8161
102
{ACAD_REACTORS
330
8160
102
}
330
8160
100
AcDbSortentsTable
330
7D8E
  0
ACDB_DYNAMICBLOCKPURGEPREVENTER_VERSION
  5
8164
102
{ACAD_REACTORS
330
8160
102
}
330
8160
100
AcDbDynamicBlockPurgePreventer
 70
     1
  0
SORTENTSTABLE
  5
8238
102
{ACAD_REACTORS
330
8237
102
}
330
8237
100
AcDbSortentsTable
330
804C
331
8221
  5
8224
331
8223
  5
8226
331
8225
  5
8228
331
821A
  5
821B
331
8227
  5
822A
331
821C
  5
821F
331
8229
  5
822D
331
821E
  5
8221
331
822B
  5
822F
331
822D
  5
8231
331
822F
  5
8233
331
8231
  5
8235
331
8233
  5
822B
331
8235
  5
821D
331
8220
  5
8223
331
8222
  5
8225
331
8224
  5
8227
331
8226
  5
8229
331
821B
  5
821C
331
8228
  5
822C
331
821D
  5
8220
331
822A
  5
822E
331
821F
  5
8222
331
822C
  5
8230
331
822E
  5
8232
331
8230
  5
8234
331
8232
  5
8236
331
8234
  5
821E
331
8236
  5
821A
  0
XRECORD
  5
8355
102
{ACAD_REACTORS
330
8354
102
}
330
8354
100
AcDbXrecord
280
     1
 40
5313.0
  1
\A1;90\U+00B0
  0
XRECORD
  5
8357
102
{ACAD_REACTORS
330
8356
102
}
330
8356
100
AcDbXrecord
280
     1
 40
6896.0
  1
\A1;22.5\U+00B0
  0
LAYOUT
  5
7293
102
{ACAD_XDICTIONARY
360
8319
102
}
102
{ACAD_REACTORS
330
7291
102
}
330
7291
100
AcDbPlotSettings
  1

  2
\\문광휘\HP LaserJet 5100 PCL 6
  4

  6

 40
0.0
 41
0.0
 42
0.0
 43
0.0
 44
0.0
 45
0.0
 46
0.0
 47
0.0
 48
0.0
 49
0.0
140
0.0
141
0.0
142
1.0
143
1.0
 70
  1712
 72
     0
 73
     0
 74
     0
  7

 75
     0
147
1.0
148
0.0
149
0.0
100
AcDbLayout
  1
Model
 70
     1
 71
     0
 10
0.0
 20
0.0
 11
12.0
 21
9.0
 12
0.0
 22
0.0
 32
0.0
 14
0.0
 24
0.0
 34
0.0
 15
0.0
 25
0.0
 35
0.0
146
0.0
 13
0.0
 23
0.0
 33
0.0
 16
1.0
 26
0.0
 36
0.0
 17
0.0
 27
1.0
 37
0.0
 76
     0
330
19
331
7336
  0
LAYOUT
  5
7294
102
{ACAD_XDICTIONARY
360
831B
102
}
102
{ACAD_REACTORS
330
7291
102
}
330
7291
100
AcDbPlotSettings
  1

  2
\\문광휘\HP LaserJet 5100 PCL 6
  4

  6

 40
0.0
 41
0.0
 42
0.0
 43
0.0
 44
0.0
 45
0.0
 46
0.0
 47
0.0
 48
0.0
 49
0.0
140
0.0
141
0.0
142
1.0
143
1.0
 70
   688
 72
     0
 73
     0
 74
     5
  7

 75
    16
147
1.0
148
0.0
149
0.0
100
AcDbLayout
  1
배치1
 70
     1
 71
     1
 10
0.0
 20
0.0
 11
12.0
 21
9.0
 12
0.0
 22
0.0
 32
0.0
 14
1.000000000000000E+20
 24
1.000000000000000E+20
 34
1.000000000000000E+20
 15
-1.000000000000000E+20
 25
-1.000000000000000E+20
 35
-1.000000000000000E+20
146
0.0
 13
0.0
 23
0.0
 33
0.0
 16
1.0
 26
0.0
 36
0.0
 17
0.0
 27
1.0
 37
0.0
 76
     0
330
16
  0
MATERIAL
  5
734B
102
{ACAD_XDICTIONARY
360
734C
102
}
102
{ACAD_REACTORS
330
728D
102
}
330
728D
100
AcDbMaterial
  1
ByBlock
 72
     0
 43
0.0208333333333333
 43
0.0
 43
0.0
 43
0.0
 43
0.0
 43
0.0208333333333333
 43
0.0
 43
0.0
 43
0.0
 43
0.0
 43
1.0
 43
0.0
 43
0.0
 43
0.0
 43
0.0
 43
1.0
 77
     0
 47
0.0208333333333333
 47
0.0
 47
0.0
 47
0.0
 47
0.0
 47
0.0208333333333333
 47
0.0
 47
0.0
 47
0.0
 47
0.0
 47
1.0
 47
0.0
 47
0.0
 47
0.0
 47
0.0
 47
1.0
171
     0
 49
0.0208333333333333
 49
0.0
 49
0.0
 49
0.0
 49
0.0
 49
0.0208333333333333
 49
0.0
 49
0.0
 49
0.0
 49
0.0
 49
1.0
 49
0.0
 49
0.0
 49
0.0
 49
0.0
 49
1.0
175
     0
142
0.0208333333333333
142
0.0
142
0.0
142
0.0
142
0.0
142
0.0208333333333333
142
0.0
142
0.0
142
0.0
142
0.0
142
1.0
142
0.0
142
0.0
142
0.0
142
0.0
142
1.0
179
     0
144
0.0208333333333333
144
0.0
144
0.0
144
0.0
144
0.0
144
0.0208333333333333
144
0.0
144
0.0
144
0.0
144
0.0
144
1.0
144
0.0
144
0.0
144
0.0
144
0.0
144
1.0
147
0.0208333333333333
147
0.0
147
0.0
147
0.0
147
0.0
147
0.0208333333333333
147
0.0
147
0.0
147
0.0
147
0.0
147
1.0
147
0.0
147
0.0
147
0.0
147
0.0
147
1.0
  0
MATERIAL
  5
7343
102
{ACAD_XDICTIONARY
360
7344
102
}
102
{ACAD_REACTORS
330
728D
102
}
330
728D
100
AcDbMaterial
  1
ByLayer
 72
     0
 43
0.0208333333333333
 43
0.0
 43
0.0
 43
0.0
 43
0.0
 43
0.0208333333333333
 43
0.0
 43
0.0
 43
0.0
 43
0.0
 43
1.0
 43
0.0
 43
0.0
 43
0.0
 43
0.0
 43
1.0
 77
     0
 47
0.0208333333333333
 47
0.0
 47
0.0
 47
0.0
 47
0.0
 47
0.0208333333333333
 47
0.0
 47
0.0
 47
0.0
 47
0.0
 47
1.0
 47
0.0
 47
0.0
 47
0.0
 47
0.0
 47
1.0
171
     0
 49
0.0208333333333333
 49
0.0
 49
0.0
 49
0.0
 49
0.0
 49
0.0208333333333333
 49
0.0
 49
0.0
 49
0.0
 49
0.0
 49
1.0
 49
0.0
 49
0.0
 49
0.0
 49
0.0
 49
1.0
175
     0
142
0.0208333333333333
142
0.0
142
0.0
142
0.0
142
0.0
142
0.0208333333333333
142
0.0
142
0.0
142
0.0
142
0.0
142
1.0
142
0.0
142
0.0
142
0.0
142
0.0
142
1.0
179
     0
144
0.0208333333333333
144
0.0
144
0.0
144
0.0
144
0.0
144
0.0208333333333333
144
0.0
144
0.0
144
0.0
144
0.0
144
1.0
144
0.0
144
0.0
144
0.0
144
0.0
144
1.0
147
0.0208333333333333
147
0.0
147
0.0
147
0.0
147
0.0
147
0.0208333333333333
147
0.0
147
0.0
147
0.0
147
0.0
147
1.0
147
0.0
147
0.0
147
0.0
147
0.0
147
1.0
  0
MATERIAL
  5
7353
102
{ACAD_XDICTIONARY
360
7354
102
}
102
{ACAD_REACTORS
330
728D
102
}
330
728D
100
AcDbMaterial
  1
Global
 72
     0
 43
0.0208333333333333
 43
0.0
 43
0.0
 43
0.0
 43
0.0
 43
0.0208333333333333
 43
0.0
 43
0.0
 43
0.0
 43
0.0
 43
1.0
 43
0.0
 43
0.0
 43
0.0
 43
0.0
 43
1.0
 77
     0
 47
0.0208333333333333
 47
0.0
 47
0.0
 47
0.0
 47
0.0
 47
0.0208333333333333
 47
0.0
 47
0.0
 47
0.0
 47
0.0
 47
1.0
 47
0.0
 47
0.0
 47
0.0
 47
0.0
 47
1.0
171
     0
 49
0.0208333333333333
 49
0.0
 49
0.0
 49
0.0
 49
0.0
 49
0.0208333333333333
 49
0.0
 49
0.0
 49
0.0
 49
0.0
 49
1.0
 49
0.0
 49
0.0
 49
0.0
 49
0.0
 49
1.0
175
     0
142
0.0208333333333333
142
0.0
142
0.0
142
0.0
142
0.0
142
0.0208333333333333
142
0.0
142
0.0
142
0.0
142
0.0
142
1.0
142
0.0
142
0.0
142
0.0
142
0.0
142
1.0
179
     0
144
0.0208333333333333
144
0.0
144
0.0
144
0.0
144
0.0
144
0.0208333333333333
144
0.0
144
0.0
144
0.0
144
0.0
144
1.0
144
0.0
144
0.0
144
0.0
144
0.0
144
1.0
147
0.0208333333333333
147
0.0
147
0.0
147
0.0
147
0.0
147
0.0208333333333333
147
0.0
147
0.0
147
0.0
147
0.0
147
1.0
147
0.0
147
0.0
147
0.0
147
0.0
147
1.0
  0
MLEADERSTYLE
  5
738F
102
{ACAD_REACTORS
330
738E
102
}
330
738E
100
AcDbMLeaderStyle
170
     2
171
     1
172
     0
 90
        2
 40
0.0
 41
0.0
173
     1
 91
-1056964608
340
13
 92
       -2
290
     1
 42
0.09
291
     1
 43
0.36
  3
Standard
 44
0.18
300

342
10
174
     1
178
     6
175
     1
176
     0
 93
-1056964608
 45
0.18
292
     0
297
     0
 46
0.18
 94
-1056964608
 47
1.0
 49
1.0
140
1.0
293
     1
141
0.0
294
     1
177
     0
142
1.0
295
     0
296
     0
143
0.125
1001
ACAD_MLEADERVER
1070
     2
  0
MLINESTYLE
  5
1C
102
{ACAD_REACTORS
330
E
102
}
330
E
100
AcDbMlineStyle
  2
STANDARD
 70
     0
  3

 62
     0
 51
90.0
 52
90.0
 71
     2
 49
0.5
 62
   256
  6
BYLAYER
 49
-0.5
 62
   256
  6
BYLAYER
  0
ACDBPLACEHOLDER
  5
728C
102
{ACAD_REACTORS
330
728B
102
}
330
728B
  0
SCALE
  5
736D
102
{ACAD_REACTORS
330
736C
102
}
330
736C
100
AcDbScale
 70
     0
300
1:1
140
1.0
141
1.0
290
     1
  0
SCALE
  5
736E
102
{ACAD_REACTORS
330
736C
102
}
330
736C
100
AcDbScale
 70
     0
300
1:2
140
1.0
141
2.0
290
     0
  0
SCALE
  5
736F
102
{ACAD_REACTORS
330
736C
102
}
330
736C
100
AcDbScale
 70
     0
300
1:4
140
1.0
141
4.0
290
     0
  0
SCALE
  5
7370
102
{ACAD_REACTORS
330
736C
102
}
330
736C
100
AcDbScale
 70
     0
300
1:5
140
1.0
141
5.0
290
     0
  0
SCALE
  5
7371
102
{ACAD_REACTORS
330
736C
102
}
330
736C
100
AcDbScale
 70
     0
300
1:8
140
1.0
141
8.0
290
     0
  0
SCALE
  5
7372
102
{ACAD_REACTORS
330
736C
102
}
330
736C
100
AcDbScale
 70
     0
300
1:10
140
1.0
141
10.0
290
     0
  0
SCALE
  5
7373
102
{ACAD_REACTORS
330
736C
102
}
330
736C
100
AcDbScale
 70
     0
300
1:16
140
1.0
141
16.0
290
     0
  0
SCALE
  5
7374
102
{ACAD_REACTORS
330
736C
102
}
330
736C
100
AcDbScale
 70
     0
300
1:20
140
1.0
141
20.0
290
     0
  0
SCALE
  5
7375
102
{ACAD_REACTORS
330
736C
102
}
330
736C
100
AcDbScale
 70
     0
300
1:30
140
1.0
141
30.0
290
     0
  0
SCALE
  5
7376
102
{ACAD_REACTORS
330
736C
102
}
330
736C
100
AcDbScale
 70
     0
300
1:40
140
1.0
141
40.0
290
     0
  0
SCALE
  5
7377
102
{ACAD_REACTORS
330
736C
102
}
330
736C
100
AcDbScale
 70
     0
300
1:50
140
1.0
141
50.0
290
     0
  0
SCALE
  5
7378
102
{ACAD_REACTORS
330
736C
102
}
330
736C
100
AcDbScale
 70
     0
300
1:100
140
1.0
141
100.0
290
     0
  0
SCALE
  5
7379
102
{ACAD_REACTORS
330
736C
102
}
330
736C
100
AcDbScale
 70
     0
300
2:1
140
2.0
141
1.0
290
     0
  0
SCALE
  5
737A
102
{ACAD_REACTORS
330
736C
102
}
330
736C
100
AcDbScale
 70
     0
300
4:1
140
4.0
141
1.0
290
     0
  0
SCALE
  5
737B
102
{ACAD_REACTORS
330
736C
102
}
330
736C
100
AcDbScale
 70
     0
300
8:1
140
8.0
141
1.0
290
     0
  0
SCALE
  5
737C
102
{ACAD_REACTORS
330
736C
102
}
330
736C
100
AcDbScale
 70
     0
300
10:1
140
10.0
141
1.0
290
     0
  0
SCALE
  5
737D
102
{ACAD_REACTORS
330
736C
102
}
330
736C
100
AcDbScale
 70
     0
300
100:1
140
100.0
141
1.0
290
     0
  0
SCALE
  5
737E
102
{ACAD_REACTORS
330
736C
102
}
330
736C
100
AcDbScale
 70
     0
300
1/128" = 1'-0"
140
0.0078125
141
12.0
290
     0
  0
SCALE
  5
737F
102
{ACAD_REACTORS
330
736C
102
}
330
736C
100
AcDbScale
 70
     0
300
1/64" = 1'-0"
140
0.015625
141
12.0
290
     0
  0
SCALE
  5
7380
102
{ACAD_REACTORS
330
736C
102
}
330
736C
100
AcDbScale
 70
     0
300
1/32" = 1'-0"
140
0.03125
141
12.0
290
     0
  0
SCALE
  5
7381
102
{ACAD_REACTORS
330
736C
102
}
330
736C
100
AcDbScale
 70
     0
300
1/16" = 1'-0"
140
0.0625
141
12.0
290
     0
  0
SCALE
  5
7382
102
{ACAD_REACTORS
330
736C
102
}
330
736C
100
AcDbScale
 70
     0
300
3/32" = 1'-0"
140
0.09375
141
12.0
290
     0
  0
SCALE
  5
7383
102
{ACAD_REACTORS
330
736C
102
}
330
736C
100
AcDbScale
 70
     0
300
1/8" = 1'-0"
140
0.125
141
12.0
290
     0
  0
SCALE
  5
7384
102
{ACAD_REACTORS
330
736C
102
}
330
736C
100
AcDbScale
 70
     0
300
3/16" = 1'-0"
140
0.1875
141
12.0
290
     0
  0
SCALE
  5
7385
102
{ACAD_REACTORS
330
736C
102
}
330
736C
100
AcDbScale
 70
     0
300
1/4" = 1'-0"
140
0.25
141
12.0
290
     0
  0
SCALE
  5
7386
102
{ACAD_REACTORS
330
736C
102
}
330
736C
100
AcDbScale
 70
     0
300
3/8" = 1'-0"
140
0.375
141
12.0
290
     0
  0
SCALE
  5
7387
102
{ACAD_REACTORS
330
736C
102
}
330
736C
100
AcDbScale
 70
     0
300
1/2" = 1'-0"
140
0.5
141
12.0
290
     0
  0
SCALE
  5
7388
102
{ACAD_REACTORS
330
736C
102
}
330
736C
100
AcDbScale
 70
     0
300
3/4" = 1'-0"
140
0.75
141
12.0
290
     0
  0
SCALE
  5
7389
102
{ACAD_REACTORS
330
736C
102
}
330
736C
100
AcDbScale
 70
     0
300
1" = 1'-0"
140
1.0
141
12.0
290
     0
  0
SCALE
  5
738A
102
{ACAD_REACTORS
330
736C
102
}
330
736C
100
AcDbScale
 70
     0
300
1-1/2" = 1'-0"
140
1.5
141
12.0
290
     0
  0
SCALE
  5
738B
102
{ACAD_REACTORS
330
736C
102
}
330
736C
100
AcDbScale
 70
     0
300
3" = 1'-0"
140
3.0
141
12.0
290
     0
  0
SCALE
  5
738C
102
{ACAD_REACTORS
330
736C
102
}
330
736C
100
AcDbScale
 70
     0
300
6" = 1'-0"
140
6.0
141
12.0
290
     0
  0
SCALE
  5
738D
102
{ACAD_REACTORS
330
736C
102
}
330
736C
100
AcDbScale
 70
     0
300
1'-0" = 1'-0"
140
12.0
141
12.0
290
     0
  0
TABLESTYLE
  5
7290
102
{ACAD_XDICTIONARY
360
7418
102
}
102
{ACAD_REACTORS
330
728F
102
}
330
728F
100
AcDbTableStyle
  3
Standard
 70
     0
 71
     0
 40
0.06
 41
0.06
280
     0
281
     0
  7
STANDARD
140
0.18
170
     2
 62
     0
 63
     7
283
     0
274
    -2
284
     1
 64
     0
275
    -2
285
     1
 65
     0
276
    -2
286
     1
 66
     0
277
    -2
287
     1
 67
     0
278
    -2
288
     1
 68
     0
279
    -2
289
     1
 69
     0
  7
STANDARD
140
0.25
170
     5
 62
     0
 63
     7
283
     0
274
    -2
284
     1
 64
     0
275
    -2
285
     1
 65
     0
276
    -2
286
     1
 66
     0
277
    -2
287
     1
 67
     0
278
    -2
288
     1
 68
     0
279
    -2
289
     1
 69
     0
  7
STANDARD
140
0.18
170
     5
 62
     0
 63
     7
283
     0
274
    -2
284
     1
 64
     0
275
    -2
285
     1
 65
     0
276
    -2
286
     1
 66
     0
277
    -2
287
     1
 67
     0
278
    -2
288
     1
 68
     0
279
    -2
289
     1
 69
     0
  0
VISUALSTYLE
  5
7361
102
{ACAD_XDICTIONARY
360
832A
102
}
102
{ACAD_REACTORS
330
735B
102
}
330
735B
100
AcDbVisualStyle
  2

 70
     4
 71
     0
 72
     2
 73
     0
 90
        0
 40
-0.6
 41
-30.0
 62
     5
 63
     7
 74
     1
 91
        4
 64
     7
 65
   257
 75
     1
175
     1
 42
1.0
 92
        0
 66
   257
 43
1.0
 76
     1
 77
     6
 78
     2
 67
     7
 79
     5
170
     0
171
     0
290
     0
174
     0
 93
        1
 44
0.0
173
     0
291
     0
 45
0.0
1001
ACAD
1000
AcDbSavedByObjectVersion
1070
     0
  0
VISUALSTYLE
  5
7363
102
{ACAD_XDICTIONARY
360
832E
102
}
102
{ACAD_REACTORS
330
735B
102
}
330
735B
100
AcDbVisualStyle
  2

 70
     6
 71
     1
 72
     2
 73
     2
 90
        0
 40
-0.6
 41
-30.0
 62
     5
 63
     7
 74
     2
 91
        2
 64
     7
 65
   257
 75
     2
175
     1
 42
40.0
 92
        0
 66
   257
 43
1.0
 76
     1
 77
     6
 78
     2
 67
     7
 79
     3
170
     0
171
     0
290
     0
174
     0
 93
        1
 44
0.0
173
     0
291
     0
 45
0.0
1001
ACAD
1000
AcDbSavedByObjectVersion
1070
     0
  0
VISUALSTYLE
  5
7362
102
{ACAD_XDICTIONARY
360
832C
102
}
102
{ACAD_REACTORS
330
735B
102
}
330
735B
100
AcDbVisualStyle
  2

 70
     5
 71
     0
 72
     2
 73
     0
 90
        0
 40
-0.6
 41
-30.0
 62
     5
 63
     7
 74
     1
 91
        4
 64
     7
 65
   257
 75
     1
175
     1
 42
1.0
 92
        0
 66
   257
 43
1.0
 76
     1
 77
     6
 78
     2
 67
     7
 79
     5
170
     0
171
     0
290
     0
174
     0
 93
        1
 44
0.0
173
     0
291
     0
 45
0.0
1001
ACAD
1000
AcDbSavedByObjectVersion
1070
     0
  0
VISUALSTYLE
  5
7360
102
{ACAD_XDICTIONARY
360
8328
102
}
102
{ACAD_REACTORS
330
735B
102
}
330
735B
100
AcDbVisualStyle
  2

 70
     7
 71
     1
 72
     0
 73
     1
 90
        0
 40
-0.6
 41
-30.0
 62
     5
 63
     7
 74
     0
 91
        4
 64
     7
 65
   257
 75
     1
175
     1
 42
1.0
 92
        8
 66
     7
 43
1.0
 76
     1
 77
     6
 78
     2
 67
     7
 79
     5
170
     0
171
     0
290
     0
174
     0
 93
        1
 44
0.0
173
     0
291
     1
 45
0.0
1001
ACAD
1000
AcDbSavedByObjectVersion
1070
     0
  0
VISUALSTYLE
  5
7367
102
{ACAD_XDICTIONARY
360
8336
102
}
102
{ACAD_REACTORS
330
735B
102
}
330
735B
100
AcDbVisualStyle
  2

 70
    12
 71
     2
 72
     2
 73
     0
 90
        0
 40
-0.6
 41
-30.0
 62
     5
 63
     7
 74
     1
 91
        4
 64
     7
 65
   257
 75
     1
175
     1
 42
1.0
 92
        8
 66
     7
 43
1.0
 76
     1
 77
     6
 78
     2
 67
     7
 79
     5
170
     0
171
     0
290
     0
174
     0
 93
        1
 44
50.0
173
     0
291
     1
 45
0.0
1001
ACAD
1000
AcDbSavedByObjectVersion
1070
     0
  0
VISUALSTYLE
  5
736B
102
{ACAD_XDICTIONARY
360
833E
102
}
102
{ACAD_REACTORS
330
735B
102
}
330
735B
100
AcDbVisualStyle
  2

 70
    16
 71
     2
 72
     2
 73
     3
 90
        0
 40
-0.6
 41
-30.0
 62
     5
 63
     8
 74
     1
 91
        4
 64
     7
 65
   257
 75
     1
175
     1
 42
1.0
 92
        8
 66
     8
 43
1.0
 76
     1
 77
     6
 78
     2
 67
     7
 79
     5
170
     0
171
     0
290
     0
174
     0
 93
        1
 44
0.0
173
     0
291
     1
 45
0.0
1001
ACAD
1000
AcDbSavedByObjectVersion
1070
     0
  0
VISUALSTYLE
  5
7364
102
{ACAD_XDICTIONARY
360
8330
102
}
102
{ACAD_REACTORS
330
735B
102
}
330
735B
100
AcDbVisualStyle
  2

 70
     9
 71
     3
 72
     2
 73
     0
 90
        0
 40
-0.6
 41
-30.0
 62
     5
 63
     7
 74
     2
 91
        2
 64
     7
 65
   257
 75
     1
175
     1
 42
40.0
 92
        8
 66
     7
 43
1.0
 76
     1
 77
     6
 78
     2
 67
     7
 79
     3
170
     0
171
     0
290
     0
174
     0
 93
        1
 44
0.0
173
     0
291
     0
 45
0.0
1001
ACAD
1000
AcDbSavedByObjectVersion
1070
     0
  0
VISUALSTYLE
  5
7366
102
{ACAD_XDICTIONARY
360
8334
102
}
102
{ACAD_REACTORS
330
735B
102
}
330
735B
100
AcDbVisualStyle
  2

 70
    11
 71
     2
 72
     2
 73
     0
 90
        0
 40
-0.6
 41
-30.0
 62
     5
 63
     7
 74
     1
 91
        4
 64
     7
 65
   257
 75
     1
175
     1
 42
1.0
 92
        8
 66
     7
 43
1.0
 76
     1
 77
     6
 78
     2
 67
     7
 79
     5
170
     0
171
     0
290
     0
174
     0
 93
        1
 44
-50.0
173
     0
291
     1
 45
0.0
1001
ACAD
1000
AcDbSavedByObjectVersion
1070
     0
  0
VISUALSTYLE
  5
7436
102
{ACAD_XDICTIONARY
360
8352
102
}
102
{ACAD_REACTORS
330
735B
102
}
330
735B
100
AcDbVisualStyle
  2
EdgeColorOff
 70
    22
 71
     2
 72
     2
 73
     0
 90
        0
 40
-0.6
 41
-30.0
 62
     5
 63
     7
 74
     1
 91
        4
 64
     7
 65
   257
 75
     1
175
     1
 42
1.0
 92
        8
 66
     7
 43
1.0
 76
     1
 77
     6
 78
     2
 67
     7
 79
     5
170
     0
171
     0
290
     0
174
     0
 93
        1
 44
0.0
173
     0
291
     1
 45
0.0
1001
ACAD
1000
AcDbSavedByObjectVersion
1070
     0
  0
VISUALSTYLE
  5
736A
102
{ACAD_XDICTIONARY
360
833C
102
}
102
{ACAD_REACTORS
330
735B
102
}
330
735B
100
AcDbVisualStyle
  2

 70
    15
 71
     2
 72
     2
 73
     0
 90
        0
 40
-0.6
 41
-30.0
 62
     5
 63
     7
 74
     1
 91
        4
 64
     7
 65
   257
 75
     1
175
     1
 42
1.0
 92
        8
 66
     7
 43
1.0
 76
     1
 77
     6
 78
     2
 67
     7
 79
     5
170
     0
171
     0
290
     0
174
     0
 93
        1
 44
0.0
173
     0
291
     1
 45
0.0
1001
ACAD
1000
AcDbSavedByObjectVersion
1070
     0
  0
VISUALSTYLE
  5
735C
102
{ACAD_XDICTIONARY
360
8320
102
}
102
{ACAD_REACTORS
330
735B
102
}
330
735B
100
AcDbVisualStyle
  2

 70
     0
 71
     2
 72
     1
 73
     1
 90
        2
 40
-0.6
 41
30.0
 62
     5
 63
     7
 74
     0
 91
        4
 64
     7
 65
   257
 75
     1
175
     1
 42
1.0
 92
        8
 66
     7
 43
1.0
 76
     1
 77
     6
 78
     2
 67
     7
 79
     5
170
     0
171
     0
290
     0
174
     0
 93
       13
 44
0.0
173
     0
291
     1
 45
0.0
1001
ACAD
1000
AcDbSavedByObjectVersion
1070
     0
  0
VISUALSTYLE
  5
735D
102
{ACAD_XDICTIONARY
360
8322
102
}
102
{ACAD_REACTORS
330
735B
102
}
330
735B
100
AcDbVisualStyle
  2

 70
     1
 71
     2
 72
     1
 73
     1
 90
        2
 40
-0.6
 41
30.0
 62
     5
 63
     7
 74
     1
 91
        4
 64
     7
 65
   257
 75
     1
175
     1
 42
1.0
 92
        0
 66
   257
 43
1.0
 76
     1
 77
     6
 78
     2
 67
     7
 79
     5
170
     0
171
     0
290
     0
174
     0
 93
       13
 44
0.0
173
     0
291
     1
 45
0.0
1001
ACAD
1000
AcDbSavedByObjectVersion
1070
     0
  0
VISUALSTYLE
  5
735E
102
{ACAD_XDICTIONARY
360
8324
102
}
102
{ACAD_REACTORS
330
735B
102
}
330
735B
100
AcDbVisualStyle
  2

 70
     2
 71
     2
 72
     2
 73
     1
 90
        2
 40
-0.6
 41
30.0
 62
     5
 63
     7
 74
     0
 91
        4
 64
     7
 65
   257
 75
     1
175
     1
 42
1.0
 92
        0
 66
     7
 43
1.0
 76
     1
 77
     6
 78
     2
 67
     7
 79
     5
170
     0
171
     0
290
     0
174
     0
 93
       13
 44
0.0
173
     0
291
     1
 45
0.0
1001
ACAD
1000
AcDbSavedByObjectVersion
1070
     0
  0
VISUALSTYLE
  5
735F
102
{ACAD_XDICTIONARY
360
8326
102
}
102
{ACAD_REACTORS
330
735B
102
}
330
735B
100
AcDbVisualStyle
  2

 70
     3
 71
     2
 72
     2
 73
     1
 90
        2
 40
-0.6
 41
30.0
 62
     5
 63
     7
 74
     1
 91
        4
 64
     7
 65
   257
 75
     1
175
     1
 42
1.0
 92
        0
 66
   257
 43
1.0
 76
     1
 77
     6
 78
     2
 67
     7
 79
     5
170
     0
171
     0
290
     0
174
     0
 93
       13
 44
0.0
173
     0
291
     1
 45
0.0
1001
ACAD
1000
AcDbSavedByObjectVersion
1070
     0
  0
VISUALSTYLE
  5
742E
102
{ACAD_XDICTIONARY
360
8342
102
}
102
{ACAD_REACTORS
330
735B
102
}
330
735B
100
AcDbVisualStyle
  2
Hidden
 70
     6
 71
     1
 72
     2
 73
     2
 90
        0
 40
-0.6
 41
-30.0
 62
     5
 63
     7
 74
     2
 91
        2
 64
     7
 65
   257
 75
     2
175
     1
 42
40.0
 92
        0
 66
   257
 43
1.0
 76
     1
 77
     6
 78
     2
 67
     7
 79
     3
170
     0
171
     0
290
     0
174
     0
 93
        1
 44
0.0
173
     0
291
     0
 45
0.0
1001
ACAD
1000
AcDbSavedByObjectVersion
1070
     0
  0
VISUALSTYLE
  5
7434
102
{ACAD_XDICTIONARY
360
834E
102
}
102
{ACAD_REACTORS
330
735B
102
}
330
735B
100
AcDbVisualStyle
  2
JitterOff
 70
    20
 71
     2
 72
     2
 73
     0
 90
        0
 40
-0.6
 41
-30.0
 62
     5
 63
     7
 74
     1
 91
        4
 64
     7
 65
   257
 75
     1
175
     1
 42
1.0
 92
       10
 66
     7
 43
1.0
 76
     1
 77
     6
 78
     2
 67
     7
 79
     5
170
     0
171
     0
290
     0
174
     0
 93
        1
 44
0.0
173
     0
291
     1
 45
0.0
1001
ACAD
1000
AcDbSavedByObjectVersion
1070
     0
  0
VISUALSTYLE
  5
7369
102
{ACAD_XDICTIONARY
360
833A
102
}
102
{ACAD_REACTORS
330
735B
102
}
330
735B
100
AcDbVisualStyle
  2

 70
    14
 71
     2
 72
     2
 73
     0
 90
        0
 40
-0.6
 41
-30.0
 62
     5
 63
     7
 74
     1
 91
        4
 64
     7
 65
   257
 75
     7
175
     7
 42
1.0
 92
        8
 66
     7
 43
1.0
 76
     1
 77
     6
 78
     2
 67
     7
 79
     5
170
     0
171
     0
290
     0
174
     0
 93
        1
 44
0.0
173
     0
291
     1
 45
0.0
1001
ACAD
1000
AcDbSavedByObjectVersion
1070
     0
  0
VISUALSTYLE
  5
7435
102
{ACAD_XDICTIONARY
360
8350
102
}
102
{ACAD_REACTORS
330
735B
102
}
330
735B
100
AcDbVisualStyle
  2
OverhangOff
 70
    21
 71
     2
 72
     2
 73
     0
 90
        0
 40
-0.6
 41
-30.0
 62
     5
 63
     7
 74
     1
 91
        4
 64
     7
 65
   257
 75
     1
175
     1
 42
1.0
 92
        9
 66
     7
 43
1.0
 76
     1
 77
     6
 78
     2
 67
     7
 79
     5
170
     0
171
     0
290
     0
174
     0
 93
        1
 44
0.0
173
     0
291
     1
 45
0.0
1001
ACAD
1000
AcDbSavedByObjectVersion
1070
     0
  0
VISUALSTYLE
  5
7365
102
{ACAD_XDICTIONARY
360
8332
102
}
102
{ACAD_REACTORS
330
735B
102
}
330
735B
100
AcDbVisualStyle
  2

 70
     8
 71
     2
 72
     2
 73
     0
 90
        0
 40
-0.6
 41
-30.0
 62
     5
 63
     7
 74
     1
 91
        0
 64
     7
 65
   257
 75
     1
175
     1
 42
1.0
 92
        8
 66
     8
 43
1.0
 76
     1
 77
     6
 78
     2
 67
     7
 79
     5
170
     0
171
     0
290
     0
174
     0
 93
       13
 44
0.0
173
     0
291
     0
 45
0.0
1001
ACAD
1000
AcDbSavedByObjectVersion
1070
     0
  0
VISUALSTYLE
  5
7433
102
{ACAD_XDICTIONARY
360
834C
102
}
102
{ACAD_REACTORS
330
735B
102
}
330
735B
100
AcDbVisualStyle
  2
Shaded
 70
    27
 71
     2
 72
     2
 73
     1
 90
        2
 40
-0.6
 41
30.0
 62
     5
 63
     7
 74
     0
 91
        4
 64
     7
 65
   257
 75
     1
175
     1
 42
1.0
 92
        8
 66
   257
 43
1.0
 76
     1
 77
     6
 78
     2
 67
     8
 79
     3
170
     0
171
     0
290
     0
174
     0
 93
        5
 44
0.0
173
     0
291
     0
 45
0.0
1001
ACAD
1000
AcDbSavedByObjectVersion
1070
     0
  0
VISUALSTYLE
  5
7432
102
{ACAD_XDICTIONARY
360
834A
102
}
102
{ACAD_REACTORS
330
735B
102
}
330
735B
100
AcDbVisualStyle
  2
Shaded with edges
 70
    26
 71
     2
 72
     2
 73
     1
 90
        2
 40
-0.6
 41
30.0
 62
     5
 63
     7
 74
     1
 91
       10
 64
     7
 65
   257
 75
     2
175
     1
 42
1.0
 92
        8
 66
   257
 43
1.0
 76
     1
 77
     6
 78
     2
 67
     7
 79
     3
170
     0
171
     0
290
     0
174
     0
 93
        5
 44
0.0
173
     0
291
     0
 45
0.0
1001
ACAD
1000
AcDbSavedByObjectVersion
1070
     0
  0
VISUALSTYLE
  5
742F
102
{ACAD_XDICTIONARY
360
8344
102
}
102
{ACAD_REACTORS
330
735B
102
}
330
735B
100
AcDbVisualStyle
  2
Shades of Gray
 70
    23
 71
     2
 72
     2
 73
     3
 90
        0
 40
-0.6
 41
-30.0
 62
     5
 63
     7
 74
     2
 91
        2
 64
     7
 65
     7
 75
     1
175
     1
 42
40.0
 92
        8
 66
     7
 43
1.0
 76
     1
 77
     6
 78
     2
 67
     7
 79
     3
170
     0
171
     0
290
     0
174
     0
 93
        1
 44
0.0
173
     0
291
     0
 45
0.0
1001
ACAD
1000
AcDbSavedByObjectVersion
1070
     0
  0
VISUALSTYLE
  5
7430
102
{ACAD_XDICTIONARY
360
8346
102
}
102
{ACAD_REACTORS
330
735B
102
}
330
735B
100
AcDbVisualStyle
  2
Sketchy
 70
    24
 71
     1
 72
     2
 73
     2
 90
        0
 40
-0.6
 41
-30.0
 62
     5
 63
     7
 74
     2
 91
        2
 64
     7
 65
     7
 75
     1
175
     1
 42
40.0
 92
       11
 66
     7
 43
1.0
 76
     1
 77
     6
 78
     2
 67
     7
 79
     6
170
     0
171
     0
290
     0
174
     0
 93
        1
 44
0.0
173
     0
291
     0
 45
0.0
1001
ACAD
1000
AcDbSavedByObjectVersion
1070
     0
  0
VISUALSTYLE
  5
7368
102
{ACAD_XDICTIONARY
360
8338
102
}
102
{ACAD_REACTORS
330
735B
102
}
330
735B
100
AcDbVisualStyle
  2

 70
    13
 71
     2
 72
     2
 73
     0
 90
        0
 40
-0.6
 41
-30.0
 62
     5
 63
     7
 74
     1
 91
        4
 64
     7
 65
   257
 75
     1
175
     1
 42
1.0
 92
       12
 66
     7
 43
1.0
 76
     1
 77
     6
 78
     2
 67
     7
 79
     5
170
     0
171
     0
290
     0
174
     0
 93
        1
 44
0.0
173
     0
291
     1
 45
0.0
1001
ACAD
1000
AcDbSavedByObjectVersion
1070
     0
  0
VISUALSTYLE
  5
742D
102
{ACAD_XDICTIONARY
360
8340
102
}
102
{ACAD_REACTORS
330
735B
102
}
330
735B
100
AcDbVisualStyle
  2
Wireframe
 70
     5
 71
     0
 72
     2
 73
     0
 90
        0
 40
-0.6
 41
-30.0
 62
     5
 63
     7
 74
     1
 91
        4
 64
     7
 65
   257
 75
     1
175
     1
 42
1.0
 92
        0
 66
   257
 43
1.0
 76
     1
 77
     6
 78
     2
 67
     7
 79
     3
170
     0
171
     0
290
     0
174
     0
 93
        1
 44
0.0
173
     0
291
     0
 45
0.0
1001
ACAD
1000
AcDbSavedByObjectVersion
1070
     0
  0
VISUALSTYLE
  5
7431
102
{ACAD_XDICTIONARY
360
8348
102
}
102
{ACAD_REACTORS
330
735B
102
}
330
735B
100
AcDbVisualStyle
  2
X-Ray
 70
    25
 71
     2
 72
     2
 73
     1
 90
        1
 40
0.5
 41
-30.0
 62
     5
 63
     7
 74
     1
 91
        0
 64
     7
 65
   257
 75
     1
175
     1
 42
1.0
 92
        8
 66
     7
 43
1.0
 76
     1
 77
     6
 78
     2
 67
     7
 79
     3
170
     0
171
     0
290
     0
174
     0
 93
       13
 44
0.0
173
     0
291
     0
 45
0.0
1001
ACAD
1000
AcDbSavedByObjectVersion
1070
     0
  0
DICTIONARYVAR
  5
7416
102
{ACAD_REACTORS
330
1BF
102
}
330
1BF
100
DictionaryVariables
280
     0
  1
1:1
  0
DICTIONARYVAR
  5
7415
102
{ACAD_REACTORS
330
1BF
102
}
330
1BF
100
DictionaryVariables
280
     0
  1
STANDARD
  0
DICTIONARYVAR
  5
7326
102
{ACAD_REACTORS
330
1BF
102
}
330
1BF
100
DictionaryVariables
280
     0
  1
STANDARD
  0
DICTIONARYVAR
  5
7327
102
{ACAD_REACTORS
330
1BF
102
}
330
1BF
100
DictionaryVariables
280
     0
  1
1
  0
DICTIONARYVAR
  5
7417
102
{ACAD_REACTORS
330
1BF
102
}
330
1BF
100
DictionaryVariables
280
     0
  1
0
  0
DICTIONARYVAR
  5
7328
102
{ACAD_REACTORS
330
1BF
102
}
330
1BF
100
DictionaryVariables
280
     0
  1

  0
DICTIONARYVAR
  5
1C0
102
{ACAD_REACTORS
330
1BF
102
}
330
1BF
100
DictionaryVariables
280
     0
  1
96
  0
DICTIONARYVAR
  5
8314
102
{ACAD_REACTORS
330
1BF
102
}
330
1BF
100
DictionaryVariables
280
     0
  1
2
  0
DICTIONARY
  5
8319
330
7293
100
AcDbDictionary
280
     1
281
     1
  3
ACAD_XREC_ROUNDTRIP
360
831A
  0
DICTIONARY
  5
831B
330
7294
100
AcDbDictionary
280
     1
281
     1
  3
ACAD_XREC_ROUNDTRIP
360
831C
  0
DICTIONARY
  5
734C
330
734B
100
AcDbDictionary
280
     1
281
     1
  3
ACAD_XREC_ROUNDTRIP
360
831E
  3
BUMPTILE
360
734E
  3
DIFFUSETILE
360
734D
  3
OPACITYTILE
360
7351
  3
REFLECTIONTILE
360
7350
  3
REFRACTIONTILE
360
7352
  3
SPECULARTILE
360
734F
  0
DICTIONARY
  5
7344
330
7343
100
AcDbDictionary
280
     1
281
     1
  3
ACAD_XREC_ROUNDTRIP
360
831D
  3
BUMPTILE
360
7346
  3
DIFFUSETILE
360
7345
  3
OPACITYTILE
360
7349
  3
REFLECTIONTILE
360
7348
  3
REFRACTIONTILE
360
734A
  3
SPECULARTILE
360
7347
  0
DICTIONARY
  5
7354
330
7353
100
AcDbDictionary
280
     1
281
     1
  3
ACAD_XREC_ROUNDTRIP
360
831F
  3
BUMPTILE
360
7356
  3
DIFFUSETILE
360
7355
  3
OPACITYTILE
360
7359
  3
REFLECTIONTILE
360
7358
  3
REFRACTIONTILE
360
735A
  3
SPECULARTILE
360
7357
  0
DICTIONARY
  5
7418
330
7290
100
AcDbDictionary
280
     1
281
     1
  3
ACAD_ROUNDTRIP_2008_TABLESTYLE_CELLSTYLEMAP
360
8315
  3
ACAD_XREC_ROUNDTRIP
360
8318
  0
DICTIONARY
  5
832A
330
7361
100
AcDbDictionary
280
     1
281
     1
  3
ACAD_XREC_ROUNDTRIP
360
832B
  0
DICTIONARY
  5
832E
330
7363
100
AcDbDictionary
280
     1
281
     1
  3
ACAD_XREC_ROUNDTRIP
360
832F
  0
DICTIONARY
  5
832C
330
7362
100
AcDbDictionary
280
     1
281
     1
  3
ACAD_XREC_ROUNDTRIP
360
832D
  0
DICTIONARY
  5
8328
330
7360
100
AcDbDictionary
280
     1
281
     1
  3
ACAD_XREC_ROUNDTRIP
360
8329
  0
DICTIONARY
  5
8336
330
7367
100
AcDbDictionary
280
     1
281
     1
  3
ACAD_XREC_ROUNDTRIP
360
8337
  0
DICTIONARY
  5
833E
330
736B
100
AcDbDictionary
280
     1
281
     1
  3
ACAD_XREC_ROUNDTRIP
360
833F
  0
DICTIONARY
  5
8330
330
7364
100
AcDbDictionary
280
     1
281
     1
  3
ACAD_XREC_ROUNDTRIP
360
8331
  0
DICTIONARY
  5
8334
330
7366
100
AcDbDictionary
280
     1
281
     1
  3
ACAD_XREC_ROUNDTRIP
360
8335
  0
DICTIONARY
  5
8352
330
7436
100
AcDbDictionary
280
     1
281
     1
  3
ACAD_XREC_ROUNDTRIP
360
8353
  0
DICTIONARY
  5
833C
330
736A
100
AcDbDictionary
280
     1
281
     1
  3
ACAD_XREC_ROUNDTRIP
360
833D
  0
DICTIONARY
  5
8320
330
735C
100
AcDbDictionary
280
     1
281
     1
  3
ACAD_XREC_ROUNDTRIP
360
8321
  0
DICTIONARY
  5
8322
330
735D
100
AcDbDictionary
280
     1
281
     1
  3
ACAD_XREC_ROUNDTRIP
360
8323
  0
DICTIONARY
  5
8324
330
735E
100
AcDbDictionary
280
     1
281
     1
  3
ACAD_XREC_ROUNDTRIP
360
8325
  0
DICTIONARY
  5
8326
330
735F
100
AcDbDictionary
280
     1
281
     1
  3
ACAD_XREC_ROUNDTRIP
360
8327
  0
DICTIONARY
  5
8342
330
742E
100
AcDbDictionary
280
     1
281
     1
  3
ACAD_XREC_ROUNDTRIP
360
8343
  0
DICTIONARY
  5
834E
330
7434
100
AcDbDictionary
280
     1
281
     1
  3
ACAD_XREC_ROUNDTRIP
360
834F
  0
DICTIONARY
  5
833A
330
7369
100
AcDbDictionary
280
     1
281
     1
  3
ACAD_XREC_ROUNDTRIP
360
833B
  0
DICTIONARY
  5
8350
330
7435
100
AcDbDictionary
280
     1
281
     1
  3
ACAD_XREC_ROUNDTRIP
360
8351
  0
DICTIONARY
  5
8332
330
7365
100
AcDbDictionary
280
     1
281
     1
  3
ACAD_XREC_ROUNDTRIP
360
8333
  0
DICTIONARY
  5
834C
330
7433
100
AcDbDictionary
280
     1
281
     1
  3
ACAD_XREC_ROUNDTRIP
360
834D
  0
DICTIONARY
  5
834A
330
7432
100
AcDbDictionary
280
     1
281
     1
  3
ACAD_XREC_ROUNDTRIP
360
834B
  0
DICTIONARY
  5
8344
330
742F
100
AcDbDictionary
280
     1
281
     1
  3
ACAD_XREC_ROUNDTRIP
360
8345
  0
DICTIONARY
  5
8346
330
7430
100
AcDbDictionary
280
     1
281
     1
  3
ACAD_XREC_ROUNDTRIP
360
8347
  0
DICTIONARY
  5
8338
330
7368
100
AcDbDictionary
280
     1
281
     1
  3
ACAD_XREC_ROUNDTRIP
360
8339
  0
DICTIONARY
  5
8340
330
742D
100
AcDbDictionary
280
     1
281
     1
  3
ACAD_XREC_ROUNDTRIP
360
8341
  0
DICTIONARY
  5
8348
330
7431
100
AcDbDictionary
280
     1
281
     1
  3
ACAD_XREC_ROUNDTRIP
360
8349
  0
XRECORD
  5
831A
102
{ACAD_REACTORS
330
8319
102
}
330
8319
100
AcDbXrecord
280
     1
102
SHADEPLOT
 70
     0
102
SHADEPLOTRESLEVEL
 70
     2
102
SHADEPLOTCUSTOMDPI
 70
   300
  0
XRECORD
  5
831C
102
{ACAD_REACTORS
330
831B
102
}
330
831B
100
AcDbXrecord
280
     1
102
SHADEPLOT
 70
     0
102
SHADEPLOTRESLEVEL
 70
     2
102
SHADEPLOTCUSTOMDPI
 70
   300
  0
XRECORD
  5
831E
102
{ACAD_REACTORS
330
734C
102
}
330
734C
100
AcDbXrecord
280
     1
102
MATERIAL
148
0.0
149
0.0
149
0.0
 93
        0
 94
      127
282
     0
 72
     0
 77
     0
171
     0
175
     0
179
     0
273
     0
  0
XRECORD
  5
734E
102
{ACAD_REACTORS
330
734C
102
}
330
734C
100
AcDbXrecord
280
     1
270
     1
271
     1
  0
XRECORD
  5
734D
102
{ACAD_REACTORS
330
734C
102
}
330
734C
100
AcDbXrecord
280
     1
270
     1
271
     1
  0
XRECORD
  5
7351
102
{ACAD_REACTORS
330
734C
102
}
330
734C
100
AcDbXrecord
280
     1
270
     1
271
     1
  0
XRECORD
  5
7350
102
{ACAD_REACTORS
330
734C
102
}
330
734C
100
AcDbXrecord
280
     1
270
     1
271
     1
  0
XRECORD
  5
7352
102
{ACAD_REACTORS
330
734C
102
}
330
734C
100
AcDbXrecord
280
     1
270
     1
271
     1
  0
XRECORD
  5
734F
102
{ACAD_REACTORS
330
734C
102
}
330
734C
100
AcDbXrecord
280
     1
270
     1
271
     1
  0
XRECORD
  5
831D
102
{ACAD_REACTORS
330
7344
102
}
330
7344
100
AcDbXrecord
280
     1
102
MATERIAL
148
0.0
149
0.0
149
0.0
 93
        0
 94
      127
282
     0
 72
     0
 77
     0
171
     0
175
     0
179
     0
273
     0
  0
XRECORD
  5
7346
102
{ACAD_REACTORS
330
7344
102
}
330
7344
100
AcDbXrecord
280
     1
270
     1
271
     1
  0
XRECORD
  5
7345
102
{ACAD_REACTORS
330
7344
102
}
330
7344
100
AcDbXrecord
280
     1
270
     1
271
     1
  0
XRECORD
  5
7349
102
{ACAD_REACTORS
330
7344
102
}
330
7344
100
AcDbXrecord
280
     1
270
     1
271
     1
  0
XRECORD
  5
7348
102
{ACAD_REACTORS
330
7344
102
}
330
7344
100
AcDbXrecord
280
     1
270
     1
271
     1
  0
XRECORD
  5
734A
102
{ACAD_REACTORS
330
7344
102
}
330
7344
100
AcDbXrecord
280
     1
270
     1
271
     1
  0
XRECORD
  5
7347
102
{ACAD_REACTORS
330
7344
102
}
330
7344
100
AcDbXrecord
280
     1
270
     1
271
     1
  0
XRECORD
  5
831F
102
{ACAD_REACTORS
330
7354
102
}
330
7354
100
AcDbXrecord
280
     1
102
MATERIAL
148
0.0
149
0.0
149
0.0
 93
        0
 94
      127
282
     0
 72
     0
 77
     0
171
     0
175
     0
179
     0
273
     0
  0
XRECORD
  5
7356
102
{ACAD_REACTORS
330
7354
102
}
330
7354
100
AcDbXrecord
280
     1
270
     1
271
     1
  0
XRECORD
  5
7355
102
{ACAD_REACTORS
330
7354
102
}
330
7354
100
AcDbXrecord
280
     1
270
     1
271
     1
  0
XRECORD
  5
7359
102
{ACAD_REACTORS
330
7354
102
}
330
7354
100
AcDbXrecord
280
     1
270
     1
271
     1
  0
XRECORD
  5
7358
102
{ACAD_REACTORS
330
7354
102
}
330
7354
100
AcDbXrecord
280
     1
270
     1
271
     1
  0
XRECORD
  5
735A
102
{ACAD_REACTORS
330
7354
102
}
330
7354
100
AcDbXrecord
280
     1
270
     1
271
     1
  0
XRECORD
  5
7357
102
{ACAD_REACTORS
330
7354
102
}
330
7354
100
AcDbXrecord
280
     1
270
     1
271
     1
  0
CELLSTYLEMAP
  5
8315
102
{ACAD_REACTORS
330
7418
102
}
330
7418
100
AcDbCellStyleMap
 90
        3
300
CELLSTYLE
  1
TABLEFORMAT_BEGIN
 90
        5
170
     1
 91
        0
 92
    32768
 62
   257
 93
        1
300
CONTENTFORMAT
  1
CONTENTFORMAT_BEGIN
 90
        0
 91
        0
 92
        4
 93
        0
300

 40
0.0
140
1.0
 94
        5
 62
     0
340
10
144
0.25
309
CONTENTFORMAT_END
171
     1
301
MARGIN
  1
CELLMARGIN_BEGIN
 40
0.06
 40
0.06
 40
0.06
 40
0.06
 40
0.18
 40
0.18
309
CELLMARGIN_END
 94
        6
 95
        1
302
GRIDFORMAT
  1
GRIDFORMAT_BEGIN
 90
        0
 91
        1
 62
     0
 92
       -2
340
0
 93
        0
 40
0.045
309
GRIDFORMAT_END
 95
        2
302
GRIDFORMAT
  1
GRIDFORMAT_BEGIN
 90
        0
 91
        1
 62
     0
 92
       -2
340
0
 93
        0
 40
0.045
309
GRIDFORMAT_END
 95
        4
302
GRIDFORMAT
  1
GRIDFORMAT_BEGIN
 90
        0
 91
        1
 62
     0
 92
       -2
340
0
 93
        0
 40
0.045
309
GRIDFORMAT_END
 95
        8
302
GRIDFORMAT
  1
GRIDFORMAT_BEGIN
 90
        0
 91
        1
 62
     0
 92
       -2
340
0
 93
        0
 40
0.045
309
GRIDFORMAT_END
 95
       16
302
GRIDFORMAT
  1
GRIDFORMAT_BEGIN
 90
        0
 91
        1
 62
     0
 92
       -2
340
0
 93
        0
 40
0.045
309
GRIDFORMAT_END
 95
       32
302
GRIDFORMAT
  1
GRIDFORMAT_BEGIN
 90
        0
 91
        1
 62
     0
 92
       -2
340
0
 93
        0
 40
0.045
309
GRIDFORMAT_END
309
TABLEFORMAT_END
  1
CELLSTYLE_BEGIN
 90
        1
 91
        1
300
_TITLE
309
CELLSTYLE_END
300
CELLSTYLE
  1
TABLEFORMAT_BEGIN
 90
        5
170
     1
 91
        0
 92
        0
 62
   257
 93
        1
300
CONTENTFORMAT
  1
CONTENTFORMAT_BEGIN
 90
        0
 91
        0
 92
        4
 93
        0
300

 40
0.0
140
1.0
 94
        5
 62
     0
340
10
144
0.18
309
CONTENTFORMAT_END
171
     1
301
MARGIN
  1
CELLMARGIN_BEGIN
 40
0.06
 40
0.06
 40
0.06
 40
0.06
 40
0.18
 40
0.18
309
CELLMARGIN_END
 94
        6
 95
        1
302
GRIDFORMAT
  1
GRIDFORMAT_BEGIN
 90
        0
 91
        1
 62
     0
 92
       -2
340
0
 93
        0
 40
0.045
309
GRIDFORMAT_END
 95
        2
302
GRIDFORMAT
  1
GRIDFORMAT_BEGIN
 90
        0
 91
        1
 62
     0
 92
       -2
340
0
 93
        0
 40
0.045
309
GRIDFORMAT_END
 95
        4
302
GRIDFORMAT
  1
GRIDFORMAT_BEGIN
 90
        0
 91
        1
 62
     0
 92
       -2
340
0
 93
        0
 40
0.045
309
GRIDFORMAT_END
 95
        8
302
GRIDFORMAT
  1
GRIDFORMAT_BEGIN
 90
        0
 91
        1
 62
     0
 92
       -2
340
0
 93
        0
 40
0.045
309
GRIDFORMAT_END
 95
       16
302
GRIDFORMAT
  1
GRIDFORMAT_BEGIN
 90
        0
 91
        1
 62
     0
 92
       -2
340
0
 93
        0
 40
0.045
309
GRIDFORMAT_END
 95
       32
302
GRIDFORMAT
  1
GRIDFORMAT_BEGIN
 90
        0
 91
        1
 62
     0
 92
       -2
340
0
 93
        0
 40
0.045
309
GRIDFORMAT_END
309
TABLEFORMAT_END
  1
CELLSTYLE_BEGIN
 90
        2
 91
        1
300
_HEADER
309
CELLSTYLE_END
300
CELLSTYLE
  1
TABLEFORMAT_BEGIN
 90
        5
170
     1
 91
        0
 92
        0
 62
   257
 93
        1
300
CONTENTFORMAT
  1
CONTENTFORMAT_BEGIN
 90
        0
 91
        0
 92
        4
 93
        0
300

 40
0.0
140
1.0
 94
        2
 62
     0
340
10
144
0.18
309
CONTENTFORMAT_END
171
     1
301
MARGIN
  1
CELLMARGIN_BEGIN
 40
0.06
 40
0.06
 40
0.06
 40
0.06
 40
0.18
 40
0.18
309
CELLMARGIN_END
 94
        6
 95
        1
302
GRIDFORMAT
  1
GRIDFORMAT_BEGIN
 90
        0
 91
        1
 62
     0
 92
       -2
340
0
 93
        0
 40
0.045
309
GRIDFORMAT_END
 95
        2
302
GRIDFORMAT
  1
GRIDFORMAT_BEGIN
 90
        0
 91
        1
 62
     0
 92
       -2
340
0
 93
        0
 40
0.045
309
GRIDFORMAT_END
 95
        4
302
GRIDFORMAT
  1
GRIDFORMAT_BEGIN
 90
        0
 91
        1
 62
     0
 92
       -2
340
0
 93
        0
 40
0.045
309
GRIDFORMAT_END
 95
        8
302
GRIDFORMAT
  1
GRIDFORMAT_BEGIN
 90
        0
 91
        1
 62
     0
 92
       -2
340
0
 93
        0
 40
0.045
309
GRIDFORMAT_END
 95
       16
302
GRIDFORMAT
  1
GRIDFORMAT_BEGIN
 90
        0
 91
        1
 62
     0
 92
       -2
340
0
 93
        0
 40
0.045
309
GRIDFORMAT_END
 95
       32
302
GRIDFORMAT
  1
GRIDFORMAT_BEGIN
 90
        0
 91
        1
 62
     0
 92
       -2
340
0
 93
        0
 40
0.045
309
GRIDFORMAT_END
309
TABLEFORMAT_END
  1
CELLSTYLE_BEGIN
 90
        3
 91
        2
300
_DATA
309
CELLSTYLE_END
  0
XRECORD
  5
8318
102
{ACAD_REACTORS
330
7418
102
}
330
7418
100
AcDbXrecord
280
     1
102
ACAD_ROUNDTRIP_PRE2007_TABLESTYLE
 90
        4
 91
        0
  1

 92
        4
 93
        0
  2

 94
        4
 95
        0
  3

  0
XRECORD
  5
832B
102
{ACAD_REACTORS
330
832A
102
}
330
832A
100
AcDbXrecord
280
     1
102
RTVSPropertyOp0
 70
     1
102
RTVSPropertyOp1
 70
     1
102
RTVSPropertyOp2
 70
     1
102
RTVSPropertyOp3
 70
     1
102
RTVSPropertyOp4
 70
     1
102
RTVSPropertyOp5
 70
     1
102
RTVSPropertyOp6
 70
     1
102
RTVSPropertyOp7
 70
     1
102
RTVSPropertyOp8
 70
     1
102
RTVSPropertyOp9
 70
     1
102
RTVSPropertyOp10
 70
     1
102
RTVSPropertyOp11
 70
     1
102
RTVSPropertyOp12
 70
     1
102
RTVSPropertyOp13
 70
     1
102
RTVSPropertyOp14
 70
     1
102
RTVSPropertyOp15
 70
     1
102
RTVSPropertyOp16
 70
     1
102
RTVSPropertyOp17
 70
     1
102
RTVSPropertyOp18
 70
     1
102
RTVSPropertyOp19
 70
     1
102
RTVSPropertyOp20
 70
     1
102
RTVSPropertyOp21
 70
     1
102
RTVSPropertyOp22
 70
     1
102
RTVSPropertyOp23
 70
     1
102
RTVSPropertyOp24
 70
     1
102
RTVSPropertyOp25
 70
     1
102
RTVSPropertyOp26
 70
     1
102
RTVSPropertyOp27
 70
     1
102
RTVSPropertyOp28
 70
     1
102
RTVSPropertyOp29
 70
     1
102
RTVSPropertyOp30
 70
     1
102
RTVSPropertyOp31
 70
     1
102
RTVSPropertyOp32
 70
     1
  0
XRECORD
  5
832F
102
{ACAD_REACTORS
330
832E
102
}
330
832E
100
AcDbXrecord
280
     1
102
RTVSPropertyOp0
 70
     1
102
RTVSPropertyOp1
 70
     1
102
RTVSPropertyOp2
 70
     1
102
RTVSPropertyOp3
 70
     1
102
RTVSPropertyOp4
 70
     1
102
RTVSPropertyOp5
 70
     1
102
RTVSPropertyOp6
 70
     1
102
RTVSPropertyOp7
 70
     1
102
RTVSPropertyOp8
 70
     1
102
RTVSPropertyOp9
 70
     1
102
RTVSPropertyOp10
 70
     1
102
RTVSPropertyOp11
 70
     1
102
RTVSPropertyOp12
 70
     1
102
RTVSPropertyOp13
 70
     1
102
RTVSPropertyOp14
 70
     1
102
RTVSPropertyOp15
 70
     1
102
RTVSPropertyOp16
 70
     1
102
RTVSPropertyOp17
 70
     1
102
RTVSPropertyOp18
 70
     1
102
RTVSPropertyOp19
 70
     1
102
RTVSPropertyOp20
 70
     1
102
RTVSPropertyOp21
 70
     1
102
RTVSPropertyOp22
 70
     1
102
RTVSPropertyOp23
 70
     1
102
RTVSPropertyOp24
 70
     1
102
RTVSPropertyOp25
 70
     1
102
RTVSPropertyOp26
 70
     1
102
RTVSPropertyOp27
 70
     1
102
RTVSPropertyOp28
 70
     1
102
RTVSPropertyOp29
 70
     1
102
RTVSPropertyOp30
 70
     1
102
RTVSPropertyOp31
 70
     1
102
RTVSPropertyOp32
 70
     1
  0
XRECORD
  5
832D
102
{ACAD_REACTORS
330
832C
102
}
330
832C
100
AcDbXrecord
280
     1
102
RTVSPropertyOp0
 70
     1
102
RTVSPropertyOp1
 70
     1
102
RTVSPropertyOp2
 70
     1
102
RTVSPropertyOp3
 70
     1
102
RTVSPropertyOp4
 70
     1
102
RTVSPropertyOp5
 70
     1
102
RTVSPropertyOp6
 70
     1
102
RTVSPropertyOp7
 70
     1
102
RTVSPropertyOp8
 70
     1
102
RTVSPropertyOp9
 70
     1
102
RTVSPropertyOp10
 70
     1
102
RTVSPropertyOp11
 70
     1
102
RTVSPropertyOp12
 70
     1
102
RTVSPropertyOp13
 70
     1
102
RTVSPropertyOp14
 70
     1
102
RTVSPropertyOp15
 70
     1
102
RTVSPropertyOp16
 70
     1
102
RTVSPropertyOp17
 70
     1
102
RTVSPropertyOp18
 70
     1
102
RTVSPropertyOp19
 70
     1
102
RTVSPropertyOp20
 70
     1
102
RTVSPropertyOp21
 70
     1
102
RTVSPropertyOp22
 70
     1
102
RTVSPropertyOp23
 70
     1
102
RTVSPropertyOp24
 70
     1
102
RTVSPropertyOp25
 70
     1
102
RTVSPropertyOp26
 70
     1
102
RTVSPropertyOp27
 70
     1
102
RTVSPropertyOp28
 70
     1
102
RTVSPropertyOp29
 70
     1
102
RTVSPropertyOp30
 70
     1
102
RTVSPropertyOp31
 70
     1
102
RTVSPropertyOp32
 70
     1
  0
XRECORD
  5
8329
102
{ACAD_REACTORS
330
8328
102
}
330
8328
100
AcDbXrecord
280
     1
102
RTVSPropertyOp0
 70
     1
102
RTVSPropertyOp1
 70
     1
102
RTVSPropertyOp2
 70
     1
102
RTVSPropertyOp3
 70
     1
102
RTVSPropertyOp4
 70
     1
102
RTVSPropertyOp5
 70
     1
102
RTVSPropertyOp6
 70
     1
102
RTVSPropertyOp7
 70
     1
102
RTVSPropertyOp8
 70
     1
102
RTVSPropertyOp9
 70
     1
102
RTVSPropertyOp10
 70
     1
102
RTVSPropertyOp11
 70
     1
102
RTVSPropertyOp12
 70
     1
102
RTVSPropertyOp13
 70
     1
102
RTVSPropertyOp14
 70
     1
102
RTVSPropertyOp15
 70
     1
102
RTVSPropertyOp16
 70
     1
102
RTVSPropertyOp17
 70
     1
102
RTVSPropertyOp18
 70
     1
102
RTVSPropertyOp19
 70
     1
102
RTVSPropertyOp20
 70
     1
102
RTVSPropertyOp21
 70
     1
102
RTVSPropertyOp22
 70
     1
102
RTVSPropertyOp23
 70
     1
102
RTVSPropertyOp24
 70
     1
102
RTVSPropertyOp25
 70
     1
102
RTVSPropertyOp26
 70
     1
102
RTVSPropertyOp27
 70
     1
102
RTVSPropertyOp28
 70
     1
102
RTVSPropertyOp29
 70
     1
102
RTVSPropertyOp30
 70
     1
102
RTVSPropertyOp31
 70
     1
102
RTVSPropertyOp32
 70
     1
  0
XRECORD
  5
8337
102
{ACAD_REACTORS
330
8336
102
}
330
8336
100
AcDbXrecord
280
     1
102
RTVSPropertyOp0
 70
     1
102
RTVSPropertyOp1
 70
     1
102
RTVSPropertyOp2
 70
     1
102
RTVSPropertyOp3
 70
     1
102
RTVSPropertyOp4
 70
     1
102
RTVSPropertyOp5
 70
     1
102
RTVSPropertyOp6
 70
     1
102
RTVSPropertyOp7
 70
     1
102
RTVSPropertyOp8
 70
     1
102
RTVSPropertyOp9
 70
     1
102
RTVSPropertyOp10
 70
     1
102
RTVSPropertyOp11
 70
     1
102
RTVSPropertyOp12
 70
     1
102
RTVSPropertyOp13
 70
     1
102
RTVSPropertyOp14
 70
     1
102
RTVSPropertyOp15
 70
     1
102
RTVSPropertyOp16
 70
     1
102
RTVSPropertyOp17
 70
     1
102
RTVSPropertyOp18
 70
     1
102
RTVSPropertyOp19
 70
     1
102
RTVSPropertyOp20
 70
     1
102
RTVSPropertyOp21
 70
     1
102
RTVSPropertyOp22
 70
     1
102
RTVSPropertyOp23
 70
     1
102
RTVSPropertyOp24
 70
     1
102
RTVSPropertyOp25
 70
     1
102
RTVSPropertyOp26
 70
     1
102
RTVSPropertyOp27
 70
     1
102
RTVSPropertyOp28
 70
     1
102
RTVSPropertyOp29
 70
     1
102
RTVSPropertyOp30
 70
     1
102
RTVSPropertyOp31
 70
     1
102
RTVSPropertyOp32
 70
     1
  0
XRECORD
  5
833F
102
{ACAD_REACTORS
330
833E
102
}
330
833E
100
AcDbXrecord
280
     1
102
RTVSPropertyOp0
 70
     1
102
RTVSPropertyOp1
 70
     1
102
RTVSPropertyOp2
 70
     1
102
RTVSPropertyOp3
 70
     1
102
RTVSPropertyOp4
 70
     1
102
RTVSPropertyOp5
 70
     1
102
RTVSPropertyOp6
 70
     1
102
RTVSPropertyOp7
 70
     1
102
RTVSPropertyOp8
 70
     1
102
RTVSPropertyOp9
 70
     1
102
RTVSPropertyOp10
 70
     1
102
RTVSPropertyOp11
 70
     1
102
RTVSPropertyOp12
 70
     1
102
RTVSPropertyOp13
 70
     1
102
RTVSPropertyOp14
 70
     1
102
RTVSPropertyOp15
 70
     1
102
RTVSPropertyOp16
 70
     1
102
RTVSPropertyOp17
 70
     1
102
RTVSPropertyOp18
 70
     1
102
RTVSPropertyOp19
 70
     1
102
RTVSPropertyOp20
 70
     1
102
RTVSPropertyOp21
 70
     1
102
RTVSPropertyOp22
 70
     1
102
RTVSPropertyOp23
 70
     1
102
RTVSPropertyOp24
 70
     1
102
RTVSPropertyOp25
 70
     1
102
RTVSPropertyOp26
 70
     1
102
RTVSPropertyOp27
 70
     1
102
RTVSPropertyOp28
 70
     1
102
RTVSPropertyOp29
 70
     1
102
RTVSPropertyOp30
 70
     1
102
RTVSPropertyOp31
 70
     1
102
RTVSPropertyOp32
 70
     1
  0
XRECORD
  5
8331
102
{ACAD_REACTORS
330
8330
102
}
330
8330
100
AcDbXrecord
280
     1
102
RTVSPropertyOp0
 70
     1
102
RTVSPropertyOp1
 70
     1
102
RTVSPropertyOp2
 70
     1
102
RTVSPropertyOp3
 70
     1
102
RTVSPropertyOp4
 70
     1
102
RTVSPropertyOp5
 70
     1
102
RTVSPropertyOp6
 70
     1
102
RTVSPropertyOp7
 70
     1
102
RTVSPropertyOp8
 70
     1
102
RTVSPropertyOp9
 70
     1
102
RTVSPropertyOp10
 70
     1
102
RTVSPropertyOp11
 70
     1
102
RTVSPropertyOp12
 70
     1
102
RTVSPropertyOp13
 70
     1
102
RTVSPropertyOp14
 70
     1
102
RTVSPropertyOp15
 70
     1
102
RTVSPropertyOp16
 70
     1
102
RTVSPropertyOp17
 70
     1
102
RTVSPropertyOp18
 70
     1
102
RTVSPropertyOp19
 70
     1
102
RTVSPropertyOp20
 70
     1
102
RTVSPropertyOp21
 70
     1
102
RTVSPropertyOp22
 70
     1
102
RTVSPropertyOp23
 70
     1
102
RTVSPropertyOp24
 70
     1
102
RTVSPropertyOp25
 70
     1
102
RTVSPropertyOp26
 70
     1
102
RTVSPropertyOp27
 70
     1
102
RTVSPropertyOp28
 70
     1
102
RTVSPropertyOp29
 70
     1
102
RTVSPropertyOp30
 70
     1
102
RTVSPropertyOp31
 70
     1
102
RTVSPropertyOp32
 70
     1
  0
XRECORD
  5
8335
102
{ACAD_REACTORS
330
8334
102
}
330
8334
100
AcDbXrecord
280
     1
102
RTVSPropertyOp0
 70
     1
102
RTVSPropertyOp1
 70
     1
102
RTVSPropertyOp2
 70
     1
102
RTVSPropertyOp3
 70
     1
102
RTVSPropertyOp4
 70
     1
102
RTVSPropertyOp5
 70
     1
102
RTVSPropertyOp6
 70
     1
102
RTVSPropertyOp7
 70
     1
102
RTVSPropertyOp8
 70
     1
102
RTVSPropertyOp9
 70
     1
102
RTVSPropertyOp10
 70
     1
102
RTVSPropertyOp11
 70
     1
102
RTVSPropertyOp12
 70
     1
102
RTVSPropertyOp13
 70
     1
102
RTVSPropertyOp14
 70
     1
102
RTVSPropertyOp15
 70
     1
102
RTVSPropertyOp16
 70
     1
102
RTVSPropertyOp17
 70
     1
102
RTVSPropertyOp18
 70
     1
102
RTVSPropertyOp19
 70
     1
102
RTVSPropertyOp20
 70
     1
102
RTVSPropertyOp21
 70
     1
102
RTVSPropertyOp22
 70
     1
102
RTVSPropertyOp23
 70
     1
102
RTVSPropertyOp24
 70
     1
102
RTVSPropertyOp25
 70
     1
102
RTVSPropertyOp26
 70
     1
102
RTVSPropertyOp27
 70
     1
102
RTVSPropertyOp28
 70
     1
102
RTVSPropertyOp29
 70
     1
102
RTVSPropertyOp30
 70
     1
102
RTVSPropertyOp31
 70
     1
102
RTVSPropertyOp32
 70
     1
  0
XRECORD
  5
8353
102
{ACAD_REACTORS
330
8352
102
}
330
8352
100
AcDbXrecord
280
     1
102
RTVSPropertyOp0
 70
     0
102
RTVSPropertyOp1
 70
     0
102
RTVSPropertyOp2
 70
     0
102
RTVSPropertyOp3
 70
     0
102
RTVSPropertyOp4
 70
     0
102
RTVSPropertyOp5
 70
     0
102
RTVSPropertyOp6
 70
     0
102
RTVSPropertyOp7
 70
     0
102
RTVSPropertyOp8
 70
     0
102
RTVSPropertyOp9
 70
     0
102
RTVSPropertyOp10
 70
     0
102
RTVSPropertyOp11
 70
     0
102
RTVSPropertyOp12
 70
     0
102
RTVSPropertyOp13
 70
     0
102
RTVSPropertyOp14
 70
     2
102
RTVSPropertyOp15
 70
     0
102
RTVSPropertyOp16
 70
     0
102
RTVSPropertyOp17
 70
     0
102
RTVSPropertyOp18
 70
     0
102
RTVSPropertyOp19
 70
     0
102
RTVSPropertyOp20
 70
     0
102
RTVSPropertyOp21
 70
     0
102
RTVSPropertyOp22
 70
     0
102
RTVSPropertyOp23
 70
     0
102
RTVSPropertyOp24
 70
     0
102
RTVSPropertyOp25
 70
     0
102
RTVSPropertyOp26
 70
     0
102
RTVSPropertyOp27
 70
     0
102
RTVSPropertyOp28
 70
     0
102
RTVSPropertyOp29
 70
     0
102
RTVSPropertyOp30
 70
     0
102
RTVSPropertyOp31
 70
     0
102
RTVSPropertyOp32
 70
     0
  0
XRECORD
  5
833D
102
{ACAD_REACTORS
330
833C
102
}
330
833C
100
AcDbXrecord
280
     1
102
RTVSPropertyOp0
 70
     1
102
RTVSPropertyOp1
 70
     1
102
RTVSPropertyOp2
 70
     1
102
RTVSPropertyOp3
 70
     1
102
RTVSPropertyOp4
 70
     1
102
RTVSPropertyOp5
 70
     1
102
RTVSPropertyOp6
 70
     1
102
RTVSPropertyOp7
 70
     1
102
RTVSPropertyOp8
 70
     1
102
RTVSPropertyOp9
 70
     1
102
RTVSPropertyOp10
 70
     1
102
RTVSPropertyOp11
 70
     1
102
RTVSPropertyOp12
 70
     1
102
RTVSPropertyOp13
 70
     1
102
RTVSPropertyOp14
 70
     1
102
RTVSPropertyOp15
 70
     1
102
RTVSPropertyOp16
 70
     1
102
RTVSPropertyOp17
 70
     1
102
RTVSPropertyOp18
 70
     1
102
RTVSPropertyOp19
 70
     1
102
RTVSPropertyOp20
 70
     1
102
RTVSPropertyOp21
 70
     1
102
RTVSPropertyOp22
 70
     1
102
RTVSPropertyOp23
 70
     1
102
RTVSPropertyOp24
 70
     1
102
RTVSPropertyOp25
 70
     1
102
RTVSPropertyOp26
 70
     1
102
RTVSPropertyOp27
 70
     1
102
RTVSPropertyOp28
 70
     1
102
RTVSPropertyOp29
 70
     1
102
RTVSPropertyOp30
 70
     1
102
RTVSPropertyOp31
 70
     1
102
RTVSPropertyOp32
 70
     1
  0
XRECORD
  5
8321
102
{ACAD_REACTORS
330
8320
102
}
330
8320
100
AcDbXrecord
280
     1
102
RTVSPropertyOp0
 70
     1
102
RTVSPropertyOp1
 70
     1
102
RTVSPropertyOp2
 70
     1
102
RTVSPropertyOp3
 70
     1
102
RTVSPropertyOp4
 70
     1
102
RTVSPropertyOp5
 70
     1
102
RTVSPropertyOp6
 70
     1
102
RTVSPropertyOp7
 70
     1
102
RTVSPropertyOp8
 70
     1
102
RTVSPropertyOp9
 70
     1
102
RTVSPropertyOp10
 70
     1
102
RTVSPropertyOp11
 70
     1
102
RTVSPropertyOp12
 70
     1
102
RTVSPropertyOp13
 70
     1
102
RTVSPropertyOp14
 70
     1
102
RTVSPropertyOp15
 70
     1
102
RTVSPropertyOp16
 70
     1
102
RTVSPropertyOp17
 70
     1
102
RTVSPropertyOp18
 70
     1
102
RTVSPropertyOp19
 70
     1
102
RTVSPropertyOp20
 70
     1
102
RTVSPropertyOp21
 70
     1
102
RTVSPropertyOp22
 70
     1
102
RTVSPropertyOp23
 70
     1
102
RTVSPropertyOp24
 70
     1
102
RTVSPropertyOp25
 70
     1
102
RTVSPropertyOp26
 70
     1
102
RTVSPropertyOp27
 70
     1
102
RTVSPropertyOp28
 70
     1
102
RTVSPropertyOp29
 70
     1
102
RTVSPropertyOp30
 70
     1
102
RTVSPropertyOp31
 70
     1
102
RTVSPropertyOp32
 70
     1
  0
XRECORD
  5
8323
102
{ACAD_REACTORS
330
8322
102
}
330
8322
100
AcDbXrecord
280
     1
102
RTVSPropertyOp0
 70
     1
102
RTVSPropertyOp1
 70
     1
102
RTVSPropertyOp2
 70
     1
102
RTVSPropertyOp3
 70
     1
102
RTVSPropertyOp4
 70
     1
102
RTVSPropertyOp5
 70
     1
102
RTVSPropertyOp6
 70
     1
102
RTVSPropertyOp7
 70
     1
102
RTVSPropertyOp8
 70
     1
102
RTVSPropertyOp9
 70
     1
102
RTVSPropertyOp10
 70
     1
102
RTVSPropertyOp11
 70
     1
102
RTVSPropertyOp12
 70
     1
102
RTVSPropertyOp13
 70
     1
102
RTVSPropertyOp14
 70
     1
102
RTVSPropertyOp15
 70
     1
102
RTVSPropertyOp16
 70
     1
102
RTVSPropertyOp17
 70
     1
102
RTVSPropertyOp18
 70
     1
102
RTVSPropertyOp19
 70
     1
102
RTVSPropertyOp20
 70
     1
102
RTVSPropertyOp21
 70
     1
102
RTVSPropertyOp22
 70
     1
102
RTVSPropertyOp23
 70
     1
102
RTVSPropertyOp24
 70
     1
102
RTVSPropertyOp25
 70
     1
102
RTVSPropertyOp26
 70
     1
102
RTVSPropertyOp27
 70
     1
102
RTVSPropertyOp28
 70
     1
102
RTVSPropertyOp29
 70
     1
102
RTVSPropertyOp30
 70
     1
102
RTVSPropertyOp31
 70
     1
102
RTVSPropertyOp32
 70
     1
  0
XRECORD
  5
8325
102
{ACAD_REACTORS
330
8324
102
}
330
8324
100
AcDbXrecord
280
     1
102
RTVSPropertyOp0
 70
     1
102
RTVSPropertyOp1
 70
     1
102
RTVSPropertyOp2
 70
     1
102
RTVSPropertyOp3
 70
     1
102
RTVSPropertyOp4
 70
     1
102
RTVSPropertyOp5
 70
     1
102
RTVSPropertyOp6
 70
     1
102
RTVSPropertyOp7
 70
     1
102
RTVSPropertyOp8
 70
     1
102
RTVSPropertyOp9
 70
     1
102
RTVSPropertyOp10
 70
     1
102
RTVSPropertyOp11
 70
     1
102
RTVSPropertyOp12
 70
     1
102
RTVSPropertyOp13
 70
     1
102
RTVSPropertyOp14
 70
     1
102
RTVSPropertyOp15
 70
     1
102
RTVSPropertyOp16
 70
     1
102
RTVSPropertyOp17
 70
     1
102
RTVSPropertyOp18
 70
     1
102
RTVSPropertyOp19
 70
     1
102
RTVSPropertyOp20
 70
     1
102
RTVSPropertyOp21
 70
     1
102
RTVSPropertyOp22
 70
     1
102
RTVSPropertyOp23
 70
     1
102
RTVSPropertyOp24
 70
     1
102
RTVSPropertyOp25
 70
     1
102
RTVSPropertyOp26
 70
     1
102
RTVSPropertyOp27
 70
     1
102
RTVSPropertyOp28
 70
     1
102
RTVSPropertyOp29
 70
     1
102
RTVSPropertyOp30
 70
     1
102
RTVSPropertyOp31
 70
     1
102
RTVSPropertyOp32
 70
     1
  0
XRECORD
  5
8327
102
{ACAD_REACTORS
330
8326
102
}
330
8326
100
AcDbXrecord
280
     1
102
RTVSPropertyOp0
 70
     1
102
RTVSPropertyOp1
 70
     1
102
RTVSPropertyOp2
 70
     1
102
RTVSPropertyOp3
 70
     1
102
RTVSPropertyOp4
 70
     1
102
RTVSPropertyOp5
 70
     1
102
RTVSPropertyOp6
 70
     1
102
RTVSPropertyOp7
 70
     1
102
RTVSPropertyOp8
 70
     1
102
RTVSPropertyOp9
 70
     1
102
RTVSPropertyOp10
 70
     1
102
RTVSPropertyOp11
 70
     1
102
RTVSPropertyOp12
 70
     1
102
RTVSPropertyOp13
 70
     1
102
RTVSPropertyOp14
 70
     1
102
RTVSPropertyOp15
 70
     1
102
RTVSPropertyOp16
 70
     1
102
RTVSPropertyOp17
 70
     1
102
RTVSPropertyOp18
 70
     1
102
RTVSPropertyOp19
 70
     1
102
RTVSPropertyOp20
 70
     1
102
RTVSPropertyOp21
 70
     1
102
RTVSPropertyOp22
 70
     1
102
RTVSPropertyOp23
 70
     1
102
RTVSPropertyOp24
 70
     1
102
RTVSPropertyOp25
 70
     1
102
RTVSPropertyOp26
 70
     1
102
RTVSPropertyOp27
 70
     1
102
RTVSPropertyOp28
 70
     1
102
RTVSPropertyOp29
 70
     1
102
RTVSPropertyOp30
 70
     1
102
RTVSPropertyOp31
 70
     1
102
RTVSPropertyOp32
 70
     1
  0
XRECORD
  5
8343
102
{ACAD_REACTORS
330
8342
102
}
330
8342
100
AcDbXrecord
280
     1
102
RTVSPropertyOp0
 70
     1
102
RTVSPropertyOp1
 70
     1
102
RTVSPropertyOp2
 70
     1
102
RTVSPropertyOp3
 70
     1
102
RTVSPropertyOp4
 70
     1
102
RTVSPropertyOp5
 70
     1
102
RTVSPropertyOp6
 70
     1
102
RTVSPropertyOp7
 70
     1
102
RTVSPropertyOp8
 70
     1
102
RTVSPropertyOp9
 70
     1
102
RTVSPropertyOp10
 70
     1
102
RTVSPropertyOp11
 70
     1
102
RTVSPropertyOp12
 70
     1
102
RTVSPropertyOp13
 70
     1
102
RTVSPropertyOp14
 70
     1
102
RTVSPropertyOp15
 70
     1
102
RTVSPropertyOp16
 70
     1
102
RTVSPropertyOp17
 70
     1
102
RTVSPropertyOp18
 70
     1
102
RTVSPropertyOp19
 70
     1
102
RTVSPropertyOp20
 70
     1
102
RTVSPropertyOp21
 70
     1
102
RTVSPropertyOp22
 70
     1
102
RTVSPropertyOp23
 70
     1
102
RTVSPropertyOp24
 70
     1
102
RTVSPropertyOp25
 70
     1
102
RTVSPropertyOp26
 70
     1
102
RTVSPropertyOp27
 70
     1
102
RTVSPropertyOp28
 70
     1
102
RTVSPropertyOp29
 70
     1
102
RTVSPropertyOp30
 70
     1
102
RTVSPropertyOp31
 70
     1
102
RTVSPropertyOp32
 70
     1
  0
XRECORD
  5
834F
102
{ACAD_REACTORS
330
834E
102
}
330
834E
100
AcDbXrecord
280
     1
102
RTVSPropertyOp0
 70
     0
102
RTVSPropertyOp1
 70
     0
102
RTVSPropertyOp2
 70
     0
102
RTVSPropertyOp3
 70
     0
102
RTVSPropertyOp4
 70
     0
102
RTVSPropertyOp5
 70
     0
102
RTVSPropertyOp6
 70
     0
102
RTVSPropertyOp7
 70
     0
102
RTVSPropertyOp8
 70
     0
102
RTVSPropertyOp9
 70
     0
102
RTVSPropertyOp10
 70
     0
102
RTVSPropertyOp11
 70
     0
102
RTVSPropertyOp12
 70
     0
102
RTVSPropertyOp13
 70
     0
102
RTVSPropertyOp14
 70
     2
102
RTVSPropertyOp15
 70
     0
102
RTVSPropertyOp16
 70
     0
102
RTVSPropertyOp17
 70
     0
102
RTVSPropertyOp18
 70
     0
102
RTVSPropertyOp19
 70
     0
102
RTVSPropertyOp20
 70
     0
102
RTVSPropertyOp21
 70
     0
102
RTVSPropertyOp22
 70
     0
102
RTVSPropertyOp23
 70
     0
102
RTVSPropertyOp24
 70
     0
102
RTVSPropertyOp25
 70
     0
102
RTVSPropertyOp26
 70
     0
102
RTVSPropertyOp27
 70
     0
102
RTVSPropertyOp28
 70
     0
102
RTVSPropertyOp29
 70
     0
102
RTVSPropertyOp30
 70
     0
102
RTVSPropertyOp31
 70
     0
102
RTVSPropertyOp32
 70
     0
  0
XRECORD
  5
833B
102
{ACAD_REACTORS
330
833A
102
}
330
833A
100
AcDbXrecord
280
     1
102
RTVSPropertyOp0
 70
     1
102
RTVSPropertyOp1
 70
     1
102
RTVSPropertyOp2
 70
     1
102
RTVSPropertyOp3
 70
     1
102
RTVSPropertyOp4
 70
     1
102
RTVSPropertyOp5
 70
     1
102
RTVSPropertyOp6
 70
     1
102
RTVSPropertyOp7
 70
     1
102
RTVSPropertyOp8
 70
     1
102
RTVSPropertyOp9
 70
     1
102
RTVSPropertyOp10
 70
     1
102
RTVSPropertyOp11
 70
     1
102
RTVSPropertyOp12
 70
     1
102
RTVSPropertyOp13
 70
     1
102
RTVSPropertyOp14
 70
     1
102
RTVSPropertyOp15
 70
     1
102
RTVSPropertyOp16
 70
     1
102
RTVSPropertyOp17
 70
     1
102
RTVSPropertyOp18
 70
     1
102
RTVSPropertyOp19
 70
     1
102
RTVSPropertyOp20
 70
     1
102
RTVSPropertyOp21
 70
     1
102
RTVSPropertyOp22
 70
     1
102
RTVSPropertyOp23
 70
     1
102
RTVSPropertyOp24
 70
     1
102
RTVSPropertyOp25
 70
     1
102
RTVSPropertyOp26
 70
     1
102
RTVSPropertyOp27
 70
     1
102
RTVSPropertyOp28
 70
     1
102
RTVSPropertyOp29
 70
     1
102
RTVSPropertyOp30
 70
     1
102
RTVSPropertyOp31
 70
     1
102
RTVSPropertyOp32
 70
     1
  0
XRECORD
  5
8351
102
{ACAD_REACTORS
330
8350
102
}
330
8350
100
AcDbXrecord
280
     1
102
RTVSPropertyOp0
 70
     0
102
RTVSPropertyOp1
 70
     0
102
RTVSPropertyOp2
 70
     0
102
RTVSPropertyOp3
 70
     0
102
RTVSPropertyOp4
 70
     0
102
RTVSPropertyOp5
 70
     0
102
RTVSPropertyOp6
 70
     0
102
RTVSPropertyOp7
 70
     0
102
RTVSPropertyOp8
 70
     0
102
RTVSPropertyOp9
 70
     0
102
RTVSPropertyOp10
 70
     0
102
RTVSPropertyOp11
 70
     0
102
RTVSPropertyOp12
 70
     0
102
RTVSPropertyOp13
 70
     0
102
RTVSPropertyOp14
 70
     2
102
RTVSPropertyOp15
 70
     0
102
RTVSPropertyOp16
 70
     0
102
RTVSPropertyOp17
 70
     0
102
RTVSPropertyOp18
 70
     0
102
RTVSPropertyOp19
 70
     0
102
RTVSPropertyOp20
 70
     0
102
RTVSPropertyOp21
 70
     0
102
RTVSPropertyOp22
 70
     0
102
RTVSPropertyOp23
 70
     0
102
RTVSPropertyOp24
 70
     0
102
RTVSPropertyOp25
 70
     0
102
RTVSPropertyOp26
 70
     0
102
RTVSPropertyOp27
 70
     0
102
RTVSPropertyOp28
 70
     0
102
RTVSPropertyOp29
 70
     0
102
RTVSPropertyOp30
 70
     0
102
RTVSPropertyOp31
 70
     0
102
RTVSPropertyOp32
 70
     0
  0
XRECORD
  5
8333
102
{ACAD_REACTORS
330
8332
102
}
330
8332
100
AcDbXrecord
280
     1
102
RTVSPropertyOp0
 70
     1
102
RTVSPropertyOp1
 70
     1
102
RTVSPropertyOp2
 70
     1
102
RTVSPropertyOp3
 70
     1
102
RTVSPropertyOp4
 70
     1
102
RTVSPropertyOp5
 70
     1
102
RTVSPropertyOp6
 70
     1
102
RTVSPropertyOp7
 70
     1
102
RTVSPropertyOp8
 70
     1
102
RTVSPropertyOp9
 70
     1
102
RTVSPropertyOp10
 70
     1
102
RTVSPropertyOp11
 70
     1
102
RTVSPropertyOp12
 70
     1
102
RTVSPropertyOp13
 70
     1
102
RTVSPropertyOp14
 70
     1
102
RTVSPropertyOp15
 70
     1
102
RTVSPropertyOp16
 70
     1
102
RTVSPropertyOp17
 70
     1
102
RTVSPropertyOp18
 70
     1
102
RTVSPropertyOp19
 70
     1
102
RTVSPropertyOp20
 70
     1
102
RTVSPropertyOp21
 70
     1
102
RTVSPropertyOp22
 70
     1
102
RTVSPropertyOp23
 70
     1
102
RTVSPropertyOp24
 70
     1
102
RTVSPropertyOp25
 70
     1
102
RTVSPropertyOp26
 70
     1
102
RTVSPropertyOp27
 70
     1
102
RTVSPropertyOp28
 70
     1
102
RTVSPropertyOp29
 70
     1
102
RTVSPropertyOp30
 70
     1
102
RTVSPropertyOp31
 70
     1
102
RTVSPropertyOp32
 70
     1
  0
XRECORD
  5
834D
102
{ACAD_REACTORS
330
834C
102
}
330
834C
100
AcDbXrecord
280
     1
102
RTVSPropertyOp0
 70
     1
102
RTVSPropertyOp1
 70
     1
102
RTVSPropertyOp2
 70
     1
102
RTVSPropertyOp3
 70
     1
102
RTVSPropertyOp4
 70
     1
102
RTVSPropertyOp5
 70
     1
102
RTVSPropertyOp6
 70
     1
102
RTVSPropertyOp7
 70
     1
102
RTVSPropertyOp8
 70
     1
102
RTVSPropertyOp9
 70
     1
102
RTVSPropertyOp10
 70
     1
102
RTVSPropertyOp11
 70
     1
102
RTVSPropertyOp12
 70
     1
102
RTVSPropertyOp13
 70
     1
102
RTVSPropertyOp14
 70
     1
102
RTVSPropertyOp15
 70
     1
102
RTVSPropertyOp16
 70
     1
102
RTVSPropertyOp17
 70
     1
102
RTVSPropertyOp18
 70
     1
102
RTVSPropertyOp19
 70
     1
102
RTVSPropertyOp20
 70
     1
102
RTVSPropertyOp21
 70
     1
102
RTVSPropertyOp22
 70
     1
102
RTVSPropertyOp23
 70
     1
102
RTVSPropertyOp24
 70
     1
102
RTVSPropertyOp25
 70
     1
102
RTVSPropertyOp26
 70
     1
102
RTVSPropertyOp27
 70
     1
102
RTVSPropertyOp28
 70
     1
102
RTVSPropertyOp29
 70
     1
102
RTVSPropertyOp30
 70
     1
102
RTVSPropertyOp31
 70
     1
102
RTVSPropertyOp32
 70
     1
  0
XRECORD
  5
834B
102
{ACAD_REACTORS
330
834A
102
}
330
834A
100
AcDbXrecord
280
     1
102
RTVSPropertyOp0
 70
     1
102
RTVSPropertyOp1
 70
     1
102
RTVSPropertyOp2
 70
     1
102
RTVSPropertyOp3
 70
     1
102
RTVSPropertyOp4
 70
     1
102
RTVSPropertyOp5
 70
     1
102
RTVSPropertyOp6
 70
     1
102
RTVSPropertyOp7
 70
     1
102
RTVSPropertyOp8
 70
     1
102
RTVSPropertyOp9
 70
     1
102
RTVSPropertyOp10
 70
     1
102
RTVSPropertyOp11
 70
     1
102
RTVSPropertyOp12
 70
     1
102
RTVSPropertyOp13
 70
     1
102
RTVSPropertyOp14
 70
     1
102
RTVSPropertyOp15
 70
     1
102
RTVSPropertyOp16
 70
     1
102
RTVSPropertyOp17
 70
     1
102
RTVSPropertyOp18
 70
     1
102
RTVSPropertyOp19
 70
     1
102
RTVSPropertyOp20
 70
     1
102
RTVSPropertyOp21
 70
     1
102
RTVSPropertyOp22
 70
     1
102
RTVSPropertyOp23
 70
     1
102
RTVSPropertyOp24
 70
     1
102
RTVSPropertyOp25
 70
     1
102
RTVSPropertyOp26
 70
     1
102
RTVSPropertyOp27
 70
     1
102
RTVSPropertyOp28
 70
     1
102
RTVSPropertyOp29
 70
     1
102
RTVSPropertyOp30
 70
     1
102
RTVSPropertyOp31
 70
     1
102
RTVSPropertyOp32
 70
     1
  0
XRECORD
  5
8345
102
{ACAD_REACTORS
330
8344
102
}
330
8344
100
AcDbXrecord
280
     1
102
RTVSPropertyOp0
 70
     1
102
RTVSPropertyOp1
 70
     1
102
RTVSPropertyOp2
 70
     1
102
RTVSPropertyOp3
 70
     1
102
RTVSPropertyOp4
 70
     1
102
RTVSPropertyOp5
 70
     1
102
RTVSPropertyOp6
 70
     1
102
RTVSPropertyOp7
 70
     1
102
RTVSPropertyOp8
 70
     1
102
RTVSPropertyOp9
 70
     1
102
RTVSPropertyOp10
 70
     1
102
RTVSPropertyOp11
 70
     1
102
RTVSPropertyOp12
 70
     1
102
RTVSPropertyOp13
 70
     1
102
RTVSPropertyOp14
 70
     1
102
RTVSPropertyOp15
 70
     1
102
RTVSPropertyOp16
 70
     1
102
RTVSPropertyOp17
 70
     1
102
RTVSPropertyOp18
 70
     1
102
RTVSPropertyOp19
 70
     1
102
RTVSPropertyOp20
 70
     1
102
RTVSPropertyOp21
 70
     1
102
RTVSPropertyOp22
 70
     1
102
RTVSPropertyOp23
 70
     1
102
RTVSPropertyOp24
 70
     1
102
RTVSPropertyOp25
 70
     1
102
RTVSPropertyOp26
 70
     1
102
RTVSPropertyOp27
 70
     1
102
RTVSPropertyOp28
 70
     1
102
RTVSPropertyOp29
 70
     1
102
RTVSPropertyOp30
 70
     1
102
RTVSPropertyOp31
 70
     1
102
RTVSPropertyOp32
 70
     1
  0
XRECORD
  5
8347
102
{ACAD_REACTORS
330
8346
102
}
330
8346
100
AcDbXrecord
280
     1
102
RTVSPropertyOp0
 70
     1
102
RTVSPropertyOp1
 70
     1
102
RTVSPropertyOp2
 70
     1
102
RTVSPropertyOp3
 70
     1
102
RTVSPropertyOp4
 70
     1
102
RTVSPropertyOp5
 70
     1
102
RTVSPropertyOp6
 70
     1
102
RTVSPropertyOp7
 70
     1
102
RTVSPropertyOp8
 70
     1
102
RTVSPropertyOp9
 70
     1
102
RTVSPropertyOp10
 70
     1
102
RTVSPropertyOp11
 70
     1
102
RTVSPropertyOp12
 70
     1
102
RTVSPropertyOp13
 70
     1
102
RTVSPropertyOp14
 70
     1
102
RTVSPropertyOp15
 70
     1
102
RTVSPropertyOp16
 70
     1
102
RTVSPropertyOp17
 70
     1
102
RTVSPropertyOp18
 70
     1
102
RTVSPropertyOp19
 70
     1
102
RTVSPropertyOp20
 70
     1
102
RTVSPropertyOp21
 70
     1
102
RTVSPropertyOp22
 70
     1
102
RTVSPropertyOp23
 70
     1
102
RTVSPropertyOp24
 70
     1
102
RTVSPropertyOp25
 70
     1
102
RTVSPropertyOp26
 70
     1
102
RTVSPropertyOp27
 70
     1
102
RTVSPropertyOp28
 70
     1
102
RTVSPropertyOp29
 70
     1
102
RTVSPropertyOp30
 70
     1
102
RTVSPropertyOp31
 70
     1
102
RTVSPropertyOp32
 70
     1
  0
XRECORD
  5
8339
102
{ACAD_REACTORS
330
8338
102
}
330
8338
100
AcDbXrecord
280
     1
102
RTVSPropertyOp0
 70
     1
102
RTVSPropertyOp1
 70
     1
102
RTVSPropertyOp2
 70
     1
102
RTVSPropertyOp3
 70
     1
102
RTVSPropertyOp4
 70
     1
102
RTVSPropertyOp5
 70
     1
102
RTVSPropertyOp6
 70
     1
102
RTVSPropertyOp7
 70
     1
102
RTVSPropertyOp8
 70
     1
102
RTVSPropertyOp9
 70
     1
102
RTVSPropertyOp10
 70
     1
102
RTVSPropertyOp11
 70
     1
102
RTVSPropertyOp12
 70
     1
102
RTVSPropertyOp13
 70
     1
102
RTVSPropertyOp14
 70
     1
102
RTVSPropertyOp15
 70
     1
102
RTVSPropertyOp16
 70
     1
102
RTVSPropertyOp17
 70
     1
102
RTVSPropertyOp18
 70
     1
102
RTVSPropertyOp19
 70
     1
102
RTVSPropertyOp20
 70
     1
102
RTVSPropertyOp21
 70
     1
102
RTVSPropertyOp22
 70
     1
102
RTVSPropertyOp23
 70
     1
102
RTVSPropertyOp24
 70
     1
102
RTVSPropertyOp25
 70
     1
102
RTVSPropertyOp26
 70
     1
102
RTVSPropertyOp27
 70
     1
102
RTVSPropertyOp28
 70
     1
102
RTVSPropertyOp29
 70
     1
102
RTVSPropertyOp30
 70
     1
102
RTVSPropertyOp31
 70
     1
102
RTVSPropertyOp32
 70
     1
  0
XRECORD
  5
8341
102
{ACAD_REACTORS
330
8340
102
}
330
8340
100
AcDbXrecord
280
     1
102
RTVSPropertyOp0
 70
     1
102
RTVSPropertyOp1
 70
     1
102
RTVSPropertyOp2
 70
     1
102
RTVSPropertyOp3
 70
     1
102
RTVSPropertyOp4
 70
     1
102
RTVSPropertyOp5
 70
     1
102
RTVSPropertyOp6
 70
     1
102
RTVSPropertyOp7
 70
     1
102
RTVSPropertyOp8
 70
     1
102
RTVSPropertyOp9
 70
     1
102
RTVSPropertyOp10
 70
     1
102
RTVSPropertyOp11
 70
     1
102
RTVSPropertyOp12
 70
     1
102
RTVSPropertyOp13
 70
     1
102
RTVSPropertyOp14
 70
     1
102
RTVSPropertyOp15
 70
     1
102
RTVSPropertyOp16
 70
     1
102
RTVSPropertyOp17
 70
     1
102
RTVSPropertyOp18
 70
     1
102
RTVSPropertyOp19
 70
     1
102
RTVSPropertyOp20
 70
     1
102
RTVSPropertyOp21
 70
     1
102
RTVSPropertyOp22
 70
     1
102
RTVSPropertyOp23
 70
     1
102
RTVSPropertyOp24
 70
     1
102
RTVSPropertyOp25
 70
     1
102
RTVSPropertyOp26
 70
     1
102
RTVSPropertyOp27
 70
     1
102
RTVSPropertyOp28
 70
     1
102
RTVSPropertyOp29
 70
     1
102
RTVSPropertyOp30
 70
     1
102
RTVSPropertyOp31
 70
     1
102
RTVSPropertyOp32
 70
     1
  0
XRECORD
  5
8349
102
{ACAD_REACTORS
330
8348
102
}
330
8348
100
AcDbXrecord
280
     1
102
RTVSPropertyOp0
 70
     1
102
RTVSPropertyOp1
 70
     1
102
RTVSPropertyOp2
 70
     1
102
RTVSPropertyOp3
 70
     1
102
RTVSPropertyOp4
 70
     1
102
RTVSPropertyOp5
 70
     1
102
RTVSPropertyOp6
 70
     1
102
RTVSPropertyOp7
 70
     1
102
RTVSPropertyOp8
 70
     1
102
RTVSPropertyOp9
 70
     1
102
RTVSPropertyOp10
 70
     1
102
RTVSPropertyOp11
 70
     1
102
RTVSPropertyOp12
 70
     1
102
RTVSPropertyOp13
 70
     1
102
RTVSPropertyOp14
 70
     1
102
RTVSPropertyOp15
 70
     1
102
RTVSPropertyOp16
 70
     1
102
RTVSPropertyOp17
 70
     1
102
RTVSPropertyOp18
 70
     1
102
RTVSPropertyOp19
 70
     1
102
RTVSPropertyOp20
 70
     1
102
RTVSPropertyOp21
 70
     1
102
RTVSPropertyOp22
 70
     1
102
RTVSPropertyOp23
 70
     1
102
RTVSPropertyOp24
 70
     1
102
RTVSPropertyOp25
 70
     1
102
RTVSPropertyOp26
 70
     1
102
RTVSPropertyOp27
 70
     1
102
RTVSPropertyOp28
 70
     1
102
RTVSPropertyOp29
 70
     1
102
RTVSPropertyOp30
 70
     1
102
RTVSPropertyOp31
 70
     1
102
RTVSPropertyOp32
 70
     1
  0
ENDSEC
  0
EOF
