  0
SECTION
  2
HEADER
  9
$ACADVER
  1
AC1015
  9
$ACADMAINTVER
 70
    20
  9
$DWGCODEPAGE
  3
ANSI_949
  9
$INSBASE
 10
0.0
 20
0.0
 30
0.0
  9
$EXTMIN
 10
0.0000000325139691
 20
0.0000005964103593
 30
0.0
  9
$EXTMAX
 10
407.0000000325134
 20
101.0000080464104
 30
0.0
  9
$LIMMIN
 10
0.0
 20
0.0
  9
$LIMMAX
 10
420.0
 20
297.0
  9
$ORTHOMODE
 70
     1
  9
$REGENMODE
 70
     1
  9
$FILLMODE
 70
     1
  9
$QTEXTMODE
 70
     0
  9
$MIRRTEXT
 70
     1
  9
$LTSCALE
 40
10.0
  9
$ATTMODE
 70
     1
  9
$TEXTSIZE
 40
3.149999999999999
  9
$TRACEWID
 40
0.05
  9
$TEXTSTYLE
  7
H
  9
$CLAYER
  8
0
  9
$CELTYPE
  6
BYLAYER
  9
$CECOLOR
 62
   256
  9
$CELTSCALE
 40
1.0
  9
$DISPSILH
 70
     0
  9
$DIMSCALE
 40
1.5
  9
$DIMASZ
 40
2.5
  9
$DIMEXO
 40
0.8
  9
$DIMDLI
 40
0.8
  9
$DIMRND
 40
0.0
  9
$DIMDLE
 40
0.0
  9
$DIMEXE
 40
0.8
  9
$DIMTP
 40
0.0
  9
$DIMTM
 40
0.0
  9
$DIMTXT
 40
3.0
  9
$DIMCEN
 40
-1.0
  9
$DIMTSZ
 40
0.0
  9
$DIMTOL
 70
     0
  9
$DIMLIM
 70
     0
  9
$DIMTIH
 70
     0
  9
$DIMTOH
 70
     0
  9
$DIMSE1
 70
     0
  9
$DIMSE2
 70
     0
  9
$DIMTAD
 70
     3
  9
$DIMZIN
 70
     8
  9
$DIMBLK
  1

  9
$DIMASO
 70
     1
  9
$DIMSHO
 70
     1
  9
$DIMPOST
  1

  9
$DIMAPOST
  1

  9
$DIMALT
 70
     0
  9
$DIMALTD
 70
     2
  9
$DIMALTF
 40
25.4
  9
$DIMLFAC
 40
1.0
  9
$DIMTOFL
 70
     1
  9
$DIMTVP
 40
0.0
  9
$DIMTIX
 70
     0
  9
$DIMSOXD
 70
     0
  9
$DIMSAH
 70
     0
  9
$DIMBLK1
  1

  9
$DIMBLK2
  1

  9
$DIMSTYLE
  2
STANDARD
  9
$DIMCLRD
 70
   115
  9
$DIMCLRE
 70
   115
  9
$DIMCLRT
 70
     7
  9
$DIMTFAC
 40
1.0
  9
$DIMGAP
 40
1.0
  9
$DIMJUST
 70
     0
  9
$DIMSD1
 70
     0
  9
$DIMSD2
 70
     0
  9
$DIMTOLJ
 70
     1
  9
$DIMTZIN
 70
     0
  9
$DIMALTZ
 70
     0
  9
$DIMALTTZ
 70
     0
  9
$DIMUPT
 70
     0
  9
$DIMDEC
 70
     3
  9
$DIMTDEC
 70
     4
  9
$DIMALTU
 70
     2
  9
$DIMALTTD
 70
     2
  9
$DIMTXSTY
  7
STANDARD
  9
$DIMAUNIT
 70
     0
  9
$DIMADEC
 70
     0
  9
$DIMALTRND
 40
0.0
  9
$DIMAZIN
 70
     0
  9
$DIMDSEP
 70
    46
  9
$DIMATFIT
 70
     3
  9
$DIMFRAC
 70
     0
  9
$DIMLDRBLK
  1

  9
$DIMLUNIT
 70
     2
  9
$DIMLWD
 70
    -2
  9
$DIMLWE
 70
    -2
  9
$DIMTMOVE
 70
     0
  9
$LUNITS
 70
     2
  9
$LUPREC
 70
     4
  9
$SKETCHINC
 40
0.1
  9
$FILLETRAD
 40
0.0
  9
$AUNITS
 70
     0
  9
$AUPREC
 70
     0
  9
$MENU
  1
.
  9
$ELEVATION
 40
0.0
  9
$PELEVATION
 40
0.0
  9
$THICKNESS
 40
0.0
  9
$LIMCHECK
 70
     0
  9
$CHAMFERA
 40
1.0
  9
$CHAMFERB
 40
1.0
  9
$CHAMFERC
 40
1.0
  9
$CHAMFERD
 40
0.0
  9
$SKPOLY
 70
     1
  9
$TDCREATE
 40
2452464.575009942
  9
$TDUCREATE
 40
2452464.200009942
  9
$TDUPDATE
 40
2456842.717059317
  9
$TDUUPDATE
 40
2456842.342059317
  9
$TDINDWG
 40
0.3324637153
  9
$TDUSRTIMER
 40
0.3324636574
  9
$USRTIMER
 70
     1
  9
$ANGBASE
 50
0.0
  9
$ANGDIR
 70
     0
  9
$PDMODE
 70
     0
  9
$PDSIZE
 40
0.0
  9
$PLINEWID
 40
0.5
  9
$SPLFRAME
 70
     0
  9
$SPLINETYPE
 70
     6
  9
$SPLINESEGS
 70
     8
  9
$HANDSEED
  5
7BB3
  9
$SURFTAB1
 70
     6
  9
$SURFTAB2
 70
     6
  9
$SURFTYPE
 70
     6
  9
$SURFU
 70
     6
  9
$SURFV
 70
     6
  9
$UCSBASE
  2

  9
$UCSNAME
  2

  9
$UCSORG
 10
0.0
 20
0.0
 30
0.0
  9
$UCSXDIR
 10
1.0
 20
0.0
 30
0.0
  9
$UCSYDIR
 10
0.0
 20
1.0
 30
0.0
  9
$UCSORTHOREF
  2

  9
$UCSORTHOVIEW
 70
     0
  9
$UCSORGTOP
 10
0.0
 20
0.0
 30
0.0
  9
$UCSORGBOTTOM
 10
0.0
 20
0.0
 30
0.0
  9
$UCSORGLEFT
 10
0.0
 20
0.0
 30
0.0
  9
$UCSORGRIGHT
 10
0.0
 20
0.0
 30
0.0
  9
$UCSORGFRONT
 10
0.0
 20
0.0
 30
0.0
  9
$UCSORGBACK
 10
0.0
 20
0.0
 30
0.0
  9
$PUCSBASE
  2

  9
$PUCSNAME
  2

  9
$PUCSORG
 10
0.0
 20
0.0
 30
0.0
  9
$PUCSXDIR
 10
1.0
 20
0.0
 30
0.0
  9
$PUCSYDIR
 10
0.0
 20
1.0
 30
0.0
  9
$PUCSORTHOREF
  2

  9
$PUCSORTHOVIEW
 70
     0
  9
$PUCSORGTOP
 10
0.0
 20
0.0
 30
0.0
  9
$PUCSORGBOTTOM
 10
0.0
 20
0.0
 30
0.0
  9
$PUCSORGLEFT
 10
0.0
 20
0.0
 30
0.0
  9
$PUCSORGRIGHT
 10
0.0
 20
0.0
 30
0.0
  9
$PUCSORGFRONT
 10
0.0
 20
0.0
 30
0.0
  9
$PUCSORGBACK
 10
0.0
 20
0.0
 30
0.0
  9
$USERI1
 70
     0
  9
$USERI2
 70
   452
  9
$USERI3
 70
     1
  9
$USERI4
 70
     0
  9
$USERI5
 70
     0
  9
$USERR1
 40
0.0
  9
$USERR2
 40
0.0
  9
$USERR3
 40
0.0
  9
$USERR4
 40
0.0
  9
$USERR5
 40
0.0
  9
$WORLDVIEW
 70
     1
  9
$SHADEDGE
 70
     3
  9
$SHADEDIF
 70
    70
  9
$TILEMODE
 70
     1
  9
$MAXACTVP
 70
    48
  9
$PINSBASE
 10
0.0
 20
0.0
 30
0.0
  9
$PLIMCHECK
 70
     0
  9
$PEXTMIN
 10
1.000000000000000E+20
 20
1.000000000000000E+20
 30
1.000000000000000E+20
  9
$PEXTMAX
 10
-1.000000000000000E+20
 20
-1.000000000000000E+20
 30
-1.000000000000000E+20
  9
$PLIMMIN
 10
0.0
 20
0.0
  9
$PLIMMAX
 10
12.0
 20
9.0
  9
$UNITMODE
 70
     0
  9
$VISRETAIN
 70
     1
  9
$PLINEGEN
 70
     0
  9
$PSLTSCALE
 70
     1
  9
$TREEDEPTH
 70
  3020
  9
$CMLSTYLE
  2
STANDARD
  9
$CMLJUST
 70
     0
  9
$CMLSCALE
 40
1.0
  9
$PROXYGRAPHICS
 70
     1
  9
$MEASUREMENT
 70
     0
  9
$CELWEIGHT
370
    -1
  9
$ENDCAPS
280
     0
  9
$JOINSTYLE
280
     0
  9
$LWDISPLAY
290
     0
  9
$INSUNITS
 70
     0
  9
$HYPERLINKBASE
  1

  9
$STYLESHEET
  1

  9
$XEDIT
290
     1
  9
$CEPSNTYPE
380
     0
  9
$PSTYLEMODE
290
     1
  9
$FINGERPRINTGUID
  2
{2B1A09ED-9673-4B20-B401-3C84518DC362}
  9
$VERSIONGUID
  2
{6CBB4176-35FC-4146-A130-DA10E28CC2A6}
  9
$EXTNAMES
290
     1
  9
$PSVPSCALE
 40
0.0
  9
$OLESTARTUP
290
     0
  0
ENDSEC
  0
SECTION
  2
CLASSES
  0
CLASS
  1
DICTIONARYVAR
  2
AcDbDictionaryVar
  3
ObjectDBX Classes
 90
        0
280
     0
281
     0
  0
CLASS
  1
ACDBDICTIONARYWDFLT
  2
AcDbDictionaryWithDefault
  3
ObjectDBX Classes
 90
        0
280
     0
281
     0
  0
CLASS
  1
TABLESTYLE
  2
AcDbTableStyle
  3
ObjectDBX Classes
 90
     4095
280
     0
281
     0
  0
CLASS
  1
ACDBPLACEHOLDER
  2
AcDbPlaceHolder
  3
ObjectDBX Classes
 90
        0
280
     0
281
     0
  0
CLASS
  1
LAYOUT
  2
AcDbLayout
  3
ObjectDBX Classes
 90
        0
280
     0
281
     0
  0
CLASS
  1
MATERIAL
  2
AcDbMaterial
  3
ObjectDBX Classes
 90
     1153
280
     0
281
     0
  0
CLASS
  1
VISUALSTYLE
  2
AcDbVisualStyle
  3
ObjectDBX Classes
 90
     4095
280
     0
281
     0
  0
CLASS
  1
SCALE
  2
AcDbScale
  3
ObjectDBX Classes
 90
     1153
280
     0
281
     0
  0
CLASS
  1
MLEADERSTYLE
  2
AcDbMLeaderStyle
  3
ACDB_MLEADERSTYLE_CLASS
 90
     4095
280
     0
281
     0
  0
CLASS
  1
CELLSTYLEMAP
  2
AcDbCellStyleMap
  3
ObjectDBX Classes
 90
     1152
280
     0
281
     0
  0
CLASS
  1
SORTENTSTABLE
  2
AcDbSortentsTable
  3
ObjectDBX Classes
 90
        0
280
     0
281
     0
  0
CLASS
  1
ACAD_EVALUATION_GRAPH
  2
AcDbEvalGraph
  3
ObjectDBX Classes
 90
    33921
280
     0
281
     0
  0
CLASS
  1
ACAECUSTOBJ
  2
AcAeEditorObj
  3
AcAeEditorObj
 90
    33792
280
     0
281
     0
  0
CLASS
  1
ACDB_DYNAMICBLOCKPURGEPREVENTER_VERSION
  2
AcDbDynamicBlockPurgePreventer
  3
ObjectDBX Classes
 90
    33921
280
     0
281
     0
  0
ENDSEC
  0
SECTION
  2
TABLES
  0
TABLE
  2
VPORT
  5
8
102
{ACAD_XDICTIONARY
360
718C
102
}
330
0
100
AcDbSymbolTable
 70
     1
  0
VPORT
  5
67EE
330
8
100
AcDbSymbolTableRecord
100
AcDbViewportTableRecord
  2
*Active
 70
     0
 10
0.0
 20
0.0
 11
1.0
 21
1.0
 12
203.4951791929724
 22
50.49852047487923
 13
0.0
 23
0.0
 14
0.5
 24
0.5
 15
0.5
 25
0.5
 16
0.0
 26
0.0
 36
1.0
 17
0.0
 27
0.0
 37
0.0
 40
180.9186521113988
 41
2.257287705956907
 42
50.0
 43
0.0
 44
0.0
 50
0.0
 51
0.0
 71
     0
 72
   100
 73
     1
 74
     1
 75
     0
 76
     0
 77
     0
 78
     0
281
     0
 65
     1
110
0.0
120
0.0
130
0.0
111
1.0
121
0.0
131
0.0
112
0.0
122
1.0
132
0.0
 79
     0
146
0.0
1001
ACAD_NAV_VCDISPLAY
1070
     3
  0
ENDTAB
  0
TABLE
  2
LTYPE
  5
5
330
0
100
AcDbSymbolTable
 70
     4
  0
LTYPE
  5
13
330
5
100
AcDbSymbolTableRecord
100
AcDbLinetypeTableRecord
  2
BYBLOCK
 70
     0
  3

 72
    65
 73
     0
 40
0.0
  0
LTYPE
  5
14
330
5
100
AcDbSymbolTableRecord
100
AcDbLinetypeTableRecord
  2
BYLAYER
 70
     0
  3

 72
    65
 73
     0
 40
0.0
  0
LTYPE
  5
15
330
5
100
AcDbSymbolTableRecord
100
AcDbLinetypeTableRecord
  2
CONTINUOUS
 70
     0
  3
Solid line
 72
    65
 73
     0
 40
0.0
  0
LTYPE
  5
757B
330
5
100
AcDbSymbolTableRecord
100
AcDbLinetypeTableRecord
  2
CENTER
 70
     0
  3
Center ____ _ ____ _ ____ _ ____ _ ____ _ ____
 72
    65
 73
     4
 40
2.0
 49
1.25
 74
     0
 49
-0.25
 74
     0
 49
0.25
 74
     0
 49
-0.25
 74
     0
  0
LTYPE
  5
757C
330
5
100
AcDbSymbolTableRecord
100
AcDbLinetypeTableRecord
  2
HIDDEN
 70
     0
  3
Hidden __ __ __ __ __ __ __ __ __ __ __ __ __ _
 72
    65
 73
     2
 40
0.375
 49
0.25
 74
     0
 49
-0.125
 74
     0
  0
ENDTAB
  0
TABLE
  2
LAYER
  5
2
102
{ACAD_XDICTIONARY
360
78D5
102
}
330
0
100
AcDbSymbolTable
 70
     6
  0
LAYER
  5
F
102
{ACAD_XDICTIONARY
360
6888
102
}
330
2
100
AcDbSymbolTableRecord
100
AcDbLayerTableRecord
  2
0
 70
     0
 62
     7
  6
CONTINUOUS
370
    -3
390
6745
  0
LAYER
  5
24EF
330
2
100
AcDbSymbolTableRecord
100
AcDbLayerTableRecord
  2
DEFPOINTS
 70
     0
 62
     7
  6
CONTINUOUS
290
     0
370
    -3
390
6745
  0
LAYER
  5
757D
102
{ACAD_XDICTIONARY
360
757E
102
}
330
2
100
AcDbSymbolTableRecord
100
AcDbLayerTableRecord
  2
9
 70
     0
 62
     3
  6
CONTINUOUS
370
    -3
390
6745
  0
LAYER
  5
757F
102
{ACAD_XDICTIONARY
360
7580
102
}
330
2
100
AcDbSymbolTableRecord
100
AcDbLayerTableRecord
  2
1
 70
     0
 62
     1
  6
CENTER
370
    -3
390
6745
  0
LAYER
  5
7581
102
{ACAD_XDICTIONARY
360
7582
102
}
330
2
100
AcDbSymbolTableRecord
100
AcDbLayerTableRecord
  2
2
 70
     0
 62
     2
  6
HIDDEN
370
    -3
390
6745
  0
ENDTAB
  0
TABLE
  2
STYLE
  5
3
330
0
100
AcDbSymbolTable
 70
     2
  0
STYLE
  5
10
330
3
100
AcDbSymbolTableRecord
100
AcDbTextStyleTableRecord
  2
STANDARD
 70
     0
 40
0.0
 41
1.0
 50
0.0
 71
     0
 42
3.0
  3
romans.shx
  4

  0
STYLE
  5
6759
330
3
100
AcDbSymbolTableRecord
100
AcDbTextStyleTableRecord
  2
H
 70
     0
 40
0.0
 41
1.0
 50
0.0
 71
     0
 42
3.149999999999999
  3
txt.shx
  4

  0
ENDTAB
  0
TABLE
  2
VIEW
  5
6
330
0
100
AcDbSymbolTable
 70
     0
  0
ENDTAB
  0
TABLE
  2
UCS
  5
7
330
0
100
AcDbSymbolTable
 70
     0
  0
ENDTAB
  0
TABLE
  2
APPID
  5
9
330
0
100
AcDbSymbolTable
 70
     9
  0
APPID
  5
11
330
9
100
AcDbSymbolTableRecord
100
AcDbRegAppTableRecord
  2
ACAD
 70
     0
  0
APPID
  5
2325
330
9
100
AcDbSymbolTableRecord
100
AcDbRegAppTableRecord
  2
MCLBOMATTRIB
 70
     0
  0
APPID
  5
2326
330
9
100
AcDbSymbolTableRecord
100
AcDbRegAppTableRecord
  2
MCLBOM
 70
     0
  0
APPID
  5
6848
330
9
100
AcDbSymbolTableRecord
100
AcDbRegAppTableRecord
  2
ACAD_MLEADERVER
 70
     0
  0
APPID
  5
69CE
330
9
100
AcDbSymbolTableRecord
100
AcDbRegAppTableRecord
  2
ACAD_NAV_VCDISPLAY
 70
     0
  0
APPID
  5
6DD2
330
9
100
AcDbSymbolTableRecord
100
AcDbRegAppTableRecord
  2
ACAD_EXEMPT_FROM_CAD_STANDARDS
 70
     0
  0
APPID
  5
77F7
330
9
100
AcDbSymbolTableRecord
100
AcDbRegAppTableRecord
  2
ACAUTHENVIRON
 70
     0
  0
APPID
  5
77FB
330
9
100
AcDbSymbolTableRecord
100
AcDbRegAppTableRecord
  2
AcDbDynamicBlockTrueName
 70
     0
  0
APPID
  5
77FC
330
9
100
AcDbSymbolTableRecord
100
AcDbRegAppTableRecord
  2
AcDbDynamicBlockGUID
 70
     0
  0
ENDTAB
  0
TABLE
  2
DIMSTYLE
  5
A
330
0
100
AcDbSymbolTable
 70
     1
100
AcDbDimStyleTable
 71
     1
340
1D
  0
DIMSTYLE
105
1D
102
{ACAD_REACTORS
330
75AB
330
75AC
330
75AD
330
75AE
330
75AF
330
75B0
330
75B1
330
75B2
330
75B3
330
75B4
330
75B5
330
75B6
330
75C3
330
75C5
330
75C6
330
75C7
330
75C8
330
75CA
102
}
330
A
100
AcDbSymbolTableRecord
100
AcDbDimStyleTableRecord
  2
STANDARD
 70
     0
 41
2.0
140
3.0
176
     2
177
     2
178
     4
340
10
  0
ENDTAB
  0
TABLE
  2
BLOCK_RECORD
  5
1
330
0
100
AcDbSymbolTable
 70
    25
  0
BLOCK_RECORD
  5
19
102
{ACAD_XDICTIONARY
360
6DCF
102
}
330
1
100
AcDbSymbolTableRecord
100
AcDbBlockTableRecord
  2
*MODEL_SPACE
340
674C
  0
BLOCK_RECORD
  5
16
330
1
100
AcDbSymbolTableRecord
100
AcDbBlockTableRecord
  2
*PAPER_SPACE
340
674D
  0
BLOCK_RECORD
  5
74C9
102
{ACAD_XDICTIONARY
360
74CA
102
}
330
1
100
AcDbSymbolTableRecord
100
AcDbBlockTableRecord
  2
A$C1CC36F42
340
0
102
{BLKREFS
331
75B7
102
}
  0
BLOCK_RECORD
  5
7501
102
{ACAD_XDICTIONARY
360
7A10
102
}
330
1
100
AcDbSymbolTableRecord
100
AcDbBlockTableRecord
  2
A$C0B960A8E
340
0
102
{BLKREFS
331
75B9
102
}
1001
AcDbDynamicBlockGUID
1000
{D1654D11-798B-486A-BB22-F4D70FE4AFEE}
  0
BLOCK_RECORD
  5
75CB
330
1
100
AcDbSymbolTableRecord
100
AcDbBlockTableRecord
  2
*D3
340
0
  0
BLOCK_RECORD
  5
75D8
330
1
100
AcDbSymbolTableRecord
100
AcDbBlockTableRecord
  2
*D4
340
0
  0
BLOCK_RECORD
  5
75E4
330
1
100
AcDbSymbolTableRecord
100
AcDbBlockTableRecord
  2
*D5
340
0
  0
BLOCK_RECORD
  5
75F1
330
1
100
AcDbSymbolTableRecord
100
AcDbBlockTableRecord
  2
*D6
340
0
  0
BLOCK_RECORD
  5
75FD
330
1
100
AcDbSymbolTableRecord
100
AcDbBlockTableRecord
  2
*D7
340
0
  0
BLOCK_RECORD
  5
7609
330
1
100
AcDbSymbolTableRecord
100
AcDbBlockTableRecord
  2
*D8
340
0
  0
BLOCK_RECORD
  5
7615
330
1
100
AcDbSymbolTableRecord
100
AcDbBlockTableRecord
  2
*D9
340
0
  0
BLOCK_RECORD
  5
7621
330
1
100
AcDbSymbolTableRecord
100
AcDbBlockTableRecord
  2
*D10
340
0
  0
BLOCK_RECORD
  5
762F
330
1
100
AcDbSymbolTableRecord
100
AcDbBlockTableRecord
  2
*D11
340
0
  0
BLOCK_RECORD
  5
763B
330
1
100
AcDbSymbolTableRecord
100
AcDbBlockTableRecord
  2
*D12
340
0
  0
BLOCK_RECORD
  5
7647
330
1
100
AcDbSymbolTableRecord
100
AcDbBlockTableRecord
  2
*D13
340
0
  0
BLOCK_RECORD
  5
7653
330
1
100
AcDbSymbolTableRecord
100
AcDbBlockTableRecord
  2
*D14
340
0
  0
BLOCK_RECORD
  5
7661
330
1
100
AcDbSymbolTableRecord
100
AcDbBlockTableRecord
  2
*D15
340
0
  0
BLOCK_RECORD
  5
767B
330
1
100
AcDbSymbolTableRecord
100
AcDbBlockTableRecord
  2
*D16
340
0
  0
BLOCK_RECORD
  5
7689
330
1
100
AcDbSymbolTableRecord
100
AcDbBlockTableRecord
  2
*D17
340
0
  0
BLOCK_RECORD
  5
7695
330
1
100
AcDbSymbolTableRecord
100
AcDbBlockTableRecord
  2
*D18
340
0
  0
BLOCK_RECORD
  5
76A3
330
1
100
AcDbSymbolTableRecord
100
AcDbBlockTableRecord
  2
*D19
340
0
  0
BLOCK_RECORD
  5
76B1
330
1
100
AcDbSymbolTableRecord
100
AcDbBlockTableRecord
  2
*D20
340
0
  0
BLOCK_RECORD
  5
7825
102
{ACAD_XDICTIONARY
360
7A8A
102
}
330
1
100
AcDbSymbolTableRecord
100
AcDbBlockTableRecord
  2
1605SDK
340
0
310
2800000020000000200000000100080000000000000400000000000000000000000000000000000000000000000080000080000000808000800000008000800080800000C0C0C000C0DCC000F0CAA6000020400000206000002080000020A0000020C0000020E00000400000004020000040400000406000004080000040A0
310
000040C0000040E00000600000006020000060400000606000006080000060A0000060C0000060E00000800000008020000080400000806000008080000080A0000080C0000080E00000A0000000A0200000A0400000A0600000A0800000A0A00000A0C00000A0E00000C0000000C0200000C0400000C0600000C0800000C0
310
A00000C0C00000C0E00000E0000000E0200000E0400000E0600000E0800000E0A00000E0C00000E0E00040000000400020004000400040006000400080004000A0004000C0004000E00040200000402020004020400040206000402080004020A0004020C0004020E000404000004040200040404000404060004040800040
310
40A0004040C0004040E00040600000406020004060400040606000406080004060A0004060C0004060E00040800000408020004080400040806000408080004080A0004080C0004080E00040A0000040A0200040A0400040A0600040A0800040A0A00040A0C00040A0E00040C0000040C0200040C0400040C0600040C08000
310
40C0A00040C0C00040C0E00040E0000040E0200040E0400040E0600040E0800040E0A00040E0C00040E0E00080000000800020008000400080006000800080008000A0008000C0008000E00080200000802020008020400080206000802080008020A0008020C0008020E00080400000804020008040400080406000804080
310
008040A0008040C0008040E00080600000806020008060400080606000806080008060A0008060C0008060E00080800000808020008080400080806000808080008080A0008080C0008080E00080A0000080A0200080A0400080A0600080A0800080A0A00080A0C00080A0E00080C0000080C0200080C0400080C0600080C0
310
800080C0A00080C0C00080C0E00080E0000080E0200080E0400080E0600080E0800080E0A00080E0C00080E0E000C0000000C0002000C0004000C0006000C0008000C000A000C000C000C000E000C0200000C0202000C0204000C0206000C0208000C020A000C020C000C020E000C0400000C0402000C0404000C0406000C0
310
408000C040A000C040C000C040E000C0600000C0602000C0604000C0606000C0608000C060A000C060C000C060E000C0800000C0802000C0804000C0806000C0808000C080A000C080C000C080E000C0A00000C0A02000C0A04000C0A06000C0A08000C0A0A000C0A0C000C0A0E000C0C00000C0C02000C0C04000C0C06000
310
C0C08000C0C0A000F0FBFF00A4A0A000808080000000FF0000FF000000FFFF00FF000000FF00FF00FFFF0000FFFFFF0049494949494949494949494949494949494949494949494949494949494949494949494949494949494949494949494949494949494949494949494949494949494949494949494949494949494949
310
494949494949FFFFFFFFFFFF4949494949494949494949494949494949494949494949494949FF49494949FF4949494949494949494949494949494949494949494949494949FF49494949FF4949494949494949494949494949494949494949494949494949FF49494949FF49494949494949494949494949494949494949
310
49494949494949FF49494949FF49494949494949FFFFFFFFFFFFFFFFFFFFFFFFFFFFFFFFFFFFFFFF49494949FFFFFFFF494949FFFF494949494949494949494949FF4949494949FFFFFFFFFFFF4949FFFF4949FFFF494949494949494949494949FF4949494949FA49494949FA4949FFFF4949FFFF49494949494949494949
310
4949FF4949494949FFFA4949FAFF4949FFFF4949FBFBFBFBFBFBFBFBFBFBFBFBFBFBFBFBFBFBFBFBFBFBFBFBFBFBFBFBFBFB4949FFFF494949494949494949494949FF4949494949FFFA4949FAFF4949FFFF4949FFFF494949494949494949494949FF4949494949FF49FAFA49FF4949FFFF4949FFFF49FF49FFFFFFFFFFFF
310
FFFFFFFFFFFFFF4949FF49FAFA49FF4949FFFF4949FFFF49FF49FFFFFFFFFFFFFFFFFFFFFFFFFF4949FF49FAFA49FF4949FFFF4949FFFF49FF49FFFFFFFFFFFFFFFFFFFFFFFFFF4949FF49FAFA49FF4949FFFF4949FFFF49FF49FFFFFFFFFFFFFFFFFFFFFFFFFF4949FF49FAFA49FF4949FFFF4949FFFF4949494949494949
310
49494949FF4949494949FF49FAFA49FF4949FFFF4949FFFF494949494949494949494949FF4949494949FFFA4949FAFF4949FFFF4949FBFBFBFBFBFBFBFBFBFBFBFBFBFBFBFBFBFBFBFBFBFBFBFBFBFBFBFBFBFB4949FFFF494949494949494949494949FF4949494949FFFA4949FAFF4949FFFF4949FFFF49494949494949
310
4949494949FF4949494949FA49494949FA4949FFFF4949FFFF494949494949494949494949FF4949494949FFFFFFFFFFFF4949FFFF494949FFFFFFFFFFFFFFFFFFFFFFFFFFFFFFFFFFFFFFFF49494949FFFFFFFF4949494949494949494949494949494949494949494949FF49494949FF4949494949494949494949494949
310
494949494949494949494949FF49494949FF4949494949494949494949494949494949494949494949494949FFFFFFFFFFFF4949494949494949494949494949494949494949494949494949FFFFFFFFFFFF4949494949494949494949494949494949494949494949494949FFFFFFFFFFFF49494949494949494949494949
310
4949494949494949494949494949494949494949494949494949494949494949494949494949494949494949494949494949494949494949
102
{BLKREFS
331
784F
102
}
1001
AcDbDynamicBlockGUID
1000
{8298F63D-B31D-4F05-97EC-86D50C27C76B}
  0
ENDTAB
  0
ENDSEC
  0
SECTION
  2
BLOCKS
  0
BLOCK
  5
1A
330
19
100
AcDbEntity
  8
0
100
AcDbBlockBegin
  2
*MODEL_SPACE
 70
     0
 10
0.0
 20
0.0
 30
0.0
  3
*MODEL_SPACE
  1

  0
ENDBLK
  5
1B
330
19
100
AcDbEntity
  8
0
100
AcDbBlockEnd
  0
BLOCK
  5
17
330
16
100
AcDbEntity
 67
     1
  8
0
100
AcDbBlockBegin
  2
*PAPER_SPACE
 70
     0
 10
0.0
 20
0.0
 30
0.0
  3
*PAPER_SPACE
  1

  0
ENDBLK
  5
18
330
16
100
AcDbEntity
 67
     1
  8
0
100
AcDbBlockEnd
  0
BLOCK
  5
74CC
330
74C9
100
AcDbEntity
  8
0
100
AcDbBlockBegin
  2
A$C1CC36F42
 70
     0
 10
0.0
 20
0.0
 30
0.0
  3
A$C1CC36F42
  1

  0
LINE
  5
74CD
330
74C9
100
AcDbEntity
  8
0
  6
Continuous
100
AcDbLine
 10
0.0000011829308164
 20
0.0000004574241643
 30
0.0
 11
300.0000011829309
 21
0.0000004574242212
 31
0.0
  0
LINE
  5
74CE
330
74C9
100
AcDbEntity
  8
0
  6
Continuous
100
AcDbLine
 10
0.0000011829308733
 20
15.60000045742424
 30
0.0
 11
300.0000011829309
 21
15.60000045742424
 31
0.0
  0
LINE
  5
74CF
330
74C9
100
AcDbEntity
  8
9
  6
Continuous
100
AcDbLine
 10
0.0000011829308164
 20
1.450000457424209
 30
0.0
 11
300.0000011829309
 21
1.450000457424266
 31
0.0
  0
LINE
  5
74D0
330
74C9
100
AcDbEntity
  8
9
  6
Continuous
100
AcDbLine
 10
0.0000011829308733
 20
14.1500004574242
 30
0.0
 11
300.0000011829309
 21
14.15000045742414
 31
0.0
  0
LINE
  5
74D1
330
74C9
100
AcDbEntity
  8
0
100
AcDbLine
 10
0.0000011829308164
 20
0.0000004574241643
 30
0.0
 11
0.0000011829308733
 21
15.60000045742424
 31
0.0
  0
LINE
  5
74D2
330
74C9
100
AcDbEntity
  8
0
100
AcDbLine
 10
300.0000011829309
 20
0.0000004574241643
 30
0.0
 11
300.0000011829309
 21
15.60000045742424
 31
0.0
  0
TEXT
  5
74D3
330
74C9
100
AcDbEntity
  8
0
100
AcDbText
 10
32.2500041829309
 20
5.800000457424175
 30
0.0
 40
4.0
  1
RM1605
 72
     4
 11
44.25000418293089
 21
7.800000457424175
 31
0.0
100
AcDbText
  0
ENDBLK
  5
74D4
330
74C9
100
AcDbEntity
  8
0
100
AcDbBlockEnd
  0
BLOCK
  5
7504
330
7501
100
AcDbEntity
  8
0
100
AcDbBlockBegin
  2
A$C0B960A8E
 70
     0
 10
0.0
 20
0.0
 30
0.0
  3
A$C0B960A8E
  1

  0
CIRCLE
  5
79FB
330
7501
100
AcDbEntity
  8
0
100
AcDbCircle
 10
19.99999562942275
 20
4.973597959841583
 30
0.0
 40
2.75
  0
CIRCLE
  5
79FC
330
7501
100
AcDbEntity
  8
0
100
AcDbCircle
 10
19.99999562942275
 20
23.9735979598417
 30
0.0
 40
14.0
  0
CIRCLE
  5
79FD
330
7501
100
AcDbEntity
  8
0
100
AcDbCircle
 10
33.43502442942276
 20
10.53856915984164
 30
0.0
 40
2.75
  0
CIRCLE
  5
79FE
330
7501
100
AcDbEntity
  8
0
100
AcDbCircle
 10
33.43502442942276
 20
37.40862715984162
 30
0.0
 40
2.75
  0
CIRCLE
  5
79FF
330
7501
100
AcDbEntity
  8
0
100
AcDbCircle
 10
19.99999562942275
 20
42.97359815984163
 30
0.0
 40
2.75
  0
LWPOLYLINE
  5
7A00
330
7501
100
AcDbEntity
  8
2
100
AcDbPolyline
 90
        4
 70
     0
 43
0.0
 10
8.426638029422747
 20
44.07477715984152
 10
11.48810552942274
 20
36.68374115984164
 10
17.03138272942271
 20
38.97984115984156
 10
13.96991522942272
 20
46.37087715984165
  0
LWPOLYLINE
  5
7A01
330
7501
100
AcDbEntity
  8
2
100
AcDbPolyline
 90
        2
 70
     0
 43
0.0
 10
14.86283849429691
 20
29.84297753259267
 10
8.888577829422729
 20
44.26611915984159
  0
LWPOLYLINE
  5
7A02
330
7501
100
AcDbEntity
  8
2
100
AcDbPolyline
 90
        2
 70
     0
 43
0.0
 10
13.50797552942276
 20
46.17953615984157
 10
19.48223616809423
 20
31.75639470267174
  0
CIRCLE
  5
7A03
330
7501
100
AcDbEntity
  8
0
100
AcDbCircle
 10
6.564966729422735
 20
10.53856915984164
 30
0.0
 40
2.75
  0
CIRCLE
  5
7A04
330
7501
100
AcDbEntity
  8
0
100
AcDbCircle
 10
6.564966729422735
 20
37.40862715984162
 30
0.0
 40
2.75
  0
ARC
  5
7A05
330
7501
100
AcDbEntity
  8
0
100
AcDbCircle
 10
19.9999994294227
 20
23.9735979598417
 30
0.0
 40
24.0
100
AcDbArc
 50
213.5573097619193
 51
326.4426902380807
  0
LINE
  5
7A06
330
7501
100
AcDbEntity
  8
0
100
AcDbLine
 10
-0.0000005705772992
 20
10.70709879842008
 30
0.0
 11
-0.0000005705772992
 21
37.24009712126332
 31
0.0
  0
LINE
  5
7A07
330
7501
100
AcDbEntity
  8
0
100
AcDbLine
 10
39.99999942942276
 20
10.70709879841996
 30
0.0
 11
39.99999942942276
 21
37.24009712126332
 31
0.0
  0
ARC
  5
7A08
330
7501
100
AcDbEntity
  8
0
100
AcDbCircle
 10
19.9999994294227
 20
23.9735979598417
 30
0.0
 40
24.0
100
AcDbArc
 50
33.55730976191933
 51
95.902157864134
  0
LINE
  5
7A09
330
7501
100
AcDbEntity
  8
0
100
AcDbLine
 10
17.53207945230395
 20
47.84637264119232
 30
0.0
 11
4.864481517747776
 21
42.59928177400985
 31
0.0
  0
ARC
  5
7A0A
330
7501
100
AcDbEntity
  8
0
100
AcDbCircle
 10
19.9999994294227
 20
23.9735979598417
 30
0.0
 40
24.0
100
AcDbArc
 50
129.097842135868
 51
146.4426902380806
  0
POINT
  5
7A0B
330
7501
100
AcDbEntity
  8
DEFPOINTS
  6
ByBlock
 62
     0
100
AcDbPoint
 10
4.864481517747776
 20
42.59928177400974
 30
0.0
 50
89.99999999999998
  0
POINT
  5
7A0C
330
7501
100
AcDbEntity
  8
DEFPOINTS
  6
ByBlock
 62
     0
100
AcDbPoint
 10
11.48810552942274
 20
36.68374115984164
 30
0.0
 50
89.99999999999998
  0
POINT
  5
7A0D
330
7501
100
AcDbEntity
  8
DEFPOINTS
  6
ByBlock
 62
     0
100
AcDbPoint
 10
4.864481517747776
 20
42.59928177400974
 30
0.0
 50
89.99999999999998
  0
ARC
  5
7A0E
330
7501
100
AcDbEntity
  8
9
100
AcDbCircle
 10
19.9999956294227
 20
23.9735979598417
 30
0.0
 40
6.349999999999965
100
AcDbArc
 50
180.0
 51
89.99999999999836
  0
CIRCLE
  5
7A0F
330
7501
100
AcDbEntity
  8
0
100
AcDbCircle
 10
19.99999562942275
 20
23.9735979598417
 30
0.0
 40
7.800000000000068
  0
ARC
  5
7A14
330
7501
100
AcDbEntity
  8
0
100
AcDbCircle
 10
19.9999994294227
 20
23.9735979598417
 30
0.0
 40
23.0
100
AcDbArc
 50
29.59184579395045
 51
150.4081542060492
  0
ARC
  5
7A17
330
7501
100
AcDbEntity
  8
0
100
AcDbCircle
 10
19.9999994294227
 20
23.9735979598417
 30
0.0
 40
23.0
100
AcDbArc
 50
209.5918457939507
 51
330.4081542060496
  0
ENDBLK
  5
751A
330
7501
100
AcDbEntity
  8
0
100
AcDbBlockEnd
  0
BLOCK
  5
75CC
330
75CB
100
AcDbEntity
  8
0
100
AcDbBlockBegin
  2
*D3
 70
     1
 10
0.0
 20
0.0
 30
0.0
  3
*D3
  1

  0
LINE
  5
76C1
330
75CB
100
AcDbEntity
  8
0
 62
   115
370
    -2
100
AcDbLine
 10
21.00000003251415
 20
44.65000059641039
 30
0.0
 11
11.00000003251398
 21
44.6500005964104
 31
0.0
  0
LINE
  5
76C2
330
75CB
100
AcDbEntity
  8
0
 62
   115
370
    -2
100
AcDbLine
 10
21.00000003251421
 20
57.35000059641038
 30
0.0
 11
11.00000003251398
 21
57.35000059641039
 31
0.0
  0
LINE
  5
76C3
330
75CB
100
AcDbEntity
  8
0
 62
   115
370
    -2
100
AcDbLine
 10
12.00000003251398
 20
47.6500005964104
 30
0.0
 11
12.00000003251398
 21
54.35000059641039
 31
0.0
  0
LINE
  5
76C4
330
75CB
100
AcDbEntity
  8
0
 62
   115
370
    -2
100
AcDbLine
 10
12.00000003251398
 20
57.35000059641039
 30
0.0
 11
12.00000003251398
 21
74.20714345355325
 31
0.0
  0
SOLID
  5
76C5
330
75CB
100
AcDbEntity
  8
0
 62
   115
100
AcDbTrace
 10
11.50000003251398
 20
47.6500005964104
 30
0.0
 11
12.50000003251398
 21
47.6500005964104
 31
0.0
 12
12.00000003251398
 22
44.6500005964104
 32
0.0
 13
12.00000003251398
 23
44.6500005964104
 33
0.0
  0
SOLID
  5
76C6
330
75CB
100
AcDbEntity
  8
0
 62
   115
100
AcDbTrace
 10
11.50000003251398
 20
54.35000059641039
 30
0.0
 11
12.50000003251398
 21
54.35000059641039
 31
0.0
 12
12.00000003251398
 22
57.35000059641039
 32
0.0
 13
12.00000003251398
 23
57.35000059641039
 33
0.0
  0
MTEXT
  5
76C7
330
75CB
100
AcDbEntity
  8
0
 62
     7
100
AcDbMText
 10
9.500000032513971
 20
67.27857202498181
 30
0.0
 40
3.0
 41
0.0
 71
     5
 72
     1
  1
\A1;%%C12.7
 11
0.0000000000000001
 21
1.0
 31
0.0
 73
     1
 44
1.0
1001
ACAD
1000
MTEXTBEGIN
1070
    73
1070
     1
1070
    44
1040
1.0
1070
    74
1070
     0
1000
MTEXTEND
  0
POINT
  5
76C8
330
75CB
100
AcDbEntity
  8
DEFPOINTS
 62
     0
100
AcDbPoint
 10
22.00000003251415
 20
44.65000059641039
 30
0.0
  0
POINT
  5
76C9
330
75CB
100
AcDbEntity
  8
DEFPOINTS
 62
     0
100
AcDbPoint
 10
22.00000003251421
 20
57.35000059641038
 30
0.0
  0
POINT
  5
76CA
330
75CB
100
AcDbEntity
  8
DEFPOINTS
 62
     0
100
AcDbPoint
 10
12.00000003251398
 20
57.35000059641039
 30
0.0
  0
ENDBLK
  5
75CD
330
75CB
100
AcDbEntity
  8
0
100
AcDbBlockEnd
  0
BLOCK
  5
75D9
330
75D8
100
AcDbEntity
  8
0
100
AcDbBlockBegin
  2
*D4
 70
     1
 10
0.0
 20
0.0
 30
0.0
  3
*D4
  1

  0
LINE
  5
76CB
330
75D8
100
AcDbEntity
  8
0
 62
   115
370
    -2
100
AcDbLine
 10
21.00000003251415
 20
43.20000059641034
 30
0.0
 11
3.000000032513976
 21
43.20000059641035
 31
0.0
  0
LINE
  5
76CC
330
75D8
100
AcDbEntity
  8
0
 62
   115
370
    -2
100
AcDbLine
 10
21.00000003251421
 20
58.80000059641043
 30
0.0
 11
3.000000032513979
 21
58.80000059641043
 31
0.0
  0
LINE
  5
76CD
330
75D8
100
AcDbEntity
  8
0
 62
   115
370
    -2
100
AcDbLine
 10
4.000000032513978
 20
46.20000059641035
 30
0.0
 11
4.000000032513979
 21
55.80000059641044
 31
0.0
  0
SOLID
  5
76CE
330
75D8
100
AcDbEntity
  8
0
 62
   115
100
AcDbTrace
 10
3.500000032513977
 20
46.20000059641035
 30
0.0
 11
4.500000032513978
 21
46.20000059641035
 31
0.0
 12
4.000000032513977
 22
43.20000059641035
 32
0.0
 13
4.000000032513977
 23
43.20000059641035
 33
0.0
  0
SOLID
  5
76CF
330
75D8
100
AcDbEntity
  8
0
 62
   115
100
AcDbTrace
 10
3.500000032513979
 20
55.80000059641044
 30
0.0
 11
4.500000032513979
 21
55.80000059641044
 31
0.0
 12
4.00000003251398
 22
58.80000059641043
 32
0.0
 13
4.00000003251398
 23
58.80000059641043
 33
0.0
  0
MTEXT
  5
76D0
330
75D8
100
AcDbEntity
  8
0
 62
     7
100
AcDbMText
 10
1.50000003251397
 20
51.0000005964104
 30
0.0
 40
3.0
 41
0.0
 71
     5
 72
     1
  1
\A1;%%C15.6
 11
0.0000000000000001
 21
1.0
 31
0.0
 73
     1
 44
1.0
1001
ACAD
1000
MTEXTBEGIN
1070
    73
1070
     1
1070
    44
1040
1.0
1070
    74
1070
     0
1000
MTEXTEND
  0
POINT
  5
76D1
330
75D8
100
AcDbEntity
  8
DEFPOINTS
 62
     0
100
AcDbPoint
 10
22.00000003251415
 20
43.20000059641034
 30
0.0
  0
POINT
  5
76D2
330
75D8
100
AcDbEntity
  8
DEFPOINTS
 62
     0
100
AcDbPoint
 10
22.00000003251421
 20
58.80000059641043
 30
0.0
  0
POINT
  5
76D3
330
75D8
100
AcDbEntity
  8
DEFPOINTS
 62
     0
100
AcDbPoint
 10
4.00000003251398
 20
58.80000059641043
 30
0.0
  0
ENDBLK
  5
75DA
330
75D8
100
AcDbEntity
  8
0
100
AcDbBlockEnd
  0
BLOCK
  5
75E5
330
75E4
100
AcDbEntity
  8
0
100
AcDbBlockBegin
  2
*D5
 70
     1
 10
0.0
 20
0.0
 30
0.0
  3
*D5
  1

  0
LINE
  5
7919
330
75E4
100
AcDbEntity
  8
0
 62
   115
370
    -2
100
AcDbLine
 10
147.3499908825143
 20
37.00001584641048
 30
0.0
 11
136.7499998825141
 21
37.00001584641049
 31
0.0
  0
LINE
  5
791A
330
75E4
100
AcDbEntity
  8
0
 62
   115
370
    -2
100
AcDbLine
 10
147.3500059825141
 20
65.00000804641047
 30
0.0
 11
136.7499998825141
 21
65.00000804641047
 31
0.0
  0
LINE
  5
791B
330
75E4
100
AcDbEntity
  8
0
 62
   115
370
    -2
100
AcDbLine
 10
137.7499998825141
 20
40.00001584641048
 30
0.0
 11
137.7499998825141
 21
62.00000804641047
 31
0.0
  0
LINE
  5
791C
330
75E4
100
AcDbEntity
  8
0
 62
   115
370
    -2
100
AcDbLine
 10
137.7499998825141
 20
65.00000804641047
 30
0.0
 11
137.7499998825141
 21
101.0000080464104
 31
0.0
  0
SOLID
  5
791D
330
75E4
100
AcDbEntity
  8
0
 62
   115
100
AcDbTrace
 10
137.2499998825141
 20
40.00001584641048
 30
0.0
 11
138.2499998825141
 21
40.00001584641048
 31
0.0
 12
137.7499998825141
 22
37.00001584641049
 32
0.0
 13
137.7499998825141
 23
37.00001584641049
 33
0.0
  0
SOLID
  5
791E
330
75E4
100
AcDbEntity
  8
0
 62
   115
100
AcDbTrace
 10
137.2499998825141
 20
62.00000804641047
 30
0.0
 11
138.2499998825141
 21
62.00000804641047
 31
0.0
 12
137.7499998825141
 22
65.00000804641047
 32
0.0
 13
137.7499998825141
 23
65.00000804641047
 33
0.0
  0
MTEXT
  5
791F
330
75E4
100
AcDbEntity
  8
0
 62
     7
100
AcDbMText
 10
134.4642855967998
 20
84.50000804641048
 30
0.0
 40
3.0
 41
0.0
 71
     5
 72
     1
  1
\A1;%%C28 g6 ({\H0.5x;\S-0.007^ -0.020;})
 11
0.0000000000000001
 21
1.0
 31
0.0
 73
     1
 44
1.0
1001
ACAD
1000
MTEXTBEGIN
1070
    73
1070
     1
1070
    44
1040
1.0
1070
    74
1070
     0
1000
MTEXTEND
  0
POINT
  5
7920
330
75E4
100
AcDbEntity
  8
DEFPOINTS
 62
     0
100
AcDbPoint
 10
148.3499908825143
 20
37.00001584641048
 30
0.0
  0
POINT
  5
7921
330
75E4
100
AcDbEntity
  8
DEFPOINTS
 62
     0
100
AcDbPoint
 10
148.3500059825141
 20
65.00000804641047
 30
0.0
  0
POINT
  5
7922
330
75E4
100
AcDbEntity
  8
DEFPOINTS
 62
     0
100
AcDbPoint
 10
137.7499998825141
 20
65.00000804641047
 30
0.0
  0
ENDBLK
  5
75E6
330
75E4
100
AcDbEntity
  8
0
100
AcDbBlockEnd
  0
BLOCK
  5
75F2
330
75F1
100
AcDbEntity
  8
0
100
AcDbBlockBegin
  2
*D6
 70
     1
 10
0.0
 20
0.0
 30
0.0
  3
*D6
  1

  0
LINE
  5
7953
330
75F1
100
AcDbEntity
  8
0
 62
   115
370
    -2
100
AcDbLine
 10
180.7500061825142
 20
26.50000539641041
 30
0.0
 11
180.7500061825142
 21
16.00000539641041
 31
0.0
  0
LINE
  5
7954
330
75F1
100
AcDbEntity
  8
0
 62
   115
370
    -2
100
AcDbLine
 10
147.7499998825142
 20
36.60000684641045
 30
0.0
 11
147.7499998825142
 21
16.00000539641041
 31
0.0
  0
LINE
  5
7955
330
75F1
100
AcDbEntity
  8
0
 62
   115
370
    -2
100
AcDbLine
 10
177.7500061825142
 20
17.00000539641041
 30
0.0
 11
150.7499998825142
 21
17.00000539641041
 31
0.0
  0
SOLID
  5
7956
330
75F1
100
AcDbEntity
  8
0
 62
   115
100
AcDbTrace
 10
177.7500061825142
 20
17.50000539641041
 30
0.0
 11
177.7500061825142
 21
16.50000539641041
 31
0.0
 12
180.7500061825142
 22
17.00000539641041
 32
0.0
 13
180.7500061825142
 23
17.00000539641041
 33
0.0
  0
SOLID
  5
7957
330
75F1
100
AcDbEntity
  8
0
 62
   115
100
AcDbTrace
 10
150.7499998825142
 20
17.50000539641041
 30
0.0
 11
150.7499998825142
 21
16.50000539641041
 31
0.0
 12
147.7499998825142
 22
17.00000539641041
 32
0.0
 13
147.7499998825142
 23
17.00000539641041
 33
0.0
  0
MTEXT
  5
7958
330
75F1
100
AcDbEntity
  8
0
 62
     7
100
AcDbMText
 10
164.2500030325142
 20
19.50000539641041
 30
0.0
 40
3.0
 41
0.0
 71
     5
 72
     1
  1
\A1;33
 73
     1
 44
1.0
1001
ACAD
1000
MTEXTBEGIN
1070
    73
1070
     1
1070
    44
1040
1.0
1070
    74
1070
     0
1000
MTEXTEND
  0
POINT
  5
7959
330
75F1
100
AcDbEntity
  8
DEFPOINTS
 62
     0
100
AcDbPoint
 10
180.7500061825142
 20
27.50000539641042
 30
0.0
  0
POINT
  5
795A
330
75F1
100
AcDbEntity
  8
DEFPOINTS
 62
     0
100
AcDbPoint
 10
147.7499998825142
 20
37.60000684641045
 30
0.0
  0
POINT
  5
795B
330
75F1
100
AcDbEntity
  8
DEFPOINTS
 62
     0
100
AcDbPoint
 10
147.7499998825142
 20
17.00000539641041
 30
0.0
  0
ENDBLK
  5
75F3
330
75F1
100
AcDbEntity
  8
0
100
AcDbBlockEnd
  0
BLOCK
  5
75FE
330
75FD
100
AcDbEntity
  8
0
100
AcDbBlockBegin
  2
*D7
 70
     1
 10
0.0
 20
0.0
 30
0.0
  3
*D7
  1

  0
LINE
  5
7936
330
75FD
100
AcDbEntity
  8
0
 62
   115
370
    -2
100
AcDbLine
 10
180.7500061825142
 20
26.50000539641041
 30
0.0
 11
180.7500061825142
 21
16.00000539641041
 31
0.0
  0
LINE
  5
7937
330
75FD
100
AcDbEntity
  8
0
 62
   115
370
    -2
100
AcDbLine
 10
190.7500061825142
 20
26.50000539641047
 30
0.0
 11
190.7500061825142
 21
16.00000539641041
 31
0.0
  0
LINE
  5
7938
330
75FD
100
AcDbEntity
  8
0
 62
   115
370
    -2
100
AcDbLine
 10
183.7500061825142
 20
17.00000539641041
 30
0.0
 11
187.7500061825142
 21
17.00000539641041
 31
0.0
  0
SOLID
  5
7939
330
75FD
100
AcDbEntity
  8
0
 62
   115
100
AcDbTrace
 10
183.7500061825142
 20
17.50000539641041
 30
0.0
 11
183.7500061825142
 21
16.50000539641041
 31
0.0
 12
180.7500061825142
 22
17.00000539641041
 32
0.0
 13
180.7500061825142
 23
17.00000539641041
 33
0.0
  0
SOLID
  5
793A
330
75FD
100
AcDbEntity
  8
0
 62
   115
100
AcDbTrace
 10
187.7500061825142
 20
17.50000539641041
 30
0.0
 11
187.7500061825142
 21
16.50000539641041
 31
0.0
 12
190.7500061825142
 22
17.00000539641041
 32
0.0
 13
190.7500061825142
 23
17.00000539641041
 33
0.0
  0
MTEXT
  5
793B
330
75FD
100
AcDbEntity
  8
0
 62
     7
100
AcDbMText
 10
185.7500061825142
 20
19.50000539641041
 30
0.0
 40
3.0
 41
0.0
 71
     5
 72
     1
  1
\A1;10
 73
     1
 44
1.0
1001
ACAD
1000
MTEXTBEGIN
1070
    73
1070
     1
1070
    44
1040
1.0
1070
    74
1070
     0
1000
MTEXTEND
  0
POINT
  5
793C
330
75FD
100
AcDbEntity
  8
DEFPOINTS
 62
     0
100
AcDbPoint
 10
180.7500061825142
 20
27.50000539641042
 30
0.0
  0
POINT
  5
793D
330
75FD
100
AcDbEntity
  8
DEFPOINTS
 62
     0
100
AcDbPoint
 10
190.7500061825142
 20
27.50000539641047
 30
0.0
  0
POINT
  5
793E
330
75FD
100
AcDbEntity
  8
DEFPOINTS
 62
     0
100
AcDbPoint
 10
190.7500061825142
 20
17.00000539641041
 30
0.0
  0
ENDBLK
  5
75FF
330
75FD
100
AcDbEntity
  8
0
100
AcDbBlockEnd
  0
BLOCK
  5
760A
330
7609
100
AcDbEntity
  8
0
100
AcDbBlockBegin
  2
*D8
 70
     1
 10
0.0
 20
0.0
 30
0.0
  3
*D8
  1

  0
LINE
  5
7967
330
7609
100
AcDbEntity
  8
0
 62
   115
370
    -2
100
AcDbLine
 10
147.7499998825142
 20
36.60000684641045
 30
0.0
 11
147.7499998825142
 21
8.000005396410415
 31
0.0
  0
LINE
  5
7968
330
7609
100
AcDbEntity
  8
0
 62
   115
370
    -2
100
AcDbLine
 10
196.2500001825142
 20
36.50000684641043
 30
0.0
 11
196.2500001825142
 21
8.000005396410415
 31
0.0
  0
LINE
  5
7969
330
7609
100
AcDbEntity
  8
0
 62
   115
370
    -2
100
AcDbLine
 10
150.7499998825142
 20
9.000005396410415
 30
0.0
 11
193.2500001825142
 21
9.000005396410415
 31
0.0
  0
SOLID
  5
796A
330
7609
100
AcDbEntity
  8
0
 62
   115
100
AcDbTrace
 10
150.7499998825142
 20
9.500005396410415
 30
0.0
 11
150.7499998825142
 21
8.500005396410415
 31
0.0
 12
147.7499998825142
 22
9.000005396410415
 32
0.0
 13
147.7499998825142
 23
9.000005396410415
 33
0.0
  0
SOLID
  5
796B
330
7609
100
AcDbEntity
  8
0
 62
   115
100
AcDbTrace
 10
193.2500001825142
 20
9.500005396410415
 30
0.0
 11
193.2500001825142
 21
8.500005396410415
 31
0.0
 12
196.2500001825142
 22
9.000005396410415
 32
0.0
 13
196.2500001825142
 23
9.000005396410415
 33
0.0
  0
MTEXT
  5
796C
330
7609
100
AcDbEntity
  8
0
 62
     7
100
AcDbMText
 10
172.0000000325142
 20
11.50000539641041
 30
0.0
 40
3.0
 41
0.0
 71
     5
 72
     1
  1
\A1;48.5
 73
     1
 44
1.0
1001
ACAD
1000
MTEXTBEGIN
1070
    73
1070
     1
1070
    44
1040
1.0
1070
    74
1070
     0
1000
MTEXTEND
  0
POINT
  5
796D
330
7609
100
AcDbEntity
  8
DEFPOINTS
 62
     0
100
AcDbPoint
 10
147.7499998825142
 20
37.60000684641045
 30
0.0
  0
POINT
  5
796E
330
7609
100
AcDbEntity
  8
DEFPOINTS
 62
     0
100
AcDbPoint
 10
196.2500001825142
 20
37.50000684641043
 30
0.0
  0
POINT
  5
796F
330
7609
100
AcDbEntity
  8
DEFPOINTS
 62
     0
100
AcDbPoint
 10
196.2500001825142
 20
9.000005396410415
 30
0.0
  0
ENDBLK
  5
760B
330
7609
100
AcDbEntity
  8
0
100
AcDbBlockEnd
  0
BLOCK
  5
7616
330
7615
100
AcDbEntity
  8
0
100
AcDbBlockBegin
  2
*D9
 70
     1
 10
0.0
 20
0.0
 30
0.0
  3
*D9
  1

  0
LINE
  5
76F9
330
7615
100
AcDbEntity
  8
0
 62
   115
370
    -2
100
AcDbLine
 10
348.0000000325142
 20
36.73350143498874
 30
0.0
 11
348.0000000325142
 21
0.0000005964103593
 31
0.0
  0
LINE
  5
76FA
330
7615
100
AcDbEntity
  8
0
 62
   115
370
    -2
100
AcDbLine
 10
388.0000000325145
 20
36.73350143498925
 30
0.0
 11
388.0000000325145
 21
0.0000005964103593
 31
0.0
  0
LINE
  5
76FB
330
7615
100
AcDbEntity
  8
0
 62
   115
370
    -2
100
AcDbLine
 10
351.0000000325142
 20
1.000000596410359
 30
0.0
 11
385.0000000325145
 21
1.000000596410359
 31
0.0
  0
SOLID
  5
76FC
330
7615
100
AcDbEntity
  8
0
 62
   115
100
AcDbTrace
 10
351.0000000325142
 20
1.500000596410359
 30
0.0
 11
351.0000000325142
 21
0.5000005964103594
 31
0.0
 12
348.0000000325142
 22
1.000000596410359
 32
0.0
 13
348.0000000325142
 23
1.000000596410359
 33
0.0
  0
SOLID
  5
76FD
330
7615
100
AcDbEntity
  8
0
 62
   115
100
AcDbTrace
 10
385.0000000325145
 20
1.500000596410359
 30
0.0
 11
385.0000000325145
 21
0.5000005964103594
 31
0.0
 12
388.0000000325145
 22
1.000000596410359
 32
0.0
 13
388.0000000325145
 23
1.000000596410359
 33
0.0
  0
MTEXT
  5
76FE
330
7615
100
AcDbEntity
  8
0
 62
     7
100
AcDbMText
 10
368.0000000325143
 20
3.500000596410359
 30
0.0
 40
3.0
 41
0.0
 71
     5
 72
     1
  1
\A1;40
 73
     1
 44
1.0
1001
ACAD
1000
MTEXTBEGIN
1070
    73
1070
     1
1070
    44
1040
1.0
1070
    74
1070
     0
1000
MTEXTEND
  0
POINT
  5
76FF
330
7615
100
AcDbEntity
  8
DEFPOINTS
 62
     0
100
AcDbPoint
 10
348.0000000325142
 20
37.73350143498874
 30
0.0
  0
POINT
  5
7700
330
7615
100
AcDbEntity
  8
DEFPOINTS
 62
     0
100
AcDbPoint
 10
388.0000000325145
 20
37.73350143498925
 30
0.0
  0
POINT
  5
7701
330
7615
100
AcDbEntity
  8
DEFPOINTS
 62
     0
100
AcDbPoint
 10
388.0000000325145
 20
1.000000596410359
 30
0.0
  0
ENDBLK
  5
7617
330
7615
100
AcDbEntity
  8
0
100
AcDbBlockEnd
  0
BLOCK
  5
7622
330
7621
100
AcDbEntity
  8
0
100
AcDbBlockBegin
  2
*D10
 70
     1
 10
0.0
 20
0.0
 30
0.0
  3
*D10
  1

  0
LINE
  5
7702
330
7621
100
AcDbEntity
  8
0
 62
   115
370
    -2
100
AcDbLine
 10
349.7919958667421
 20
32.79200171616416
 30
0.0
 11
343.2492751338837
 21
26.2492828825651
 31
0.0
  0
LINE
  5
7703
330
7621
100
AcDbEntity
  8
0
 62
   115
370
    -2
100
AcDbLine
 10
386.2080041982864
 20
32.79200171616416
 30
0.0
 11
392.7507249311446
 21
26.24928288256507
 31
0.0
  0
ARC
  5
7704
330
7621
100
AcDbEntity
  8
0
 62
   115
370
    -2
100
AcDbCircle
 10
368.0000000325142
 20
51.00000059641036
 30
0.0
 40
34.0028057497987
100
AcDbArc
 50
230.0567254953012
 51
309.9432745046988
  0
SOLID
  5
7705
330
7621
100
AcDbEntity
  8
0
 62
   115
100
AcDbTrace
 10
345.8316043043777
 20
24.56190811923044
 30
0.0
 11
346.5068295132784
 21
25.29951974960586
 31
0.0
 12
343.9563820177018
 22
26.95638956112007
 32
0.0
 13
343.9563820177018
 23
26.95638956112007
 33
0.0
  0
SOLID
  5
7706
330
7621
100
AcDbEntity
  8
0
 62
   115
100
AcDbTrace
 10
389.49317055175
 20
25.29951974960584
 30
0.0
 11
390.1683957606506
 21
24.56190811923042
 31
0.0
 12
392.0436180473266
 22
26.95638956112005
 32
0.0
 13
392.0436180473266
 23
26.95638956112005
 33
0.0
  0
MTEXT
  5
7707
102
{ACAD_XDICTIONARY
360
7BAF
102
}
330
7621
100
AcDbEntity
  8
0
 62
     7
100
AcDbMText
 10
368.0000000325142
 20
19.49719484661165
 30
0.0
 40
3.0
 41
0.0
 71
     5
 72
     1
  1
\A1;90\U+00B0
 73
     1
 44
1.0
1001
ACAD
1000
MTEXTBEGIN
1070
    73
1070
     1
1070
    44
1040
1.0
1070
    74
1070
     0
1000
MTEXTEND
  0
POINT
  5
7708
330
7621
100
AcDbEntity
  8
DEFPOINTS
 62
     0
100
AcDbPoint
 10
359.1994247285108
 20
18.1558127821698
 30
0.0
  0
POINT
  5
7709
330
7621
100
AcDbEntity
  8
DEFPOINTS
 62
     0
100
AcDbPoint
 10
350.4991027505602
 20
33.49910839471915
 30
0.0
  0
POINT
  5
770A
330
7621
100
AcDbEntity
  8
DEFPOINTS
 62
     0
100
AcDbPoint
 10
385.5008973144683
 20
33.49910839471915
 30
0.0
  0
POINT
  5
770B
330
7621
100
AcDbEntity
  8
DEFPOINTS
 62
     0
100
AcDbPoint
 10
377.3691681505601
 20
41.63083519810141
 30
0.0
  0
POINT
  5
770C
330
7621
100
AcDbEntity
  8
DEFPOINTS
 62
     0
100
AcDbPoint
 10
358.6308319144683
 20
41.63083519810141
 30
0.0
  0
ENDBLK
  5
7623
330
7621
100
AcDbEntity
  8
0
100
AcDbBlockEnd
  0
BLOCK
  5
7630
330
762F
100
AcDbEntity
  8
0
100
AcDbBlockBegin
  2
*D11
 70
     1
 10
0.0
 20
0.0
 30
0.0
  3
*D11
  1

  0
LINE
  5
770D
330
762F
100
AcDbEntity
  8
0
 62
   115
370
    -2
100
AcDbLine
 10
353.5649673325143
 20
37.5649717964103
 30
0.0
 11
337.0000000325141
 21
37.5649717964103
 31
0.0
  0
LINE
  5
770E
330
762F
100
AcDbEntity
  8
0
 62
   115
370
    -2
100
AcDbLine
 10
353.5649673325143
 20
64.43502979641028
 30
0.0
 11
337.0000000325141
 21
64.43502979641029
 31
0.0
  0
LINE
  5
770F
330
762F
100
AcDbEntity
  8
0
 62
   115
370
    -2
100
AcDbLine
 10
338.0000000325141
 20
40.5649717964103
 30
0.0
 11
338.0000000325141
 21
61.43502979641028
 31
0.0
  0
SOLID
  5
7710
330
762F
100
AcDbEntity
  8
0
 62
   115
100
AcDbTrace
 10
337.5000000325141
 20
40.5649717964103
 30
0.0
 11
338.5000000325141
 21
40.5649717964103
 31
0.0
 12
338.0000000325141
 22
37.5649717964103
 32
0.0
 13
338.0000000325141
 23
37.5649717964103
 33
0.0
  0
SOLID
  5
7711
330
762F
100
AcDbEntity
  8
0
 62
   115
100
AcDbTrace
 10
337.5000000325141
 20
61.43502979641028
 30
0.0
 11
338.5000000325141
 21
61.43502979641028
 31
0.0
 12
338.0000000325141
 22
64.43502979641029
 32
0.0
 13
338.0000000325141
 23
64.43502979641029
 33
0.0
  0
MTEXT
  5
7712
330
762F
100
AcDbEntity
  8
0
 62
     7
100
AcDbMText
 10
334.7142857467998
 20
51.00000079641035
 30
0.0
 40
3.0
 41
0.0
 71
     5
 72
     1
  1
\A1;(26.87)
 11
0.0000000000000001
 21
1.0
 31
0.0
 73
     1
 44
1.0
1001
ACAD
1000
MTEXTBEGIN
1070
    73
1070
     1
1070
    44
1040
1.0
1070
    74
1070
     0
1000
MTEXTEND
  0
POINT
  5
7713
330
762F
100
AcDbEntity
  8
DEFPOINTS
 62
     0
100
AcDbPoint
 10
354.5649673325142
 20
37.5649717964103
 30
0.0
  0
POINT
  5
7714
330
762F
100
AcDbEntity
  8
DEFPOINTS
 62
     0
100
AcDbPoint
 10
354.5649673325142
 20
64.43502979641028
 30
0.0
  0
POINT
  5
7715
330
762F
100
AcDbEntity
  8
DEFPOINTS
 62
     0
100
AcDbPoint
 10
338.0000000325141
 20
64.43502979641029
 30
0.0
  0
ENDBLK
  5
7631
330
762F
100
AcDbEntity
  8
0
100
AcDbBlockEnd
  0
BLOCK
  5
763C
330
763B
100
AcDbEntity
  8
0
100
AcDbBlockBegin
  2
*D12
 70
     1
 10
0.0
 20
0.0
 30
0.0
  3
*D12
  1

  0
LINE
  5
7716
330
763B
100
AcDbEntity
  8
0
 62
   115
370
    -2
100
AcDbLine
 10
354.5649673325142
 20
36.56497179641031
 30
0.0
 11
354.5649673325142
 21
8.000000596410359
 31
0.0
  0
LINE
  5
7717
330
763B
100
AcDbEntity
  8
0
 62
   115
370
    -2
100
AcDbLine
 10
381.4350250325142
 20
36.56497179641031
 30
0.0
 11
381.4350250325142
 21
8.000000596410359
 31
0.0
  0
LINE
  5
7718
330
763B
100
AcDbEntity
  8
0
 62
   115
370
    -2
100
AcDbLine
 10
357.5649673325143
 20
9.000000596410359
 30
0.0
 11
378.4350250325142
 21
9.000000596410359
 31
0.0
  0
SOLID
  5
7719
330
763B
100
AcDbEntity
  8
0
 62
   115
100
AcDbTrace
 10
357.5649673325143
 20
9.500000596410359
 30
0.0
 11
357.5649673325143
 21
8.500000596410359
 31
0.0
 12
354.5649673325142
 22
9.000000596410359
 32
0.0
 13
354.5649673325142
 23
9.000000596410359
 33
0.0
  0
SOLID
  5
771A
330
763B
100
AcDbEntity
  8
0
 62
   115
100
AcDbTrace
 10
378.4350250325142
 20
9.500000596410359
 30
0.0
 11
378.4350250325142
 21
8.500000596410359
 31
0.0
 12
381.4350250325142
 22
9.000000596410359
 32
0.0
 13
381.4350250325142
 23
9.000000596410359
 33
0.0
  0
MTEXT
  5
771B
330
763B
100
AcDbEntity
  8
0
 62
     7
100
AcDbMText
 10
367.9999961825142
 20
12.28571488212464
 30
0.0
 40
3.0
 41
0.0
 71
     5
 72
     1
  1
\A1;(26.87)
 73
     1
 44
1.0
1001
ACAD
1000
MTEXTBEGIN
1070
    73
1070
     1
1070
    44
1040
1.0
1070
    74
1070
     0
1000
MTEXTEND
  0
POINT
  5
771C
330
763B
100
AcDbEntity
  8
DEFPOINTS
 62
     0
100
AcDbPoint
 10
354.5649673325142
 20
37.5649717964103
 30
0.0
  0
POINT
  5
771D
330
763B
100
AcDbEntity
  8
DEFPOINTS
 62
     0
100
AcDbPoint
 10
381.4350250325142
 20
37.5649717964103
 30
0.0
  0
POINT
  5
771E
330
763B
100
AcDbEntity
  8
DEFPOINTS
 62
     0
100
AcDbPoint
 10
381.4350250325142
 20
9.000000596410359
 30
0.0
  0
ENDBLK
  5
763D
330
763B
100
AcDbEntity
  8
0
100
AcDbBlockEnd
  0
BLOCK
  5
7648
330
7647
100
AcDbEntity
  8
0
100
AcDbBlockBegin
  2
*D13
 70
     1
 10
0.0
 20
0.0
 30
0.0
  3
*D13
  1

  0
LINE
  5
771F
330
7647
100
AcDbEntity
  8
0
 62
   115
370
    -2
100
AcDbLine
 10
369.0000000325142
 20
32.00000306074008
 30
0.0
 11
407.0000000325134
 21
32.00000306074008
 31
0.0
  0
LINE
  5
7720
330
7647
100
AcDbEntity
  8
0
 62
   115
370
    -2
100
AcDbLine
 10
369.0000000325142
 20
69.99999813208063
 30
0.0
 11
407.0000000325134
 21
69.99999813208063
 31
0.0
  0
LINE
  5
7721
330
7647
100
AcDbEntity
  8
0
 62
   115
370
    -2
100
AcDbLine
 10
406.0000000325135
 20
35.00000306074008
 30
0.0
 11
406.0000000325135
 21
66.99999813208063
 31
0.0
  0
SOLID
  5
7722
330
7647
100
AcDbEntity
  8
0
 62
   115
100
AcDbTrace
 10
405.5000000325135
 20
35.00000306074008
 30
0.0
 11
406.5000000325134
 21
35.00000306074008
 31
0.0
 12
406.0000000325135
 22
32.00000306074008
 32
0.0
 13
406.0000000325135
 23
32.00000306074008
 33
0.0
  0
SOLID
  5
7723
330
7647
100
AcDbEntity
  8
0
 62
   115
100
AcDbTrace
 10
405.5000000325135
 20
66.99999813208063
 30
0.0
 11
406.5000000325134
 21
66.99999813208063
 31
0.0
 12
406.0000000325135
 22
69.99999813208063
 32
0.0
 13
406.0000000325135
 23
69.99999813208063
 33
0.0
  0
MTEXT
  5
7724
330
7647
100
AcDbEntity
  8
0
 62
     7
100
AcDbMText
 10
403.5000000325134
 20
51.00000059641042
 30
0.0
 40
3.0
 41
0.0
 71
     5
 72
     1
  1
\A1;PCD 38
 11
0.0000000000000001
 21
1.0
 31
0.0
 73
     1
 44
1.0
1001
ACAD
1000
MTEXTBEGIN
1070
    73
1070
     1
1070
    44
1040
1.0
1070
    74
1070
     0
1000
MTEXTEND
  0
POINT
  5
7725
330
7647
100
AcDbEntity
  8
DEFPOINTS
 62
     0
100
AcDbPoint
 10
368.0000000325142
 20
32.00000306074008
 30
0.0
  0
POINT
  5
7726
330
7647
100
AcDbEntity
  8
DEFPOINTS
 62
     0
100
AcDbPoint
 10
368.0000000325142
 20
69.99999813208063
 30
0.0
  0
POINT
  5
7727
330
7647
100
AcDbEntity
  8
DEFPOINTS
 62
     0
100
AcDbPoint
 10
406.0000000325135
 20
69.99999813208063
 30
0.0
  0
ENDBLK
  5
7649
330
7647
100
AcDbEntity
  8
0
100
AcDbBlockEnd
  0
BLOCK
  5
7654
330
7653
100
AcDbEntity
  8
0
100
AcDbBlockBegin
  2
*D14
 70
     1
 10
0.0
 20
0.0
 30
0.0
  3
*D14
  1

  0
LINE
  5
7728
330
7653
100
AcDbEntity
  8
0
 62
   115
370
    -2
100
AcDbLine
 10
382.4350250325142
 20
61.68502979641028
 30
0.0
 11
399.0000000325135
 21
61.68502979641028
 31
0.0
  0
LINE
  5
7729
330
7653
100
AcDbEntity
  8
0
 62
   115
370
    -2
100
AcDbLine
 10
382.4350250325142
 20
67.18502979641027
 30
0.0
 11
399.0000000325135
 21
67.18502979641027
 31
0.0
  0
LINE
  5
772A
330
7653
100
AcDbEntity
  8
0
 62
   115
370
    -2
100
AcDbLine
 10
398.0000000325135
 20
58.68502979641028
 30
0.0
 11
398.0000000325135
 21
55.68502979641028
 31
0.0
  0
LINE
  5
772B
330
7653
100
AcDbEntity
  8
0
 62
   115
370
    -2
100
AcDbLine
 10
398.0000000325135
 20
70.18502979641027
 30
0.0
 11
398.0000000325135
 21
90.6136012249817
 31
0.0
  0
LINE
  5
772C
330
7653
100
AcDbEntity
  8
0
 62
   115
370
    -2
100
AcDbLine
 10
398.0000000325135
 20
61.68502979641028
 30
0.0
 11
398.0000000325135
 21
67.18502979641027
 31
0.0
  0
SOLID
  5
772D
330
7653
100
AcDbEntity
  8
0
 62
   115
100
AcDbTrace
 10
397.5000000325135
 20
58.68502979641028
 30
0.0
 11
398.5000000325135
 21
58.68502979641028
 31
0.0
 12
398.0000000325135
 22
61.68502979641028
 32
0.0
 13
398.0000000325135
 23
61.68502979641028
 33
0.0
  0
SOLID
  5
772E
330
7653
100
AcDbEntity
  8
0
 62
   115
100
AcDbTrace
 10
397.5000000325135
 20
70.18502979641027
 30
0.0
 11
398.5000000325135
 21
70.18502979641027
 31
0.0
 12
398.0000000325135
 22
67.18502979641027
 32
0.0
 13
398.0000000325135
 23
67.18502979641027
 33
0.0
  0
MTEXT
  5
772F
330
7653
100
AcDbEntity
  8
0
 62
     7
100
AcDbMText
 10
395.5000000325135
 20
81.89931551069603
 30
0.0
 40
3.0
 41
0.0
 71
     5
 72
     1
  1
\A1;6-%%C5.5
 11
0.0000000000000001
 21
1.0
 31
0.0
 73
     1
 44
1.0
1001
ACAD
1000
MTEXTBEGIN
1070
    73
1070
     1
1070
    44
1040
1.0
1070
    74
1070
     0
1000
MTEXTEND
  0
POINT
  5
7730
330
7653
100
AcDbEntity
  8
DEFPOINTS
 62
     0
100
AcDbPoint
 10
381.4350250325142
 20
61.68502979641028
 30
0.0
  0
POINT
  5
7731
330
7653
100
AcDbEntity
  8
DEFPOINTS
 62
     0
100
AcDbPoint
 10
381.4350250325142
 20
67.18502979641027
 30
0.0
  0
POINT
  5
7732
330
7653
100
AcDbEntity
  8
DEFPOINTS
 62
     0
100
AcDbPoint
 10
398.0000000325135
 20
67.18502979641027
 30
0.0
  0
ENDBLK
  5
7655
330
7653
100
AcDbEntity
  8
0
100
AcDbBlockEnd
  0
BLOCK
  5
7662
330
7661
100
AcDbEntity
  8
0
100
AcDbBlockBegin
  2
*D15
 70
     1
 10
0.0
 20
0.0
 30
0.0
  3
*D15
  1

  0
LINE
  5
7923
330
7661
100
AcDbEntity
  8
0
 62
   115
370
    -2
100
AcDbLine
 10
196.7500001825142
 20
37.00000684641054
 30
0.0
 11
207.2500001825142
 21
37.00000684641054
 31
0.0
  0
LINE
  5
7924
330
7661
100
AcDbEntity
  8
0
 62
   115
370
    -2
100
AcDbLine
 10
196.7500001825142
 20
65.00000194641052
 30
0.0
 11
207.2500001825142
 21
65.00000194641052
 31
0.0
  0
LINE
  5
7925
330
7661
100
AcDbEntity
  8
0
 62
   115
370
    -2
100
AcDbLine
 10
206.2500001825142
 20
40.00000684641054
 30
0.0
 11
206.2500001825142
 21
62.00000194641052
 31
0.0
  0
LINE
  5
7926
330
7661
100
AcDbEntity
  8
0
 62
   115
370
    -2
100
AcDbLine
 10
206.2500001825142
 20
65.00000194641052
 30
0.0
 11
206.2500001825142
 21
101.0000019464105
 31
0.0
  0
SOLID
  5
7927
330
7661
100
AcDbEntity
  8
0
 62
   115
100
AcDbTrace
 10
205.7500001825142
 20
40.00000684641054
 30
0.0
 11
206.7500001825142
 21
40.00000684641054
 31
0.0
 12
206.2500001825142
 22
37.00000684641054
 32
0.0
 13
206.2500001825142
 23
37.00000684641054
 33
0.0
  0
SOLID
  5
7928
330
7661
100
AcDbEntity
  8
0
 62
   115
100
AcDbTrace
 10
205.7500001825142
 20
62.00000194641052
 30
0.0
 11
206.7500001825142
 21
62.00000194641052
 31
0.0
 12
206.2500001825142
 22
65.00000194641052
 32
0.0
 13
206.2500001825142
 23
65.00000194641052
 33
0.0
  0
MTEXT
  5
7929
330
7661
100
AcDbEntity
  8
0
 62
     7
100
AcDbMText
 10
202.9642858967999
 20
84.50000194641054
 30
0.0
 40
3.0
 41
0.0
 71
     5
 72
     1
  1
\A1;%%C28 g6 ({\H0.5x;\S-0.007^ -0.020;})
 11
0.0000000000000001
 21
1.0
 31
0.0
 73
     1
 44
1.0
1001
ACAD
1000
MTEXTBEGIN
1070
    73
1070
     1
1070
    44
1040
1.0
1070
    74
1070
     0
1000
MTEXTEND
  0
POINT
  5
792A
330
7661
100
AcDbEntity
  8
DEFPOINTS
 62
     0
100
AcDbPoint
 10
195.7500001825142
 20
37.00000684641054
 30
0.0
  0
POINT
  5
792B
330
7661
100
AcDbEntity
  8
DEFPOINTS
 62
     0
100
AcDbPoint
 10
195.7500001825142
 20
65.00000194641052
 30
0.0
  0
POINT
  5
792C
330
7661
100
AcDbEntity
  8
DEFPOINTS
 62
     0
100
AcDbPoint
 10
206.2500001825142
 20
65.00000194641052
 30
0.0
  0
ENDBLK
  5
7663
330
7661
100
AcDbEntity
  8
0
100
AcDbBlockEnd
  0
BLOCK
  5
767C
330
767B
100
AcDbEntity
  8
0
100
AcDbBlockBegin
  2
*D16
 70
     1
 10
0.0
 20
0.0
 30
0.0
  3
*D16
  1

  0
LINE
  5
795C
330
767B
100
AcDbEntity
  8
0
 62
   115
370
    -2
100
AcDbLine
 10
190.7500061825142
 20
26.50000539641047
 30
0.0
 11
190.7500061825142
 21
16.00000539641041
 31
0.0
  0
LINE
  5
795D
330
767B
100
AcDbEntity
  8
0
 62
   115
370
    -2
100
AcDbLine
 10
196.2500001825142
 20
36.50000684641043
 30
0.0
 11
196.2500001825142
 21
16.00000539641041
 31
0.0
  0
LINE
  5
795E
330
767B
100
AcDbEntity
  8
0
 62
   115
370
    -2
100
AcDbLine
 10
187.7500061825142
 20
17.00000539641041
 30
0.0
 11
184.7500061825142
 21
17.00000539641041
 31
0.0
  0
LINE
  5
795F
330
767B
100
AcDbEntity
  8
0
 62
   115
370
    -2
100
AcDbLine
 10
199.2500001825142
 20
17.00000539641041
 30
0.0
 11
210.5357144682285
 21
17.00000539641041
 31
0.0
  0
LINE
  5
7960
330
767B
100
AcDbEntity
  8
0
 62
   115
370
    -2
100
AcDbLine
 10
190.7500061825142
 20
17.00000539641041
 30
0.0
 11
196.2500001825142
 21
17.00000539641041
 31
0.0
  0
SOLID
  5
7961
330
767B
100
AcDbEntity
  8
0
 62
   115
100
AcDbTrace
 10
187.7500061825142
 20
17.50000539641041
 30
0.0
 11
187.7500061825142
 21
16.50000539641041
 31
0.0
 12
190.7500061825142
 22
17.00000539641041
 32
0.0
 13
190.7500061825142
 23
17.00000539641041
 33
0.0
  0
SOLID
  5
7962
330
767B
100
AcDbEntity
  8
0
 62
   115
100
AcDbTrace
 10
199.2500001825142
 20
17.50000539641041
 30
0.0
 11
199.2500001825142
 21
16.50000539641041
 31
0.0
 12
196.2500001825142
 22
17.00000539641041
 32
0.0
 13
196.2500001825142
 23
17.00000539641041
 33
0.0
  0
MTEXT
  5
7963
330
767B
100
AcDbEntity
  8
0
 62
     7
100
AcDbMText
 10
206.3928573253714
 20
19.50000539641041
 30
0.0
 40
3.0
 41
0.0
 71
     5
 72
     1
  1
\A1;5.5
 73
     1
 44
1.0
1001
ACAD
1000
MTEXTBEGIN
1070
    73
1070
     1
1070
    44
1040
1.0
1070
    74
1070
     0
1000
MTEXTEND
  0
POINT
  5
7964
330
767B
100
AcDbEntity
  8
DEFPOINTS
 62
     0
100
AcDbPoint
 10
190.7500061825142
 20
27.50000539641047
 30
0.0
  0
POINT
  5
7965
330
767B
100
AcDbEntity
  8
DEFPOINTS
 62
     0
100
AcDbPoint
 10
196.2500001825142
 20
37.50000684641043
 30
0.0
  0
POINT
  5
7966
330
767B
100
AcDbEntity
  8
DEFPOINTS
 62
     0
100
AcDbPoint
 10
196.2500001825142
 20
17.00000539641041
 30
0.0
  0
ENDBLK
  5
767D
330
767B
100
AcDbEntity
  8
0
100
AcDbBlockEnd
  0
BLOCK
  5
768A
330
7689
100
AcDbEntity
  8
0
100
AcDbBlockBegin
  2
*D17
 70
     1
 10
0.0
 20
0.0
 30
0.0
  3
*D17
  1

  0
LINE
  5
79EE
330
7689
100
AcDbEntity
  8
0
 62
   115
370
    -2
100
AcDbLine
 10
191.2500061825142
 20
27.00000539641048
 30
0.0
 11
215.2500001825142
 21
27.00000539641047
 31
0.0
  0
LINE
  5
79EF
330
7689
100
AcDbEntity
  8
0
 62
   115
370
    -2
100
AcDbLine
 10
190.7500061825142
 20
75.00000509641059
 30
0.0
 11
215.2500001825143
 21
75.00000509641059
 31
0.0
  0
LINE
  5
79F0
330
7689
100
AcDbEntity
  8
0
 62
   115
370
    -2
100
AcDbLine
 10
214.2500001825142
 20
30.00000539641047
 30
0.0
 11
214.2500001825142
 21
72.00000509641059
 31
0.0
  0
SOLID
  5
79F1
330
7689
100
AcDbEntity
  8
0
 62
   115
100
AcDbTrace
 10
213.7500001825142
 20
30.00000539641047
 30
0.0
 11
214.7500001825142
 21
30.00000539641047
 31
0.0
 12
214.2500001825142
 22
27.00000539641047
 32
0.0
 13
214.2500001825142
 23
27.00000539641047
 33
0.0
  0
SOLID
  5
79F2
330
7689
100
AcDbEntity
  8
0
 62
   115
100
AcDbTrace
 10
213.7500001825142
 20
72.00000509641059
 30
0.0
 11
214.7500001825143
 21
72.00000509641059
 31
0.0
 12
214.2500001825142
 22
75.00000509641059
 32
0.0
 13
214.2500001825142
 23
75.00000509641059
 33
0.0
  0
MTEXT
  5
79F3
330
7689
100
AcDbEntity
  8
0
 62
     7
100
AcDbMText
 10
211.7500001825142
 20
51.00000524641056
 30
0.0
 40
3.0
 41
0.0
 71
     5
 72
     1
  1
\A1;%%C48
 11
0.0000000000000001
 21
1.0
 31
0.0
 73
     1
 44
1.0
1001
ACAD
1000
MTEXTBEGIN
1070
    73
1070
     1
1070
    44
1040
1.0
1070
    74
1070
     0
1000
MTEXTEND
  0
POINT
  5
79F4
330
7689
100
AcDbEntity
  8
DEFPOINTS
 62
     0
100
AcDbPoint
 10
190.2500061825142
 20
27.00000539641048
 30
0.0
  0
POINT
  5
79F5
330
7689
100
AcDbEntity
  8
DEFPOINTS
 62
     0
100
AcDbPoint
 10
189.7500061825142
 20
75.00000509641059
 30
0.0
  0
POINT
  5
79F6
330
7689
100
AcDbEntity
  8
DEFPOINTS
 62
     0
100
AcDbPoint
 10
214.2500001825142
 20
75.00000509641059
 30
0.0
  0
ENDBLK
  5
768B
330
7689
100
AcDbEntity
  8
0
100
AcDbBlockEnd
  0
BLOCK
  5
7696
330
7695
100
AcDbEntity
  8
0
100
AcDbBlockBegin
  2
*D18
 70
     1
 10
0.0
 20
0.0
 30
0.0
  3
*D18
  1

  0
LINE
  5
775B
330
7695
100
AcDbEntity
  8
0
 62
   115
370
    -2
100
AcDbLine
 10
365.9552628584489
 20
66.38892724465273
 30
0.0
 11
387.2025458790187
 21
75.18984046314847
 31
0.0
  0
LINE
  5
775C
330
7695
100
AcDbEntity
  8
0
 62
   115
370
    -2
100
AcDbLine
 10
366.4559595813301
 20
75.2554587260035
 30
0.0
 11
384.1410788467302
 21
82.58087533399288
 31
0.0
  0
LINE
  5
775D
330
7695
100
AcDbEntity
  8
0
 62
   115
370
    -2
100
AcDbLine
 10
387.4267166978115
 20
72.03551843710204
 30
0.0
 11
388.574767042539
 21
69.26387985929808
 31
0.0
  0
LINE
  5
775E
330
7695
100
AcDbEntity
  8
0
 62
   115
370
    -2
100
AcDbLine
 10
382.069148976068
 20
84.96983046355433
 30
0.0
 11
380.9210986313406
 21
87.74146904135829
 31
0.0
  0
LINE
  5
775F
330
7695
100
AcDbEntity
  8
0
 62
   115
370
    -2
100
AcDbLine
 10
386.2786663530841
 20
74.80715701490598
 30
0.0
 11
383.2171993207956
 21
82.19819188575039
 31
0.0
  0
SOLID
  5
7760
330
7695
100
AcDbEntity
  8
0
 62
   115
100
AcDbTrace
 10
387.8886564607788
 20
72.2268601612233
 30
0.0
 11
386.9647769348442
 21
71.84417671298078
 31
0.0
 12
386.2786663530841
 22
74.80715701490598
 32
0.0
 13
386.2786663530841
 23
74.80715701490598
 33
0.0
  0
SOLID
  5
7761
330
7695
100
AcDbEntity
  8
0
 62
   115
100
AcDbTrace
 10
382.5310887390354
 20
85.1611721876756
 30
0.0
 11
381.6072092131007
 21
84.77848873943306
 31
0.0
 12
383.2171993207956
 22
82.19819188575039
 32
0.0
 13
383.2171993207956
 23
82.19819188575039
 33
0.0
  0
MTEXT
  5
7762
330
7695
100
AcDbEntity
  8
0
 62
     7
100
AcDbMText
 10
387.0576316517764
 20
79.45938307093445
 30
0.0
 40
3.0
 41
0.0
 71
     5
 72
     1
  1
\A1;8
 11
0.3826834482424942
 21
-0.9238795259346503
 31
0.0
 73
     1
 44
1.0
1001
ACAD
1000
MTEXTBEGIN
1070
    73
1070
     1
1070
    44
1040
1.0
1070
    74
1070
     0
1000
MTEXTEND
  0
POINT
  5
7763
330
7695
100
AcDbEntity
  8
DEFPOINTS
 62
     0
100
AcDbPoint
 10
365.0313833325142
 20
66.00624379641025
 30
0.0
  0
POINT
  5
7764
330
7695
100
AcDbEntity
  8
DEFPOINTS
 62
     0
100
AcDbPoint
 10
365.5320800553955
 20
74.87277527776098
 30
0.0
  0
POINT
  5
7765
330
7695
100
AcDbEntity
  8
DEFPOINTS
 62
     0
100
AcDbPoint
 10
383.2171993207956
 20
82.19819188575039
 30
0.0
  0
ENDBLK
  5
7697
330
7695
100
AcDbEntity
  8
0
100
AcDbBlockEnd
  0
BLOCK
  5
76A4
330
76A3
100
AcDbEntity
  8
0
100
AcDbBlockBegin
  2
*D19
 70
     1
 10
0.0
 20
0.0
 30
0.0
  3
*D19
  1

  0
LINE
  5
7766
330
76A3
100
AcDbEntity
  8
0
 62
   115
370
    -2
100
AcDbLine
 10
361.5872323842717
 20
74.32115932234498
 30
0.0
 11
357.7603983244715
 21
83.5599535613861
 31
0.0
  0
LINE
  5
7767
330
76A3
100
AcDbEntity
  8
0
 62
   115
370
    -2
100
AcDbLine
 10
356.0439558374264
 20
72.02505774549009
 30
0.0
 11
352.2171213747316
 21
81.26385295720471
 31
0.0
  0
LINE
  5
7768
330
76A3
100
AcDbEntity
  8
0
 62
   115
370
    -2
100
AcDbLine
 10
360.9147203505179
 20
83.7841243801788
 30
0.0
 11
363.6863589283219
 21
84.93217472490616
 31
0.0
  0
LINE
  5
7769
330
76A3
100
AcDbEntity
  8
0
 62
   115
370
    -2
100
AcDbLine
 10
349.8281662451701
 20
79.19192308654266
 30
0.0
 11
336.2339389349886
 21
73.56100949097504
 31
0.0
  0
LINE
  5
776A
330
76A3
100
AcDbEntity
  8
0
 62
   115
370
    -2
100
AcDbLine
 10
358.143081772714
 20
82.63607403545142
 30
0.0
 11
352.5998048229741
 21
80.33997343127003
 31
0.0
  0
SOLID
  5
776B
330
76A3
100
AcDbEntity
  8
0
 62
   115
100
AcDbTrace
 10
360.7233786263967
 20
84.24606414314613
 30
0.0
 11
361.1060620746392
 21
83.32218461721145
 31
0.0
 12
358.143081772714
 22
82.63607403545142
 32
0.0
 13
358.143081772714
 23
82.63607403545142
 33
0.0
  0
SOLID
  5
776C
330
76A3
100
AcDbEntity
  8
0
 62
   115
100
AcDbTrace
 10
349.6368245210489
 20
79.65386284950998
 30
0.0
 11
350.0195079692913
 21
78.72998332357531
 31
0.0
 12
352.5998048229741
 22
80.33997343127003
 32
0.0
 13
352.5998048229741
 23
80.33997343127003
 33
0.0
  0
MTEXT
  5
776D
330
76A3
100
AcDbEntity
  8
0
 62
     7
100
AcDbMText
 10
340.6885246805712
 20
78.11213993123181
 30
0.0
 40
3.0
 41
0.0
 71
     5
 72
     1
  1
\A1;M6x1
 11
0.9238795259346645
 21
0.3826834482424597
 31
0.0
 73
     1
 44
1.0
1001
ACAD
1000
MTEXTBEGIN
1070
    73
1070
     1
1070
    44
1040
1.0
1070
    74
1070
     0
1000
MTEXTEND
  0
POINT
  5
776E
330
76A3
100
AcDbEntity
  8
DEFPOINTS
 62
     0
100
AcDbPoint
 10
361.9699158325142
 20
73.39727979641032
 30
0.0
  0
POINT
  5
776F
330
76A3
100
AcDbEntity
  8
DEFPOINTS
 62
     0
100
AcDbPoint
 10
356.4266392856688
 20
71.10117821955542
 30
0.0
  0
POINT
  5
7770
330
76A3
100
AcDbEntity
  8
DEFPOINTS
 62
     0
100
AcDbPoint
 10
352.5998048229741
 20
80.33997343127003
 30
0.0
  0
ENDBLK
  5
76A5
330
76A3
100
AcDbEntity
  8
0
100
AcDbBlockEnd
  0
BLOCK
  5
76B2
330
76B1
100
AcDbEntity
  8
0
100
AcDbBlockBegin
  2
*D20
 70
     1
 10
0.0
 20
0.0
 30
0.0
  3
*D20
  1

  0
LINE
  5
7771
330
76B1
100
AcDbEntity
  8
0
 62
   115
370
    -2
100
AcDbLine
 10
368.0000000325142
 20
79.00000059641036
 30
0.0
 11
368.0000000325141
 21
94.0000005964103
 31
0.0
  0
LINE
  5
7772
330
76B1
100
AcDbEntity
  8
0
 62
   115
370
    -2
100
AcDbLine
 10
357.667547358657
 20
75.9447479742149
 30
0.0
 11
351.5446124408155
 21
90.72682049439572
 31
0.0
  0
ARC
  5
7773
330
76B1
100
AcDbEntity
  8
0
 62
   115
370
    -2
100
AcDbCircle
 10
368.0000000325142
 20
51.00000059641025
 30
0.0
 40
42.00000000000004
100
AcDbArc
 50
81.81314760930977
 51
85.90657380465492
  0
ARC
  5
7774
330
76B1
100
AcDbEntity
  8
0
 62
   115
370
    -2
100
AcDbCircle
 10
368.0000000325142
 20
51.00000059641025
 30
0.0
 40
42.00000000000004
100
AcDbArc
 50
116.5934261953448
 51
120.6868523906899
  0
ARC
  5
7775
330
76B1
100
AcDbEntity
  8
0
 62
   115
370
    -2
100
AcDbCircle
 10
368.0000000325142
 20
51.00000059641025
 30
0.0
 40
42.00000000000004
100
AcDbArc
 50
90.00000000000007
 51
112.4999999999996
  0
SOLID
  5
7776
330
76B1
100
AcDbEntity
  8
0
 62
   115
100
AcDbTrace
 10
370.980229013864
 20
92.39317671856627
 30
0.0
 11
371.0159432995784
 21
93.39253875996865
 31
0.0
 12
368.0000000325141
 22
93.0000005964103
 32
0.0
 13
368.0000000325141
 23
93.0000005964103
 33
0.0
  0
SOLID
  5
7777
330
76B1
100
AcDbEntity
  8
0
 62
   115
100
AcDbTrace
 10
348.9907097657599
 20
89.01144741566701
 30
0.0
 11
349.4061447595289
 21
88.10182454548828
 31
0.0
 12
351.9272958731806
 22
89.80294096188444
 32
0.0
 13
351.9272958731806
 23
89.80294096188444
 33
0.0
  0
MTEXT
  5
7778
102
{ACAD_XDICTIONARY
360
7BB1
102
}
330
76B1
100
AcDbEntity
  8
0
 62
     7
100
AcDbMText
 10
359.3184807027966
 20
94.64494557435408
 30
0.0
 40
3.0
 41
0.0
 71
     5
 72
     1
  1
\A1;22.5\U+00B0
 11
0.9807852804032309
 21
0.1950903220161254
 31
0.0
 73
     1
 44
1.0
1001
ACAD
1000
MTEXTBEGIN
1070
    73
1070
     1
1070
    44
1040
1.0
1070
    74
1070
     0
1000
MTEXTEND
  0
POINT
  5
7779
330
76B1
100
AcDbEntity
  8
DEFPOINTS
 62
     0
100
AcDbPoint
 10
362.517899959272
 20
92.64068477411035
 30
0.0
  0
POINT
  5
777A
330
76B1
100
AcDbEntity
  8
DEFPOINTS
 62
     0
100
AcDbPoint
 10
358.050230791022
 20
75.02086844170363
 30
0.0
  0
POINT
  5
777B
330
76B1
100
AcDbEntity
  8
DEFPOINTS
 62
     0
100
AcDbPoint
 10
368.0000000325142
 20
24.00000059641036
 30
0.0
  0
POINT
  5
777C
330
76B1
100
AcDbEntity
  8
DEFPOINTS
 62
     0
100
AcDbPoint
 10
368.0000000325141
 20
78.00000059641035
 30
0.0
  0
POINT
  5
777D
330
76B1
100
AcDbEntity
  8
DEFPOINTS
 62
     0
100
AcDbPoint
 10
366.1631190006647
 20
55.43462369596721
 30
0.0
  0
ENDBLK
  5
76B3
330
76B1
100
AcDbEntity
  8
0
100
AcDbBlockEnd
  0
BLOCK
  5
7826
330
7825
100
AcDbEntity
  8
0
100
AcDbBlockBegin
  2
1605SDK
 70
     0
 10
0.0
 20
0.0
 30
0.0
  3
1605SDK
  1

  0
TEXT
  5
7A69
330
7825
100
AcDbEntity
  8
0
100
AcDbText
 10
150.7261935087047
 20
149.0000052464104
 30
0.0
 40
4.0
  1
SDK1605
 72
     4
 11
164.2500030325142
 21
151.0000052464104
 31
0.0
100
AcDbText
  0
LINE
  5
7A6A
330
7825
100
AcDbEntity
  8
0
100
AcDbLine
 10
181.7500061825142
 20
175.0000050964106
 30
0.0
 11
181.7500061825142
 21
164.2664997578313
 31
0.0
  0
LINE
  5
7A6B
330
7825
100
AcDbEntity
  8
0
100
AcDbLine
 10
181.7500061825142
 20
137.7335014349887
 30
0.0
 11
181.7500061825142
 21
127.0000053964104
 31
0.0
  0
LINE
  5
7A6C
330
7825
100
AcDbEntity
  8
0
100
AcDbLine
 10
180.7500061825142
 20
174.0000050964106
 30
0.0
 11
180.7500061825142
 21
128.0000053964104
 31
0.0
  0
LINE
  5
7A6D
330
7825
100
AcDbEntity
  8
0
100
AcDbLine
 10
148.3500059825141
 20
137.0000158464105
 30
0.0
 11
148.3500059825141
 21
165.0000080464105
 31
0.0
  0
LINE
  5
7A6E
330
7825
100
AcDbEntity
  8
0
100
AcDbLine
 10
195.7500001825142
 20
137.0000068464105
 30
0.0
 11
195.7500001825142
 21
165.0000019464105
 31
0.0
  0
LINE
  5
7A6F
330
7825
100
AcDbEntity
  8
0
100
AcDbLine
 10
190.7500061825142
 20
174.0000050964106
 30
0.0
 11
190.7500061825142
 21
128.0000053964105
 31
0.0
  0
LINE
  5
7A70
330
7825
100
AcDbEntity
  8
0
100
AcDbLine
 10
189.7500061825142
 20
127.0000053964105
 30
0.0
 11
189.7500061825142
 21
137.7335014349887
 31
0.0
  0
LINE
  5
7A71
330
7825
100
AcDbEntity
  8
0
100
AcDbLine
 10
189.7500061825143
 20
164.2664997578313
 30
0.0
 11
189.7500061825143
 21
175.0000050964106
 31
0.0
  0
LINE
  5
7A72
330
7825
100
AcDbEntity
  8
0
100
AcDbLine
 10
148.3500059825141
 20
165.0000080464105
 30
0.0
 11
147.7499998825142
 21
164.4000019464105
 31
0.0
  0
LINE
  5
7A73
330
7825
100
AcDbEntity
  8
0
100
AcDbLine
 10
147.7499998825142
 20
164.4000019464105
 30
0.0
 11
147.7499998825142
 21
137.6000068464104
 31
0.0
  0
LINE
  5
7A74
330
7825
100
AcDbEntity
  8
0
100
AcDbLine
 10
147.7499998825142
 20
137.6000068464104
 30
0.0
 11
148.3499908825143
 21
137.0000158464104
 31
0.0
  0
LINE
  5
7A75
330
7825
100
AcDbEntity
  8
0
100
AcDbLine
 10
148.3499908825143
 20
137.0000158464104
 30
0.0
 11
180.7500001825142
 21
137.0000158464104
 31
0.0
  0
LINE
  5
7A76
330
7825
100
AcDbEntity
  8
0
100
AcDbLine
 10
181.7500061825142
 20
127.0000053964104
 30
0.0
 11
189.7500061825142
 21
127.0000053964105
 31
0.0
  0
LINE
  5
7A77
330
7825
100
AcDbEntity
  8
0
100
AcDbLine
 10
190.7500001825142
 20
137.0000068464105
 30
0.0
 11
195.7500001825142
 21
137.0000068464105
 31
0.0
  0
LINE
  5
7A78
330
7825
100
AcDbEntity
  8
0
100
AcDbLine
 10
195.7500001825142
 20
137.0000068464105
 30
0.0
 11
196.2500001825143
 21
137.5000068464104
 31
0.0
  0
LINE
  5
7A79
330
7825
100
AcDbEntity
  8
0
100
AcDbLine
 10
196.2500001825143
 20
137.5000068464104
 30
0.0
 11
196.2500001825143
 21
164.5000019464105
 31
0.0
  0
LINE
  5
7A7A
330
7825
100
AcDbEntity
  8
0
100
AcDbLine
 10
196.2500001825143
 20
164.5000019464105
 30
0.0
 11
195.7500001825142
 21
165.0000019464105
 31
0.0
  0
LINE
  5
7A7B
330
7825
100
AcDbEntity
  8
0
100
AcDbLine
 10
195.7500001825142
 20
165.0000019464105
 30
0.0
 11
190.7500001825142
 21
165.0000019464105
 31
0.0
  0
LINE
  5
7A7C
330
7825
100
AcDbEntity
  8
0
100
AcDbLine
 10
189.7500061825142
 20
175.0000050964106
 30
0.0
 11
181.7500061825142
 21
175.0000050964106
 31
0.0
  0
LINE
  5
7A7D
330
7825
100
AcDbEntity
  8
0
100
AcDbLine
 10
180.7500001825142
 20
165.0000080464105
 30
0.0
 11
148.3500059825141
 21
165.0000080464105
 31
0.0
  0
ELLIPSE
  5
7A7E
330
7825
100
AcDbEntity
  8
9
100
AcDbEllipse
 10
185.7500061825142
 20
172.2492284839321
 30
0.0
 11
2.999463687718955
 21
-0.0000000000000945
 31
0.0
210
0.0
220
0.0
230
-1.0
 40
0.3827521957271129
 41
3.141592653589758
 42
7.853981633974454
  0
ELLIPSE
  5
7A7F
330
7825
100
AcDbEntity
  8
0
100
AcDbEllipse
 10
185.7500061825142
 20
172.2491009839321
 30
0.0
 11
-2.499554249533093
 21
-0.0000000000001227
 31
0.0
210
0.0
220
0.0
230
-1.0
 40
0.3828033789051975
 41
0.0
 42
6.283185307179584
  0
LINE
  5
7A80
330
7825
100
AcDbEntity
  8
0
100
AcDbLine
 10
180.7500061825142
 20
137.7335014349887
 30
0.0
 11
190.7500061825142
 21
137.7335014349887
 31
0.0
  0
LINE
  5
7A81
330
7825
100
AcDbEntity
  8
0
100
AcDbLine
 10
180.7500061825142
 20
164.2664997578313
 30
0.0
 11
190.7500061825142
 21
164.2664997578313
 31
0.0
  0
LINE
  5
7A82
330
7825
100
AcDbEntity
  8
9
100
AcDbLine
 10
180.7500061825142
 20
137.7335014349887
 30
0.0
 11
190.7500061825142
 21
164.2664997578313
 31
0.0
  0
LINE
  5
7A83
330
7825
100
AcDbEntity
  8
9
100
AcDbLine
 10
180.7500061825142
 20
164.2664997578313
 30
0.0
 11
190.7500061825142
 21
137.7335014349887
 31
0.0
  0
LINE
  5
7A84
330
7825
100
AcDbEntity
  8
2
100
AcDbLine
 10
147.7499998825142
 20
158.8000005964104
 30
0.0
 11
196.2500001825143
 21
158.8000005964104
 31
0.0
  0
LINE
  5
7A85
330
7825
100
AcDbEntity
  8
2
100
AcDbLine
 10
196.2500001825143
 20
143.2000005964103
 30
0.0
 11
147.7499998825142
 21
143.2000005964103
 31
0.0
  0
LINE
  5
7A86
330
7825
100
AcDbEntity
  8
0
100
AcDbLine
 10
180.7500061825142
 20
174.0000050964106
 30
0.0
 11
181.7500061825142
 21
175.0000050964106
 31
0.0
  0
LINE
  5
7A87
330
7825
100
AcDbEntity
  8
0
100
AcDbLine
 10
190.7500061825142
 20
174.0000050964106
 30
0.0
 11
189.7500061825142
 21
175.0000050964106
 31
0.0
  0
LINE
  5
7A88
330
7825
100
AcDbEntity
  8
0
100
AcDbLine
 10
181.7500061825142
 20
127.0000053964104
 30
0.0
 11
180.7500061825142
 21
128.0000053964104
 31
0.0
  0
LINE
  5
7A89
330
7825
100
AcDbEntity
  8
0
100
AcDbLine
 10
189.7500061825142
 20
127.0000053964105
 30
0.0
 11
190.7500061825142
 21
128.0000053964105
 31
0.0
  0
ENDBLK
  5
7827
330
7825
100
AcDbEntity
  8
0
100
AcDbBlockEnd
  0
ENDSEC
  0
SECTION
  2
ENTITIES
  0
LINE
  5
75AA
330
19
100
AcDbEntity
  8
1
100
AcDbLine
 10
19.0000000325142
 20
51.00000059641036
 30
0.0
 11
325.0000000325142
 21
51.00000059641036
 31
0.0
  0
DIMENSION
  5
75AB
330
19
100
AcDbEntity
  8
0
100
AcDbDimension
  2
*D3
 10
12.00000003251398
 20
57.35000059641039
 30
0.0
 11
9.500000032513971
 21
67.27857202498181
 31
0.0
 70
    32
  1
%%C<>
 71
     5
 42
12.69999999999999
  3
STANDARD
100
AcDbAlignedDimension
 13
22.00000003251415
 23
44.65000059641039
 33
0.0
 14
22.00000003251421
 24
57.35000059641038
 34
0.0
 50
90.0
100
AcDbRotatedDimension
1001
ACAD
1000
DSTYLE
1002
{
1070
    41
1040
3.0
1070
    42
1040
1.0
1070
    43
1040
1.0
1070
    44
1040
1.0
1070
    73
1070
     0
1070
    74
1070
     0
1070
    77
1070
     3
1070
    78
1070
     8
1070
   141
1040
-1.0
1070
   147
1040
1.0
1070
   172
1070
     1
1070
   176
1070
   115
1070
   177
1070
   115
1070
   178
1070
     7
1070
   271
1070
     2
1070
   272
1070
     2
1002
}
  0
DIMENSION
  5
75AC
330
19
100
AcDbEntity
  8
0
100
AcDbDimension
  2
*D4
 10
4.00000003251398
 20
58.80000059641043
 30
0.0
 11
1.50000003251397
 21
51.0000005964104
 31
0.0
 70
    32
  1
%%C<>
 71
     5
 42
15.60000000000008
  3
STANDARD
100
AcDbAlignedDimension
 13
22.00000003251415
 23
43.20000059641034
 33
0.0
 14
22.00000003251421
 24
58.80000059641043
 34
0.0
 50
90.0
100
AcDbRotatedDimension
1001
ACAD
1000
DSTYLE
1002
{
1070
    41
1040
3.0
1070
    42
1040
1.0
1070
    43
1040
1.0
1070
    44
1040
1.0
1070
    73
1070
     0
1070
    74
1070
     0
1070
    77
1070
     3
1070
    78
1070
     8
1070
   141
1040
-1.0
1070
   147
1040
1.0
1070
   172
1070
     1
1070
   176
1070
   115
1070
   177
1070
   115
1070
   178
1070
     7
1070
   271
1070
     2
1070
   272
1070
     2
1002
}
  0
DIMENSION
  5
75AD
330
19
100
AcDbEntity
  8
0
100
AcDbDimension
  2
*D5
 10
137.7499998825141
 20
65.00000804641047
 30
0.0
 11
134.4642855967998
 21
84.50000804641048
 31
0.0
 70
    32
  1
%%C<> g6 ({\H0.5x;\S-0.007^ -0.020;})
 71
     5
 42
27.99999219999999
  3
STANDARD
100
AcDbAlignedDimension
 13
148.3499908825143
 23
37.00001584641048
 33
0.0
 14
148.3500059825141
 24
65.00000804641047
 34
0.0
 50
90.0
100
AcDbRotatedDimension
1001
ACAD
1000
DSTYLE
1002
{
1070
   998
1000
1,1,-0.007,-0.02,0,0,2,H7,g6,256
1070
    48
1040
0.02
1070
    47
1040
-0.007
1070
    71
1070
     0
1070
    72
1070
     0
1070
   284
1070
     8
1070
   283
1070
     1
1070
   146
1040
1.0
1070
     3
1000

1070
    41
1040
3.0
1070
    42
1040
1.0
1070
    43
1040
1.0
1070
    44
1040
1.0
1070
    73
1070
     0
1070
    74
1070
     0
1070
    77
1070
     3
1070
    78
1070
     8
1070
   141
1040
-1.0
1070
   147
1040
1.0
1070
   172
1070
     1
1070
   176
1070
   115
1070
   177
1070
   115
1070
   178
1070
     7
1070
   271
1070
     2
1070
   272
1070
     3
1002
}
  0
DIMENSION
  5
75AE
330
19
100
AcDbEntity
  8
0
100
AcDbDimension
  2
*D6
 10
147.7499998825142
 20
17.00000539641041
 30
0.0
 11
164.2500030325142
 21
19.50000539641041
 31
0.0
 70
    32
 71
     5
 42
33.00000629999999
  3
STANDARD
100
AcDbAlignedDimension
 13
180.7500061825142
 23
27.50000539641042
 33
0.0
 14
147.7499998825142
 24
37.60000684641045
 34
0.0
100
AcDbRotatedDimension
1001
ACAD
1000
DSTYLE
1002
{
1070
    41
1040
3.0
1070
    42
1040
1.0
1070
    43
1040
1.0
1070
    44
1040
1.0
1070
    47
1040
1.0
1070
    48
1040
1.0
1070
    73
1070
     0
1070
    74
1070
     0
1070
    77
1070
     3
1070
    78
1070
     8
1070
   141
1040
-1.0
1070
   147
1040
1.0
1070
   172
1070
     1
1070
   176
1070
   115
1070
   177
1070
   115
1070
   178
1070
     7
1070
   271
1070
     2
1070
   272
1070
     3
1070
   284
1070
     8
1002
}
  0
DIMENSION
  5
75AF
330
19
100
AcDbEntity
  8
0
100
AcDbDimension
  2
*D7
 10
190.7500061825142
 20
17.00000539641041
 30
0.0
 11
185.7500061825142
 21
19.50000539641041
 31
0.0
 70
    32
 71
     5
 42
10.00000000000003
  3
STANDARD
100
AcDbAlignedDimension
 13
180.7500061825142
 23
27.50000539641042
 33
0.0
 14
190.7500061825142
 24
27.50000539641047
 34
0.0
100
AcDbRotatedDimension
1001
ACAD
1000
DSTYLE
1002
{
1070
    41
1040
3.0
1070
    42
1040
1.0
1070
    43
1040
1.0
1070
    44
1040
1.0
1070
    73
1070
     0
1070
    74
1070
     0
1070
    77
1070
     3
1070
    78
1070
     8
1070
   141
1040
-1.0
1070
   147
1040
1.0
1070
   172
1070
     1
1070
   176
1070
   115
1070
   177
1070
   115
1070
   178
1070
     7
1070
   271
1070
     2
1070
   272
1070
     2
1002
}
  0
DIMENSION
  5
75B0
330
19
100
AcDbEntity
  8
0
100
AcDbDimension
  2
*D8
 10
196.2500001825142
 20
9.000005396410415
 30
0.0
 11
172.0000000325142
 21
11.50000539641041
 31
0.0
 70
    32
 71
     5
 42
48.50000030000003
  3
STANDARD
100
AcDbAlignedDimension
 13
147.7499998825142
 23
37.60000684641045
 33
0.0
 14
196.2500001825142
 24
37.50000684641043
 34
0.0
100
AcDbRotatedDimension
1001
ACAD
1000
DSTYLE
1002
{
1070
    41
1040
3.0
1070
    42
1040
1.0
1070
    43
1040
1.0
1070
    44
1040
1.0
1070
    47
1040
1.0
1070
    48
1040
1.0
1070
    73
1070
     0
1070
    74
1070
     0
1070
    77
1070
     3
1070
    78
1070
     8
1070
   141
1040
-1.0
1070
   147
1040
1.0
1070
   172
1070
     1
1070
   176
1070
   115
1070
   177
1070
   115
1070
   178
1070
     7
1070
   271
1070
     2
1070
   272
1070
     3
1070
   284
1070
     8
1002
}
  0
DIMENSION
  5
75B1
330
19
100
AcDbEntity
  8
0
100
AcDbDimension
  2
*D9
 10
388.0000000325145
 20
1.000000596410359
 30
0.0
 11
368.0000000325143
 21
3.500000596410359
 31
0.0
 70
    32
 71
     5
 42
40.00000000000028
  3
STANDARD
100
AcDbAlignedDimension
 13
348.0000000325142
 23
37.73350143498874
 33
0.0
 14
388.0000000325145
 24
37.73350143498925
 34
0.0
100
AcDbRotatedDimension
1001
ACAD
1000
DSTYLE
1002
{
1070
    41
1040
3.0
1070
    42
1040
1.0
1070
    43
1040
1.0
1070
    44
1040
1.0
1070
    73
1070
     0
1070
    74
1070
     0
1070
    77
1070
     3
1070
    78
1070
     8
1070
   141
1040
-1.0
1070
   147
1040
1.0
1070
   172
1070
     1
1070
   176
1070
   115
1070
   177
1070
   115
1070
   178
1070
     7
1070
   271
1070
     2
1070
   272
1070
     2
1002
}
  0
DIMENSION
  5
75B2
330
19
100
AcDbEntity
  8
0
100
AcDbDimension
  2
*D10
 10
358.6308319144683
 20
41.63083519810141
 30
0.0
 11
368.0000000325142
 21
19.49719484661165
 31
0.0
 70
    34
 71
     5
 42
1.570796617080788
  3
STANDARD
100
AcDb2LineAngularDimension
 13
385.5008973144683
 23
33.49910839471915
 33
0.0
 14
377.3691681505601
 24
41.63083519810141
 34
0.0
 15
350.4991027505602
 25
33.49910839471915
 35
0.0
 16
359.1994247285108
 26
18.1558127821698
 36
0.0
1001
ACAD
1000
DSTYLE
1002
{
1070
    41
1040
3.0
1070
    42
1040
1.0
1070
    43
1040
1.0
1070
    44
1040
1.0
1070
    73
1070
     0
1070
    74
1070
     0
1070
    77
1070
     3
1070
    78
1070
     8
1070
    79
1070
     2
1070
   141
1040
-1.0
1070
   147
1040
1.0
1070
   172
1070
     1
1070
   176
1070
   115
1070
   177
1070
   115
1070
   178
1070
     7
1070
   271
1070
     2
1070
   272
1070
     2
1002
}
  0
DIMENSION
  5
75B3
330
19
100
AcDbEntity
  8
0
100
AcDbDimension
  2
*D11
 10
338.0000000325141
 20
64.43502979641029
 30
0.0
 11
334.7142857467998
 21
51.00000079641035
 31
0.0
 70
    32
  1
(<>)
 71
     5
 42
26.87005799999998
  3
STANDARD
100
AcDbAlignedDimension
 13
354.5649673325142
 23
37.5649717964103
 33
0.0
 14
354.5649673325142
 24
64.43502979641028
 34
0.0
 50
90.0
100
AcDbRotatedDimension
1001
ACAD
1000
DSTYLE
1002
{
1070
    41
1040
3.0
1070
    42
1040
1.0
1070
    43
1040
1.0
1070
    44
1040
1.0
1070
    73
1070
     0
1070
    74
1070
     0
1070
    77
1070
     3
1070
    78
1070
     8
1070
   141
1040
-1.0
1070
   147
1040
1.0
1070
   172
1070
     1
1070
   176
1070
   115
1070
   177
1070
   115
1070
   178
1070
     7
1070
   271
1070
     2
1070
   272
1070
     2
1002
}
  0
DIMENSION
  5
75B4
330
19
100
AcDbEntity
  8
0
100
AcDbDimension
  2
*D12
 10
381.4350250325142
 20
9.000000596410359
 30
0.0
 11
367.9999961825142
 21
12.28571488212464
 31
0.0
 70
    32
  1
(<>)
 71
     5
 42
26.87005769999996
  3
STANDARD
100
AcDbAlignedDimension
 13
354.5649673325142
 23
37.5649717964103
 33
0.0
 14
381.4350250325142
 24
37.5649717964103
 34
0.0
100
AcDbRotatedDimension
1001
ACAD
1000
DSTYLE
1002
{
1070
    41
1040
3.0
1070
    42
1040
1.0
1070
    43
1040
1.0
1070
    44
1040
1.0
1070
    73
1070
     0
1070
    74
1070
     0
1070
    77
1070
     3
1070
    78
1070
     8
1070
   141
1040
-1.0
1070
   147
1040
1.0
1070
   172
1070
     1
1070
   176
1070
   115
1070
   177
1070
   115
1070
   178
1070
     7
1070
   271
1070
     2
1070
   272
1070
     2
1002
}
  0
DIMENSION
  5
75B5
330
19
100
AcDbEntity
  8
0
100
AcDbDimension
  2
*D13
 10
406.0000000325135
 20
69.99999813208063
 30
0.0
 11
403.5000000325134
 21
51.00000059641042
 31
0.0
 70
    32
  1
PCD <>
 71
     5
 42
37.99999507134055
  3
STANDARD
100
AcDbAlignedDimension
 13
368.0000000325142
 23
32.00000306074008
 33
0.0
 14
368.0000000325142
 24
69.99999813208063
 34
0.0
 50
90.0
100
AcDbRotatedDimension
1001
ACAD
1000
DSTYLE
1002
{
1070
    41
1040
3.0
1070
    42
1040
1.0
1070
    43
1040
1.0
1070
    44
1040
1.0
1070
    73
1070
     0
1070
    74
1070
     0
1070
    77
1070
     3
1070
    78
1070
     8
1070
   141
1040
-1.0
1070
   147
1040
1.0
1070
   172
1070
     1
1070
   176
1070
   115
1070
   177
1070
   115
1070
   178
1070
     7
1070
   271
1070
     2
1070
   272
1070
     2
1002
}
  0
DIMENSION
  5
75B6
330
19
100
AcDbEntity
  8
0
100
AcDbDimension
  2
*D14
 10
398.0000000325135
 20
67.18502979641027
 30
0.0
 11
395.5000000325135
 21
81.89931551069603
 31
0.0
 70
    32
  1
6-%%C<>
 71
     5
 42
5.5
  3
STANDARD
100
AcDbAlignedDimension
 13
381.4350250325142
 23
61.68502979641028
 33
0.0
 14
381.4350250325142
 24
67.18502979641027
 34
0.0
 50
90.0
100
AcDbRotatedDimension
1001
ACAD
1000
DSTYLE
1002
{
1070
    41
1040
3.0
1070
    42
1040
1.0
1070
    43
1040
1.0
1070
    44
1040
1.0
1070
    73
1070
     0
1070
    74
1070
     0
1070
    77
1070
     3
1070
    78
1070
     8
1070
   141
1040
-1.0
1070
   147
1040
1.0
1070
   172
1070
     1
1070
   176
1070
   115
1070
   177
1070
   115
1070
   178
1070
     7
1070
   271
1070
     2
1070
   272
1070
     2
1002
}
  0
INSERT
  5
75B7
330
19
100
AcDbEntity
  8
0
100
AcDbBlockReference
  2
A$C1CC36F42
 10
21.99999884958334
 20
43.20000013898618
 30
0.0
  0
INSERT
  5
75B9
330
19
100
AcDbEntity
  8
0
100
AcDbBlockReference
  2
A$C0B960A8E
 10
348.0000006030915
 20
27.02640263656866
 30
0.0
  0
LINE
  5
75BA
330
19
100
AcDbEntity
  8
1
100
AcDbLine
 10
368.0000000325142
 20
24.00000059641036
 30
0.0
 11
368.0000000325142
 21
78.00000059641035
 31
0.0
  0
LINE
  5
75BB
330
19
100
AcDbEntity
  8
1
100
AcDbLine
 10
345.0000000325142
 20
51.00000059641036
 30
0.0
 11
391.0000000325142
 21
51.0000005964103
 31
0.0
  0
LINE
  5
75BC
330
19
100
AcDbEntity
  8
1
100
AcDbLine
 10
350.4991027505602
 20
33.49910839471915
 30
0.0
 11
358.6308319144683
 21
41.63083519810141
 31
0.0
  0
LINE
  5
75BD
330
19
100
AcDbEntity
  8
1
100
AcDbLine
 10
385.5008973144683
 20
33.49910839471915
 30
0.0
 11
377.3691681505601
 21
41.63083519810141
 31
0.0
  0
LINE
  5
75BE
330
19
100
AcDbEntity
  8
1
100
AcDbLine
 10
350.4991027505602
 20
68.50089279810146
 30
0.0
 11
358.6308319144683
 21
60.36916599471919
 31
0.0
  0
LINE
  5
75BF
330
19
100
AcDbEntity
  8
1
100
AcDbLine
 10
385.5008973144683
 20
68.50089279810146
 30
0.0
 11
377.3691681505601
 21
60.36916599471919
 31
0.0
  0
CIRCLE
  5
75C0
330
19
100
AcDbEntity
  8
1
100
AcDbCircle
 10
368.0000000325142
 20
51.00000059641036
 30
0.0
 40
18.99999753567028
  0
LINE
  5
75C1
330
19
100
AcDbEntity
  8
1
100
AcDbLine
 10
179.7505424947952
 20
72.24910098393213
 30
0.0
 11
191.7494698702331
 21
72.24910098393213
 31
0.0
  0
LINE
  5
75C2
330
19
100
AcDbEntity
  8
1
100
AcDbLine
 10
185.7500061825142
 20
68.10104967145395
 30
0.0
 11
185.7500061825142
 21
76.3971522964103
 31
0.0
  0
DIMENSION
  5
75C3
330
19
100
AcDbEntity
  8
0
100
AcDbDimension
  2
*D15
 10
206.2500001825142
 20
65.00000194641052
 30
0.0
 11
202.9642858967999
 21
84.50000194641054
 31
0.0
 70
    32
  1
%%C<> g6 ({\H0.5x;\S-0.007^ -0.020;})
 71
     5
 42
27.99999509999998
  3
STANDARD
100
AcDbAlignedDimension
 13
195.7500001825142
 23
37.00000684641054
 33
0.0
 14
195.7500001825142
 24
65.00000194641052
 34
0.0
 50
90.0
100
AcDbRotatedDimension
1001
ACAD
1000
DSTYLE
1002
{
1070
   998
1000
1,1,-0.007,-0.02,0,0,2,H7,g6,256
1070
    47
1040
-0.007
1070
    71
1070
     0
1070
    72
1070
     0
1070
   283
1070
     1
1070
   146
1040
1.0
1070
     3
1000

1070
    41
1040
3.0
1070
    42
1040
1.0
1070
    43
1040
1.0
1070
    44
1040
1.0
1070
    48
1040
0.02
1070
    73
1070
     0
1070
    74
1070
     0
1070
    77
1070
     3
1070
    78
1070
     8
1070
   141
1040
-1.0
1070
   147
1040
1.0
1070
   172
1070
     1
1070
   176
1070
   115
1070
   177
1070
   115
1070
   178
1070
     7
1070
   271
1070
     2
1070
   272
1070
     3
1070
   284
1070
     8
1002
}
  0
DIMENSION
  5
75C5
330
19
100
AcDbEntity
  8
0
100
AcDbDimension
  2
*D16
 10
196.2500001825142
 20
17.00000539641041
 30
0.0
 11
206.3928573253714
 21
19.50000539641041
 31
0.0
 70
    32
 71
     5
 42
5.499994000000015
  3
STANDARD
100
AcDbAlignedDimension
 13
190.7500061825142
 23
27.50000539641047
 33
0.0
 14
196.2500001825142
 24
37.50000684641043
 34
0.0
100
AcDbRotatedDimension
1001
ACAD
1000
DSTYLE
1002
{
1070
    41
1040
3.0
1070
    42
1040
1.0
1070
    43
1040
1.0
1070
    44
1040
1.0
1070
    73
1070
     0
1070
    74
1070
     0
1070
    77
1070
     3
1070
    78
1070
     8
1070
   141
1040
-1.0
1070
   147
1040
1.0
1070
   172
1070
     1
1070
   176
1070
   115
1070
   177
1070
   115
1070
   178
1070
     7
1070
   271
1070
     2
1070
   272
1070
     2
1002
}
  0
DIMENSION
  5
75C6
330
19
100
AcDbEntity
  8
0
100
AcDbDimension
  2
*D17
 10
214.2500001825142
 20
75.00000509641059
 30
0.0
 11
211.7500001825142
 21
51.00000524641056
 31
0.0
 70
    32
  1
%%C<>
 71
     5
 42
47.99999970000011
  3
STANDARD
100
AcDbAlignedDimension
 13
190.2500061825142
 23
27.00000539641048
 33
0.0
 14
189.7500061825142
 24
75.00000509641059
 34
0.0
 50
90.0
100
AcDbRotatedDimension
1001
ACAD
1000
DSTYLE
1002
{
1070
   998
1000
1,1,-0.007,-0.02,0,0,2,H7,g6,256
1070
    47
1040
-0.007
1070
    71
1070
     0
1070
    72
1070
     0
1070
   283
1070
     1
1070
   146
1040
1.0
1070
     3
1000

1070
    41
1040
3.0
1070
    42
1040
1.0
1070
    43
1040
1.0
1070
    44
1040
1.0
1070
    48
1040
0.02
1070
    73
1070
     0
1070
    74
1070
     0
1070
    77
1070
     3
1070
    78
1070
     8
1070
   141
1040
-1.0
1070
   147
1040
1.0
1070
   172
1070
     1
1070
   176
1070
   115
1070
   177
1070
   115
1070
   178
1070
     7
1070
   271
1070
     2
1070
   272
1070
     3
1070
   284
1070
     8
1002
}
  0
DIMENSION
  5
75C7
330
19
100
AcDbEntity
  8
0
100
AcDbDimension
  2
*D18
 10
383.2171993207956
 20
82.19819188575039
 30
0.0
 11
387.0576316517764
 21
79.45938307093445
 31
0.0
 70
    32
 71
     5
 42
7.999998553239066
  3
STANDARD
100
AcDbAlignedDimension
 13
365.0313833325142
 23
66.00624379641022
 33
0.0
 14
365.5320800553955
 24
74.87277527776098
 34
0.0
 50
112.5000009846611
100
AcDbRotatedDimension
1001
ACAD
1000
DSTYLE
1002
{
1070
    41
1040
3.0
1070
    42
1040
1.0
1070
    43
1040
1.0
1070
    44
1040
1.0
1070
    73
1070
     0
1070
    74
1070
     0
1070
    77
1070
     3
1070
    78
1070
     8
1070
   141
1040
-1.0
1070
   147
1040
1.0
1070
   172
1070
     1
1070
   176
1070
   115
1070
   177
1070
   115
1070
   178
1070
     7
1070
   271
1070
     2
1070
   272
1070
     2
1002
}
  0
DIMENSION
  5
75C8
330
19
100
AcDbEntity
  8
0
100
AcDbDimension
  2
*D19
 10
352.5998048229741
 20
80.33997343127003
 30
0.0
 11
340.6885246805712
 21
78.11213993123181
 31
0.0
 70
    32
  1
M<>x1
 71
     5
 42
5.999999777169932
  3
STANDARD
100
AcDbAlignedDimension
 13
361.9699158325142
 23
73.39727979641032
 33
0.0
 14
356.4266392856689
 24
71.10117821955544
 34
0.0
 50
202.500000984659
100
AcDbRotatedDimension
1001
ACAD
1000
DSTYLE
1002
{
1070
    41
1040
3.0
1070
    42
1040
1.0
1070
    43
1040
1.0
1070
    44
1040
1.0
1070
    73
1070
     0
1070
    74
1070
     0
1070
    77
1070
     3
1070
    78
1070
     8
1070
   141
1040
-1.0
1070
   147
1040
1.0
1070
   172
1070
     1
1070
   176
1070
   115
1070
   177
1070
   115
1070
   178
1070
     7
1070
   271
1070
     2
1070
   272
1070
     2
1002
}
  0
LINE
  5
75C9
330
19
100
AcDbEntity
  8
1
100
AcDbLine
 10
358.050230791022
 20
75.02086844170361
 30
0.0
 11
366.1631190006647
 21
55.43462369596722
 31
0.0
  0
DIMENSION
  5
75CA
330
19
100
AcDbEntity
  8
0
100
AcDbDimension
  2
*D20
 10
366.1631190006647
 20
55.43462369596722
 30
0.0
 11
359.3184807027966
 21
94.64494557435406
 31
0.0
 70
    34
 71
     5
 42
0.392699081698717
  3
STANDARD
100
AcDb2LineAngularDimension
 13
368.0000000325142
 23
24.00000059641036
 33
0.0
 14
368.0000000325142
 24
78.00000059641035
 34
0.0
 15
358.050230791022
 25
75.02086844170361
 35
0.0
 16
362.517899959272
 26
92.64068477411035
 36
0.0
1001
ACAD
1000
DSTYLE
1002
{
1070
   179
1070
     1
1070
    41
1040
3.0
1070
    42
1040
1.0
1070
    43
1040
1.0
1070
    44
1040
1.0
1070
    73
1070
     0
1070
    74
1070
     0
1070
    77
1070
     3
1070
    78
1070
     8
1070
   141
1040
-1.0
1070
   147
1040
1.0
1070
   172
1070
     1
1070
   176
1070
   115
1070
   177
1070
   115
1070
   178
1070
     7
1070
   271
1070
     2
1070
   272
1070
     2
1002
}
  0
INSERT
  5
784F
330
19
100
AcDbEntity
  8
0
100
AcDbBlockReference
  2
1605SDK
 10
0.0
 20
-100.0
 30
0.0
  0
ENDSEC
  0
SECTION
  2
OBJECTS
  0
DICTIONARY
  5
C
330
0
100
AcDbDictionary
281
     1
  3
ACAD_CIP_PREVIOUS_PRODUCT_INFO
350
68B8
  3
ACAD_COLOR
350
6747
  3
ACAD_GROUP
350
D
  3
ACAD_LAYOUT
350
674A
  3
ACAD_MATERIAL
350
6746
  3
ACAD_MLEADERSTYLE
350
6846
  3
ACAD_MLINESTYLE
350
E
  3
ACAD_PLOTSETTINGS
350
674B
  3
ACAD_PLOTSTYLENAME
350
6744
  3
ACAD_SCALELIST
350
6824
  3
ACAD_TABLESTYLE
350
6748
  3
ACAD_VISUALSTYLE
350
6813
  3
ACDB_RECOMPOSE_DATA
350
7B71
  3
ACDBVARIABLEDICTIONARY
350
1BF
  3
AEC_PROPERTY_SET_DEFS
350
69F2
  3
DWGPROPS
350
7B72
  0
DICTIONARY
  5
718C
330
8
100
AcDbDictionary
280
     1
281
     1
  0
DICTIONARY
  5
78D5
330
2
100
AcDbDictionary
280
     1
281
     1
  3
ACAD_LAYERSTATES
360
78D6
  0
DICTIONARY
  5
6888
330
F
100
AcDbDictionary
280
     1
281
     1
  3
ADSK_XREC_LAYER_RECONCILED
360
6889
  0
DICTIONARY
  5
757E
330
757D
100
AcDbDictionary
280
     1
281
     1
  0
DICTIONARY
  5
7580
330
757F
100
AcDbDictionary
280
     1
281
     1
  0
DICTIONARY
  5
7582
330
7581
100
AcDbDictionary
280
     1
281
     1
  0
DICTIONARY
  5
6DCF
330
19
100
AcDbDictionary
280
     1
281
     1
  3
ACAD_SORTENTS
360
6DD0
  0
DICTIONARY
  5
74CA
330
74C9
100
AcDbDictionary
280
     1
281
     1
  3
ACAD_SORTENTS
360
74CB
  0
DICTIONARY
  5
7A10
330
7501
100
AcDbDictionary
280
     1
281
     1
  3
ACAD_SORTENTS
360
7A11
  0
DICTIONARY
  5
7A8A
330
7825
100
AcDbDictionary
280
     1
281
     1
  3
ACAD_SORTENTS
360
7A8B
  0
DICTIONARY
  5
7BAF
330
7707
100
AcDbDictionary
280
     1
281
     1
  3
ACAD_MTEXT_RT
360
7BB0
  0
DICTIONARY
  5
7BB1
330
7778
100
AcDbDictionary
280
     1
281
     1
  3
ACAD_MTEXT_RT
360
7BB2
  0
XRECORD
  5
68B8
102
{ACAD_REACTORS
330
C
102
}
330
C
100
AcDbXrecord
280
     1
300
ACDLT
300
2012
300
ACDLT_F_S
  0
DICTIONARY
  5
6747
102
{ACAD_REACTORS
330
C
102
}
330
C
100
AcDbDictionary
281
     1
  0
DICTIONARY
  5
D
102
{ACAD_REACTORS
330
C
102
}
330
C
100
AcDbDictionary
281
     1
  0
DICTIONARY
  5
674A
102
{ACAD_REACTORS
330
C
102
}
330
C
100
AcDbDictionary
281
     1
  3
Model
350
674C
  3
배치1
350
674D
  0
DICTIONARY
  5
6746
102
{ACAD_REACTORS
330
C
102
}
330
C
100
AcDbDictionary
281
     1
  3
ByBlock
350
6803
  3
ByLayer
350
67FB
  3
Global
350
680B
  0
DICTIONARY
  5
6846
102
{ACAD_REACTORS
330
C
102
}
330
C
100
AcDbDictionary
281
     1
  3
Standard
350
6847
  0
DICTIONARY
  5
E
102
{ACAD_REACTORS
330
C
102
}
330
C
100
AcDbDictionary
281
     1
  3
STANDARD
350
1C
  0
DICTIONARY
  5
674B
102
{ACAD_REACTORS
330
C
102
}
330
C
100
AcDbDictionary
281
     1
  0
ACDBDICTIONARYWDFLT
  5
6744
102
{ACAD_REACTORS
330
C
102
}
330
C
100
AcDbDictionary
281
     1
  3
Normal
350
6745
100
AcDbDictionaryWithDefault
340
6745
  0
DICTIONARY
  5
6824
102
{ACAD_REACTORS
330
C
102
}
330
C
100
AcDbDictionary
281
     1
  3
A0
350
6825
  3
A1
350
6826
  3
A2
350
6827
  3
A3
350
6828
  3
A4
350
6829
  3
A5
350
682A
  3
A6
350
682B
  3
A7
350
682C
  3
A8
350
682D
  3
A9
350
682E
  3
B0
350
682F
  3
B1
350
6830
  3
B2
350
6831
  3
B3
350
6832
  3
B4
350
6833
  3
B5
350
6834
  3
B6
350
6835
  3
B7
350
6836
  3
B8
350
6837
  3
B9
350
6838
  3
C0
350
6839
  3
C1
350
683A
  3
C2
350
683B
  3
C3
350
683C
  3
C4
350
683D
  3
C5
350
683E
  3
C6
350
683F
  3
C7
350
6840
  3
C8
350
6841
  3
C9
350
6842
  3
D0
350
6843
  3
D1
350
6844
  3
D2
350
6845
  0
DICTIONARY
  5
6748
102
{ACAD_REACTORS
330
C
102
}
330
C
100
AcDbDictionary
281
     1
  3
Standard
350
6749
  0
DICTIONARY
  5
6813
102
{ACAD_REACTORS
330
C
102
}
330
C
100
AcDbDictionary
281
     1
  3
2dWireframe
350
6819
  3
3D Hidden
350
681B
  3
3dWireframe
350
681A
  3
Basic
350
6818
  3
Brighten
350
681F
  3
ColorChange
350
6823
  3
Conceptual
350
681C
  3
Dim
350
681E
  3
EdgeColorOff
350
68B5
  3
Facepattern
350
6822
  3
Flat
350
6814
  3
FlatWithEdges
350
6815
  3
Gouraud
350
6816
  3
GouraudWithEdges
350
6817
  3
Hidden
350
68AD
  3
JitterOff
350
68B3
  3
Linepattern
350
6821
  3
OverhangOff
350
68B4
  3
Realistic
350
681D
  3
Shaded
350
68B2
  3
Shaded with edges
350
68B1
  3
Shades of Gray
350
68AE
  3
Sketchy
350
68AF
  3
Thicken
350
6820
  3
Wireframe
350
68AC
  3
X-Ray
350
68B0
  0
XRECORD
  5
7B71
102
{ACAD_REACTORS
330
C
102
}
330
C
100
AcDbXrecord
280
     1
 90
        1
330
6749
  0
DICTIONARY
  5
1BF
102
{ACAD_REACTORS
330
C
102
}
330
C
100
AcDbDictionary
281
     1
  3
CANNOSCALE
350
6895
  3
CMLEADERSTYLE
350
6894
  3
CTABLESTYLE
350
67DE
  3
DIMASSOC
350
67DF
  3
INDEXCTL
350
6896
  3
PROJECTNAME
350
67E0
  3
SORTENTS
350
1C0
  3
XCLIPFRAME
350
7B6F
  0
DICTIONARY
  5
69F2
102
{ACAD_REACTORS
330
C
102
}
330
C
100
AcDbDictionary
281
     1
  0
XRECORD
  5
7B72
102
{ACAD_REACTORS
330
C
102
}
330
C
100
AcDbXrecord
280
     1
  1
DWGPROPS COOKIE
  2

  3

  4

  6

  7

  8
woni
  9

300
=
301
=
302
=
303
=
304
=
305
=
306
=
307
=
308
=
309
=
 40
0.332463599537037
 41
2452464.575009942
 42
2456842.717059317
  1

 90
        0
  0
DICTIONARY
  5
78D6
102
{ACAD_REACTORS
330
78D5
102
}
330
78D5
100
AcDbDictionary
281
     1
  0
XRECORD
  5
6889
102
{ACAD_REACTORS
330
6888
102
}
330
6888
100
AcDbXrecord
280
     1
290
     1
  0
SORTENTSTABLE
  5
6DD0
102
{ACAD_REACTORS
330
6DCF
102
}
330
6DCF
100
AcDbSortentsTable
330
19
331
75AA
  5
75AA
331
75B2
  5
75B2
331
75BA
  5
7814
331
75C2
  5
781C
331
75CA
  5
7824
331
75AB
  5
75AB
331
75B3
  5
75B3
331
75BB
  5
7815
331
75C3
  5
781D
331
75AC
  5
75AC
331
75B4
  5
75B4
331
75BC
  5
7816
331
75AD
  5
75AD
331
75B5
  5
75B5
331
75BD
  5
7817
331
75C5
  5
781F
331
75AE
  5
75AE
331
75B6
  5
75B6
331
75BE
  5
7818
331
75C6
  5
7820
331
75AF
  5
75AF
331
75B7
  5
75B7
331
75BF
  5
7819
331
75C7
  5
7821
331
75B0
  5
75B0
331
75C0
  5
781A
331
75C8
  5
7822
331
75B1
  5
75B1
331
75C1
  5
781B
331
75B9
  5
7813
331
75C9
  5
7823
  0
SORTENTSTABLE
  5
74CB
102
{ACAD_REACTORS
330
74CA
102
}
330
74CA
100
AcDbSortentsTable
330
74C9
  0
SORTENTSTABLE
  5
7A11
102
{ACAD_REACTORS
330
7A10
102
}
330
7A10
100
AcDbSortentsTable
330
7501
331
7A06
  5
7A07
331
7A01
  5
7A01
331
79FC
  5
79FC
331
7A0E
  5
7A16
331
7A09
  5
7A0B
331
7A04
  5
7A04
331
79FF
  5
79FF
331
7A0C
  5
7A14
331
7A07
  5
7A08
331
7A02
  5
7A02
331
7A14
  5
7A0A
331
79FD
  5
79FD
331
7A0F
  5
7A17
331
7A0A
  5
7A0D
331
7A05
  5
7A05
331
7A00
  5
7A00
331
7A17
  5
7A06
331
79FB
  5
79FB
331
7A0D
  5
7A15
331
7A08
  5
7A09
331
7A03
  5
7A03
331
79FE
  5
79FE
331
7A0B
  5
7A0F
  0
SORTENTSTABLE
  5
7A8B
102
{ACAD_REACTORS
330
7A8A
102
}
330
7A8A
100
AcDbSortentsTable
330
7825
331
7A6D
  5
7A6E
331
7A6F
  5
7A70
331
7A71
  5
7A73
331
7A73
  5
7A75
331
7A75
  5
7A77
331
7A77
  5
7A79
331
7A79
  5
7A7B
331
7A7B
  5
7A7D
331
7A80
  5
7A84
331
7A7D
  5
7A81
331
7A82
  5
7A86
331
7A7F
  5
7A83
331
7A84
  5
7A88
331
7A86
  5
7A80
331
7A88
  5
7A6D
331
7A6E
  5
7A6F
331
7A70
  5
7A72
331
7A72
  5
7A74
331
7A74
  5
7A76
331
7A76
  5
7A78
331
7A78
  5
7A7A
331
7A7A
  5
7A7C
331
7A7C
  5
7A7E
331
7A81
  5
7A85
331
7A7E
  5
7A82
331
7A83
  5
7A87
331
7A85
  5
7A89
331
7A87
  5
7A7F
331
7A89
  5
7A71
  0
XRECORD
  5
7BB0
102
{ACAD_REACTORS
330
7BAF
102
}
330
7BAF
100
AcDbXrecord
280
     1
 40
5313.0
  1
\A1;90\U+00B0
  0
XRECORD
  5
7BB2
102
{ACAD_REACTORS
330
7BB1
102
}
330
7BB1
100
AcDbXrecord
280
     1
 40
6896.0
  1
\A1;22.5\U+00B0
  0
LAYOUT
  5
674C
102
{ACAD_XDICTIONARY
360
7B74
102
}
102
{ACAD_REACTORS
330
674A
102
}
330
674A
100
AcDbPlotSettings
  1

  2
\\문광휘\HP LaserJet 5100 PCL 6
  4

  6

 40
0.0
 41
0.0
 42
0.0
 43
0.0
 44
0.0
 45
0.0
 46
0.0
 47
0.0
 48
0.0
 49
0.0
140
0.0
141
0.0
142
1.0
143
1.0
 70
  1712
 72
     0
 73
     0
 74
     0
  7

 75
     0
147
1.0
148
0.0
149
0.0
100
AcDbLayout
  1
Model
 70
     1
 71
     0
 10
0.0
 20
0.0
 11
12.0
 21
9.0
 12
0.0
 22
0.0
 32
0.0
 14
0.0
 24
0.0
 34
0.0
 15
0.0
 25
0.0
 35
0.0
146
0.0
 13
0.0
 23
0.0
 33
0.0
 16
1.0
 26
0.0
 36
0.0
 17
0.0
 27
1.0
 37
0.0
 76
     0
330
19
331
67EE
  0
LAYOUT
  5
674D
102
{ACAD_XDICTIONARY
360
7B76
102
}
102
{ACAD_REACTORS
330
674A
102
}
330
674A
100
AcDbPlotSettings
  1

  2
\\문광휘\HP LaserJet 5100 PCL 6
  4

  6

 40
0.0
 41
0.0
 42
0.0
 43
0.0
 44
0.0
 45
0.0
 46
0.0
 47
0.0
 48
0.0
 49
0.0
140
0.0
141
0.0
142
1.0
143
1.0
 70
   688
 72
     0
 73
     0
 74
     5
  7

 75
    16
147
1.0
148
0.0
149
0.0
100
AcDbLayout
  1
배치1
 70
     1
 71
     1
 10
0.0
 20
0.0
 11
12.0
 21
9.0
 12
0.0
 22
0.0
 32
0.0
 14
1.000000000000000E+20
 24
1.000000000000000E+20
 34
1.000000000000000E+20
 15
-1.000000000000000E+20
 25
-1.000000000000000E+20
 35
-1.000000000000000E+20
146
0.0
 13
0.0
 23
0.0
 33
0.0
 16
1.0
 26
0.0
 36
0.0
 17
0.0
 27
1.0
 37
0.0
 76
     0
330
16
  0
MATERIAL
  5
6803
102
{ACAD_XDICTIONARY
360
6804
102
}
102
{ACAD_REACTORS
330
6746
102
}
330
6746
100
AcDbMaterial
  1
ByBlock
 72
     0
 43
0.0208333333333333
 43
0.0
 43
0.0
 43
0.0
 43
0.0
 43
0.0208333333333333
 43
0.0
 43
0.0
 43
0.0
 43
0.0
 43
1.0
 43
0.0
 43
0.0
 43
0.0
 43
0.0
 43
1.0
 77
     0
 47
0.0208333333333333
 47
0.0
 47
0.0
 47
0.0
 47
0.0
 47
0.0208333333333333
 47
0.0
 47
0.0
 47
0.0
 47
0.0
 47
1.0
 47
0.0
 47
0.0
 47
0.0
 47
0.0
 47
1.0
171
     0
 49
0.0208333333333333
 49
0.0
 49
0.0
 49
0.0
 49
0.0
 49
0.0208333333333333
 49
0.0
 49
0.0
 49
0.0
 49
0.0
 49
1.0
 49
0.0
 49
0.0
 49
0.0
 49
0.0
 49
1.0
175
     0
142
0.0208333333333333
142
0.0
142
0.0
142
0.0
142
0.0
142
0.0208333333333333
142
0.0
142
0.0
142
0.0
142
0.0
142
1.0
142
0.0
142
0.0
142
0.0
142
0.0
142
1.0
179
     0
144
0.0208333333333333
144
0.0
144
0.0
144
0.0
144
0.0
144
0.0208333333333333
144
0.0
144
0.0
144
0.0
144
0.0
144
1.0
144
0.0
144
0.0
144
0.0
144
0.0
144
1.0
147
0.0208333333333333
147
0.0
147
0.0
147
0.0
147
0.0
147
0.0208333333333333
147
0.0
147
0.0
147
0.0
147
0.0
147
1.0
147
0.0
147
0.0
147
0.0
147
0.0
147
1.0
  0
MATERIAL
  5
67FB
102
{ACAD_XDICTIONARY
360
67FC
102
}
102
{ACAD_REACTORS
330
6746
102
}
330
6746
100
AcDbMaterial
  1
ByLayer
 72
     0
 43
0.0208333333333333
 43
0.0
 43
0.0
 43
0.0
 43
0.0
 43
0.0208333333333333
 43
0.0
 43
0.0
 43
0.0
 43
0.0
 43
1.0
 43
0.0
 43
0.0
 43
0.0
 43
0.0
 43
1.0
 77
     0
 47
0.0208333333333333
 47
0.0
 47
0.0
 47
0.0
 47
0.0
 47
0.0208333333333333
 47
0.0
 47
0.0
 47
0.0
 47
0.0
 47
1.0
 47
0.0
 47
0.0
 47
0.0
 47
0.0
 47
1.0
171
     0
 49
0.0208333333333333
 49
0.0
 49
0.0
 49
0.0
 49
0.0
 49
0.0208333333333333
 49
0.0
 49
0.0
 49
0.0
 49
0.0
 49
1.0
 49
0.0
 49
0.0
 49
0.0
 49
0.0
 49
1.0
175
     0
142
0.0208333333333333
142
0.0
142
0.0
142
0.0
142
0.0
142
0.0208333333333333
142
0.0
142
0.0
142
0.0
142
0.0
142
1.0
142
0.0
142
0.0
142
0.0
142
0.0
142
1.0
179
     0
144
0.0208333333333333
144
0.0
144
0.0
144
0.0
144
0.0
144
0.0208333333333333
144
0.0
144
0.0
144
0.0
144
0.0
144
1.0
144
0.0
144
0.0
144
0.0
144
0.0
144
1.0
147
0.0208333333333333
147
0.0
147
0.0
147
0.0
147
0.0
147
0.0208333333333333
147
0.0
147
0.0
147
0.0
147
0.0
147
1.0
147
0.0
147
0.0
147
0.0
147
0.0
147
1.0
  0
MATERIAL
  5
680B
102
{ACAD_XDICTIONARY
360
680C
102
}
102
{ACAD_REACTORS
330
6746
102
}
330
6746
100
AcDbMaterial
  1
Global
 72
     0
 43
0.0208333333333333
 43
0.0
 43
0.0
 43
0.0
 43
0.0
 43
0.0208333333333333
 43
0.0
 43
0.0
 43
0.0
 43
0.0
 43
1.0
 43
0.0
 43
0.0
 43
0.0
 43
0.0
 43
1.0
 77
     0
 47
0.0208333333333333
 47
0.0
 47
0.0
 47
0.0
 47
0.0
 47
0.0208333333333333
 47
0.0
 47
0.0
 47
0.0
 47
0.0
 47
1.0
 47
0.0
 47
0.0
 47
0.0
 47
0.0
 47
1.0
171
     0
 49
0.0208333333333333
 49
0.0
 49
0.0
 49
0.0
 49
0.0
 49
0.0208333333333333
 49
0.0
 49
0.0
 49
0.0
 49
0.0
 49
1.0
 49
0.0
 49
0.0
 49
0.0
 49
0.0
 49
1.0
175
     0
142
0.0208333333333333
142
0.0
142
0.0
142
0.0
142
0.0
142
0.0208333333333333
142
0.0
142
0.0
142
0.0
142
0.0
142
1.0
142
0.0
142
0.0
142
0.0
142
0.0
142
1.0
179
     0
144
0.0208333333333333
144
0.0
144
0.0
144
0.0
144
0.0
144
0.0208333333333333
144
0.0
144
0.0
144
0.0
144
0.0
144
1.0
144
0.0
144
0.0
144
0.0
144
0.0
144
1.0
147
0.0208333333333333
147
0.0
147
0.0
147
0.0
147
0.0
147
0.0208333333333333
147
0.0
147
0.0
147
0.0
147
0.0
147
1.0
147
0.0
147
0.0
147
0.0
147
0.0
147
1.0
  0
MLEADERSTYLE
  5
6847
102
{ACAD_REACTORS
330
6846
102
}
330
6846
100
AcDbMLeaderStyle
170
     2
171
     1
172
     0
 90
        2
 40
0.0
 41
0.0
173
     1
 91
-1056964608
340
13
 92
       -2
290
     1
 42
0.09
291
     1
 43
0.36
  3
Standard
 44
0.18
300

342
10
174
     1
178
     6
175
     1
176
     0
 93
-1056964608
 45
0.18
292
     0
297
     0
 46
0.18
 94
-1056964608
 47
1.0
 49
1.0
140
1.0
293
     1
141
0.0
294
     1
177
     0
142
1.0
295
     0
296
     0
143
0.125
1001
ACAD_MLEADERVER
1070
     2
  0
MLINESTYLE
  5
1C
102
{ACAD_REACTORS
330
E
102
}
330
E
100
AcDbMlineStyle
  2
STANDARD
 70
     0
  3

 62
     0
 51
90.0
 52
90.0
 71
     2
 49
0.5
 62
   256
  6
BYLAYER
 49
-0.5
 62
   256
  6
BYLAYER
  0
ACDBPLACEHOLDER
  5
6745
102
{ACAD_REACTORS
330
6744
102
}
330
6744
  0
SCALE
  5
6825
102
{ACAD_REACTORS
330
6824
102
}
330
6824
100
AcDbScale
 70
     0
300
1:1
140
1.0
141
1.0
290
     1
  0
SCALE
  5
6826
102
{ACAD_REACTORS
330
6824
102
}
330
6824
100
AcDbScale
 70
     0
300
1:2
140
1.0
141
2.0
290
     0
  0
SCALE
  5
6827
102
{ACAD_REACTORS
330
6824
102
}
330
6824
100
AcDbScale
 70
     0
300
1:4
140
1.0
141
4.0
290
     0
  0
SCALE
  5
6828
102
{ACAD_REACTORS
330
6824
102
}
330
6824
100
AcDbScale
 70
     0
300
1:5
140
1.0
141
5.0
290
     0
  0
SCALE
  5
6829
102
{ACAD_REACTORS
330
6824
102
}
330
6824
100
AcDbScale
 70
     0
300
1:8
140
1.0
141
8.0
290
     0
  0
SCALE
  5
682A
102
{ACAD_REACTORS
330
6824
102
}
330
6824
100
AcDbScale
 70
     0
300
1:10
140
1.0
141
10.0
290
     0
  0
SCALE
  5
682B
102
{ACAD_REACTORS
330
6824
102
}
330
6824
100
AcDbScale
 70
     0
300
1:16
140
1.0
141
16.0
290
     0
  0
SCALE
  5
682C
102
{ACAD_REACTORS
330
6824
102
}
330
6824
100
AcDbScale
 70
     0
300
1:20
140
1.0
141
20.0
290
     0
  0
SCALE
  5
682D
102
{ACAD_REACTORS
330
6824
102
}
330
6824
100
AcDbScale
 70
     0
300
1:30
140
1.0
141
30.0
290
     0
  0
SCALE
  5
682E
102
{ACAD_REACTORS
330
6824
102
}
330
6824
100
AcDbScale
 70
     0
300
1:40
140
1.0
141
40.0
290
     0
  0
SCALE
  5
682F
102
{ACAD_REACTORS
330
6824
102
}
330
6824
100
AcDbScale
 70
     0
300
1:50
140
1.0
141
50.0
290
     0
  0
SCALE
  5
6830
102
{ACAD_REACTORS
330
6824
102
}
330
6824
100
AcDbScale
 70
     0
300
1:100
140
1.0
141
100.0
290
     0
  0
SCALE
  5
6831
102
{ACAD_REACTORS
330
6824
102
}
330
6824
100
AcDbScale
 70
     0
300
2:1
140
2.0
141
1.0
290
     0
  0
SCALE
  5
6832
102
{ACAD_REACTORS
330
6824
102
}
330
6824
100
AcDbScale
 70
     0
300
4:1
140
4.0
141
1.0
290
     0
  0
SCALE
  5
6833
102
{ACAD_REACTORS
330
6824
102
}
330
6824
100
AcDbScale
 70
     0
300
8:1
140
8.0
141
1.0
290
     0
  0
SCALE
  5
6834
102
{ACAD_REACTORS
330
6824
102
}
330
6824
100
AcDbScale
 70
     0
300
10:1
140
10.0
141
1.0
290
     0
  0
SCALE
  5
6835
102
{ACAD_REACTORS
330
6824
102
}
330
6824
100
AcDbScale
 70
     0
300
100:1
140
100.0
141
1.0
290
     0
  0
SCALE
  5
6836
102
{ACAD_REACTORS
330
6824
102
}
330
6824
100
AcDbScale
 70
     0
300
1/128" = 1'-0"
140
0.0078125
141
12.0
290
     0
  0
SCALE
  5
6837
102
{ACAD_REACTORS
330
6824
102
}
330
6824
100
AcDbScale
 70
     0
300
1/64" = 1'-0"
140
0.015625
141
12.0
290
     0
  0
SCALE
  5
6838
102
{ACAD_REACTORS
330
6824
102
}
330
6824
100
AcDbScale
 70
     0
300
1/32" = 1'-0"
140
0.03125
141
12.0
290
     0
  0
SCALE
  5
6839
102
{ACAD_REACTORS
330
6824
102
}
330
6824
100
AcDbScale
 70
     0
300
1/16" = 1'-0"
140
0.0625
141
12.0
290
     0
  0
SCALE
  5
683A
102
{ACAD_REACTORS
330
6824
102
}
330
6824
100
AcDbScale
 70
     0
300
3/32" = 1'-0"
140
0.09375
141
12.0
290
     0
  0
SCALE
  5
683B
102
{ACAD_REACTORS
330
6824
102
}
330
6824
100
AcDbScale
 70
     0
300
1/8" = 1'-0"
140
0.125
141
12.0
290
     0
  0
SCALE
  5
683C
102
{ACAD_REACTORS
330
6824
102
}
330
6824
100
AcDbScale
 70
     0
300
3/16" = 1'-0"
140
0.1875
141
12.0
290
     0
  0
SCALE
  5
683D
102
{ACAD_REACTORS
330
6824
102
}
330
6824
100
AcDbScale
 70
     0
300
1/4" = 1'-0"
140
0.25
141
12.0
290
     0
  0
SCALE
  5
683E
102
{ACAD_REACTORS
330
6824
102
}
330
6824
100
AcDbScale
 70
     0
300
3/8" = 1'-0"
140
0.375
141
12.0
290
     0
  0
SCALE
  5
683F
102
{ACAD_REACTORS
330
6824
102
}
330
6824
100
AcDbScale
 70
     0
300
1/2" = 1'-0"
140
0.5
141
12.0
290
     0
  0
SCALE
  5
6840
102
{ACAD_REACTORS
330
6824
102
}
330
6824
100
AcDbScale
 70
     0
300
3/4" = 1'-0"
140
0.75
141
12.0
290
     0
  0
SCALE
  5
6841
102
{ACAD_REACTORS
330
6824
102
}
330
6824
100
AcDbScale
 70
     0
300
1" = 1'-0"
140
1.0
141
12.0
290
     0
  0
SCALE
  5
6842
102
{ACAD_REACTORS
330
6824
102
}
330
6824
100
AcDbScale
 70
     0
300
1-1/2" = 1'-0"
140
1.5
141
12.0
290
     0
  0
SCALE
  5
6843
102
{ACAD_REACTORS
330
6824
102
}
330
6824
100
AcDbScale
 70
     0
300
3" = 1'-0"
140
3.0
141
12.0
290
     0
  0
SCALE
  5
6844
102
{ACAD_REACTORS
330
6824
102
}
330
6824
100
AcDbScale
 70
     0
300
6" = 1'-0"
140
6.0
141
12.0
290
     0
  0
SCALE
  5
6845
102
{ACAD_REACTORS
330
6824
102
}
330
6824
100
AcDbScale
 70
     0
300
1'-0" = 1'-0"
140
12.0
141
12.0
290
     0
  0
TABLESTYLE
  5
6749
102
{ACAD_XDICTIONARY
360
6897
102
}
102
{ACAD_REACTORS
330
6748
102
}
330
6748
100
AcDbTableStyle
  3
Standard
 70
     0
 71
     0
 40
0.06
 41
0.06
280
     0
281
     0
  7
STANDARD
140
0.18
170
     2
 62
     0
 63
     7
283
     0
274
    -2
284
     1
 64
     0
275
    -2
285
     1
 65
     0
276
    -2
286
     1
 66
     0
277
    -2
287
     1
 67
     0
278
    -2
288
     1
 68
     0
279
    -2
289
     1
 69
     0
  7
STANDARD
140
0.25
170
     5
 62
     0
 63
     7
283
     0
274
    -2
284
     1
 64
     0
275
    -2
285
     1
 65
     0
276
    -2
286
     1
 66
     0
277
    -2
287
     1
 67
     0
278
    -2
288
     1
 68
     0
279
    -2
289
     1
 69
     0
  7
STANDARD
140
0.18
170
     5
 62
     0
 63
     7
283
     0
274
    -2
284
     1
 64
     0
275
    -2
285
     1
 65
     0
276
    -2
286
     1
 66
     0
277
    -2
287
     1
 67
     0
278
    -2
288
     1
 68
     0
279
    -2
289
     1
 69
     0
  0
VISUALSTYLE
  5
6819
102
{ACAD_XDICTIONARY
360
7B85
102
}
102
{ACAD_REACTORS
330
6813
102
}
330
6813
100
AcDbVisualStyle
  2

 70
     4
 71
     0
 72
     2
 73
     0
 90
        0
 40
-0.6
 41
-30.0
 62
     5
 63
     7
 74
     1
 91
        4
 64
     7
 65
   257
 75
     1
175
     1
 42
1.0
 92
        0
 66
   257
 43
1.0
 76
     1
 77
     6
 78
     2
 67
     7
 79
     5
170
     0
171
     0
290
     0
174
     0
 93
        1
 44
0.0
173
     0
291
     0
 45
0.0
1001
ACAD
1000
AcDbSavedByObjectVersion
1070
     0
  0
VISUALSTYLE
  5
681B
102
{ACAD_XDICTIONARY
360
7B89
102
}
102
{ACAD_REACTORS
330
6813
102
}
330
6813
100
AcDbVisualStyle
  2

 70
     6
 71
     1
 72
     2
 73
     2
 90
        0
 40
-0.6
 41
-30.0
 62
     5
 63
     7
 74
     2
 91
        2
 64
     7
 65
   257
 75
     2
175
     1
 42
40.0
 92
        0
 66
   257
 43
1.0
 76
     1
 77
     6
 78
     2
 67
     7
 79
     3
170
     0
171
     0
290
     0
174
     0
 93
        1
 44
0.0
173
     0
291
     0
 45
0.0
1001
ACAD
1000
AcDbSavedByObjectVersion
1070
     0
  0
VISUALSTYLE
  5
681A
102
{ACAD_XDICTIONARY
360
7B87
102
}
102
{ACAD_REACTORS
330
6813
102
}
330
6813
100
AcDbVisualStyle
  2

 70
     5
 71
     0
 72
     2
 73
     0
 90
        0
 40
-0.6
 41
-30.0
 62
     5
 63
     7
 74
     1
 91
        4
 64
     7
 65
   257
 75
     1
175
     1
 42
1.0
 92
        0
 66
   257
 43
1.0
 76
     1
 77
     6
 78
     2
 67
     7
 79
     5
170
     0
171
     0
290
     0
174
     0
 93
        1
 44
0.0
173
     0
291
     0
 45
0.0
1001
ACAD
1000
AcDbSavedByObjectVersion
1070
     0
  0
VISUALSTYLE
  5
6818
102
{ACAD_XDICTIONARY
360
7B83
102
}
102
{ACAD_REACTORS
330
6813
102
}
330
6813
100
AcDbVisualStyle
  2

 70
     7
 71
     1
 72
     0
 73
     1
 90
        0
 40
-0.6
 41
-30.0
 62
     5
 63
     7
 74
     0
 91
        4
 64
     7
 65
   257
 75
     1
175
     1
 42
1.0
 92
        8
 66
     7
 43
1.0
 76
     1
 77
     6
 78
     2
 67
     7
 79
     5
170
     0
171
     0
290
     0
174
     0
 93
        1
 44
0.0
173
     0
291
     1
 45
0.0
1001
ACAD
1000
AcDbSavedByObjectVersion
1070
     0
  0
VISUALSTYLE
  5
681F
102
{ACAD_XDICTIONARY
360
7B91
102
}
102
{ACAD_REACTORS
330
6813
102
}
330
6813
100
AcDbVisualStyle
  2

 70
    12
 71
     2
 72
     2
 73
     0
 90
        0
 40
-0.6
 41
-30.0
 62
     5
 63
     7
 74
     1
 91
        4
 64
     7
 65
   257
 75
     1
175
     1
 42
1.0
 92
        8
 66
     7
 43
1.0
 76
     1
 77
     6
 78
     2
 67
     7
 79
     5
170
     0
171
     0
290
     0
174
     0
 93
        1
 44
50.0
173
     0
291
     1
 45
0.0
1001
ACAD
1000
AcDbSavedByObjectVersion
1070
     0
  0
VISUALSTYLE
  5
6823
102
{ACAD_XDICTIONARY
360
7B99
102
}
102
{ACAD_REACTORS
330
6813
102
}
330
6813
100
AcDbVisualStyle
  2

 70
    16
 71
     2
 72
     2
 73
     3
 90
        0
 40
-0.6
 41
-30.0
 62
     5
 63
     8
 74
     1
 91
        4
 64
     7
 65
   257
 75
     1
175
     1
 42
1.0
 92
        8
 66
     8
 43
1.0
 76
     1
 77
     6
 78
     2
 67
     7
 79
     5
170
     0
171
     0
290
     0
174
     0
 93
        1
 44
0.0
173
     0
291
     1
 45
0.0
1001
ACAD
1000
AcDbSavedByObjectVersion
1070
     0
  0
VISUALSTYLE
  5
681C
102
{ACAD_XDICTIONARY
360
7B8B
102
}
102
{ACAD_REACTORS
330
6813
102
}
330
6813
100
AcDbVisualStyle
  2

 70
     9
 71
     3
 72
     2
 73
     0
 90
        0
 40
-0.6
 41
-30.0
 62
     5
 63
     7
 74
     2
 91
        2
 64
     7
 65
   257
 75
     1
175
     1
 42
40.0
 92
        8
 66
     7
 43
1.0
 76
     1
 77
     6
 78
     2
 67
     7
 79
     3
170
     0
171
     0
290
     0
174
     0
 93
        1
 44
0.0
173
     0
291
     0
 45
0.0
1001
ACAD
1000
AcDbSavedByObjectVersion
1070
     0
  0
VISUALSTYLE
  5
681E
102
{ACAD_XDICTIONARY
360
7B8F
102
}
102
{ACAD_REACTORS
330
6813
102
}
330
6813
100
AcDbVisualStyle
  2

 70
    11
 71
     2
 72
     2
 73
     0
 90
        0
 40
-0.6
 41
-30.0
 62
     5
 63
     7
 74
     1
 91
        4
 64
     7
 65
   257
 75
     1
175
     1
 42
1.0
 92
        8
 66
     7
 43
1.0
 76
     1
 77
     6
 78
     2
 67
     7
 79
     5
170
     0
171
     0
290
     0
174
     0
 93
        1
 44
-50.0
173
     0
291
     1
 45
0.0
1001
ACAD
1000
AcDbSavedByObjectVersion
1070
     0
  0
VISUALSTYLE
  5
68B5
102
{ACAD_XDICTIONARY
360
7BAD
102
}
102
{ACAD_REACTORS
330
6813
102
}
330
6813
100
AcDbVisualStyle
  2
EdgeColorOff
 70
    22
 71
     2
 72
     2
 73
     0
 90
        0
 40
-0.6
 41
-30.0
 62
     5
 63
     7
 74
     1
 91
        4
 64
     7
 65
   257
 75
     1
175
     1
 42
1.0
 92
        8
 66
     7
 43
1.0
 76
     1
 77
     6
 78
     2
 67
     7
 79
     5
170
     0
171
     0
290
     0
174
     0
 93
        1
 44
0.0
173
     0
291
     1
 45
0.0
1001
ACAD
1000
AcDbSavedByObjectVersion
1070
     0
  0
VISUALSTYLE
  5
6822
102
{ACAD_XDICTIONARY
360
7B97
102
}
102
{ACAD_REACTORS
330
6813
102
}
330
6813
100
AcDbVisualStyle
  2

 70
    15
 71
     2
 72
     2
 73
     0
 90
        0
 40
-0.6
 41
-30.0
 62
     5
 63
     7
 74
     1
 91
        4
 64
     7
 65
   257
 75
     1
175
     1
 42
1.0
 92
        8
 66
     7
 43
1.0
 76
     1
 77
     6
 78
     2
 67
     7
 79
     5
170
     0
171
     0
290
     0
174
     0
 93
        1
 44
0.0
173
     0
291
     1
 45
0.0
1001
ACAD
1000
AcDbSavedByObjectVersion
1070
     0
  0
VISUALSTYLE
  5
6814
102
{ACAD_XDICTIONARY
360
7B7B
102
}
102
{ACAD_REACTORS
330
6813
102
}
330
6813
100
AcDbVisualStyle
  2

 70
     0
 71
     2
 72
     1
 73
     1
 90
        2
 40
-0.6
 41
30.0
 62
     5
 63
     7
 74
     0
 91
        4
 64
     7
 65
   257
 75
     1
175
     1
 42
1.0
 92
        8
 66
     7
 43
1.0
 76
     1
 77
     6
 78
     2
 67
     7
 79
     5
170
     0
171
     0
290
     0
174
     0
 93
       13
 44
0.0
173
     0
291
     1
 45
0.0
1001
ACAD
1000
AcDbSavedByObjectVersion
1070
     0
  0
VISUALSTYLE
  5
6815
102
{ACAD_XDICTIONARY
360
7B7D
102
}
102
{ACAD_REACTORS
330
6813
102
}
330
6813
100
AcDbVisualStyle
  2

 70
     1
 71
     2
 72
     1
 73
     1
 90
        2
 40
-0.6
 41
30.0
 62
     5
 63
     7
 74
     1
 91
        4
 64
     7
 65
   257
 75
     1
175
     1
 42
1.0
 92
        0
 66
   257
 43
1.0
 76
     1
 77
     6
 78
     2
 67
     7
 79
     5
170
     0
171
     0
290
     0
174
     0
 93
       13
 44
0.0
173
     0
291
     1
 45
0.0
1001
ACAD
1000
AcDbSavedByObjectVersion
1070
     0
  0
VISUALSTYLE
  5
6816
102
{ACAD_XDICTIONARY
360
7B7F
102
}
102
{ACAD_REACTORS
330
6813
102
}
330
6813
100
AcDbVisualStyle
  2

 70
     2
 71
     2
 72
     2
 73
     1
 90
        2
 40
-0.6
 41
30.0
 62
     5
 63
     7
 74
     0
 91
        4
 64
     7
 65
   257
 75
     1
175
     1
 42
1.0
 92
        0
 66
     7
 43
1.0
 76
     1
 77
     6
 78
     2
 67
     7
 79
     5
170
     0
171
     0
290
     0
174
     0
 93
       13
 44
0.0
173
     0
291
     1
 45
0.0
1001
ACAD
1000
AcDbSavedByObjectVersion
1070
     0
  0
VISUALSTYLE
  5
6817
102
{ACAD_XDICTIONARY
360
7B81
102
}
102
{ACAD_REACTORS
330
6813
102
}
330
6813
100
AcDbVisualStyle
  2

 70
     3
 71
     2
 72
     2
 73
     1
 90
        2
 40
-0.6
 41
30.0
 62
     5
 63
     7
 74
     1
 91
        4
 64
     7
 65
   257
 75
     1
175
     1
 42
1.0
 92
        0
 66
   257
 43
1.0
 76
     1
 77
     6
 78
     2
 67
     7
 79
     5
170
     0
171
     0
290
     0
174
     0
 93
       13
 44
0.0
173
     0
291
     1
 45
0.0
1001
ACAD
1000
AcDbSavedByObjectVersion
1070
     0
  0
VISUALSTYLE
  5
68AD
102
{ACAD_XDICTIONARY
360
7B9D
102
}
102
{ACAD_REACTORS
330
6813
102
}
330
6813
100
AcDbVisualStyle
  2
Hidden
 70
     6
 71
     1
 72
     2
 73
     2
 90
        0
 40
-0.6
 41
-30.0
 62
     5
 63
     7
 74
     2
 91
        2
 64
     7
 65
   257
 75
     2
175
     1
 42
40.0
 92
        0
 66
   257
 43
1.0
 76
     1
 77
     6
 78
     2
 67
     7
 79
     3
170
     0
171
     0
290
     0
174
     0
 93
        1
 44
0.0
173
     0
291
     0
 45
0.0
1001
ACAD
1000
AcDbSavedByObjectVersion
1070
     0
  0
VISUALSTYLE
  5
68B3
102
{ACAD_XDICTIONARY
360
7BA9
102
}
102
{ACAD_REACTORS
330
6813
102
}
330
6813
100
AcDbVisualStyle
  2
JitterOff
 70
    20
 71
     2
 72
     2
 73
     0
 90
        0
 40
-0.6
 41
-30.0
 62
     5
 63
     7
 74
     1
 91
        4
 64
     7
 65
   257
 75
     1
175
     1
 42
1.0
 92
       10
 66
     7
 43
1.0
 76
     1
 77
     6
 78
     2
 67
     7
 79
     5
170
     0
171
     0
290
     0
174
     0
 93
        1
 44
0.0
173
     0
291
     1
 45
0.0
1001
ACAD
1000
AcDbSavedByObjectVersion
1070
     0
  0
VISUALSTYLE
  5
6821
102
{ACAD_XDICTIONARY
360
7B95
102
}
102
{ACAD_REACTORS
330
6813
102
}
330
6813
100
AcDbVisualStyle
  2

 70
    14
 71
     2
 72
     2
 73
     0
 90
        0
 40
-0.6
 41
-30.0
 62
     5
 63
     7
 74
     1
 91
        4
 64
     7
 65
   257
 75
     7
175
     7
 42
1.0
 92
        8
 66
     7
 43
1.0
 76
     1
 77
     6
 78
     2
 67
     7
 79
     5
170
     0
171
     0
290
     0
174
     0
 93
        1
 44
0.0
173
     0
291
     1
 45
0.0
1001
ACAD
1000
AcDbSavedByObjectVersion
1070
     0
  0
VISUALSTYLE
  5
68B4
102
{ACAD_XDICTIONARY
360
7BAB
102
}
102
{ACAD_REACTORS
330
6813
102
}
330
6813
100
AcDbVisualStyle
  2
OverhangOff
 70
    21
 71
     2
 72
     2
 73
     0
 90
        0
 40
-0.6
 41
-30.0
 62
     5
 63
     7
 74
     1
 91
        4
 64
     7
 65
   257
 75
     1
175
     1
 42
1.0
 92
        9
 66
     7
 43
1.0
 76
     1
 77
     6
 78
     2
 67
     7
 79
     5
170
     0
171
     0
290
     0
174
     0
 93
        1
 44
0.0
173
     0
291
     1
 45
0.0
1001
ACAD
1000
AcDbSavedByObjectVersion
1070
     0
  0
VISUALSTYLE
  5
681D
102
{ACAD_XDICTIONARY
360
7B8D
102
}
102
{ACAD_REACTORS
330
6813
102
}
330
6813
100
AcDbVisualStyle
  2

 70
     8
 71
     2
 72
     2
 73
     0
 90
        0
 40
-0.6
 41
-30.0
 62
     5
 63
     7
 74
     1
 91
        0
 64
     7
 65
   257
 75
     1
175
     1
 42
1.0
 92
        8
 66
     8
 43
1.0
 76
     1
 77
     6
 78
     2
 67
     7
 79
     5
170
     0
171
     0
290
     0
174
     0
 93
       13
 44
0.0
173
     0
291
     0
 45
0.0
1001
ACAD
1000
AcDbSavedByObjectVersion
1070
     0
  0
VISUALSTYLE
  5
68B2
102
{ACAD_XDICTIONARY
360
7BA7
102
}
102
{ACAD_REACTORS
330
6813
102
}
330
6813
100
AcDbVisualStyle
  2
Shaded
 70
    27
 71
     2
 72
     2
 73
     1
 90
        2
 40
-0.6
 41
30.0
 62
     5
 63
     7
 74
     0
 91
        4
 64
     7
 65
   257
 75
     1
175
     1
 42
1.0
 92
        8
 66
   257
 43
1.0
 76
     1
 77
     6
 78
     2
 67
     8
 79
     3
170
     0
171
     0
290
     0
174
     0
 93
        5
 44
0.0
173
     0
291
     0
 45
0.0
1001
ACAD
1000
AcDbSavedByObjectVersion
1070
     0
  0
VISUALSTYLE
  5
68B1
102
{ACAD_XDICTIONARY
360
7BA5
102
}
102
{ACAD_REACTORS
330
6813
102
}
330
6813
100
AcDbVisualStyle
  2
Shaded with edges
 70
    26
 71
     2
 72
     2
 73
     1
 90
        2
 40
-0.6
 41
30.0
 62
     5
 63
     7
 74
     1
 91
       10
 64
     7
 65
   257
 75
     2
175
     1
 42
1.0
 92
        8
 66
   257
 43
1.0
 76
     1
 77
     6
 78
     2
 67
     7
 79
     3
170
     0
171
     0
290
     0
174
     0
 93
        5
 44
0.0
173
     0
291
     0
 45
0.0
1001
ACAD
1000
AcDbSavedByObjectVersion
1070
     0
  0
VISUALSTYLE
  5
68AE
102
{ACAD_XDICTIONARY
360
7B9F
102
}
102
{ACAD_REACTORS
330
6813
102
}
330
6813
100
AcDbVisualStyle
  2
Shades of Gray
 70
    23
 71
     2
 72
     2
 73
     3
 90
        0
 40
-0.6
 41
-30.0
 62
     5
 63
     7
 74
     2
 91
        2
 64
     7
 65
     7
 75
     1
175
     1
 42
40.0
 92
        8
 66
     7
 43
1.0
 76
     1
 77
     6
 78
     2
 67
     7
 79
     3
170
     0
171
     0
290
     0
174
     0
 93
        1
 44
0.0
173
     0
291
     0
 45
0.0
1001
ACAD
1000
AcDbSavedByObjectVersion
1070
     0
  0
VISUALSTYLE
  5
68AF
102
{ACAD_XDICTIONARY
360
7BA1
102
}
102
{ACAD_REACTORS
330
6813
102
}
330
6813
100
AcDbVisualStyle
  2
Sketchy
 70
    24
 71
     1
 72
     2
 73
     2
 90
        0
 40
-0.6
 41
-30.0
 62
     5
 63
     7
 74
     2
 91
        2
 64
     7
 65
     7
 75
     1
175
     1
 42
40.0
 92
       11
 66
     7
 43
1.0
 76
     1
 77
     6
 78
     2
 67
     7
 79
     6
170
     0
171
     0
290
     0
174
     0
 93
        1
 44
0.0
173
     0
291
     0
 45
0.0
1001
ACAD
1000
AcDbSavedByObjectVersion
1070
     0
  0
VISUALSTYLE
  5
6820
102
{ACAD_XDICTIONARY
360
7B93
102
}
102
{ACAD_REACTORS
330
6813
102
}
330
6813
100
AcDbVisualStyle
  2

 70
    13
 71
     2
 72
     2
 73
     0
 90
        0
 40
-0.6
 41
-30.0
 62
     5
 63
     7
 74
     1
 91
        4
 64
     7
 65
   257
 75
     1
175
     1
 42
1.0
 92
       12
 66
     7
 43
1.0
 76
     1
 77
     6
 78
     2
 67
     7
 79
     5
170
     0
171
     0
290
     0
174
     0
 93
        1
 44
0.0
173
     0
291
     1
 45
0.0
1001
ACAD
1000
AcDbSavedByObjectVersion
1070
     0
  0
VISUALSTYLE
  5
68AC
102
{ACAD_XDICTIONARY
360
7B9B
102
}
102
{ACAD_REACTORS
330
6813
102
}
330
6813
100
AcDbVisualStyle
  2
Wireframe
 70
     5
 71
     0
 72
     2
 73
     0
 90
        0
 40
-0.6
 41
-30.0
 62
     5
 63
     7
 74
     1
 91
        4
 64
     7
 65
   257
 75
     1
175
     1
 42
1.0
 92
        0
 66
   257
 43
1.0
 76
     1
 77
     6
 78
     2
 67
     7
 79
     3
170
     0
171
     0
290
     0
174
     0
 93
        1
 44
0.0
173
     0
291
     0
 45
0.0
1001
ACAD
1000
AcDbSavedByObjectVersion
1070
     0
  0
VISUALSTYLE
  5
68B0
102
{ACAD_XDICTIONARY
360
7BA3
102
}
102
{ACAD_REACTORS
330
6813
102
}
330
6813
100
AcDbVisualStyle
  2
X-Ray
 70
    25
 71
     2
 72
     2
 73
     1
 90
        1
 40
0.5
 41
-30.0
 62
     5
 63
     7
 74
     1
 91
        0
 64
     7
 65
   257
 75
     1
175
     1
 42
1.0
 92
        8
 66
     7
 43
1.0
 76
     1
 77
     6
 78
     2
 67
     7
 79
     3
170
     0
171
     0
290
     0
174
     0
 93
       13
 44
0.0
173
     0
291
     0
 45
0.0
1001
ACAD
1000
AcDbSavedByObjectVersion
1070
     0
  0
DICTIONARYVAR
  5
6895
102
{ACAD_REACTORS
330
1BF
102
}
330
1BF
100
DictionaryVariables
280
     0
  1
1:1
  0
DICTIONARYVAR
  5
6894
102
{ACAD_REACTORS
330
1BF
102
}
330
1BF
100
DictionaryVariables
280
     0
  1
STANDARD
  0
DICTIONARYVAR
  5
67DE
102
{ACAD_REACTORS
330
1BF
102
}
330
1BF
100
DictionaryVariables
280
     0
  1
STANDARD
  0
DICTIONARYVAR
  5
67DF
102
{ACAD_REACTORS
330
1BF
102
}
330
1BF
100
DictionaryVariables
280
     0
  1
1
  0
DICTIONARYVAR
  5
6896
102
{ACAD_REACTORS
330
1BF
102
}
330
1BF
100
DictionaryVariables
280
     0
  1
0
  0
DICTIONARYVAR
  5
67E0
102
{ACAD_REACTORS
330
1BF
102
}
330
1BF
100
DictionaryVariables
280
     0
  1

  0
DICTIONARYVAR
  5
1C0
102
{ACAD_REACTORS
330
1BF
102
}
330
1BF
100
DictionaryVariables
280
     0
  1
96
  0
DICTIONARYVAR
  5
7B6F
102
{ACAD_REACTORS
330
1BF
102
}
330
1BF
100
DictionaryVariables
280
     0
  1
2
  0
DICTIONARY
  5
7B74
330
674C
100
AcDbDictionary
280
     1
281
     1
  3
ACAD_XREC_ROUNDTRIP
360
7B75
  0
DICTIONARY
  5
7B76
330
674D
100
AcDbDictionary
280
     1
281
     1
  3
ACAD_XREC_ROUNDTRIP
360
7B77
  0
DICTIONARY
  5
6804
330
6803
100
AcDbDictionary
280
     1
281
     1
  3
ACAD_XREC_ROUNDTRIP
360
7B79
  3
BUMPTILE
360
6806
  3
DIFFUSETILE
360
6805
  3
OPACITYTILE
360
6809
  3
REFLECTIONTILE
360
6808
  3
REFRACTIONTILE
360
680A
  3
SPECULARTILE
360
6807
  0
DICTIONARY
  5
67FC
330
67FB
100
AcDbDictionary
280
     1
281
     1
  3
ACAD_XREC_ROUNDTRIP
360
7B78
  3
BUMPTILE
360
67FE
  3
DIFFUSETILE
360
67FD
  3
OPACITYTILE
360
6801
  3
REFLECTIONTILE
360
6800
  3
REFRACTIONTILE
360
6802
  3
SPECULARTILE
360
67FF
  0
DICTIONARY
  5
680C
330
680B
100
AcDbDictionary
280
     1
281
     1
  3
ACAD_XREC_ROUNDTRIP
360
7B7A
  3
BUMPTILE
360
680E
  3
DIFFUSETILE
360
680D
  3
OPACITYTILE
360
6811
  3
REFLECTIONTILE
360
6810
  3
REFRACTIONTILE
360
6812
  3
SPECULARTILE
360
680F
  0
DICTIONARY
  5
6897
330
6749
100
AcDbDictionary
280
     1
281
     1
  3
ACAD_ROUNDTRIP_2008_TABLESTYLE_CELLSTYLEMAP
360
7B70
  3
ACAD_XREC_ROUNDTRIP
360
7B73
  0
DICTIONARY
  5
7B85
330
6819
100
AcDbDictionary
280
     1
281
     1
  3
ACAD_XREC_ROUNDTRIP
360
7B86
  0
DICTIONARY
  5
7B89
330
681B
100
AcDbDictionary
280
     1
281
     1
  3
ACAD_XREC_ROUNDTRIP
360
7B8A
  0
DICTIONARY
  5
7B87
330
681A
100
AcDbDictionary
280
     1
281
     1
  3
ACAD_XREC_ROUNDTRIP
360
7B88
  0
DICTIONARY
  5
7B83
330
6818
100
AcDbDictionary
280
     1
281
     1
  3
ACAD_XREC_ROUNDTRIP
360
7B84
  0
DICTIONARY
  5
7B91
330
681F
100
AcDbDictionary
280
     1
281
     1
  3
ACAD_XREC_ROUNDTRIP
360
7B92
  0
DICTIONARY
  5
7B99
330
6823
100
AcDbDictionary
280
     1
281
     1
  3
ACAD_XREC_ROUNDTRIP
360
7B9A
  0
DICTIONARY
  5
7B8B
330
681C
100
AcDbDictionary
280
     1
281
     1
  3
ACAD_XREC_ROUNDTRIP
360
7B8C
  0
DICTIONARY
  5
7B8F
330
681E
100
AcDbDictionary
280
     1
281
     1
  3
ACAD_XREC_ROUNDTRIP
360
7B90
  0
DICTIONARY
  5
7BAD
330
68B5
100
AcDbDictionary
280
     1
281
     1
  3
ACAD_XREC_ROUNDTRIP
360
7BAE
  0
DICTIONARY
  5
7B97
330
6822
100
AcDbDictionary
280
     1
281
     1
  3
ACAD_XREC_ROUNDTRIP
360
7B98
  0
DICTIONARY
  5
7B7B
330
6814
100
AcDbDictionary
280
     1
281
     1
  3
ACAD_XREC_ROUNDTRIP
360
7B7C
  0
DICTIONARY
  5
7B7D
330
6815
100
AcDbDictionary
280
     1
281
     1
  3
ACAD_XREC_ROUNDTRIP
360
7B7E
  0
DICTIONARY
  5
7B7F
330
6816
100
AcDbDictionary
280
     1
281
     1
  3
ACAD_XREC_ROUNDTRIP
360
7B80
  0
DICTIONARY
  5
7B81
330
6817
100
AcDbDictionary
280
     1
281
     1
  3
ACAD_XREC_ROUNDTRIP
360
7B82
  0
DICTIONARY
  5
7B9D
330
68AD
100
AcDbDictionary
280
     1
281
     1
  3
ACAD_XREC_ROUNDTRIP
360
7B9E
  0
DICTIONARY
  5
7BA9
330
68B3
100
AcDbDictionary
280
     1
281
     1
  3
ACAD_XREC_ROUNDTRIP
360
7BAA
  0
DICTIONARY
  5
7B95
330
6821
100
AcDbDictionary
280
     1
281
     1
  3
ACAD_XREC_ROUNDTRIP
360
7B96
  0
DICTIONARY
  5
7BAB
330
68B4
100
AcDbDictionary
280
     1
281
     1
  3
ACAD_XREC_ROUNDTRIP
360
7BAC
  0
DICTIONARY
  5
7B8D
330
681D
100
AcDbDictionary
280
     1
281
     1
  3
ACAD_XREC_ROUNDTRIP
360
7B8E
  0
DICTIONARY
  5
7BA7
330
68B2
100
AcDbDictionary
280
     1
281
     1
  3
ACAD_XREC_ROUNDTRIP
360
7BA8
  0
DICTIONARY
  5
7BA5
330
68B1
100
AcDbDictionary
280
     1
281
     1
  3
ACAD_XREC_ROUNDTRIP
360
7BA6
  0
DICTIONARY
  5
7B9F
330
68AE
100
AcDbDictionary
280
     1
281
     1
  3
ACAD_XREC_ROUNDTRIP
360
7BA0
  0
DICTIONARY
  5
7BA1
330
68AF
100
AcDbDictionary
280
     1
281
     1
  3
ACAD_XREC_ROUNDTRIP
360
7BA2
  0
DICTIONARY
  5
7B93
330
6820
100
AcDbDictionary
280
     1
281
     1
  3
ACAD_XREC_ROUNDTRIP
360
7B94
  0
DICTIONARY
  5
7B9B
330
68AC
100
AcDbDictionary
280
     1
281
     1
  3
ACAD_XREC_ROUNDTRIP
360
7B9C
  0
DICTIONARY
  5
7BA3
330
68B0
100
AcDbDictionary
280
     1
281
     1
  3
ACAD_XREC_ROUNDTRIP
360
7BA4
  0
XRECORD
  5
7B75
102
{ACAD_REACTORS
330
7B74
102
}
330
7B74
100
AcDbXrecord
280
     1
102
SHADEPLOT
 70
     0
102
SHADEPLOTRESLEVEL
 70
     2
102
SHADEPLOTCUSTOMDPI
 70
   300
  0
XRECORD
  5
7B77
102
{ACAD_REACTORS
330
7B76
102
}
330
7B76
100
AcDbXrecord
280
     1
102
SHADEPLOT
 70
     0
102
SHADEPLOTRESLEVEL
 70
     2
102
SHADEPLOTCUSTOMDPI
 70
   300
  0
XRECORD
  5
7B79
102
{ACAD_REACTORS
330
6804
102
}
330
6804
100
AcDbXrecord
280
     1
102
MATERIAL
148
0.0
149
0.0
149
0.0
 93
        0
 94
      127
282
     0
 72
     0
 77
     0
171
     0
175
     0
179
     0
273
     0
  0
XRECORD
  5
6806
102
{ACAD_REACTORS
330
6804
102
}
330
6804
100
AcDbXrecord
280
     1
270
     1
271
     1
  0
XRECORD
  5
6805
102
{ACAD_REACTORS
330
6804
102
}
330
6804
100
AcDbXrecord
280
     1
270
     1
271
     1
  0
XRECORD
  5
6809
102
{ACAD_REACTORS
330
6804
102
}
330
6804
100
AcDbXrecord
280
     1
270
     1
271
     1
  0
XRECORD
  5
6808
102
{ACAD_REACTORS
330
6804
102
}
330
6804
100
AcDbXrecord
280
     1
270
     1
271
     1
  0
XRECORD
  5
680A
102
{ACAD_REACTORS
330
6804
102
}
330
6804
100
AcDbXrecord
280
     1
270
     1
271
     1
  0
XRECORD
  5
6807
102
{ACAD_REACTORS
330
6804
102
}
330
6804
100
AcDbXrecord
280
     1
270
     1
271
     1
  0
XRECORD
  5
7B78
102
{ACAD_REACTORS
330
67FC
102
}
330
67FC
100
AcDbXrecord
280
     1
102
MATERIAL
148
0.0
149
0.0
149
0.0
 93
        0
 94
      127
282
     0
 72
     0
 77
     0
171
     0
175
     0
179
     0
273
     0
  0
XRECORD
  5
67FE
102
{ACAD_REACTORS
330
67FC
102
}
330
67FC
100
AcDbXrecord
280
     1
270
     1
271
     1
  0
XRECORD
  5
67FD
102
{ACAD_REACTORS
330
67FC
102
}
330
67FC
100
AcDbXrecord
280
     1
270
     1
271
     1
  0
XRECORD
  5
6801
102
{ACAD_REACTORS
330
67FC
102
}
330
67FC
100
AcDbXrecord
280
     1
270
     1
271
     1
  0
XRECORD
  5
6800
102
{ACAD_REACTORS
330
67FC
102
}
330
67FC
100
AcDbXrecord
280
     1
270
     1
271
     1
  0
XRECORD
  5
6802
102
{ACAD_REACTORS
330
67FC
102
}
330
67FC
100
AcDbXrecord
280
     1
270
     1
271
     1
  0
XRECORD
  5
67FF
102
{ACAD_REACTORS
330
67FC
102
}
330
67FC
100
AcDbXrecord
280
     1
270
     1
271
     1
  0
XRECORD
  5
7B7A
102
{ACAD_REACTORS
330
680C
102
}
330
680C
100
AcDbXrecord
280
     1
102
MATERIAL
148
0.0
149
0.0
149
0.0
 93
        0
 94
      127
282
     0
 72
     0
 77
     0
171
     0
175
     0
179
     0
273
     0
  0
XRECORD
  5
680E
102
{ACAD_REACTORS
330
680C
102
}
330
680C
100
AcDbXrecord
280
     1
270
     1
271
     1
  0
XRECORD
  5
680D
102
{ACAD_REACTORS
330
680C
102
}
330
680C
100
AcDbXrecord
280
     1
270
     1
271
     1
  0
XRECORD
  5
6811
102
{ACAD_REACTORS
330
680C
102
}
330
680C
100
AcDbXrecord
280
     1
270
     1
271
     1
  0
XRECORD
  5
6810
102
{ACAD_REACTORS
330
680C
102
}
330
680C
100
AcDbXrecord
280
     1
270
     1
271
     1
  0
XRECORD
  5
6812
102
{ACAD_REACTORS
330
680C
102
}
330
680C
100
AcDbXrecord
280
     1
270
     1
271
     1
  0
XRECORD
  5
680F
102
{ACAD_REACTORS
330
680C
102
}
330
680C
100
AcDbXrecord
280
     1
270
     1
271
     1
  0
CELLSTYLEMAP
  5
7B70
102
{ACAD_REACTORS
330
6897
102
}
330
6897
100
AcDbCellStyleMap
 90
        3
300
CELLSTYLE
  1
TABLEFORMAT_BEGIN
 90
        5
170
     1
 91
        0
 92
    32768
 62
   257
 93
        1
300
CONTENTFORMAT
  1
CONTENTFORMAT_BEGIN
 90
        0
 91
        0
 92
        4
 93
        0
300

 40
0.0
140
1.0
 94
        5
 62
     0
340
10
144
0.25
309
CONTENTFORMAT_END
171
     1
301
MARGIN
  1
CELLMARGIN_BEGIN
 40
0.06
 40
0.06
 40
0.06
 40
0.06
 40
0.18
 40
0.18
309
CELLMARGIN_END
 94
        6
 95
        1
302
GRIDFORMAT
  1
GRIDFORMAT_BEGIN
 90
        0
 91
        1
 62
     0
 92
       -2
340
0
 93
        0
 40
0.045
309
GRIDFORMAT_END
 95
        2
302
GRIDFORMAT
  1
GRIDFORMAT_BEGIN
 90
        0
 91
        1
 62
     0
 92
       -2
340
0
 93
        0
 40
0.045
309
GRIDFORMAT_END
 95
        4
302
GRIDFORMAT
  1
GRIDFORMAT_BEGIN
 90
        0
 91
        1
 62
     0
 92
       -2
340
0
 93
        0
 40
0.045
309
GRIDFORMAT_END
 95
        8
302
GRIDFORMAT
  1
GRIDFORMAT_BEGIN
 90
        0
 91
        1
 62
     0
 92
       -2
340
0
 93
        0
 40
0.045
309
GRIDFORMAT_END
 95
       16
302
GRIDFORMAT
  1
GRIDFORMAT_BEGIN
 90
        0
 91
        1
 62
     0
 92
       -2
340
0
 93
        0
 40
0.045
309
GRIDFORMAT_END
 95
       32
302
GRIDFORMAT
  1
GRIDFORMAT_BEGIN
 90
        0
 91
        1
 62
     0
 92
       -2
340
0
 93
        0
 40
0.045
309
GRIDFORMAT_END
309
TABLEFORMAT_END
  1
CELLSTYLE_BEGIN
 90
        1
 91
        1
300
_TITLE
309
CELLSTYLE_END
300
CELLSTYLE
  1
TABLEFORMAT_BEGIN
 90
        5
170
     1
 91
        0
 92
        0
 62
   257
 93
        1
300
CONTENTFORMAT
  1
CONTENTFORMAT_BEGIN
 90
        0
 91
        0
 92
        4
 93
        0
300

 40
0.0
140
1.0
 94
        5
 62
     0
340
10
144
0.18
309
CONTENTFORMAT_END
171
     1
301
MARGIN
  1
CELLMARGIN_BEGIN
 40
0.06
 40
0.06
 40
0.06
 40
0.06
 40
0.18
 40
0.18
309
CELLMARGIN_END
 94
        6
 95
        1
302
GRIDFORMAT
  1
GRIDFORMAT_BEGIN
 90
        0
 91
        1
 62
     0
 92
       -2
340
0
 93
        0
 40
0.045
309
GRIDFORMAT_END
 95
        2
302
GRIDFORMAT
  1
GRIDFORMAT_BEGIN
 90
        0
 91
        1
 62
     0
 92
       -2
340
0
 93
        0
 40
0.045
309
GRIDFORMAT_END
 95
        4
302
GRIDFORMAT
  1
GRIDFORMAT_BEGIN
 90
        0
 91
        1
 62
     0
 92
       -2
340
0
 93
        0
 40
0.045
309
GRIDFORMAT_END
 95
        8
302
GRIDFORMAT
  1
GRIDFORMAT_BEGIN
 90
        0
 91
        1
 62
     0
 92
       -2
340
0
 93
        0
 40
0.045
309
GRIDFORMAT_END
 95
       16
302
GRIDFORMAT
  1
GRIDFORMAT_BEGIN
 90
        0
 91
        1
 62
     0
 92
       -2
340
0
 93
        0
 40
0.045
309
GRIDFORMAT_END
 95
       32
302
GRIDFORMAT
  1
GRIDFORMAT_BEGIN
 90
        0
 91
        1
 62
     0
 92
       -2
340
0
 93
        0
 40
0.045
309
GRIDFORMAT_END
309
TABLEFORMAT_END
  1
CELLSTYLE_BEGIN
 90
        2
 91
        1
300
_HEADER
309
CELLSTYLE_END
300
CELLSTYLE
  1
TABLEFORMAT_BEGIN
 90
        5
170
     1
 91
        0
 92
        0
 62
   257
 93
        1
300
CONTENTFORMAT
  1
CONTENTFORMAT_BEGIN
 90
        0
 91
        0
 92
        4
 93
        0
300

 40
0.0
140
1.0
 94
        2
 62
     0
340
10
144
0.18
309
CONTENTFORMAT_END
171
     1
301
MARGIN
  1
CELLMARGIN_BEGIN
 40
0.06
 40
0.06
 40
0.06
 40
0.06
 40
0.18
 40
0.18
309
CELLMARGIN_END
 94
        6
 95
        1
302
GRIDFORMAT
  1
GRIDFORMAT_BEGIN
 90
        0
 91
        1
 62
     0
 92
       -2
340
0
 93
        0
 40
0.045
309
GRIDFORMAT_END
 95
        2
302
GRIDFORMAT
  1
GRIDFORMAT_BEGIN
 90
        0
 91
        1
 62
     0
 92
       -2
340
0
 93
        0
 40
0.045
309
GRIDFORMAT_END
 95
        4
302
GRIDFORMAT
  1
GRIDFORMAT_BEGIN
 90
        0
 91
        1
 62
     0
 92
       -2
340
0
 93
        0
 40
0.045
309
GRIDFORMAT_END
 95
        8
302
GRIDFORMAT
  1
GRIDFORMAT_BEGIN
 90
        0
 91
        1
 62
     0
 92
       -2
340
0
 93
        0
 40
0.045
309
GRIDFORMAT_END
 95
       16
302
GRIDFORMAT
  1
GRIDFORMAT_BEGIN
 90
        0
 91
        1
 62
     0
 92
       -2
340
0
 93
        0
 40
0.045
309
GRIDFORMAT_END
 95
       32
302
GRIDFORMAT
  1
GRIDFORMAT_BEGIN
 90
        0
 91
        1
 62
     0
 92
       -2
340
0
 93
        0
 40
0.045
309
GRIDFORMAT_END
309
TABLEFORMAT_END
  1
CELLSTYLE_BEGIN
 90
        3
 91
        2
300
_DATA
309
CELLSTYLE_END
  0
XRECORD
  5
7B73
102
{ACAD_REACTORS
330
6897
102
}
330
6897
100
AcDbXrecord
280
     1
102
ACAD_ROUNDTRIP_PRE2007_TABLESTYLE
 90
        4
 91
        0
  1

 92
        4
 93
        0
  2

 94
        4
 95
        0
  3

  0
XRECORD
  5
7B86
102
{ACAD_REACTORS
330
7B85
102
}
330
7B85
100
AcDbXrecord
280
     1
102
RTVSPropertyOp0
 70
     1
102
RTVSPropertyOp1
 70
     1
102
RTVSPropertyOp2
 70
     1
102
RTVSPropertyOp3
 70
     1
102
RTVSPropertyOp4
 70
     1
102
RTVSPropertyOp5
 70
     1
102
RTVSPropertyOp6
 70
     1
102
RTVSPropertyOp7
 70
     1
102
RTVSPropertyOp8
 70
     1
102
RTVSPropertyOp9
 70
     1
102
RTVSPropertyOp10
 70
     1
102
RTVSPropertyOp11
 70
     1
102
RTVSPropertyOp12
 70
     1
102
RTVSPropertyOp13
 70
     1
102
RTVSPropertyOp14
 70
     1
102
RTVSPropertyOp15
 70
     1
102
RTVSPropertyOp16
 70
     1
102
RTVSPropertyOp17
 70
     1
102
RTVSPropertyOp18
 70
     1
102
RTVSPropertyOp19
 70
     1
102
RTVSPropertyOp20
 70
     1
102
RTVSPropertyOp21
 70
     1
102
RTVSPropertyOp22
 70
     1
102
RTVSPropertyOp23
 70
     1
102
RTVSPropertyOp24
 70
     1
102
RTVSPropertyOp25
 70
     1
102
RTVSPropertyOp26
 70
     1
102
RTVSPropertyOp27
 70
     1
102
RTVSPropertyOp28
 70
     1
102
RTVSPropertyOp29
 70
     1
102
RTVSPropertyOp30
 70
     1
102
RTVSPropertyOp31
 70
     1
102
RTVSPropertyOp32
 70
     1
  0
XRECORD
  5
7B8A
102
{ACAD_REACTORS
330
7B89
102
}
330
7B89
100
AcDbXrecord
280
     1
102
RTVSPropertyOp0
 70
     1
102
RTVSPropertyOp1
 70
     1
102
RTVSPropertyOp2
 70
     1
102
RTVSPropertyOp3
 70
     1
102
RTVSPropertyOp4
 70
     1
102
RTVSPropertyOp5
 70
     1
102
RTVSPropertyOp6
 70
     1
102
RTVSPropertyOp7
 70
     1
102
RTVSPropertyOp8
 70
     1
102
RTVSPropertyOp9
 70
     1
102
RTVSPropertyOp10
 70
     1
102
RTVSPropertyOp11
 70
     1
102
RTVSPropertyOp12
 70
     1
102
RTVSPropertyOp13
 70
     1
102
RTVSPropertyOp14
 70
     1
102
RTVSPropertyOp15
 70
     1
102
RTVSPropertyOp16
 70
     1
102
RTVSPropertyOp17
 70
     1
102
RTVSPropertyOp18
 70
     1
102
RTVSPropertyOp19
 70
     1
102
RTVSPropertyOp20
 70
     1
102
RTVSPropertyOp21
 70
     1
102
RTVSPropertyOp22
 70
     1
102
RTVSPropertyOp23
 70
     1
102
RTVSPropertyOp24
 70
     1
102
RTVSPropertyOp25
 70
     1
102
RTVSPropertyOp26
 70
     1
102
RTVSPropertyOp27
 70
     1
102
RTVSPropertyOp28
 70
     1
102
RTVSPropertyOp29
 70
     1
102
RTVSPropertyOp30
 70
     1
102
RTVSPropertyOp31
 70
     1
102
RTVSPropertyOp32
 70
     1
  0
XRECORD
  5
7B88
102
{ACAD_REACTORS
330
7B87
102
}
330
7B87
100
AcDbXrecord
280
     1
102
RTVSPropertyOp0
 70
     1
102
RTVSPropertyOp1
 70
     1
102
RTVSPropertyOp2
 70
     1
102
RTVSPropertyOp3
 70
     1
102
RTVSPropertyOp4
 70
     1
102
RTVSPropertyOp5
 70
     1
102
RTVSPropertyOp6
 70
     1
102
RTVSPropertyOp7
 70
     1
102
RTVSPropertyOp8
 70
     1
102
RTVSPropertyOp9
 70
     1
102
RTVSPropertyOp10
 70
     1
102
RTVSPropertyOp11
 70
     1
102
RTVSPropertyOp12
 70
     1
102
RTVSPropertyOp13
 70
     1
102
RTVSPropertyOp14
 70
     1
102
RTVSPropertyOp15
 70
     1
102
RTVSPropertyOp16
 70
     1
102
RTVSPropertyOp17
 70
     1
102
RTVSPropertyOp18
 70
     1
102
RTVSPropertyOp19
 70
     1
102
RTVSPropertyOp20
 70
     1
102
RTVSPropertyOp21
 70
     1
102
RTVSPropertyOp22
 70
     1
102
RTVSPropertyOp23
 70
     1
102
RTVSPropertyOp24
 70
     1
102
RTVSPropertyOp25
 70
     1
102
RTVSPropertyOp26
 70
     1
102
RTVSPropertyOp27
 70
     1
102
RTVSPropertyOp28
 70
     1
102
RTVSPropertyOp29
 70
     1
102
RTVSPropertyOp30
 70
     1
102
RTVSPropertyOp31
 70
     1
102
RTVSPropertyOp32
 70
     1
  0
XRECORD
  5
7B84
102
{ACAD_REACTORS
330
7B83
102
}
330
7B83
100
AcDbXrecord
280
     1
102
RTVSPropertyOp0
 70
     1
102
RTVSPropertyOp1
 70
     1
102
RTVSPropertyOp2
 70
     1
102
RTVSPropertyOp3
 70
     1
102
RTVSPropertyOp4
 70
     1
102
RTVSPropertyOp5
 70
     1
102
RTVSPropertyOp6
 70
     1
102
RTVSPropertyOp7
 70
     1
102
RTVSPropertyOp8
 70
     1
102
RTVSPropertyOp9
 70
     1
102
RTVSPropertyOp10
 70
     1
102
RTVSPropertyOp11
 70
     1
102
RTVSPropertyOp12
 70
     1
102
RTVSPropertyOp13
 70
     1
102
RTVSPropertyOp14
 70
     1
102
RTVSPropertyOp15
 70
     1
102
RTVSPropertyOp16
 70
     1
102
RTVSPropertyOp17
 70
     1
102
RTVSPropertyOp18
 70
     1
102
RTVSPropertyOp19
 70
     1
102
RTVSPropertyOp20
 70
     1
102
RTVSPropertyOp21
 70
     1
102
RTVSPropertyOp22
 70
     1
102
RTVSPropertyOp23
 70
     1
102
RTVSPropertyOp24
 70
     1
102
RTVSPropertyOp25
 70
     1
102
RTVSPropertyOp26
 70
     1
102
RTVSPropertyOp27
 70
     1
102
RTVSPropertyOp28
 70
     1
102
RTVSPropertyOp29
 70
     1
102
RTVSPropertyOp30
 70
     1
102
RTVSPropertyOp31
 70
     1
102
RTVSPropertyOp32
 70
     1
  0
XRECORD
  5
7B92
102
{ACAD_REACTORS
330
7B91
102
}
330
7B91
100
AcDbXrecord
280
     1
102
RTVSPropertyOp0
 70
     1
102
RTVSPropertyOp1
 70
     1
102
RTVSPropertyOp2
 70
     1
102
RTVSPropertyOp3
 70
     1
102
RTVSPropertyOp4
 70
     1
102
RTVSPropertyOp5
 70
     1
102
RTVSPropertyOp6
 70
     1
102
RTVSPropertyOp7
 70
     1
102
RTVSPropertyOp8
 70
     1
102
RTVSPropertyOp9
 70
     1
102
RTVSPropertyOp10
 70
     1
102
RTVSPropertyOp11
 70
     1
102
RTVSPropertyOp12
 70
     1
102
RTVSPropertyOp13
 70
     1
102
RTVSPropertyOp14
 70
     1
102
RTVSPropertyOp15
 70
     1
102
RTVSPropertyOp16
 70
     1
102
RTVSPropertyOp17
 70
     1
102
RTVSPropertyOp18
 70
     1
102
RTVSPropertyOp19
 70
     1
102
RTVSPropertyOp20
 70
     1
102
RTVSPropertyOp21
 70
     1
102
RTVSPropertyOp22
 70
     1
102
RTVSPropertyOp23
 70
     1
102
RTVSPropertyOp24
 70
     1
102
RTVSPropertyOp25
 70
     1
102
RTVSPropertyOp26
 70
     1
102
RTVSPropertyOp27
 70
     1
102
RTVSPropertyOp28
 70
     1
102
RTVSPropertyOp29
 70
     1
102
RTVSPropertyOp30
 70
     1
102
RTVSPropertyOp31
 70
     1
102
RTVSPropertyOp32
 70
     1
  0
XRECORD
  5
7B9A
102
{ACAD_REACTORS
330
7B99
102
}
330
7B99
100
AcDbXrecord
280
     1
102
RTVSPropertyOp0
 70
     1
102
RTVSPropertyOp1
 70
     1
102
RTVSPropertyOp2
 70
     1
102
RTVSPropertyOp3
 70
     1
102
RTVSPropertyOp4
 70
     1
102
RTVSPropertyOp5
 70
     1
102
RTVSPropertyOp6
 70
     1
102
RTVSPropertyOp7
 70
     1
102
RTVSPropertyOp8
 70
     1
102
RTVSPropertyOp9
 70
     1
102
RTVSPropertyOp10
 70
     1
102
RTVSPropertyOp11
 70
     1
102
RTVSPropertyOp12
 70
     1
102
RTVSPropertyOp13
 70
     1
102
RTVSPropertyOp14
 70
     1
102
RTVSPropertyOp15
 70
     1
102
RTVSPropertyOp16
 70
     1
102
RTVSPropertyOp17
 70
     1
102
RTVSPropertyOp18
 70
     1
102
RTVSPropertyOp19
 70
     1
102
RTVSPropertyOp20
 70
     1
102
RTVSPropertyOp21
 70
     1
102
RTVSPropertyOp22
 70
     1
102
RTVSPropertyOp23
 70
     1
102
RTVSPropertyOp24
 70
     1
102
RTVSPropertyOp25
 70
     1
102
RTVSPropertyOp26
 70
     1
102
RTVSPropertyOp27
 70
     1
102
RTVSPropertyOp28
 70
     1
102
RTVSPropertyOp29
 70
     1
102
RTVSPropertyOp30
 70
     1
102
RTVSPropertyOp31
 70
     1
102
RTVSPropertyOp32
 70
     1
  0
XRECORD
  5
7B8C
102
{ACAD_REACTORS
330
7B8B
102
}
330
7B8B
100
AcDbXrecord
280
     1
102
RTVSPropertyOp0
 70
     1
102
RTVSPropertyOp1
 70
     1
102
RTVSPropertyOp2
 70
     1
102
RTVSPropertyOp3
 70
     1
102
RTVSPropertyOp4
 70
     1
102
RTVSPropertyOp5
 70
     1
102
RTVSPropertyOp6
 70
     1
102
RTVSPropertyOp7
 70
     1
102
RTVSPropertyOp8
 70
     1
102
RTVSPropertyOp9
 70
     1
102
RTVSPropertyOp10
 70
     1
102
RTVSPropertyOp11
 70
     1
102
RTVSPropertyOp12
 70
     1
102
RTVSPropertyOp13
 70
     1
102
RTVSPropertyOp14
 70
     1
102
RTVSPropertyOp15
 70
     1
102
RTVSPropertyOp16
 70
     1
102
RTVSPropertyOp17
 70
     1
102
RTVSPropertyOp18
 70
     1
102
RTVSPropertyOp19
 70
     1
102
RTVSPropertyOp20
 70
     1
102
RTVSPropertyOp21
 70
     1
102
RTVSPropertyOp22
 70
     1
102
RTVSPropertyOp23
 70
     1
102
RTVSPropertyOp24
 70
     1
102
RTVSPropertyOp25
 70
     1
102
RTVSPropertyOp26
 70
     1
102
RTVSPropertyOp27
 70
     1
102
RTVSPropertyOp28
 70
     1
102
RTVSPropertyOp29
 70
     1
102
RTVSPropertyOp30
 70
     1
102
RTVSPropertyOp31
 70
     1
102
RTVSPropertyOp32
 70
     1
  0
XRECORD
  5
7B90
102
{ACAD_REACTORS
330
7B8F
102
}
330
7B8F
100
AcDbXrecord
280
     1
102
RTVSPropertyOp0
 70
     1
102
RTVSPropertyOp1
 70
     1
102
RTVSPropertyOp2
 70
     1
102
RTVSPropertyOp3
 70
     1
102
RTVSPropertyOp4
 70
     1
102
RTVSPropertyOp5
 70
     1
102
RTVSPropertyOp6
 70
     1
102
RTVSPropertyOp7
 70
     1
102
RTVSPropertyOp8
 70
     1
102
RTVSPropertyOp9
 70
     1
102
RTVSPropertyOp10
 70
     1
102
RTVSPropertyOp11
 70
     1
102
RTVSPropertyOp12
 70
     1
102
RTVSPropertyOp13
 70
     1
102
RTVSPropertyOp14
 70
     1
102
RTVSPropertyOp15
 70
     1
102
RTVSPropertyOp16
 70
     1
102
RTVSPropertyOp17
 70
     1
102
RTVSPropertyOp18
 70
     1
102
RTVSPropertyOp19
 70
     1
102
RTVSPropertyOp20
 70
     1
102
RTVSPropertyOp21
 70
     1
102
RTVSPropertyOp22
 70
     1
102
RTVSPropertyOp23
 70
     1
102
RTVSPropertyOp24
 70
     1
102
RTVSPropertyOp25
 70
     1
102
RTVSPropertyOp26
 70
     1
102
RTVSPropertyOp27
 70
     1
102
RTVSPropertyOp28
 70
     1
102
RTVSPropertyOp29
 70
     1
102
RTVSPropertyOp30
 70
     1
102
RTVSPropertyOp31
 70
     1
102
RTVSPropertyOp32
 70
     1
  0
XRECORD
  5
7BAE
102
{ACAD_REACTORS
330
7BAD
102
}
330
7BAD
100
AcDbXrecord
280
     1
102
RTVSPropertyOp0
 70
     0
102
RTVSPropertyOp1
 70
     0
102
RTVSPropertyOp2
 70
     0
102
RTVSPropertyOp3
 70
     0
102
RTVSPropertyOp4
 70
     0
102
RTVSPropertyOp5
 70
     0
102
RTVSPropertyOp6
 70
     0
102
RTVSPropertyOp7
 70
     0
102
RTVSPropertyOp8
 70
     0
102
RTVSPropertyOp9
 70
     0
102
RTVSPropertyOp10
 70
     0
102
RTVSPropertyOp11
 70
     0
102
RTVSPropertyOp12
 70
     0
102
RTVSPropertyOp13
 70
     0
102
RTVSPropertyOp14
 70
     2
102
RTVSPropertyOp15
 70
     0
102
RTVSPropertyOp16
 70
     0
102
RTVSPropertyOp17
 70
     0
102
RTVSPropertyOp18
 70
     0
102
RTVSPropertyOp19
 70
     0
102
RTVSPropertyOp20
 70
     0
102
RTVSPropertyOp21
 70
     0
102
RTVSPropertyOp22
 70
     0
102
RTVSPropertyOp23
 70
     0
102
RTVSPropertyOp24
 70
     0
102
RTVSPropertyOp25
 70
     0
102
RTVSPropertyOp26
 70
     0
102
RTVSPropertyOp27
 70
     0
102
RTVSPropertyOp28
 70
     0
102
RTVSPropertyOp29
 70
     0
102
RTVSPropertyOp30
 70
     0
102
RTVSPropertyOp31
 70
     0
102
RTVSPropertyOp32
 70
     0
  0
XRECORD
  5
7B98
102
{ACAD_REACTORS
330
7B97
102
}
330
7B97
100
AcDbXrecord
280
     1
102
RTVSPropertyOp0
 70
     1
102
RTVSPropertyOp1
 70
     1
102
RTVSPropertyOp2
 70
     1
102
RTVSPropertyOp3
 70
     1
102
RTVSPropertyOp4
 70
     1
102
RTVSPropertyOp5
 70
     1
102
RTVSPropertyOp6
 70
     1
102
RTVSPropertyOp7
 70
     1
102
RTVSPropertyOp8
 70
     1
102
RTVSPropertyOp9
 70
     1
102
RTVSPropertyOp10
 70
     1
102
RTVSPropertyOp11
 70
     1
102
RTVSPropertyOp12
 70
     1
102
RTVSPropertyOp13
 70
     1
102
RTVSPropertyOp14
 70
     1
102
RTVSPropertyOp15
 70
     1
102
RTVSPropertyOp16
 70
     1
102
RTVSPropertyOp17
 70
     1
102
RTVSPropertyOp18
 70
     1
102
RTVSPropertyOp19
 70
     1
102
RTVSPropertyOp20
 70
     1
102
RTVSPropertyOp21
 70
     1
102
RTVSPropertyOp22
 70
     1
102
RTVSPropertyOp23
 70
     1
102
RTVSPropertyOp24
 70
     1
102
RTVSPropertyOp25
 70
     1
102
RTVSPropertyOp26
 70
     1
102
RTVSPropertyOp27
 70
     1
102
RTVSPropertyOp28
 70
     1
102
RTVSPropertyOp29
 70
     1
102
RTVSPropertyOp30
 70
     1
102
RTVSPropertyOp31
 70
     1
102
RTVSPropertyOp32
 70
     1
  0
XRECORD
  5
7B7C
102
{ACAD_REACTORS
330
7B7B
102
}
330
7B7B
100
AcDbXrecord
280
     1
102
RTVSPropertyOp0
 70
     1
102
RTVSPropertyOp1
 70
     1
102
RTVSPropertyOp2
 70
     1
102
RTVSPropertyOp3
 70
     1
102
RTVSPropertyOp4
 70
     1
102
RTVSPropertyOp5
 70
     1
102
RTVSPropertyOp6
 70
     1
102
RTVSPropertyOp7
 70
     1
102
RTVSPropertyOp8
 70
     1
102
RTVSPropertyOp9
 70
     1
102
RTVSPropertyOp10
 70
     1
102
RTVSPropertyOp11
 70
     1
102
RTVSPropertyOp12
 70
     1
102
RTVSPropertyOp13
 70
     1
102
RTVSPropertyOp14
 70
     1
102
RTVSPropertyOp15
 70
     1
102
RTVSPropertyOp16
 70
     1
102
RTVSPropertyOp17
 70
     1
102
RTVSPropertyOp18
 70
     1
102
RTVSPropertyOp19
 70
     1
102
RTVSPropertyOp20
 70
     1
102
RTVSPropertyOp21
 70
     1
102
RTVSPropertyOp22
 70
     1
102
RTVSPropertyOp23
 70
     1
102
RTVSPropertyOp24
 70
     1
102
RTVSPropertyOp25
 70
     1
102
RTVSPropertyOp26
 70
     1
102
RTVSPropertyOp27
 70
     1
102
RTVSPropertyOp28
 70
     1
102
RTVSPropertyOp29
 70
     1
102
RTVSPropertyOp30
 70
     1
102
RTVSPropertyOp31
 70
     1
102
RTVSPropertyOp32
 70
     1
  0
XRECORD
  5
7B7E
102
{ACAD_REACTORS
330
7B7D
102
}
330
7B7D
100
AcDbXrecord
280
     1
102
RTVSPropertyOp0
 70
     1
102
RTVSPropertyOp1
 70
     1
102
RTVSPropertyOp2
 70
     1
102
RTVSPropertyOp3
 70
     1
102
RTVSPropertyOp4
 70
     1
102
RTVSPropertyOp5
 70
     1
102
RTVSPropertyOp6
 70
     1
102
RTVSPropertyOp7
 70
     1
102
RTVSPropertyOp8
 70
     1
102
RTVSPropertyOp9
 70
     1
102
RTVSPropertyOp10
 70
     1
102
RTVSPropertyOp11
 70
     1
102
RTVSPropertyOp12
 70
     1
102
RTVSPropertyOp13
 70
     1
102
RTVSPropertyOp14
 70
     1
102
RTVSPropertyOp15
 70
     1
102
RTVSPropertyOp16
 70
     1
102
RTVSPropertyOp17
 70
     1
102
RTVSPropertyOp18
 70
     1
102
RTVSPropertyOp19
 70
     1
102
RTVSPropertyOp20
 70
     1
102
RTVSPropertyOp21
 70
     1
102
RTVSPropertyOp22
 70
     1
102
RTVSPropertyOp23
 70
     1
102
RTVSPropertyOp24
 70
     1
102
RTVSPropertyOp25
 70
     1
102
RTVSPropertyOp26
 70
     1
102
RTVSPropertyOp27
 70
     1
102
RTVSPropertyOp28
 70
     1
102
RTVSPropertyOp29
 70
     1
102
RTVSPropertyOp30
 70
     1
102
RTVSPropertyOp31
 70
     1
102
RTVSPropertyOp32
 70
     1
  0
XRECORD
  5
7B80
102
{ACAD_REACTORS
330
7B7F
102
}
330
7B7F
100
AcDbXrecord
280
     1
102
RTVSPropertyOp0
 70
     1
102
RTVSPropertyOp1
 70
     1
102
RTVSPropertyOp2
 70
     1
102
RTVSPropertyOp3
 70
     1
102
RTVSPropertyOp4
 70
     1
102
RTVSPropertyOp5
 70
     1
102
RTVSPropertyOp6
 70
     1
102
RTVSPropertyOp7
 70
     1
102
RTVSPropertyOp8
 70
     1
102
RTVSPropertyOp9
 70
     1
102
RTVSPropertyOp10
 70
     1
102
RTVSPropertyOp11
 70
     1
102
RTVSPropertyOp12
 70
     1
102
RTVSPropertyOp13
 70
     1
102
RTVSPropertyOp14
 70
     1
102
RTVSPropertyOp15
 70
     1
102
RTVSPropertyOp16
 70
     1
102
RTVSPropertyOp17
 70
     1
102
RTVSPropertyOp18
 70
     1
102
RTVSPropertyOp19
 70
     1
102
RTVSPropertyOp20
 70
     1
102
RTVSPropertyOp21
 70
     1
102
RTVSPropertyOp22
 70
     1
102
RTVSPropertyOp23
 70
     1
102
RTVSPropertyOp24
 70
     1
102
RTVSPropertyOp25
 70
     1
102
RTVSPropertyOp26
 70
     1
102
RTVSPropertyOp27
 70
     1
102
RTVSPropertyOp28
 70
     1
102
RTVSPropertyOp29
 70
     1
102
RTVSPropertyOp30
 70
     1
102
RTVSPropertyOp31
 70
     1
102
RTVSPropertyOp32
 70
     1
  0
XRECORD
  5
7B82
102
{ACAD_REACTORS
330
7B81
102
}
330
7B81
100
AcDbXrecord
280
     1
102
RTVSPropertyOp0
 70
     1
102
RTVSPropertyOp1
 70
     1
102
RTVSPropertyOp2
 70
     1
102
RTVSPropertyOp3
 70
     1
102
RTVSPropertyOp4
 70
     1
102
RTVSPropertyOp5
 70
     1
102
RTVSPropertyOp6
 70
     1
102
RTVSPropertyOp7
 70
     1
102
RTVSPropertyOp8
 70
     1
102
RTVSPropertyOp9
 70
     1
102
RTVSPropertyOp10
 70
     1
102
RTVSPropertyOp11
 70
     1
102
RTVSPropertyOp12
 70
     1
102
RTVSPropertyOp13
 70
     1
102
RTVSPropertyOp14
 70
     1
102
RTVSPropertyOp15
 70
     1
102
RTVSPropertyOp16
 70
     1
102
RTVSPropertyOp17
 70
     1
102
RTVSPropertyOp18
 70
     1
102
RTVSPropertyOp19
 70
     1
102
RTVSPropertyOp20
 70
     1
102
RTVSPropertyOp21
 70
     1
102
RTVSPropertyOp22
 70
     1
102
RTVSPropertyOp23
 70
     1
102
RTVSPropertyOp24
 70
     1
102
RTVSPropertyOp25
 70
     1
102
RTVSPropertyOp26
 70
     1
102
RTVSPropertyOp27
 70
     1
102
RTVSPropertyOp28
 70
     1
102
RTVSPropertyOp29
 70
     1
102
RTVSPropertyOp30
 70
     1
102
RTVSPropertyOp31
 70
     1
102
RTVSPropertyOp32
 70
     1
  0
XRECORD
  5
7B9E
102
{ACAD_REACTORS
330
7B9D
102
}
330
7B9D
100
AcDbXrecord
280
     1
102
RTVSPropertyOp0
 70
     1
102
RTVSPropertyOp1
 70
     1
102
RTVSPropertyOp2
 70
     1
102
RTVSPropertyOp3
 70
     1
102
RTVSPropertyOp4
 70
     1
102
RTVSPropertyOp5
 70
     1
102
RTVSPropertyOp6
 70
     1
102
RTVSPropertyOp7
 70
     1
102
RTVSPropertyOp8
 70
     1
102
RTVSPropertyOp9
 70
     1
102
RTVSPropertyOp10
 70
     1
102
RTVSPropertyOp11
 70
     1
102
RTVSPropertyOp12
 70
     1
102
RTVSPropertyOp13
 70
     1
102
RTVSPropertyOp14
 70
     1
102
RTVSPropertyOp15
 70
     1
102
RTVSPropertyOp16
 70
     1
102
RTVSPropertyOp17
 70
     1
102
RTVSPropertyOp18
 70
     1
102
RTVSPropertyOp19
 70
     1
102
RTVSPropertyOp20
 70
     1
102
RTVSPropertyOp21
 70
     1
102
RTVSPropertyOp22
 70
     1
102
RTVSPropertyOp23
 70
     1
102
RTVSPropertyOp24
 70
     1
102
RTVSPropertyOp25
 70
     1
102
RTVSPropertyOp26
 70
     1
102
RTVSPropertyOp27
 70
     1
102
RTVSPropertyOp28
 70
     1
102
RTVSPropertyOp29
 70
     1
102
RTVSPropertyOp30
 70
     1
102
RTVSPropertyOp31
 70
     1
102
RTVSPropertyOp32
 70
     1
  0
XRECORD
  5
7BAA
102
{ACAD_REACTORS
330
7BA9
102
}
330
7BA9
100
AcDbXrecord
280
     1
102
RTVSPropertyOp0
 70
     0
102
RTVSPropertyOp1
 70
     0
102
RTVSPropertyOp2
 70
     0
102
RTVSPropertyOp3
 70
     0
102
RTVSPropertyOp4
 70
     0
102
RTVSPropertyOp5
 70
     0
102
RTVSPropertyOp6
 70
     0
102
RTVSPropertyOp7
 70
     0
102
RTVSPropertyOp8
 70
     0
102
RTVSPropertyOp9
 70
     0
102
RTVSPropertyOp10
 70
     0
102
RTVSPropertyOp11
 70
     0
102
RTVSPropertyOp12
 70
     0
102
RTVSPropertyOp13
 70
     0
102
RTVSPropertyOp14
 70
     2
102
RTVSPropertyOp15
 70
     0
102
RTVSPropertyOp16
 70
     0
102
RTVSPropertyOp17
 70
     0
102
RTVSPropertyOp18
 70
     0
102
RTVSPropertyOp19
 70
     0
102
RTVSPropertyOp20
 70
     0
102
RTVSPropertyOp21
 70
     0
102
RTVSPropertyOp22
 70
     0
102
RTVSPropertyOp23
 70
     0
102
RTVSPropertyOp24
 70
     0
102
RTVSPropertyOp25
 70
     0
102
RTVSPropertyOp26
 70
     0
102
RTVSPropertyOp27
 70
     0
102
RTVSPropertyOp28
 70
     0
102
RTVSPropertyOp29
 70
     0
102
RTVSPropertyOp30
 70
     0
102
RTVSPropertyOp31
 70
     0
102
RTVSPropertyOp32
 70
     0
  0
XRECORD
  5
7B96
102
{ACAD_REACTORS
330
7B95
102
}
330
7B95
100
AcDbXrecord
280
     1
102
RTVSPropertyOp0
 70
     1
102
RTVSPropertyOp1
 70
     1
102
RTVSPropertyOp2
 70
     1
102
RTVSPropertyOp3
 70
     1
102
RTVSPropertyOp4
 70
     1
102
RTVSPropertyOp5
 70
     1
102
RTVSPropertyOp6
 70
     1
102
RTVSPropertyOp7
 70
     1
102
RTVSPropertyOp8
 70
     1
102
RTVSPropertyOp9
 70
     1
102
RTVSPropertyOp10
 70
     1
102
RTVSPropertyOp11
 70
     1
102
RTVSPropertyOp12
 70
     1
102
RTVSPropertyOp13
 70
     1
102
RTVSPropertyOp14
 70
     1
102
RTVSPropertyOp15
 70
     1
102
RTVSPropertyOp16
 70
     1
102
RTVSPropertyOp17
 70
     1
102
RTVSPropertyOp18
 70
     1
102
RTVSPropertyOp19
 70
     1
102
RTVSPropertyOp20
 70
     1
102
RTVSPropertyOp21
 70
     1
102
RTVSPropertyOp22
 70
     1
102
RTVSPropertyOp23
 70
     1
102
RTVSPropertyOp24
 70
     1
102
RTVSPropertyOp25
 70
     1
102
RTVSPropertyOp26
 70
     1
102
RTVSPropertyOp27
 70
     1
102
RTVSPropertyOp28
 70
     1
102
RTVSPropertyOp29
 70
     1
102
RTVSPropertyOp30
 70
     1
102
RTVSPropertyOp31
 70
     1
102
RTVSPropertyOp32
 70
     1
  0
XRECORD
  5
7BAC
102
{ACAD_REACTORS
330
7BAB
102
}
330
7BAB
100
AcDbXrecord
280
     1
102
RTVSPropertyOp0
 70
     0
102
RTVSPropertyOp1
 70
     0
102
RTVSPropertyOp2
 70
     0
102
RTVSPropertyOp3
 70
     0
102
RTVSPropertyOp4
 70
     0
102
RTVSPropertyOp5
 70
     0
102
RTVSPropertyOp6
 70
     0
102
RTVSPropertyOp7
 70
     0
102
RTVSPropertyOp8
 70
     0
102
RTVSPropertyOp9
 70
     0
102
RTVSPropertyOp10
 70
     0
102
RTVSPropertyOp11
 70
     0
102
RTVSPropertyOp12
 70
     0
102
RTVSPropertyOp13
 70
     0
102
RTVSPropertyOp14
 70
     2
102
RTVSPropertyOp15
 70
     0
102
RTVSPropertyOp16
 70
     0
102
RTVSPropertyOp17
 70
     0
102
RTVSPropertyOp18
 70
     0
102
RTVSPropertyOp19
 70
     0
102
RTVSPropertyOp20
 70
     0
102
RTVSPropertyOp21
 70
     0
102
RTVSPropertyOp22
 70
     0
102
RTVSPropertyOp23
 70
     0
102
RTVSPropertyOp24
 70
     0
102
RTVSPropertyOp25
 70
     0
102
RTVSPropertyOp26
 70
     0
102
RTVSPropertyOp27
 70
     0
102
RTVSPropertyOp28
 70
     0
102
RTVSPropertyOp29
 70
     0
102
RTVSPropertyOp30
 70
     0
102
RTVSPropertyOp31
 70
     0
102
RTVSPropertyOp32
 70
     0
  0
XRECORD
  5
7B8E
102
{ACAD_REACTORS
330
7B8D
102
}
330
7B8D
100
AcDbXrecord
280
     1
102
RTVSPropertyOp0
 70
     1
102
RTVSPropertyOp1
 70
     1
102
RTVSPropertyOp2
 70
     1
102
RTVSPropertyOp3
 70
     1
102
RTVSPropertyOp4
 70
     1
102
RTVSPropertyOp5
 70
     1
102
RTVSPropertyOp6
 70
     1
102
RTVSPropertyOp7
 70
     1
102
RTVSPropertyOp8
 70
     1
102
RTVSPropertyOp9
 70
     1
102
RTVSPropertyOp10
 70
     1
102
RTVSPropertyOp11
 70
     1
102
RTVSPropertyOp12
 70
     1
102
RTVSPropertyOp13
 70
     1
102
RTVSPropertyOp14
 70
     1
102
RTVSPropertyOp15
 70
     1
102
RTVSPropertyOp16
 70
     1
102
RTVSPropertyOp17
 70
     1
102
RTVSPropertyOp18
 70
     1
102
RTVSPropertyOp19
 70
     1
102
RTVSPropertyOp20
 70
     1
102
RTVSPropertyOp21
 70
     1
102
RTVSPropertyOp22
 70
     1
102
RTVSPropertyOp23
 70
     1
102
RTVSPropertyOp24
 70
     1
102
RTVSPropertyOp25
 70
     1
102
RTVSPropertyOp26
 70
     1
102
RTVSPropertyOp27
 70
     1
102
RTVSPropertyOp28
 70
     1
102
RTVSPropertyOp29
 70
     1
102
RTVSPropertyOp30
 70
     1
102
RTVSPropertyOp31
 70
     1
102
RTVSPropertyOp32
 70
     1
  0
XRECORD
  5
7BA8
102
{ACAD_REACTORS
330
7BA7
102
}
330
7BA7
100
AcDbXrecord
280
     1
102
RTVSPropertyOp0
 70
     1
102
RTVSPropertyOp1
 70
     1
102
RTVSPropertyOp2
 70
     1
102
RTVSPropertyOp3
 70
     1
102
RTVSPropertyOp4
 70
     1
102
RTVSPropertyOp5
 70
     1
102
RTVSPropertyOp6
 70
     1
102
RTVSPropertyOp7
 70
     1
102
RTVSPropertyOp8
 70
     1
102
RTVSPropertyOp9
 70
     1
102
RTVSPropertyOp10
 70
     1
102
RTVSPropertyOp11
 70
     1
102
RTVSPropertyOp12
 70
     1
102
RTVSPropertyOp13
 70
     1
102
RTVSPropertyOp14
 70
     1
102
RTVSPropertyOp15
 70
     1
102
RTVSPropertyOp16
 70
     1
102
RTVSPropertyOp17
 70
     1
102
RTVSPropertyOp18
 70
     1
102
RTVSPropertyOp19
 70
     1
102
RTVSPropertyOp20
 70
     1
102
RTVSPropertyOp21
 70
     1
102
RTVSPropertyOp22
 70
     1
102
RTVSPropertyOp23
 70
     1
102
RTVSPropertyOp24
 70
     1
102
RTVSPropertyOp25
 70
     1
102
RTVSPropertyOp26
 70
     1
102
RTVSPropertyOp27
 70
     1
102
RTVSPropertyOp28
 70
     1
102
RTVSPropertyOp29
 70
     1
102
RTVSPropertyOp30
 70
     1
102
RTVSPropertyOp31
 70
     1
102
RTVSPropertyOp32
 70
     1
  0
XRECORD
  5
7BA6
102
{ACAD_REACTORS
330
7BA5
102
}
330
7BA5
100
AcDbXrecord
280
     1
102
RTVSPropertyOp0
 70
     1
102
RTVSPropertyOp1
 70
     1
102
RTVSPropertyOp2
 70
     1
102
RTVSPropertyOp3
 70
     1
102
RTVSPropertyOp4
 70
     1
102
RTVSPropertyOp5
 70
     1
102
RTVSPropertyOp6
 70
     1
102
RTVSPropertyOp7
 70
     1
102
RTVSPropertyOp8
 70
     1
102
RTVSPropertyOp9
 70
     1
102
RTVSPropertyOp10
 70
     1
102
RTVSPropertyOp11
 70
     1
102
RTVSPropertyOp12
 70
     1
102
RTVSPropertyOp13
 70
     1
102
RTVSPropertyOp14
 70
     1
102
RTVSPropertyOp15
 70
     1
102
RTVSPropertyOp16
 70
     1
102
RTVSPropertyOp17
 70
     1
102
RTVSPropertyOp18
 70
     1
102
RTVSPropertyOp19
 70
     1
102
RTVSPropertyOp20
 70
     1
102
RTVSPropertyOp21
 70
     1
102
RTVSPropertyOp22
 70
     1
102
RTVSPropertyOp23
 70
     1
102
RTVSPropertyOp24
 70
     1
102
RTVSPropertyOp25
 70
     1
102
RTVSPropertyOp26
 70
     1
102
RTVSPropertyOp27
 70
     1
102
RTVSPropertyOp28
 70
     1
102
RTVSPropertyOp29
 70
     1
102
RTVSPropertyOp30
 70
     1
102
RTVSPropertyOp31
 70
     1
102
RTVSPropertyOp32
 70
     1
  0
XRECORD
  5
7BA0
102
{ACAD_REACTORS
330
7B9F
102
}
330
7B9F
100
AcDbXrecord
280
     1
102
RTVSPropertyOp0
 70
     1
102
RTVSPropertyOp1
 70
     1
102
RTVSPropertyOp2
 70
     1
102
RTVSPropertyOp3
 70
     1
102
RTVSPropertyOp4
 70
     1
102
RTVSPropertyOp5
 70
     1
102
RTVSPropertyOp6
 70
     1
102
RTVSPropertyOp7
 70
     1
102
RTVSPropertyOp8
 70
     1
102
RTVSPropertyOp9
 70
     1
102
RTVSPropertyOp10
 70
     1
102
RTVSPropertyOp11
 70
     1
102
RTVSPropertyOp12
 70
     1
102
RTVSPropertyOp13
 70
     1
102
RTVSPropertyOp14
 70
     1
102
RTVSPropertyOp15
 70
     1
102
RTVSPropertyOp16
 70
     1
102
RTVSPropertyOp17
 70
     1
102
RTVSPropertyOp18
 70
     1
102
RTVSPropertyOp19
 70
     1
102
RTVSPropertyOp20
 70
     1
102
RTVSPropertyOp21
 70
     1
102
RTVSPropertyOp22
 70
     1
102
RTVSPropertyOp23
 70
     1
102
RTVSPropertyOp24
 70
     1
102
RTVSPropertyOp25
 70
     1
102
RTVSPropertyOp26
 70
     1
102
RTVSPropertyOp27
 70
     1
102
RTVSPropertyOp28
 70
     1
102
RTVSPropertyOp29
 70
     1
102
RTVSPropertyOp30
 70
     1
102
RTVSPropertyOp31
 70
     1
102
RTVSPropertyOp32
 70
     1
  0
XRECORD
  5
7BA2
102
{ACAD_REACTORS
330
7BA1
102
}
330
7BA1
100
AcDbXrecord
280
     1
102
RTVSPropertyOp0
 70
     1
102
RTVSPropertyOp1
 70
     1
102
RTVSPropertyOp2
 70
     1
102
RTVSPropertyOp3
 70
     1
102
RTVSPropertyOp4
 70
     1
102
RTVSPropertyOp5
 70
     1
102
RTVSPropertyOp6
 70
     1
102
RTVSPropertyOp7
 70
     1
102
RTVSPropertyOp8
 70
     1
102
RTVSPropertyOp9
 70
     1
102
RTVSPropertyOp10
 70
     1
102
RTVSPropertyOp11
 70
     1
102
RTVSPropertyOp12
 70
     1
102
RTVSPropertyOp13
 70
     1
102
RTVSPropertyOp14
 70
     1
102
RTVSPropertyOp15
 70
     1
102
RTVSPropertyOp16
 70
     1
102
RTVSPropertyOp17
 70
     1
102
RTVSPropertyOp18
 70
     1
102
RTVSPropertyOp19
 70
     1
102
RTVSPropertyOp20
 70
     1
102
RTVSPropertyOp21
 70
     1
102
RTVSPropertyOp22
 70
     1
102
RTVSPropertyOp23
 70
     1
102
RTVSPropertyOp24
 70
     1
102
RTVSPropertyOp25
 70
     1
102
RTVSPropertyOp26
 70
     1
102
RTVSPropertyOp27
 70
     1
102
RTVSPropertyOp28
 70
     1
102
RTVSPropertyOp29
 70
     1
102
RTVSPropertyOp30
 70
     1
102
RTVSPropertyOp31
 70
     1
102
RTVSPropertyOp32
 70
     1
  0
XRECORD
  5
7B94
102
{ACAD_REACTORS
330
7B93
102
}
330
7B93
100
AcDbXrecord
280
     1
102
RTVSPropertyOp0
 70
     1
102
RTVSPropertyOp1
 70
     1
102
RTVSPropertyOp2
 70
     1
102
RTVSPropertyOp3
 70
     1
102
RTVSPropertyOp4
 70
     1
102
RTVSPropertyOp5
 70
     1
102
RTVSPropertyOp6
 70
     1
102
RTVSPropertyOp7
 70
     1
102
RTVSPropertyOp8
 70
     1
102
RTVSPropertyOp9
 70
     1
102
RTVSPropertyOp10
 70
     1
102
RTVSPropertyOp11
 70
     1
102
RTVSPropertyOp12
 70
     1
102
RTVSPropertyOp13
 70
     1
102
RTVSPropertyOp14
 70
     1
102
RTVSPropertyOp15
 70
     1
102
RTVSPropertyOp16
 70
     1
102
RTVSPropertyOp17
 70
     1
102
RTVSPropertyOp18
 70
     1
102
RTVSPropertyOp19
 70
     1
102
RTVSPropertyOp20
 70
     1
102
RTVSPropertyOp21
 70
     1
102
RTVSPropertyOp22
 70
     1
102
RTVSPropertyOp23
 70
     1
102
RTVSPropertyOp24
 70
     1
102
RTVSPropertyOp25
 70
     1
102
RTVSPropertyOp26
 70
     1
102
RTVSPropertyOp27
 70
     1
102
RTVSPropertyOp28
 70
     1
102
RTVSPropertyOp29
 70
     1
102
RTVSPropertyOp30
 70
     1
102
RTVSPropertyOp31
 70
     1
102
RTVSPropertyOp32
 70
     1
  0
XRECORD
  5
7B9C
102
{ACAD_REACTORS
330
7B9B
102
}
330
7B9B
100
AcDbXrecord
280
     1
102
RTVSPropertyOp0
 70
     1
102
RTVSPropertyOp1
 70
     1
102
RTVSPropertyOp2
 70
     1
102
RTVSPropertyOp3
 70
     1
102
RTVSPropertyOp4
 70
     1
102
RTVSPropertyOp5
 70
     1
102
RTVSPropertyOp6
 70
     1
102
RTVSPropertyOp7
 70
     1
102
RTVSPropertyOp8
 70
     1
102
RTVSPropertyOp9
 70
     1
102
RTVSPropertyOp10
 70
     1
102
RTVSPropertyOp11
 70
     1
102
RTVSPropertyOp12
 70
     1
102
RTVSPropertyOp13
 70
     1
102
RTVSPropertyOp14
 70
     1
102
RTVSPropertyOp15
 70
     1
102
RTVSPropertyOp16
 70
     1
102
RTVSPropertyOp17
 70
     1
102
RTVSPropertyOp18
 70
     1
102
RTVSPropertyOp19
 70
     1
102
RTVSPropertyOp20
 70
     1
102
RTVSPropertyOp21
 70
     1
102
RTVSPropertyOp22
 70
     1
102
RTVSPropertyOp23
 70
     1
102
RTVSPropertyOp24
 70
     1
102
RTVSPropertyOp25
 70
     1
102
RTVSPropertyOp26
 70
     1
102
RTVSPropertyOp27
 70
     1
102
RTVSPropertyOp28
 70
     1
102
RTVSPropertyOp29
 70
     1
102
RTVSPropertyOp30
 70
     1
102
RTVSPropertyOp31
 70
     1
102
RTVSPropertyOp32
 70
     1
  0
XRECORD
  5
7BA4
102
{ACAD_REACTORS
330
7BA3
102
}
330
7BA3
100
AcDbXrecord
280
     1
102
RTVSPropertyOp0
 70
     1
102
RTVSPropertyOp1
 70
     1
102
RTVSPropertyOp2
 70
     1
102
RTVSPropertyOp3
 70
     1
102
RTVSPropertyOp4
 70
     1
102
RTVSPropertyOp5
 70
     1
102
RTVSPropertyOp6
 70
     1
102
RTVSPropertyOp7
 70
     1
102
RTVSPropertyOp8
 70
     1
102
RTVSPropertyOp9
 70
     1
102
RTVSPropertyOp10
 70
     1
102
RTVSPropertyOp11
 70
     1
102
RTVSPropertyOp12
 70
     1
102
RTVSPropertyOp13
 70
     1
102
RTVSPropertyOp14
 70
     1
102
RTVSPropertyOp15
 70
     1
102
RTVSPropertyOp16
 70
     1
102
RTVSPropertyOp17
 70
     1
102
RTVSPropertyOp18
 70
     1
102
RTVSPropertyOp19
 70
     1
102
RTVSPropertyOp20
 70
     1
102
RTVSPropertyOp21
 70
     1
102
RTVSPropertyOp22
 70
     1
102
RTVSPropertyOp23
 70
     1
102
RTVSPropertyOp24
 70
     1
102
RTVSPropertyOp25
 70
     1
102
RTVSPropertyOp26
 70
     1
102
RTVSPropertyOp27
 70
     1
102
RTVSPropertyOp28
 70
     1
102
RTVSPropertyOp29
 70
     1
102
RTVSPropertyOp30
 70
     1
102
RTVSPropertyOp31
 70
     1
102
RTVSPropertyOp32
 70
     1
  0
ENDSEC
  0
EOF
