  0
SECTION
  2
HEADER
  9
$ACADVER
  1
AC1015
  9
$ACADMAINTVER
 70
    20
  9
$DWGCODEPAGE
  3
ANSI_949
  9
$INSBASE
 10
0.0
 20
0.0
 30
0.0
  9
$EXTMIN
 10
-0.0128164049386896
 20
-0.0104665124414396
 30
-0.0015258207003583
  9
$EXTMAX
 10
454.0109263104514
 20
162.468368612497
 30
0.0000000349246037
  9
$LIMMIN
 10
0.0
 20
0.0
  9
$LIMMAX
 10
420.0
 20
297.0
  9
$ORTHOMODE
 70
     1
  9
$REGENMODE
 70
     1
  9
$FILLMODE
 70
     1
  9
$QTEXTMODE
 70
     0
  9
$MIRRTEXT
 70
     1
  9
$LTSCALE
 40
10.0
  9
$ATTMODE
 70
     1
  9
$TEXTSIZE
 40
3.149999999999999
  9
$TRACEWID
 40
0.05
  9
$TEXTSTYLE
  7
CIWHS
  9
$CLAYER
  8
0
  9
$CELTYPE
  6
BYLAYER
  9
$CECOLOR
 62
   256
  9
$CELTSCALE
 40
1.0
  9
$DISPSILH
 70
     0
  9
$DIMSCALE
 40
2.0
  9
$DIMASZ
 40
2.5
  9
$DIMEXO
 40
0.8
  9
$DIMDLI
 40
0.8
  9
$DIMRND
 40
0.0
  9
$DIMDLE
 40
0.0
  9
$DIMEXE
 40
0.8
  9
$DIMTP
 40
0.0
  9
$DIMTM
 40
0.0
  9
$DIMTXT
 40
3.0
  9
$DIMCEN
 40
-1.0
  9
$DIMTSZ
 40
0.0
  9
$DIMTOL
 70
     0
  9
$DIMLIM
 70
     0
  9
$DIMTIH
 70
     0
  9
$DIMTOH
 70
     0
  9
$DIMSE1
 70
     0
  9
$DIMSE2
 70
     0
  9
$DIMTAD
 70
     3
  9
$DIMZIN
 70
     8
  9
$DIMBLK
  1

  9
$DIMASO
 70
     1
  9
$DIMSHO
 70
     1
  9
$DIMPOST
  1

  9
$DIMAPOST
  1

  9
$DIMALT
 70
     0
  9
$DIMALTD
 70
     2
  9
$DIMALTF
 40
25.4
  9
$DIMLFAC
 40
1.0
  9
$DIMTOFL
 70
     1
  9
$DIMTVP
 40
0.0
  9
$DIMTIX
 70
     0
  9
$DIMSOXD
 70
     0
  9
$DIMSAH
 70
     0
  9
$DIMBLK1
  1

  9
$DIMBLK2
  1

  9
$DIMSTYLE
  2
STANDARD
  9
$DIMCLRD
 70
   115
  9
$DIMCLRE
 70
   115
  9
$DIMCLRT
 70
     7
  9
$DIMTFAC
 40
1.0
  9
$DIMGAP
 40
1.0
  9
$DIMJUST
 70
     0
  9
$DIMSD1
 70
     0
  9
$DIMSD2
 70
     0
  9
$DIMTOLJ
 70
     1
  9
$DIMTZIN
 70
     0
  9
$DIMALTZ
 70
     0
  9
$DIMALTTZ
 70
     0
  9
$DIMUPT
 70
     0
  9
$DIMDEC
 70
     3
  9
$DIMTDEC
 70
     4
  9
$DIMALTU
 70
     2
  9
$DIMALTTD
 70
     2
  9
$DIMTXSTY
  7
STANDARD
  9
$DIMAUNIT
 70
     0
  9
$DIMADEC
 70
     0
  9
$DIMALTRND
 40
0.0
  9
$DIMAZIN
 70
     0
  9
$DIMDSEP
 70
    46
  9
$DIMATFIT
 70
     3
  9
$DIMFRAC
 70
     0
  9
$DIMLDRBLK
  1

  9
$DIMLUNIT
 70
     2
  9
$DIMLWD
 70
    -2
  9
$DIMLWE
 70
    -2
  9
$DIMTMOVE
 70
     0
  9
$LUNITS
 70
     2
  9
$LUPREC
 70
     4
  9
$SKETCHINC
 40
0.1
  9
$FILLETRAD
 40
0.0
  9
$AUNITS
 70
     0
  9
$AUPREC
 70
     0
  9
$MENU
  1
.
  9
$ELEVATION
 40
0.0
  9
$PELEVATION
 40
0.0
  9
$THICKNESS
 40
0.0
  9
$LIMCHECK
 70
     0
  9
$CHAMFERA
 40
1.0
  9
$CHAMFERB
 40
1.0
  9
$CHAMFERC
 40
1.0
  9
$CHAMFERD
 40
0.0
  9
$SKPOLY
 70
     1
  9
$TDCREATE
 40
2452464.575009942
  9
$TDUCREATE
 40
2452464.200009942
  9
$TDUPDATE
 40
2456846.821468715
  9
$TDUUPDATE
 40
2456846.446468715
  9
$TDINDWG
 40
0.5175625116
  9
$TDUSRTIMER
 40
0.5175625116
  9
$USRTIMER
 70
     1
  9
$ANGBASE
 50
0.0
  9
$ANGDIR
 70
     0
  9
$PDMODE
 70
     0
  9
$PDSIZE
 40
0.0
  9
$PLINEWID
 40
0.5
  9
$SPLFRAME
 70
     0
  9
$SPLINETYPE
 70
     6
  9
$SPLINESEGS
 70
     8
  9
$HANDSEED
  5
A252
  9
$SURFTAB1
 70
     6
  9
$SURFTAB2
 70
     6
  9
$SURFTYPE
 70
     6
  9
$SURFU
 70
     6
  9
$SURFV
 70
     6
  9
$UCSBASE
  2

  9
$UCSNAME
  2

  9
$UCSORG
 10
0.0
 20
0.0
 30
0.0
  9
$UCSXDIR
 10
1.0
 20
0.0
 30
0.0
  9
$UCSYDIR
 10
0.0
 20
1.0
 30
0.0
  9
$UCSORTHOREF
  2

  9
$UCSORTHOVIEW
 70
     0
  9
$UCSORGTOP
 10
0.0
 20
0.0
 30
0.0
  9
$UCSORGBOTTOM
 10
0.0
 20
0.0
 30
0.0
  9
$UCSORGLEFT
 10
0.0
 20
0.0
 30
0.0
  9
$UCSORGRIGHT
 10
0.0
 20
0.0
 30
0.0
  9
$UCSORGFRONT
 10
0.0
 20
0.0
 30
0.0
  9
$UCSORGBACK
 10
0.0
 20
0.0
 30
0.0
  9
$PUCSBASE
  2

  9
$PUCSNAME
  2

  9
$PUCSORG
 10
0.0
 20
0.0
 30
0.0
  9
$PUCSXDIR
 10
1.0
 20
0.0
 30
0.0
  9
$PUCSYDIR
 10
0.0
 20
1.0
 30
0.0
  9
$PUCSORTHOREF
  2

  9
$PUCSORTHOVIEW
 70
     0
  9
$PUCSORGTOP
 10
0.0
 20
0.0
 30
0.0
  9
$PUCSORGBOTTOM
 10
0.0
 20
0.0
 30
0.0
  9
$PUCSORGLEFT
 10
0.0
 20
0.0
 30
0.0
  9
$PUCSORGRIGHT
 10
0.0
 20
0.0
 30
0.0
  9
$PUCSORGFRONT
 10
0.0
 20
0.0
 30
0.0
  9
$PUCSORGBACK
 10
0.0
 20
0.0
 30
0.0
  9
$USERI1
 70
     0
  9
$USERI2
 70
   452
  9
$USERI3
 70
     1
  9
$USERI4
 70
     0
  9
$USERI5
 70
     0
  9
$USERR1
 40
0.0
  9
$USERR2
 40
0.0
  9
$USERR3
 40
0.0
  9
$USERR4
 40
0.0
  9
$USERR5
 40
0.0
  9
$WORLDVIEW
 70
     1
  9
$SHADEDGE
 70
     3
  9
$SHADEDIF
 70
    70
  9
$TILEMODE
 70
     1
  9
$MAXACTVP
 70
    48
  9
$PINSBASE
 10
0.0
 20
0.0
 30
0.0
  9
$PLIMCHECK
 70
     0
  9
$PEXTMIN
 10
1.000000000000000E+20
 20
1.000000000000000E+20
 30
1.000000000000000E+20
  9
$PEXTMAX
 10
-1.000000000000000E+20
 20
-1.000000000000000E+20
 30
-1.000000000000000E+20
  9
$PLIMMIN
 10
0.0
 20
0.0
  9
$PLIMMAX
 10
12.0
 20
9.0
  9
$UNITMODE
 70
     0
  9
$VISRETAIN
 70
     1
  9
$PLINEGEN
 70
     0
  9
$PSLTSCALE
 70
     1
  9
$TREEDEPTH
 70
  3020
  9
$CMLSTYLE
  2
STANDARD
  9
$CMLJUST
 70
     0
  9
$CMLSCALE
 40
1.0
  9
$PROXYGRAPHICS
 70
     1
  9
$MEASUREMENT
 70
     0
  9
$CELWEIGHT
370
    -1
  9
$ENDCAPS
280
     0
  9
$JOINSTYLE
280
     0
  9
$LWDISPLAY
290
     0
  9
$INSUNITS
 70
     0
  9
$HYPERLINKBASE
  1

  9
$STYLESHEET
  1

  9
$XEDIT
290
     1
  9
$CEPSNTYPE
380
     0
  9
$PSTYLEMODE
290
     1
  9
$FINGERPRINTGUID
  2
{521904E0-6C97-47A1-8761-35AEC2D973D5}
  9
$VERSIONGUID
  2
{8DE6C57A-FCD3-424B-958D-D0ADD742A888}
  9
$EXTNAMES
290
     1
  9
$PSVPSCALE
 40
0.0
  9
$OLESTARTUP
290
     0
  0
ENDSEC
  0
SECTION
  2
CLASSES
  0
CLASS
  1
DICTIONARYVAR
  2
AcDbDictionaryVar
  3
ObjectDBX Classes
 90
        0
280
     0
281
     0
  0
CLASS
  1
ACDBDICTIONARYWDFLT
  2
AcDbDictionaryWithDefault
  3
ObjectDBX Classes
 90
        0
280
     0
281
     0
  0
CLASS
  1
MATERIAL
  2
AcDbMaterial
  3
ObjectDBX Classes
 90
     1153
280
     0
281
     0
  0
CLASS
  1
VISUALSTYLE
  2
AcDbVisualStyle
  3
ObjectDBX Classes
 90
     4095
280
     0
281
     0
  0
CLASS
  1
TABLESTYLE
  2
AcDbTableStyle
  3
ObjectDBX Classes
 90
     4095
280
     0
281
     0
  0
CLASS
  1
SCALE
  2
AcDbScale
  3
ObjectDBX Classes
 90
     1153
280
     0
281
     0
  0
CLASS
  1
MLEADERSTYLE
  2
AcDbMLeaderStyle
  3
ACDB_MLEADERSTYLE_CLASS
 90
     4095
280
     0
281
     0
  0
CLASS
  1
SORTENTSTABLE
  2
AcDbSortentsTable
  3
ObjectDBX Classes
 90
        0
280
     0
281
     0
  0
CLASS
  1
CELLSTYLEMAP
  2
AcDbCellStyleMap
  3
ObjectDBX Classes
 90
     1152
280
     0
281
     0
  0
CLASS
  1
ACDBPLACEHOLDER
  2
AcDbPlaceHolder
  3
ObjectDBX Classes
 90
        0
280
     0
281
     0
  0
CLASS
  1
LAYOUT
  2
AcDbLayout
  3
ObjectDBX Classes
 90
        0
280
     0
281
     0
  0
CLASS
  1
ACAD_EVALUATION_GRAPH
  2
AcDbEvalGraph
  3
ObjectDBX Classes
 90
     1153
280
     0
281
     0
  0
CLASS
  1
ACAECUSTOBJ
  2
AcAeEditorObj
  3
AcAeEditorObj
 90
     1024
280
     0
281
     0
  0
CLASS
  1
ACDB_DYNAMICBLOCKPURGEPREVENTER_VERSION
  2
AcDbDynamicBlockPurgePreventer
  3
ObjectDBX Classes
 90
     1153
280
     0
281
     0
  0
ENDSEC
  0
SECTION
  2
TABLES
  0
TABLE
  2
VPORT
  5
8
102
{ACAD_XDICTIONARY
360
9CD5
102
}
330
0
100
AcDbSymbolTable
 70
     1
  0
VPORT
  5
8E56
330
8
100
AcDbSymbolTableRecord
100
AcDbViewportTableRecord
  2
*ACTIVE
 70
     0
 10
0.0
 20
0.0
 11
1.0
 21
1.0
 12
226.9990549527563
 22
81.22895105002779
 13
0.0
 23
0.0
 14
0.5
 24
0.5
 15
0.5
 25
0.5
 16
0.0
 26
0.0
 36
1.0
 17
0.0
 27
0.0
 37
0.0
 40
201.9325044005119
 41
2.257287705956907
 42
50.0
 43
0.0
 44
0.0
 50
0.0
 51
0.0
 71
     0
 72
   100
 73
     1
 74
     1
 75
     0
 76
     0
 77
     0
 78
     0
281
     0
 65
     1
110
0.0
120
0.0
130
0.0
111
1.0
121
0.0
131
0.0
112
0.0
122
1.0
132
0.0
 79
     0
146
0.0
1001
ACAD_NAV_VCDISPLAY
1070
     3
  0
ENDTAB
  0
TABLE
  2
LTYPE
  5
5
330
0
100
AcDbSymbolTable
 70
     4
  0
LTYPE
  5
13
330
5
100
AcDbSymbolTableRecord
100
AcDbLinetypeTableRecord
  2
BYBLOCK
 70
     0
  3

 72
    65
 73
     0
 40
0.0
  0
LTYPE
  5
14
330
5
100
AcDbSymbolTableRecord
100
AcDbLinetypeTableRecord
  2
BYLAYER
 70
     0
  3

 72
    65
 73
     0
 40
0.0
  0
LTYPE
  5
15
330
5
100
AcDbSymbolTableRecord
100
AcDbLinetypeTableRecord
  2
CONTINUOUS
 70
     0
  3
Solid line
 72
    65
 73
     0
 40
0.0
  0
LTYPE
  5
5D
330
5
100
AcDbSymbolTableRecord
100
AcDbLinetypeTableRecord
  2
CENTER
 70
     0
  3
Center ____ _ ____ _ ____ _ ____ _ ____ _ ____
 72
    65
 73
     4
 40
2.0
 49
1.25
 74
     0
 49
-0.25
 74
     0
 49
0.25
 74
     0
 49
-0.25
 74
     0
  0
LTYPE
  5
5E
330
5
100
AcDbSymbolTableRecord
100
AcDbLinetypeTableRecord
  2
HIDDEN
 70
     0
  3
Hidden __ __ __ __ __ __ __ __ __ __ __ __ __ _
 72
    65
 73
     2
 40
0.375
 49
0.25
 74
     0
 49
-0.125
 74
     0
  0
ENDTAB
  0
TABLE
  2
LAYER
  5
2
102
{ACAD_XDICTIONARY
360
9D95
102
}
330
0
100
AcDbSymbolTable
 70
     5
  0
LAYER
  5
F
102
{ACAD_XDICTIONARY
360
9C56
102
}
330
2
100
AcDbSymbolTableRecord
100
AcDbLayerTableRecord
  2
0
 70
     0
 62
     7
  6
CONTINUOUS
370
    -3
390
8E59
  0
LAYER
  5
55
102
{ACAD_XDICTIONARY
360
9C58
102
}
330
2
100
AcDbSymbolTableRecord
100
AcDbLayerTableRecord
  2
9
 70
     0
 62
     3
  6
CONTINUOUS
370
    -3
390
8E59
  0
LAYER
  5
61
102
{ACAD_XDICTIONARY
360
9C5A
102
}
330
2
100
AcDbSymbolTableRecord
100
AcDbLayerTableRecord
  2
1
 70
     0
 62
     1
  6
CENTER
370
    -3
390
8E59
  0
LAYER
  5
62
102
{ACAD_XDICTIONARY
360
9C5C
102
}
330
2
100
AcDbSymbolTableRecord
100
AcDbLayerTableRecord
  2
2
 70
     0
 62
     2
  6
HIDDEN
370
    -3
390
8E59
  0
LAYER
  5
24EF
330
2
100
AcDbSymbolTableRecord
100
AcDbLayerTableRecord
  2
DEFPOINTS
 70
     0
 62
     7
  6
CONTINUOUS
290
     0
370
    -3
390
8E59
  0
ENDTAB
  0
TABLE
  2
STYLE
  5
3
330
0
100
AcDbSymbolTable
 70
     3
  0
STYLE
  5
10
330
3
100
AcDbSymbolTableRecord
100
AcDbTextStyleTableRecord
  2
STANDARD
 70
     0
 40
0.0
 41
1.0
 50
0.0
 71
     0
 42
3.0
  3
romans.shx
  4

  0
STYLE
  5
24FC
330
3
100
AcDbSymbolTableRecord
100
AcDbTextStyleTableRecord
  2
CIWHS
 70
     0
 40
0.0
 41
1.0
 50
0.0
 71
     0
 42
3.149999999999999
  3
CIES
  4
CIWHS
  0
ENDTAB
  0
TABLE
  2
VIEW
  5
6
330
0
100
AcDbSymbolTable
 70
     0
  0
ENDTAB
  0
TABLE
  2
UCS
  5
7
330
0
100
AcDbSymbolTable
 70
     0
  0
ENDTAB
  0
TABLE
  2
APPID
  5
9
330
0
100
AcDbSymbolTable
 70
     9
  0
APPID
  5
11
330
9
100
AcDbSymbolTableRecord
100
AcDbRegAppTableRecord
  2
ACAD
 70
     0
  0
APPID
  5
2325
330
9
100
AcDbSymbolTableRecord
100
AcDbRegAppTableRecord
  2
MCLBOMATTRIB
 70
     0
  0
APPID
  5
2326
330
9
100
AcDbSymbolTableRecord
100
AcDbRegAppTableRecord
  2
MCLBOM
 70
     0
  0
APPID
  5
9015
330
9
100
AcDbSymbolTableRecord
100
AcDbRegAppTableRecord
  2
ACAD_NAV_VCDISPLAY
 70
     0
  0
APPID
  5
9260
330
9
100
AcDbSymbolTableRecord
100
AcDbRegAppTableRecord
  2
ACAD_EXEMPT_FROM_CAD_STANDARDS
 70
     0
  0
APPID
  5
9D35
330
9
100
AcDbSymbolTableRecord
100
AcDbRegAppTableRecord
  2
ACAD_MLEADERVER
 70
     0
  0
APPID
  5
9FEB
330
9
100
AcDbSymbolTableRecord
100
AcDbRegAppTableRecord
  2
ACAUTHENVIRON
 70
     0
  0
APPID
  5
9FEF
330
9
100
AcDbSymbolTableRecord
100
AcDbRegAppTableRecord
  2
AcDbDynamicBlockTrueName
 70
     0
  0
APPID
  5
9FF0
330
9
100
AcDbSymbolTableRecord
100
AcDbRegAppTableRecord
  2
AcDbDynamicBlockGUID
 70
     0
  0
ENDTAB
  0
TABLE
  2
DIMSTYLE
  5
A
330
0
100
AcDbSymbolTable
 70
     2
100
AcDbDimStyleTable
 71
     1
340
1D
  0
DIMSTYLE
105
1D
102
{ACAD_REACTORS
330
99D1
330
99D2
330
99D3
330
99D4
330
99D5
330
99D6
330
99D7
330
99D8
330
99D9
330
99DA
330
99DB
330
99DC
330
99DE
330
99DF
330
99E0
330
99E1
330
99E2
330
99E3
330
99E7
330
99E8
330
99E9
102
}
330
A
100
AcDbSymbolTableRecord
100
AcDbDimStyleTableRecord
  2
STANDARD
 70
     0
 41
2.0
140
3.0
176
     2
177
     2
178
     4
340
10
  0
ENDTAB
  0
TABLE
  2
BLOCK_RECORD
  5
1
330
0
100
AcDbSymbolTable
 70
    27
  0
BLOCK_RECORD
  5
19
102
{ACAD_XDICTIONARY
360
925D
102
}
330
1
100
AcDbSymbolTableRecord
100
AcDbBlockTableRecord
  2
*MODEL_SPACE
340
8EA5
  0
BLOCK_RECORD
  5
16
330
1
100
AcDbSymbolTableRecord
100
AcDbBlockTableRecord
  2
*PAPER_SPACE
340
8EA6
  0
BLOCK_RECORD
  5
8F9C
102
{ACAD_XDICTIONARY
360
8F9D
102
}
330
1
100
AcDbSymbolTableRecord
100
AcDbBlockTableRecord
  2
A$C206831CA
340
0
102
{BLKREFS
331
99EA
102
}
  0
BLOCK_RECORD
  5
9A0E
330
1
100
AcDbSymbolTableRecord
100
AcDbBlockTableRecord
  2
*D1
340
0
  0
BLOCK_RECORD
  5
9A1A
330
1
100
AcDbSymbolTableRecord
100
AcDbBlockTableRecord
  2
*D2
340
0
  0
BLOCK_RECORD
  5
9A26
330
1
100
AcDbSymbolTableRecord
100
AcDbBlockTableRecord
  2
*D3
340
0
  0
BLOCK_RECORD
  5
9A32
330
1
100
AcDbSymbolTableRecord
100
AcDbBlockTableRecord
  2
*D4
340
0
  0
BLOCK_RECORD
  5
9A3E
330
1
100
AcDbSymbolTableRecord
100
AcDbBlockTableRecord
  2
*D5
340
0
  0
BLOCK_RECORD
  5
9A4A
330
1
100
AcDbSymbolTableRecord
100
AcDbBlockTableRecord
  2
*D6
340
0
  0
BLOCK_RECORD
  5
9A56
330
1
100
AcDbSymbolTableRecord
100
AcDbBlockTableRecord
  2
*D7
340
0
  0
BLOCK_RECORD
  5
9A62
330
1
100
AcDbSymbolTableRecord
100
AcDbBlockTableRecord
  2
*D8
340
0
  0
BLOCK_RECORD
  5
9A70
330
1
100
AcDbSymbolTableRecord
100
AcDbBlockTableRecord
  2
*D9
340
0
  0
BLOCK_RECORD
  5
9A7C
330
1
100
AcDbSymbolTableRecord
100
AcDbBlockTableRecord
  2
*D10
340
0
  0
BLOCK_RECORD
  5
9A88
330
1
100
AcDbSymbolTableRecord
100
AcDbBlockTableRecord
  2
*D11
340
0
  0
BLOCK_RECORD
  5
9A95
330
1
100
AcDbSymbolTableRecord
100
AcDbBlockTableRecord
  2
*D12
340
0
  0
BLOCK_RECORD
  5
9AAD
330
1
100
AcDbSymbolTableRecord
100
AcDbBlockTableRecord
  2
*D13
340
0
  0
BLOCK_RECORD
  5
9AB9
330
1
100
AcDbSymbolTableRecord
100
AcDbBlockTableRecord
  2
*D14
340
0
  0
BLOCK_RECORD
  5
9AC5
330
1
100
AcDbSymbolTableRecord
100
AcDbBlockTableRecord
  2
*D15
340
0
  0
BLOCK_RECORD
  5
9AD1
330
1
100
AcDbSymbolTableRecord
100
AcDbBlockTableRecord
  2
*D16
340
0
  0
BLOCK_RECORD
  5
9ADF
330
1
100
AcDbSymbolTableRecord
100
AcDbBlockTableRecord
  2
*D17
340
0
  0
BLOCK_RECORD
  5
9AED
330
1
100
AcDbSymbolTableRecord
100
AcDbBlockTableRecord
  2
*D18
340
0
  0
BLOCK_RECORD
  5
9AF9
330
1
100
AcDbSymbolTableRecord
100
AcDbBlockTableRecord
  2
*D19
340
0
  0
BLOCK_RECORD
  5
9B07
330
1
100
AcDbSymbolTableRecord
100
AcDbBlockTableRecord
  2
*D20
340
0
  0
BLOCK_RECORD
  5
9B13
330
1
100
AcDbSymbolTableRecord
100
AcDbBlockTableRecord
  2
*D21
340
0
  0
BLOCK_RECORD
  5
9C31
102
{ACAD_XDICTIONARY
360
9C48
102
}
330
1
100
AcDbSymbolTableRecord
100
AcDbBlockTableRecord
  2
A$C6F0B1B4C
340
0
102
{BLKREFS
331
9C4C
102
}
  0
BLOCK_RECORD
  5
9ECA
102
{ACAD_XDICTIONARY
360
A168
102
}
330
1
100
AcDbSymbolTableRecord
100
AcDbBlockTableRecord
  2
4040SDH
340
0
310
2800000020000000200000000100080000000000000400000000000000000000000000000000000000000000000080000080000000808000800000008000800080800000C0C0C000C0DCC000F0CAA6000020400000206000002080000020A0000020C0000020E00000400000004020000040400000406000004080000040A0
310
000040C0000040E00000600000006020000060400000606000006080000060A0000060C0000060E00000800000008020000080400000806000008080000080A0000080C0000080E00000A0000000A0200000A0400000A0600000A0800000A0A00000A0C00000A0E00000C0000000C0200000C0400000C0600000C0800000C0
310
A00000C0C00000C0E00000E0000000E0200000E0400000E0600000E0800000E0A00000E0C00000E0E00040000000400020004000400040006000400080004000A0004000C0004000E00040200000402020004020400040206000402080004020A0004020C0004020E000404000004040200040404000404060004040800040
310
40A0004040C0004040E00040600000406020004060400040606000406080004060A0004060C0004060E00040800000408020004080400040806000408080004080A0004080C0004080E00040A0000040A0200040A0400040A0600040A0800040A0A00040A0C00040A0E00040C0000040C0200040C0400040C0600040C08000
310
40C0A00040C0C00040C0E00040E0000040E0200040E0400040E0600040E0800040E0A00040E0C00040E0E00080000000800020008000400080006000800080008000A0008000C0008000E00080200000802020008020400080206000802080008020A0008020C0008020E00080400000804020008040400080406000804080
310
008040A0008040C0008040E00080600000806020008060400080606000806080008060A0008060C0008060E00080800000808020008080400080806000808080008080A0008080C0008080E00080A0000080A0200080A0400080A0600080A0800080A0A00080A0C00080A0E00080C0000080C0200080C0400080C0600080C0
310
800080C0A00080C0C00080C0E00080E0000080E0200080E0400080E0600080E0800080E0A00080E0C00080E0E000C0000000C0002000C0004000C0006000C0008000C000A000C000C000C000E000C0200000C0202000C0204000C0206000C0208000C020A000C020C000C020E000C0400000C0402000C0404000C0406000C0
310
408000C040A000C040C000C040E000C0600000C0602000C0604000C0606000C0608000C060A000C060C000C060E000C0800000C0802000C0804000C0806000C0808000C080A000C080C000C080E000C0A00000C0A02000C0A04000C0A06000C0A08000C0A0A000C0A0C000C0A0E000C0C00000C0C02000C0C04000C0C06000
310
C0C08000C0C0A000F0FBFF00A4A0A000808080000000FF0000FF000000FFFF00FF000000FF00FF00FFFF0000FFFFFF0049494949494949494949494949494949494949494949494949494949494949494949494949494949494949494949494949494949494949494949494949494949494949494949494949494949494949
310
4949494949FFFFFFFFFF494949494949494949494949494949494949494949494949494949FF494949FF494949494949494949494949494949494949494949494949494949FF494949FF494949494949494949494949494949494949494949494949494949FF494949FF4949494949494949FFFFFFFFFFFFFFFFFFFFFFFFFF
310
FFFFFFFFFFFFFF494949FFFFFFFFFFFFFF4949FFFF4949494949494949494949494949494949FFFFFFFFFF49494949FFFF4949FFFF4949494949494949494949494949494949FA494949FA49494949FFFF4949FFFF4949494949494949494949494949494949FA494949FA49494949FFFF4949FFFFFBFBFBFBFBFBFBFBFBFB
310
FBFBFBFBFBFBFBFBFAFBFAFBFBFBFBFBFFFF4949FFFF4949494949494949494949494949494949FFFA49FAFF49494949FFFF4949FFFF4949494949494949494949494949494949FFFA49FAFF49494949FFFF4949FFFF4949494949494949494949494949494949FFFA49FAFF49494949FFFF4949FFFF494949494949494949
310
4949494949494949FF49FA49FF49494949FFFF4949FFFF4949494949FFFFFFFFFFFFFFFF49494949FF49FA49FF49494949FFFF4949FFFF4949494949FFFFFFFFFFFFFFFF49494949FF49FA49FF49494949FFFF4949FFFF4949494949494949494949494949494949FF49FA49FF49494949FFFF4949FFFF4949494949494949
310
494949494949494949FFFA49FAFF49494949FFFF4949FFFF4949494949494949494949494949494949FFFA49FAFF49494949FFFF4949FFFF4949494949494949494949494949494949FFFA49FAFF49494949FFFF4949FFFFFBFBFBFBFBFBFBFBFBFBFBFBFBFBFBFBFBFBFAFBFAFBFBFBFBFBFFFF4949FFFF49494949494949
310
49494949494949494949FA494949FA49494949FFFF4949FFFF4949494949494949494949494949494949FA494949FA49494949FFFF4949FFFF4949494949494949494949494949494949FFFFFFFFFF49494949FFFF4949FFFFFFFFFFFFFFFFFFFFFFFFFFFFFFFFFFFFFFFF494949FFFFFFFFFFFFFF49494949494949494949
310
4949494949494949494949FFFAFAFAFF494949494949494949494949494949494949494949494949494949FFFA49FAFF494949494949494949494949494949494949494949494949494949FFFFFAFAFF494949494949494949494949494949494949494949494949494949FFFFFFFFFF494949494949494949494949494949
310
4949494949494949494949494949494949494949494949494949494949494949494949494949494949494949494949494949494949494949
102
{BLKREFS
331
9EEE
102
}
1001
AcDbDynamicBlockGUID
1000
{5B3BF864-C96D-4B4C-8FFA-C65F19830E18}
  0
ENDTAB
  0
ENDSEC
  0
SECTION
  2
BLOCKS
  0
BLOCK
  5
1A
330
19
100
AcDbEntity
  8
0
100
AcDbBlockBegin
  2
*MODEL_SPACE
 70
     0
 10
0.0
 20
0.0
 30
0.0
  3
*MODEL_SPACE
  1

  0
ENDBLK
  5
1B
330
19
100
AcDbEntity
  8
0
100
AcDbBlockEnd
  0
BLOCK
  5
17
330
16
100
AcDbEntity
 67
     1
  8
0
100
AcDbBlockBegin
  2
*PAPER_SPACE
 70
     0
 10
0.0
 20
0.0
 30
0.0
  3
*PAPER_SPACE
  1

  0
ENDBLK
  5
18
330
16
100
AcDbEntity
 67
     1
  8
0
100
AcDbBlockEnd
  0
BLOCK
  5
8F9F
330
8F9C
100
AcDbEntity
  8
0
100
AcDbBlockBegin
  2
A$C206831CA
 70
     0
 10
0.0
 20
0.0
 30
0.0
  3
A$C206831CA
  1

  0
TEXT
  5
8FA0
330
8F9C
100
AcDbEntity
  8
0
100
AcDbText
 10
32.2500023093877
 20
17.79999985391214
 30
0.0
 40
4.0
  1
RM4040
 72
     4
 11
44.2500023093877
 21
19.79999985391214
 31
0.0
100
AcDbText
  0
LINE
  5
8FA1
330
8F9C
100
AcDbEntity
  8
0
  6
Continuous
100
AcDbLine
 10
-0.0000006906123247
 20
39.59999985391187
 30
0.0
 11
299.9999993093877
 21
39.59999985391187
 31
0.0
  0
LINE
  5
8FA2
330
8F9C
100
AcDbEntity
  8
0
  6
Continuous
100
AcDbLine
 10
-0.0000006906123531
 20
-0.0000001460881549
 30
0.0
 11
299.9999993093877
 21
-0.0000001460881549
 31
0.0
  0
LINE
  5
8FA3
330
8F9C
100
AcDbEntity
  8
9
  6
Continuous
100
AcDbLine
 10
-0.0000006906123531
 20
36.7999998539118
 30
0.0
 11
299.9999993093877
 21
36.7999998539118
 31
0.0
  0
LINE
  5
8FA4
330
8F9C
100
AcDbEntity
  8
9
  6
Continuous
100
AcDbLine
 10
-0.0000006906123247
 20
2.799999853911913
 30
0.0
 11
299.9999993093877
 21
2.799999853911913
 31
0.0
  0
LINE
  5
8FA5
330
8F9C
100
AcDbEntity
  8
0
100
AcDbLine
 10
-0.0000006906123531
 20
-0.0000001460881549
 30
0.0
 11
-0.0000006906123247
 21
39.59999985391187
 31
0.0
  0
LINE
  5
8FA6
330
8F9C
100
AcDbEntity
  8
0
100
AcDbLine
 10
299.9999993093877
 20
39.59999985391187
 30
0.0
 11
299.9999993093877
 21
-0.0000001460881549
 31
0.0
  0
ENDBLK
  5
8FA7
330
8F9C
100
AcDbEntity
  8
0
100
AcDbBlockEnd
  0
BLOCK
  5
9A0F
330
9A0E
100
AcDbEntity
  8
0
100
AcDbBlockBegin
  2
*D1
 70
     1
 10
0.0
 20
0.0
 30
0.0
  3
*D1
  1

  0
LINE
  5
9B1F
330
9A0E
100
AcDbEntity
  8
0
 62
   115
370
    -2
100
AcDbLine
 10
20.99999769422411
 20
75.99284756064117
 30
0.0
 11
10.99999769422384
 21
75.99284756064117
 31
0.0
  0
LINE
  5
9B20
330
9A0E
100
AcDbEntity
  8
0
 62
   115
370
    -2
100
AcDbLine
 10
20.99999769422408
 20
109.992847560641
 30
0.0
 11
10.99999769422385
 21
109.992847560641
 31
0.0
  0
LINE
  5
9B21
330
9A0E
100
AcDbEntity
  8
0
 62
   115
370
    -2
100
AcDbLine
 10
11.99999769422384
 20
78.99284756064116
 30
0.0
 11
11.99999769422385
 21
106.992847560641
 31
0.0
  0
SOLID
  5
9B22
330
9A0E
100
AcDbEntity
  8
0
 62
   115
100
AcDbTrace
 10
11.49999769422384
 20
78.99284756064116
 30
0.0
 11
12.49999769422384
 21
78.99284756064116
 31
0.0
 12
11.99999769422384
 22
75.99284756064117
 32
0.0
 13
11.99999769422384
 23
75.99284756064117
 33
0.0
  0
SOLID
  5
9B23
330
9A0E
100
AcDbEntity
  8
0
 62
   115
100
AcDbTrace
 10
11.49999769422385
 20
106.992847560641
 30
0.0
 11
12.49999769422385
 21
106.992847560641
 31
0.0
 12
11.99999769422385
 22
109.992847560641
 32
0.0
 13
11.99999769422385
 23
109.992847560641
 33
0.0
  0
MTEXT
  5
9B24
330
9A0E
100
AcDbEntity
  8
0
 62
     7
100
AcDbMText
 10
9.49999769422383
 20
92.9928475606411
 30
0.0
 40
3.0
 41
0.0
 71
     5
 72
     1
  1
\A1;%%C34
 11
0.0000000000000001
 21
1.0
 31
0.0
 73
     1
 44
1.0
1001
ACAD
1000
MTEXTBEGIN
1070
    73
1070
     1
1070
    44
1040
1.0
1070
    74
1070
     0
1000
MTEXTEND
  0
POINT
  5
9B25
330
9A0E
100
AcDbEntity
  8
DEFPOINTS
 62
     0
100
AcDbPoint
 10
21.99999769422411
 20
75.99284756064117
 30
0.0
  0
POINT
  5
9B26
330
9A0E
100
AcDbEntity
  8
DEFPOINTS
 62
     0
100
AcDbPoint
 10
21.99999769422408
 20
109.992847560641
 30
0.0
  0
POINT
  5
9B27
330
9A0E
100
AcDbEntity
  8
DEFPOINTS
 62
     0
100
AcDbPoint
 10
11.99999769422385
 20
109.992847560641
 30
0.0
  0
ENDBLK
  5
9A10
330
9A0E
100
AcDbEntity
  8
0
100
AcDbBlockEnd
  0
BLOCK
  5
9A1B
330
9A1A
100
AcDbEntity
  8
0
100
AcDbBlockBegin
  2
*D2
 70
     1
 10
0.0
 20
0.0
 30
0.0
  3
*D2
  1

  0
LINE
  5
9B28
330
9A1A
100
AcDbEntity
  8
0
 62
   115
370
    -2
100
AcDbLine
 10
20.99999769422408
 20
73.1928475606411
 30
0.0
 11
2.999997694223841
 21
73.1928475606411
 31
0.0
  0
LINE
  5
9B29
330
9A1A
100
AcDbEntity
  8
0
 62
   115
370
    -2
100
AcDbLine
 10
20.99999769422411
 20
112.7928475606411
 30
0.0
 11
2.99999769422385
 21
112.7928475606411
 31
0.0
  0
LINE
  5
9B2A
330
9A1A
100
AcDbEntity
  8
0
 62
   115
370
    -2
100
AcDbLine
 10
3.999997694223842
 20
76.1928475606411
 30
0.0
 11
3.99999769422385
 21
109.7928475606411
 31
0.0
  0
SOLID
  5
9B2B
330
9A1A
100
AcDbEntity
  8
0
 62
   115
100
AcDbTrace
 10
3.499997694223842
 20
76.1928475606411
 30
0.0
 11
4.499997694223842
 21
76.1928475606411
 31
0.0
 12
3.999997694223841
 22
73.1928475606411
 32
0.0
 13
3.999997694223841
 23
73.1928475606411
 33
0.0
  0
SOLID
  5
9B2C
330
9A1A
100
AcDbEntity
  8
0
 62
   115
100
AcDbTrace
 10
3.499997694223849
 20
109.7928475606411
 30
0.0
 11
4.499997694223849
 21
109.7928475606411
 31
0.0
 12
3.99999769422385
 22
112.7928475606411
 32
0.0
 13
3.99999769422385
 23
112.7928475606411
 33
0.0
  0
MTEXT
  5
9B2D
330
9A1A
100
AcDbEntity
  8
0
 62
     7
100
AcDbMText
 10
1.499997694223831
 20
92.9928475606411
 30
0.0
 40
3.0
 41
0.0
 71
     5
 72
     1
  1
\A1;%%C39.6
 11
0.0000000000000001
 21
1.0
 31
0.0
 73
     1
 44
1.0
1001
ACAD
1000
MTEXTBEGIN
1070
    73
1070
     1
1070
    44
1040
1.0
1070
    74
1070
     0
1000
MTEXTEND
  0
POINT
  5
9B2E
330
9A1A
100
AcDbEntity
  8
DEFPOINTS
 62
     0
100
AcDbPoint
 10
21.99999769422408
 20
73.1928475606411
 30
0.0
  0
POINT
  5
9B2F
330
9A1A
100
AcDbEntity
  8
DEFPOINTS
 62
     0
100
AcDbPoint
 10
21.99999769422411
 20
112.7928475606411
 30
0.0
  0
POINT
  5
9B30
330
9A1A
100
AcDbEntity
  8
DEFPOINTS
 62
     0
100
AcDbPoint
 10
3.99999769422385
 20
112.7928475606411
 30
0.0
  0
ENDBLK
  5
9A1C
330
9A1A
100
AcDbEntity
  8
0
100
AcDbBlockEnd
  0
BLOCK
  5
9A27
330
9A26
100
AcDbEntity
  8
0
100
AcDbBlockBegin
  2
*D3
 70
     1
 10
0.0
 20
0.0
 30
0.0
  3
*D3
  1

  0
LINE
  5
A01F
330
9A26
100
AcDbEntity
  8
0
 62
   115
370
    -2
100
AcDbLine
 10
121.9999975442241
 20
57.99282891064112
 30
0.0
 11
110.999997544224
 21
57.99282891064113
 31
0.0
  0
LINE
  5
A020
330
9A26
100
AcDbEntity
  8
0
 62
   115
370
    -2
100
AcDbLine
 10
121.9999975442241
 20
127.9928211106413
 30
0.0
 11
110.999997544224
 21
127.9928211106413
 31
0.0
  0
LINE
  5
A021
330
9A26
100
AcDbEntity
  8
0
 62
   115
370
    -2
100
AcDbLine
 10
111.999997544224
 20
60.99282891064113
 30
0.0
 11
111.999997544224
 21
124.9928211106413
 31
0.0
  0
SOLID
  5
A022
330
9A26
100
AcDbEntity
  8
0
 62
   115
100
AcDbTrace
 10
111.499997544224
 20
60.99282891064113
 30
0.0
 11
112.499997544224
 21
60.99282891064113
 31
0.0
 12
111.999997544224
 22
57.99282891064113
 32
0.0
 13
111.999997544224
 23
57.99282891064113
 33
0.0
  0
SOLID
  5
A023
330
9A26
100
AcDbEntity
  8
0
 62
   115
100
AcDbTrace
 10
111.499997544224
 20
124.9928211106413
 30
0.0
 11
112.499997544224
 21
124.9928211106413
 31
0.0
 12
111.999997544224
 22
127.9928211106413
 32
0.0
 13
111.999997544224
 23
127.9928211106413
 33
0.0
  0
MTEXT
  5
A024
330
9A26
100
AcDbEntity
  8
0
 62
     7
100
AcDbMText
 10
108.7142832585097
 20
92.99282501064125
 30
0.0
 40
3.0
 41
0.0
 71
     5
 72
     1
  1
\A1;%%C70 g6 ({\H0.5x;\S-0.010^ -0.029;})
 11
0.0000000000000001
 21
1.0
 31
0.0
 73
     1
 44
1.0
1001
ACAD
1000
MTEXTBEGIN
1070
    73
1070
     1
1070
    44
1040
1.0
1070
    74
1070
     0
1000
MTEXTEND
  0
POINT
  5
A025
330
9A26
100
AcDbEntity
  8
DEFPOINTS
 62
     0
100
AcDbPoint
 10
122.9999975442241
 20
57.99282891064112
 30
0.0
  0
POINT
  5
A026
330
9A26
100
AcDbEntity
  8
DEFPOINTS
 62
     0
100
AcDbPoint
 10
122.9999975442241
 20
127.9928211106413
 30
0.0
  0
POINT
  5
A027
330
9A26
100
AcDbEntity
  8
DEFPOINTS
 62
     0
100
AcDbPoint
 10
111.999997544224
 20
127.9928211106413
 30
0.0
  0
ENDBLK
  5
9A28
330
9A26
100
AcDbEntity
  8
0
100
AcDbBlockEnd
  0
BLOCK
  5
9A33
330
9A32
100
AcDbEntity
  8
0
100
AcDbBlockBegin
  2
*D4
 70
     1
 10
0.0
 20
0.0
 30
0.0
  3
*D4
  1

  0
LINE
  5
9FF2
330
9A32
100
AcDbEntity
  8
0
 62
   115
370
    -2
100
AcDbLine
 10
189.0000038442241
 20
42.99284756064119
 30
0.0
 11
189.0000038442241
 21
31.99284756064117
 31
0.0
  0
LINE
  5
9FF3
330
9A32
100
AcDbEntity
  8
0
 62
   115
370
    -2
100
AcDbLine
 10
121.9999975442241
 20
57.99282891064118
 30
0.0
 11
121.9999975442241
 21
31.99284756064117
 31
0.0
  0
LINE
  5
9FF4
330
9A32
100
AcDbEntity
  8
0
 62
   115
370
    -2
100
AcDbLine
 10
186.0000038442241
 20
32.99284756064117
 30
0.0
 11
124.9999975442241
 21
32.99284756064117
 31
0.0
  0
SOLID
  5
9FF5
330
9A32
100
AcDbEntity
  8
0
 62
   115
100
AcDbTrace
 10
186.0000038442241
 20
33.49284756064117
 30
0.0
 11
186.0000038442241
 21
32.49284756064117
 31
0.0
 12
189.0000038442241
 22
32.99284756064117
 32
0.0
 13
189.0000038442241
 23
32.99284756064117
 33
0.0
  0
SOLID
  5
9FF6
330
9A32
100
AcDbEntity
  8
0
 62
   115
100
AcDbTrace
 10
124.9999975442241
 20
33.49284756064117
 30
0.0
 11
124.9999975442241
 21
32.49284756064117
 31
0.0
 12
121.9999975442241
 22
32.99284756064117
 32
0.0
 13
121.9999975442241
 23
32.99284756064117
 33
0.0
  0
MTEXT
  5
9FF7
330
9A32
100
AcDbEntity
  8
0
 62
     7
100
AcDbMText
 10
155.5000006942241
 20
35.49284756064117
 30
0.0
 40
3.0
 41
0.0
 71
     5
 72
     1
  1
\A1;67
 73
     1
 44
1.0
1001
ACAD
1000
MTEXTBEGIN
1070
    73
1070
     1
1070
    44
1040
1.0
1070
    74
1070
     0
1000
MTEXTEND
  0
POINT
  5
9FF8
330
9A32
100
AcDbEntity
  8
DEFPOINTS
 62
     0
100
AcDbPoint
 10
189.0000038442241
 20
43.99284756064119
 30
0.0
  0
POINT
  5
9FF9
330
9A32
100
AcDbEntity
  8
DEFPOINTS
 62
     0
100
AcDbPoint
 10
121.9999975442241
 20
58.99282891064117
 30
0.0
  0
POINT
  5
9FFA
330
9A32
100
AcDbEntity
  8
DEFPOINTS
 62
     0
100
AcDbPoint
 10
121.9999975442241
 20
32.99284756064117
 30
0.0
  0
ENDBLK
  5
9A34
330
9A32
100
AcDbEntity
  8
0
100
AcDbBlockEnd
  0
BLOCK
  5
9A3F
330
9A3E
100
AcDbEntity
  8
0
100
AcDbBlockBegin
  2
*D5
 70
     1
 10
0.0
 20
0.0
 30
0.0
  3
*D5
  1

  0
LINE
  5
9F9A
330
9A3E
100
AcDbEntity
  8
0
 62
   115
370
    -2
100
AcDbLine
 10
189.0000038442241
 20
42.99284756064119
 30
0.0
 11
189.0000038442241
 21
31.99284756064117
 31
0.0
  0
LINE
  5
9F9B
330
9A3E
100
AcDbEntity
  8
0
 62
   115
370
    -2
100
AcDbLine
 10
203.0000038442241
 20
42.99284756064122
 30
0.0
 11
203.0000038442241
 21
31.99284756064117
 31
0.0
  0
LINE
  5
9F9C
330
9A3E
100
AcDbEntity
  8
0
 62
   115
370
    -2
100
AcDbLine
 10
192.0000038442241
 20
32.99284756064117
 30
0.0
 11
200.0000038442241
 21
32.99284756064117
 31
0.0
  0
SOLID
  5
9F9D
330
9A3E
100
AcDbEntity
  8
0
 62
   115
100
AcDbTrace
 10
192.0000038442241
 20
33.49284756064117
 30
0.0
 11
192.0000038442241
 21
32.49284756064117
 31
0.0
 12
189.0000038442241
 22
32.99284756064117
 32
0.0
 13
189.0000038442241
 23
32.99284756064117
 33
0.0
  0
SOLID
  5
9F9E
330
9A3E
100
AcDbEntity
  8
0
 62
   115
100
AcDbTrace
 10
200.0000038442241
 20
33.49284756064117
 30
0.0
 11
200.0000038442241
 21
32.49284756064117
 31
0.0
 12
203.0000038442241
 22
32.99284756064117
 32
0.0
 13
203.0000038442241
 23
32.99284756064117
 33
0.0
  0
MTEXT
  5
9F9F
330
9A3E
100
AcDbEntity
  8
0
 62
     7
100
AcDbMText
 10
196.0000038442241
 20
35.49284756064117
 30
0.0
 40
3.0
 41
0.0
 71
     5
 72
     1
  1
\A1;14
 73
     1
 44
1.0
1001
ACAD
1000
MTEXTBEGIN
1070
    73
1070
     1
1070
    44
1040
1.0
1070
    74
1070
     0
1000
MTEXTEND
  0
POINT
  5
9FA0
330
9A3E
100
AcDbEntity
  8
DEFPOINTS
 62
     0
100
AcDbPoint
 10
189.0000038442241
 20
43.99284756064119
 30
0.0
  0
POINT
  5
9FA1
330
9A3E
100
AcDbEntity
  8
DEFPOINTS
 62
     0
100
AcDbPoint
 10
203.0000038442241
 20
43.99284756064122
 30
0.0
  0
POINT
  5
9FA2
330
9A3E
100
AcDbEntity
  8
DEFPOINTS
 62
     0
100
AcDbPoint
 10
203.0000038442241
 20
32.99284756064117
 30
0.0
  0
ENDBLK
  5
9A40
330
9A3E
100
AcDbEntity
  8
0
100
AcDbBlockEnd
  0
BLOCK
  5
9A4B
330
9A4A
100
AcDbEntity
  8
0
100
AcDbBlockBegin
  2
*D6
 70
     1
 10
0.0
 20
0.0
 30
0.0
  3
*D6
  1

  0
LINE
  5
9FFB
330
9A4A
100
AcDbEntity
  8
0
 62
   115
370
    -2
100
AcDbLine
 10
121.9999975442241
 20
57.99282891064118
 30
0.0
 11
121.9999975442241
 21
23.99284756064139
 31
0.0
  0
LINE
  5
9FFC
330
9A4A
100
AcDbEntity
  8
0
 62
   115
370
    -2
100
AcDbLine
 10
223.9999978442241
 20
57.99283501064124
 30
0.0
 11
223.9999978442241
 21
23.99284756064139
 31
0.0
  0
LINE
  5
9FFD
330
9A4A
100
AcDbEntity
  8
0
 62
   115
370
    -2
100
AcDbLine
 10
124.9999975442241
 20
24.9928475606414
 30
0.0
 11
220.9999978442241
 21
24.9928475606414
 31
0.0
  0
SOLID
  5
9FFE
330
9A4A
100
AcDbEntity
  8
0
 62
   115
100
AcDbTrace
 10
124.9999975442241
 20
25.49284756064139
 30
0.0
 11
124.9999975442241
 21
24.4928475606414
 31
0.0
 12
121.9999975442241
 22
24.9928475606414
 32
0.0
 13
121.9999975442241
 23
24.9928475606414
 33
0.0
  0
SOLID
  5
9FFF
330
9A4A
100
AcDbEntity
  8
0
 62
   115
100
AcDbTrace
 10
220.9999978442241
 20
25.49284756064139
 30
0.0
 11
220.9999978442241
 21
24.4928475606414
 31
0.0
 12
223.9999978442241
 22
24.9928475606414
 32
0.0
 13
223.9999978442241
 23
24.9928475606414
 33
0.0
  0
MTEXT
  5
A000
330
9A4A
100
AcDbEntity
  8
0
 62
     7
100
AcDbMText
 10
172.9999976942241
 20
27.4928475606414
 30
0.0
 40
3.0
 41
0.0
 71
     5
 72
     1
  1
\A1;102
 73
     1
 44
1.0
1001
ACAD
1000
MTEXTBEGIN
1070
    73
1070
     1
1070
    44
1040
1.0
1070
    74
1070
     0
1000
MTEXTEND
  0
POINT
  5
A001
330
9A4A
100
AcDbEntity
  8
DEFPOINTS
 62
     0
100
AcDbPoint
 10
121.9999975442241
 20
58.99282891064117
 30
0.0
  0
POINT
  5
A002
330
9A4A
100
AcDbEntity
  8
DEFPOINTS
 62
     0
100
AcDbPoint
 10
223.9999978442241
 20
58.99283501064124
 30
0.0
  0
POINT
  5
A003
330
9A4A
100
AcDbEntity
  8
DEFPOINTS
 62
     0
100
AcDbPoint
 10
223.9999978442241
 20
24.9928475606414
 30
0.0
  0
ENDBLK
  5
9A4C
330
9A4A
100
AcDbEntity
  8
0
100
AcDbBlockEnd
  0
BLOCK
  5
9A57
330
9A56
100
AcDbEntity
  8
0
100
AcDbBlockBegin
  2
*D7
 70
     1
 10
0.0
 20
0.0
 30
0.0
  3
*D7
  1

  0
LINE
  5
9B55
330
9A56
100
AcDbEntity
  8
0
 62
   115
370
    -2
100
AcDbLine
 10
357.9999976942241
 20
60.09064428799774
 30
0.0
 11
357.9999976942241
 21
-0.000000428998419
 31
0.0
  0
LINE
  5
9B56
330
9A56
100
AcDbEntity
  8
0
 62
   115
370
    -2
100
AcDbLine
 10
434.9999972942241
 20
60.09066178679347
 30
0.0
 11
434.9999972942241
 21
-0.000000428998419
 31
0.0
  0
LINE
  5
9B57
330
9A56
100
AcDbEntity
  8
0
 62
   115
370
    -2
100
AcDbLine
 10
360.9999976942241
 20
0.9999995710015809
 30
0.0
 11
431.9999972942241
 21
0.9999995710015809
 31
0.0
  0
SOLID
  5
9B58
330
9A56
100
AcDbEntity
  8
0
 62
   115
100
AcDbTrace
 10
360.9999976942241
 20
1.49999957100158
 30
0.0
 11
360.9999976942241
 21
0.499999571001581
 31
0.0
 12
357.9999976942241
 22
0.9999995710015809
 32
0.0
 13
357.9999976942241
 23
0.9999995710015809
 33
0.0
  0
SOLID
  5
9B59
330
9A56
100
AcDbEntity
  8
0
 62
   115
100
AcDbTrace
 10
431.9999972942241
 20
1.49999957100158
 30
0.0
 11
431.9999972942241
 21
0.499999571001581
 31
0.0
 12
434.9999972942241
 22
0.9999995710015809
 32
0.0
 13
434.9999972942241
 23
0.9999995710015809
 33
0.0
  0
MTEXT
  5
9B5A
330
9A56
100
AcDbEntity
  8
0
 62
     7
100
AcDbMText
 10
396.4999974942242
 20
3.49999957100158
 30
0.0
 40
3.0
 41
0.0
 71
     5
 72
     1
  1
\A1;77
 73
     1
 44
1.0
1001
ACAD
1000
MTEXTBEGIN
1070
    73
1070
     1
1070
    44
1040
1.0
1070
    74
1070
     0
1000
MTEXTEND
  0
POINT
  5
9B5B
330
9A56
100
AcDbEntity
  8
DEFPOINTS
 62
     0
100
AcDbPoint
 10
357.9999976942241
 20
61.09064428799775
 30
0.0
  0
POINT
  5
9B5C
330
9A56
100
AcDbEntity
  8
DEFPOINTS
 62
     0
100
AcDbPoint
 10
434.9999972942241
 20
61.09066178679348
 30
0.0
  0
POINT
  5
9B5D
330
9A56
100
AcDbEntity
  8
DEFPOINTS
 62
     0
100
AcDbPoint
 10
434.9999972942241
 20
0.9999995710015809
 30
0.0
  0
ENDBLK
  5
9A58
330
9A56
100
AcDbEntity
  8
0
100
AcDbBlockEnd
  0
BLOCK
  5
9A63
330
9A62
100
AcDbEntity
  8
0
100
AcDbBlockBegin
  2
*D8
 70
     1
 10
0.0
 20
0.0
 30
0.0
  3
*D8
  1

  0
LINE
  5
9B5E
330
9A62
100
AcDbEntity
  8
0
 62
   115
370
    -2
100
AcDbLine
 10
383.3002188051436
 20
43.73063003872758
 30
0.0
 11
381.1197311527777
 21
35.59293935745578
 31
0.0
  0
LINE
  5
9B5F
330
9A62
100
AcDbEntity
  8
0
 62
   115
370
    -2
100
AcDbLine
 10
409.6997844090138
 20
43.73063003872758
 30
0.0
 11
411.8802720613796
 21
35.59293935745577
 31
0.0
  0
ARC
  5
9B60
330
9A62
100
AcDbEntity
  8
0
 62
   115
370
    -2
100
AcDbCircle
 10
396.5000016070787
 20
92.99288996740614
 30
0.0
 40
58.4248016342687
100
AcDbArc
 50
257.9423501736725
 51
282.0576498263275
  0
SOLID
  5
9B61
330
9A62
100
AcDbEntity
  8
0
 62
   115
100
AcDbTrace
 10
384.178339996591
 20
35.37093543530686
 30
0.0
 11
384.4122745204563
 21
36.34318778863078
 31
0.0
 12
381.3785501985519
 22
36.55886518356488
 32
0.0
 13
381.3785501985519
 23
36.55886518356488
 33
0.0
  0
SOLID
  5
9B62
330
9A62
100
AcDbEntity
  8
0
 62
   115
100
AcDbTrace
 10
408.5877286937011
 20
36.34318778863077
 30
0.0
 11
408.8216632175663
 21
35.37093543530686
 31
0.0
 12
411.6214530156055
 22
36.55886518356487
 32
0.0
 13
411.6214530156055
 23
36.55886518356487
 33
0.0
  0
MTEXT
  5
9B63
102
{ACAD_XDICTIONARY
360
A24C
102
}
330
9A62
100
AcDbEntity
  8
0
 62
     7
100
AcDbMText
 10
396.5000016070787
 20
37.06808833313744
 30
0.0
 40
3.0
 41
0.0
 71
     5
 72
     1
  1
\A1;30\U+00B0
 73
     1
 44
1.0
1001
ACAD
1000
MTEXTBEGIN
1070
    73
1070
     1
1070
    44
1040
1.0
1070
    74
1070
     0
1000
MTEXTEND
  0
POINT
  5
9B64
330
9A62
100
AcDbEntity
  8
DEFPOINTS
 62
     0
100
AcDbPoint
 10
391.4079446122692
 20
34.79041234346596
 30
0.0
  0
POINT
  5
9B65
330
9A62
100
AcDbEntity
  8
DEFPOINTS
 62
     0
100
AcDbPoint
 10
383.5590378509177
 20
44.69655586483668
 30
0.0
  0
POINT
  5
9B66
330
9A62
100
AcDbEntity
  8
DEFPOINTS
 62
     0
100
AcDbPoint
 10
409.4409653632396
 20
44.69655586483668
 30
0.0
  0
POINT
  5
9B67
330
9A62
100
AcDbEntity
  8
DEFPOINTS
 62
     0
100
AcDbPoint
 10
405.558679676627
 20
59.18544325647315
 30
0.0
  0
POINT
  5
9B68
330
9A62
100
AcDbEntity
  8
DEFPOINTS
 62
     0
100
AcDbPoint
 10
387.4413235375304
 20
59.18544325647315
 30
0.0
  0
ENDBLK
  5
9A64
330
9A62
100
AcDbEntity
  8
0
100
AcDbBlockEnd
  0
BLOCK
  5
9A71
330
9A70
100
AcDbEntity
  8
0
100
AcDbBlockBegin
  2
*D9
 70
     1
 10
0.0
 20
0.0
 30
0.0
  3
*D9
  1

  0
LINE
  5
9B69
330
9A70
100
AcDbEntity
  8
0
 62
   115
370
    -2
100
AcDbLine
 10
385.5001806942241
 20
50.94099956065497
 30
0.0
 11
385.5001806942241
 21
15.99999957100158
 31
0.0
  0
LINE
  5
9B6A
330
9A70
100
AcDbEntity
  8
0
 62
   115
370
    -2
100
AcDbLine
 10
407.4998225199333
 20
50.94099956065497
 30
0.0
 11
407.4998225199333
 21
15.99999957100158
 31
0.0
  0
LINE
  5
9B6B
330
9A70
100
AcDbEntity
  8
0
 62
   115
370
    -2
100
AcDbLine
 10
388.5001806942241
 20
16.99999957100158
 30
0.0
 11
404.4998225199334
 21
16.99999957100158
 31
0.0
  0
SOLID
  5
9B6C
330
9A70
100
AcDbEntity
  8
0
 62
   115
100
AcDbTrace
 10
388.5001806942241
 20
17.49999957100158
 30
0.0
 11
388.5001806942241
 21
16.49999957100158
 31
0.0
 12
385.5001806942241
 22
16.99999957100158
 32
0.0
 13
385.5001806942241
 23
16.99999957100158
 33
0.0
  0
SOLID
  5
9B6D
330
9A70
100
AcDbEntity
  8
0
 62
   115
100
AcDbTrace
 10
404.4998225199334
 20
17.49999957100158
 30
0.0
 11
404.4998225199334
 21
16.49999957100158
 31
0.0
 12
407.4998225199333
 22
16.99999957100158
 32
0.0
 13
407.4998225199333
 23
16.99999957100158
 33
0.0
  0
MTEXT
  5
9B6E
330
9A70
100
AcDbEntity
  8
0
 62
     7
100
AcDbMText
 10
396.5000016070787
 20
20.28571385671587
 30
0.0
 40
3.0
 41
0.0
 71
     5
 72
     1
  1
\A1;(22)
 73
     1
 44
1.0
1001
ACAD
1000
MTEXTBEGIN
1070
    73
1070
     1
1070
    44
1040
1.0
1070
    74
1070
     0
1000
MTEXTEND
  0
POINT
  5
9B6F
330
9A70
100
AcDbEntity
  8
DEFPOINTS
 62
     0
100
AcDbPoint
 10
385.5001806942241
 20
51.94099956065497
 30
0.0
  0
POINT
  5
9B70
330
9A70
100
AcDbEntity
  8
DEFPOINTS
 62
     0
100
AcDbPoint
 10
407.4998225199333
 20
51.94099956065497
 30
0.0
  0
POINT
  5
9B71
330
9A70
100
AcDbEntity
  8
DEFPOINTS
 62
     0
100
AcDbPoint
 10
407.4998225199333
 20
16.99999957100158
 30
0.0
  0
ENDBLK
  5
9A72
330
9A70
100
AcDbEntity
  8
0
100
AcDbBlockEnd
  0
BLOCK
  5
9A7D
330
9A7C
100
AcDbEntity
  8
0
100
AcDbBlockBegin
  2
*D10
 70
     1
 10
0.0
 20
0.0
 30
0.0
  3
*D10
  1

  0
LINE
  5
9B72
330
9A7C
100
AcDbEntity
  8
0
 62
   115
370
    -2
100
AcDbLine
 10
397.4999959256514
 20
50.49284959290912
 30
0.0
 11
453.9999972942233
 21
50.49284959290911
 31
0.0
  0
LINE
  5
9B73
330
9A7C
100
AcDbEntity
  8
0
 62
   115
370
    -2
100
AcDbLine
 10
397.4999959256514
 20
135.4928455284016
 30
0.0
 11
453.9999972942234
 21
135.4928455284016
 31
0.0
  0
LINE
  5
9B74
330
9A7C
100
AcDbEntity
  8
0
 62
   115
370
    -2
100
AcDbLine
 10
452.9999972942233
 20
53.49284959290911
 30
0.0
 11
452.9999972942234
 21
132.4928455284016
 31
0.0
  0
SOLID
  5
9B75
330
9A7C
100
AcDbEntity
  8
0
 62
   115
100
AcDbTrace
 10
452.4999972942233
 20
53.49284959290911
 30
0.0
 11
453.4999972942233
 21
53.49284959290911
 31
0.0
 12
452.9999972942233
 22
50.49284959290911
 32
0.0
 13
452.9999972942233
 23
50.49284959290911
 33
0.0
  0
SOLID
  5
9B76
330
9A7C
100
AcDbEntity
  8
0
 62
   115
100
AcDbTrace
 10
452.4999972942234
 20
132.4928455284016
 30
0.0
 11
453.4999972942234
 21
132.4928455284016
 31
0.0
 12
452.9999972942234
 22
135.4928455284016
 32
0.0
 13
452.9999972942234
 23
135.4928455284016
 33
0.0
  0
MTEXT
  5
9B77
330
9A7C
100
AcDbEntity
  8
0
 62
     7
100
AcDbMText
 10
450.4999972942234
 20
92.99284756065544
 30
0.0
 40
3.0
 41
0.0
 71
     5
 72
     1
  1
\A1;PCD 85
 11
0.0000000000000001
 21
1.0
 31
0.0
 73
     1
 44
1.0
1001
ACAD
1000
MTEXTBEGIN
1070
    73
1070
     1
1070
    44
1040
1.0
1070
    74
1070
     0
1000
MTEXTEND
  0
POINT
  5
9B78
330
9A7C
100
AcDbEntity
  8
DEFPOINTS
 62
     0
100
AcDbPoint
 10
396.4999959256514
 20
50.49284959290912
 30
0.0
  0
POINT
  5
9B79
330
9A7C
100
AcDbEntity
  8
DEFPOINTS
 62
     0
100
AcDbPoint
 10
396.4999959256514
 20
135.4928455284016
 30
0.0
  0
POINT
  5
9B7A
330
9A7C
100
AcDbEntity
  8
DEFPOINTS
 62
     0
100
AcDbPoint
 10
452.9999972942234
 20
135.4928455284016
 30
0.0
  0
ENDBLK
  5
9A7E
330
9A7C
100
AcDbEntity
  8
0
100
AcDbBlockEnd
  0
BLOCK
  5
9A89
330
9A88
100
AcDbEntity
  8
0
100
AcDbBlockBegin
  2
*D11
 70
     1
 10
0.0
 20
0.0
 30
0.0
  3
*D11
  1

  0
LINE
  5
9B7B
330
9A88
100
AcDbEntity
  8
0
 62
   115
370
    -2
100
AcDbLine
 10
427.5520285942241
 20
118.5448855606549
 30
0.0
 11
445.9999972942234
 21
118.5448855606549
 31
0.0
  0
LINE
  5
9B7C
330
9A88
100
AcDbEntity
  8
0
 62
   115
370
    -2
100
AcDbLine
 10
427.5520285942241
 20
127.5448855606549
 30
0.0
 11
445.9999972942234
 21
127.5448855606549
 31
0.0
  0
LINE
  5
9B7D
330
9A88
100
AcDbEntity
  8
0
 62
   115
370
    -2
100
AcDbLine
 10
444.9999972942234
 20
121.5448855606549
 30
0.0
 11
444.9999972942234
 21
124.5448855606549
 31
0.0
  0
LINE
  5
9B7E
330
9A88
100
AcDbEntity
  8
0
 62
   115
370
    -2
100
AcDbLine
 10
444.9999972942234
 20
127.5448855606549
 30
0.0
 11
444.9999972942235
 21
143.544885560655
 31
0.0
  0
SOLID
  5
9B7F
330
9A88
100
AcDbEntity
  8
0
 62
   115
100
AcDbTrace
 10
444.4999972942234
 20
121.5448855606549
 30
0.0
 11
445.4999972942234
 21
121.5448855606549
 31
0.0
 12
444.9999972942234
 22
118.5448855606549
 32
0.0
 13
444.9999972942234
 23
118.5448855606549
 33
0.0
  0
SOLID
  5
9B80
330
9A88
100
AcDbEntity
  8
0
 62
   115
100
AcDbTrace
 10
444.4999972942234
 20
124.5448855606549
 30
0.0
 11
445.4999972942234
 21
124.5448855606549
 31
0.0
 12
444.9999972942234
 22
127.5448855606549
 32
0.0
 13
444.9999972942234
 23
127.5448855606549
 33
0.0
  0
MTEXT
  5
9B81
330
9A88
100
AcDbEntity
  8
0
 62
     7
100
AcDbMText
 10
442.4999972942234
 20
137.044885560655
 30
0.0
 40
3.0
 41
0.0
 71
     5
 72
     1
  1
\A1;6-%%C9
 11
0.0000000000000001
 21
1.0
 31
0.0
 73
     1
 44
1.0
1001
ACAD
1000
MTEXTBEGIN
1070
    73
1070
     1
1070
    44
1040
1.0
1070
    74
1070
     0
1000
MTEXTEND
  0
POINT
  5
9B82
330
9A88
100
AcDbEntity
  8
DEFPOINTS
 62
     0
100
AcDbPoint
 10
426.552028594224
 20
118.5448855606549
 30
0.0
  0
POINT
  5
9B83
330
9A88
100
AcDbEntity
  8
DEFPOINTS
 62
     0
100
AcDbPoint
 10
426.552028594224
 20
127.5448855606549
 30
0.0
  0
POINT
  5
9B84
330
9A88
100
AcDbEntity
  8
DEFPOINTS
 62
     0
100
AcDbPoint
 10
444.9999972942234
 20
127.5448855606549
 30
0.0
  0
ENDBLK
  5
9A8A
330
9A88
100
AcDbEntity
  8
0
100
AcDbBlockEnd
  0
BLOCK
  5
9A96
330
9A95
100
AcDbEntity
  8
0
100
AcDbBlockBegin
  2
*D12
 70
     1
 10
0.0
 20
0.0
 30
0.0
  3
*D12
  1

  0
LINE
  5
A028
330
9A95
100
AcDbEntity
  8
0
 62
   115
370
    -2
100
AcDbLine
 10
223.9999978442241
 20
57.99283501064124
 30
0.0
 11
234.9999978442242
 21
57.99283501064124
 31
0.0
  0
LINE
  5
A029
330
9A95
100
AcDbEntity
  8
0
 62
   115
370
    -2
100
AcDbLine
 10
223.9999978442241
 20
127.9928301106413
 30
0.0
 11
234.9999978442242
 21
127.9928301106412
 31
0.0
  0
LINE
  5
A02A
330
9A95
100
AcDbEntity
  8
0
 62
   115
370
    -2
100
AcDbLine
 10
233.9999978442242
 20
60.99283501064125
 30
0.0
 11
233.9999978442242
 21
124.9928301106412
 31
0.0
  0
SOLID
  5
A02B
330
9A95
100
AcDbEntity
  8
0
 62
   115
100
AcDbTrace
 10
233.4999978442242
 20
60.99283501064125
 30
0.0
 11
234.4999978442242
 21
60.99283501064125
 31
0.0
 12
233.9999978442242
 22
57.99283501064124
 32
0.0
 13
233.9999978442242
 23
57.99283501064124
 33
0.0
  0
SOLID
  5
A02C
330
9A95
100
AcDbEntity
  8
0
 62
   115
100
AcDbTrace
 10
233.4999978442242
 20
124.9928301106412
 30
0.0
 11
234.4999978442242
 21
124.9928301106412
 31
0.0
 12
233.9999978442242
 22
127.9928301106412
 32
0.0
 13
233.9999978442242
 23
127.9928301106412
 33
0.0
  0
MTEXT
  5
A02D
330
9A95
100
AcDbEntity
  8
0
 62
     7
100
AcDbMText
 10
230.7142835585099
 20
92.99283256064128
 30
0.0
 40
3.0
 41
0.0
 71
     5
 72
     1
  1
\A1;%%C70 g6 ({\H0.5x;\S-0.010^ -0.029;})
 11
0.0000000000000001
 21
1.0
 31
0.0
 73
     1
 44
1.0
1001
ACAD
1000
MTEXTBEGIN
1070
    73
1070
     1
1070
    44
1040
1.0
1070
    74
1070
     0
1000
MTEXTEND
  0
POINT
  5
A02E
330
9A95
100
AcDbEntity
  8
DEFPOINTS
 62
     0
100
AcDbPoint
 10
222.9999978442241
 20
57.99283501064124
 30
0.0
  0
POINT
  5
A02F
330
9A95
100
AcDbEntity
  8
DEFPOINTS
 62
     0
100
AcDbPoint
 10
222.9999978442241
 20
127.9928301106413
 30
0.0
  0
POINT
  5
A030
330
9A95
100
AcDbEntity
  8
DEFPOINTS
 62
     0
100
AcDbPoint
 10
233.9999978442242
 20
127.9928301106412
 30
0.0
  0
ENDBLK
  5
9A97
330
9A95
100
AcDbEntity
  8
0
100
AcDbBlockEnd
  0
BLOCK
  5
9AAE
330
9AAD
100
AcDbEntity
  8
0
100
AcDbBlockBegin
  2
*D13
 70
     1
 10
0.0
 20
0.0
 30
0.0
  3
*D13
  1

  0
LINE
  5
9FB5
330
9AAD
100
AcDbEntity
  8
0
 62
   115
370
    -2
100
AcDbLine
 10
203.0000038442241
 20
42.99284756064122
 30
0.0
 11
203.0000038442241
 21
31.99284756064117
 31
0.0
  0
LINE
  5
9FB6
330
9AAD
100
AcDbEntity
  8
0
 62
   115
370
    -2
100
AcDbLine
 10
223.9999978442241
 20
57.99283501064124
 30
0.0
 11
223.9999978442241
 21
31.99284756064117
 31
0.0
  0
LINE
  5
9FB7
330
9AAD
100
AcDbEntity
  8
0
 62
   115
370
    -2
100
AcDbLine
 10
206.0000038442241
 20
32.99284756064117
 30
0.0
 11
220.9999978442241
 21
32.99284756064117
 31
0.0
  0
SOLID
  5
9FB8
330
9AAD
100
AcDbEntity
  8
0
 62
   115
100
AcDbTrace
 10
206.0000038442241
 20
33.49284756064117
 30
0.0
 11
206.0000038442241
 21
32.49284756064117
 31
0.0
 12
203.0000038442241
 22
32.99284756064117
 32
0.0
 13
203.0000038442241
 23
32.99284756064117
 33
0.0
  0
SOLID
  5
9FB9
330
9AAD
100
AcDbEntity
  8
0
 62
   115
100
AcDbTrace
 10
220.9999978442241
 20
33.49284756064117
 30
0.0
 11
220.9999978442241
 21
32.49284756064117
 31
0.0
 12
223.9999978442241
 22
32.99284756064117
 32
0.0
 13
223.9999978442241
 23
32.99284756064117
 33
0.0
  0
MTEXT
  5
9FBA
330
9AAD
100
AcDbEntity
  8
0
 62
     7
100
AcDbMText
 10
213.5000008442241
 20
35.49284756064117
 30
0.0
 40
3.0
 41
0.0
 71
     5
 72
     1
  1
\A1;21
 73
     1
 44
1.0
1001
ACAD
1000
MTEXTBEGIN
1070
    73
1070
     1
1070
    44
1040
1.0
1070
    74
1070
     0
1000
MTEXTEND
  0
POINT
  5
9FBB
330
9AAD
100
AcDbEntity
  8
DEFPOINTS
 62
     0
100
AcDbPoint
 10
203.0000038442241
 20
43.99284756064122
 30
0.0
  0
POINT
  5
9FBC
330
9AAD
100
AcDbEntity
  8
DEFPOINTS
 62
     0
100
AcDbPoint
 10
223.9999978442241
 20
58.99283501064124
 30
0.0
  0
POINT
  5
9FBD
330
9AAD
100
AcDbEntity
  8
DEFPOINTS
 62
     0
100
AcDbPoint
 10
223.9999978442241
 20
32.99284756064117
 30
0.0
  0
ENDBLK
  5
9AAF
330
9AAD
100
AcDbEntity
  8
0
100
AcDbBlockEnd
  0
BLOCK
  5
9ABA
330
9AB9
100
AcDbEntity
  8
0
100
AcDbBlockBegin
  2
*D14
 70
     1
 10
0.0
 20
0.0
 30
0.0
  3
*D14
  1

  0
LINE
  5
9F25
330
9AB9
100
AcDbEntity
  8
0
 62
   115
370
    -2
100
AcDbLine
 10
203.0000038442241
 20
42.99284756064122
 30
0.0
 11
242.9999978442241
 21
42.9928475606412
 31
0.0
  0
LINE
  5
9F26
330
9AB9
100
AcDbEntity
  8
0
 62
   115
370
    -2
100
AcDbLine
 10
203.0000038442241
 20
142.9928475606407
 30
0.0
 11
242.9999978442241
 21
142.9928475606407
 31
0.0
  0
LINE
  5
9F27
330
9AB9
100
AcDbEntity
  8
0
 62
   115
370
    -2
100
AcDbLine
 10
241.9999978442241
 20
45.99284756064121
 30
0.0
 11
241.9999978442241
 21
139.9928475606407
 31
0.0
  0
SOLID
  5
9F28
330
9AB9
100
AcDbEntity
  8
0
 62
   115
100
AcDbTrace
 10
241.4999978442241
 20
45.99284756064121
 30
0.0
 11
242.4999978442241
 21
45.99284756064121
 31
0.0
 12
241.9999978442241
 22
42.9928475606412
 32
0.0
 13
241.9999978442241
 23
42.9928475606412
 33
0.0
  0
SOLID
  5
9F29
330
9AB9
100
AcDbEntity
  8
0
 62
   115
100
AcDbTrace
 10
241.4999978442241
 20
139.9928475606407
 30
0.0
 11
242.4999978442242
 21
139.9928475606407
 31
0.0
 12
241.9999978442241
 22
142.9928475606407
 32
0.0
 13
241.9999978442241
 23
142.9928475606407
 33
0.0
  0
MTEXT
  5
9F2A
330
9AB9
100
AcDbEntity
  8
0
 62
     7
100
AcDbMText
 10
239.4999978442241
 20
92.99284756064102
 30
0.0
 40
3.0
 41
0.0
 71
     5
 72
     1
  1
\A1;%%C100
 11
0.0000000000000001
 21
1.0
 31
0.0
 73
     1
 44
1.0
1001
ACAD
1000
MTEXTBEGIN
1070
    73
1070
     1
1070
    44
1040
1.0
1070
    74
1070
     0
1000
MTEXTEND
  0
POINT
  5
9F2B
330
9AB9
100
AcDbEntity
  8
DEFPOINTS
 62
     0
100
AcDbPoint
 10
202.0000038442241
 20
42.99284756064122
 30
0.0
  0
POINT
  5
9F2C
330
9AB9
100
AcDbEntity
  8
DEFPOINTS
 62
     0
100
AcDbPoint
 10
202.0000038442241
 20
142.9928475606407
 30
0.0
  0
POINT
  5
9F2D
330
9AB9
100
AcDbEntity
  8
DEFPOINTS
 62
     0
100
AcDbPoint
 10
241.9999978442241
 20
142.9928475606407
 30
0.0
  0
ENDBLK
  5
9ABB
330
9AB9
100
AcDbEntity
  8
0
100
AcDbBlockEnd
  0
BLOCK
  5
9AC6
330
9AC5
100
AcDbEntity
  8
0
100
AcDbBlockBegin
  2
*D15
 70
     1
 10
0.0
 20
0.0
 30
0.0
  3
*D15
  1

  0
LINE
  5
9BA9
330
9AC5
100
AcDbEntity
  8
0
 62
   115
370
    -2
100
AcDbLine
 10
381.3309865786262
 20
129.2663315760553
 30
0.0
 11
410.9036108451353
 21
146.3400942315789
 31
0.0
  0
LINE
  5
9BAA
330
9AC5
100
AcDbEntity
  8
0
 62
   115
370
    -2
100
AcDbLine
 10
381.154038750375
 20
140.7111760835739
 30
0.0
 11
405.9036108340174
 21
155.0003482508354
 31
0.0
  0
LINE
  5
9BAB
330
9AC5
100
AcDbEntity
  8
0
 62
   115
370
    -2
100
AcDbLine
 10
408.5375854373808
 20
148.4381704384552
 30
0.0
 11
406.5375854360953
 21
151.9022720406818
 31
0.0
  0
SOLID
  5
9BAC
330
9AC5
100
AcDbEntity
  8
0
 62
   115
100
AcDbTrace
 10
408.9705981387999
 20
148.6881704392746
 30
0.0
 11
408.1045727359616
 21
148.1881704376359
 31
0.0
 12
410.0375854422969
 22
145.8400942299403
 32
0.0
 13
410.0375854422969
 23
145.8400942299403
 33
0.0
  0
SOLID
  5
9BAD
330
9AC5
100
AcDbEntity
  8
0
 62
   115
100
AcDbTrace
 10
406.9705981375144
 20
152.1522720415011
 30
0.0
 11
406.1045727346761
 21
151.6522720398624
 31
0.0
 12
405.0375854311791
 22
154.5003482491967
 32
0.0
 13
405.0375854311791
 23
154.5003482491967
 33
0.0
  0
MTEXT
  5
9BAE
330
9AC5
100
AcDbEntity
  8
0
 62
     7
100
AcDbMText
 10
409.7026489438339
 20
151.4202212436653
 30
0.0
 40
3.0
 41
0.0
 71
     5
 72
     1
  1
\A1;10
 11
0.5000000016387207
 21
-0.8660254028383228
 31
0.0
 73
     1
 44
1.0
1001
ACAD
1000
MTEXTBEGIN
1070
    73
1070
     1
1070
    44
1040
1.0
1070
    74
1070
     0
1000
MTEXTEND
  0
POINT
  5
9BAF
330
9AC5
100
AcDbEntity
  8
DEFPOINTS
 62
     0
100
AcDbPoint
 10
380.4649611757879
 20
128.7663315744166
 30
0.0
  0
POINT
  5
9BB0
330
9AC5
100
AcDbEntity
  8
DEFPOINTS
 62
     0
100
AcDbPoint
 10
380.2880133475367
 20
140.2111760819351
 30
0.0
  0
POINT
  5
9BB1
330
9AC5
100
AcDbEntity
  8
DEFPOINTS
 62
     0
100
AcDbPoint
 10
405.0375854311791
 20
154.5003482491967
 30
0.0
  0
ENDBLK
  5
9AC7
330
9AC5
100
AcDbEntity
  8
0
100
AcDbBlockEnd
  0
BLOCK
  5
9AD2
330
9AD1
100
AcDbEntity
  8
0
100
AcDbBlockBegin
  2
*D16
 70
     1
 10
0.0
 20
0.0
 30
0.0
  3
*D16
  1

  0
LINE
  5
9BB2
330
9AD1
100
AcDbEntity
  8
0
 62
   115
370
    -2
100
AcDbLine
 10
374.9152637067802
 20
138.2699427229597
 30
0.0
 11
369.917002470711
 21
146.9271847897431
 31
0.0
  0
LINE
  5
9BB3
330
9AD1
100
AcDbEntity
  8
0
 62
   115
370
    -2
100
AcDbLine
 10
367.9870607067802
 20
134.2699427229597
 30
0.0
 11
362.9887994818841
 21
142.9271847703906
 31
0.0
  0
LINE
  5
9BB4
330
9AD1
100
AcDbEntity
  8
0
 62
   115
370
    -2
100
AcDbLine
 10
373.0150786711691
 20
147.5611594392006
 30
0.0
 11
375.6131548567442
 21
149.0611594838499
 31
0.0
  0
LINE
  5
9BB5
330
9AD1
100
AcDbEntity
  8
0
 62
   115
370
    -2
100
AcDbLine
 10
360.8907233111921
 20
140.5611593305496
 30
0.0
 11
348.1477782105145
 21
133.2040162544128
 31
0.0
  0
LINE
  5
9BB6
330
9AD1
100
AcDbEntity
  8
0
 62
   115
370
    -2
100
AcDbLine
 10
370.4170024855941
 20
146.0611593945514
 30
0.0
 11
363.4887994967672
 21
142.0611593751989
 31
0.0
  0
SOLID
  5
9BB7
330
9AD1
100
AcDbEntity
  8
0
 62
   115
100
AcDbTrace
 10
372.7650786637276
 20
147.9941721367965
 30
0.0
 11
373.2650786786107
 21
147.1281467416048
 31
0.0
 12
370.4170024855941
 22
146.0611593945514
 32
0.0
 13
370.4170024855941
 23
146.0611593945514
 33
0.0
  0
SOLID
  5
9BB8
330
9AD1
100
AcDbEntity
  8
0
 62
   115
100
AcDbTrace
 10
360.6407233037506
 20
140.9941720281455
 30
0.0
 11
361.1407233186337
 21
140.1281466329538
 31
0.0
 12
363.4887994967672
 22
142.0611593751989
 32
0.0
 13
363.4887994967672
 23
142.0611593751989
 33
0.0
  0
MTEXT
  5
9BB9
330
9AD1
100
AcDbEntity
  8
0
 62
     7
100
AcDbMText
 10
351.9702126308581
 20
138.2976512581358
 30
0.0
 40
3.0
 41
0.0
 71
     5
 72
     1
  1
\A1;M8x1
 11
0.8660253951916851
 21
0.5000000148830852
 31
0.0
 73
     1
 44
1.0
1001
ACAD
1000
MTEXTBEGIN
1070
    73
1070
     1
1070
    44
1040
1.0
1070
    74
1070
     0
1000
MTEXTEND
  0
POINT
  5
9BBA
330
9AD1
100
AcDbEntity
  8
DEFPOINTS
 62
     0
100
AcDbPoint
 10
375.4152637216634
 20
137.403917327768
 30
0.0
  0
POINT
  5
9BBB
330
9AD1
100
AcDbEntity
  8
DEFPOINTS
 62
     0
100
AcDbPoint
 10
368.4870607216633
 20
133.403917327768
 30
0.0
  0
POINT
  5
9BBC
330
9AD1
100
AcDbEntity
  8
DEFPOINTS
 62
     0
100
AcDbPoint
 10
363.4887994967672
 20
142.0611593751989
 30
0.0
  0
ENDBLK
  5
9AD3
330
9AD1
100
AcDbEntity
  8
0
100
AcDbBlockEnd
  0
BLOCK
  5
9AE0
330
9ADF
100
AcDbEntity
  8
0
100
AcDbBlockBegin
  2
*D17
 70
     1
 10
0.0
 20
0.0
 30
0.0
  3
*D17
  1

  0
LINE
  5
9BBD
330
9ADF
100
AcDbEntity
  8
0
 62
   115
370
    -2
100
AcDbLine
 10
396.4999901370275
 20
146.9928475606544
 30
0.0
 11
396.4999886243102
 21
161.1044463746983
 31
0.0
  0
LINE
  5
9BBE
330
9ADF
100
AcDbEntity
  8
0
 62
   115
370
    -2
100
AcDbLine
 10
369.0087796814737
 20
140.6090199570779
 30
0.0
 11
362.4441910095024
 21
151.9792206811261
 31
0.0
  0
ARC
  5
9BBF
330
9ADF
100
AcDbEntity
  8
0
 62
   115
370
    -2
100
AcDbCircle
 10
396.4999959256525
 20
92.99283827929166
 30
0.0
 40
67.11160809540704
100
AcDbArc
 50
92.56143564661535
 51
117.4385713388616
  0
SOLID
  5
9BC0
330
9ADF
100
AcDbEntity
  8
0
 62
   115
100
AcDbTrace
 10
393.4895627040467
 20
160.5372686629302
 30
0.0
 11
393.5119136390775
 21
159.5375184762819
 31
0.0
 12
396.4999887315069
 22
160.1044463746983
 32
0.0
 13
396.4999887315069
 23
160.1044463746983
 33
0.0
  0
SOLID
  5
9BC1
330
9ADF
100
AcDbEntity
  8
0
 62
   115
100
AcDbTrace
 10
365.8154037876272
 20
152.1162592188322
 30
0.0
 11
365.3348850649164
 21
152.9932436868385
 31
0.0
 12
362.9441910222527
 22
151.113195284703
 32
0.0
 13
362.9441910222527
 23
151.113195284703
 33
0.0
  0
MTEXT
  5
9BC2
102
{ACAD_XDICTIONARY
360
A24E
102
}
330
9ADF
100
AcDbEntity
  8
0
 62
     7
100
AcDbMText
 10
378.4831818914337
 20
160.2324872498574
 30
0.0
 40
3.0
 41
0.0
 71
     5
 72
     1
  1
\A1;30\U+00B0
 11
0.9659258105115132
 21
0.2588191039851504
 31
0.0
 73
     1
 44
1.0
1001
ACAD
1000
MTEXTBEGIN
1070
    73
1070
     1
1070
    44
1040
1.0
1070
    74
1070
     0
1000
MTEXTEND
  0
POINT
  5
9BC3
330
9ADF
100
AcDbEntity
  8
DEFPOINTS
 62
     0
100
AcDbPoint
 10
384.8461824320003
 20
159.0848693587393
 30
0.0
  0
POINT
  5
9BC4
330
9ADF
100
AcDbEntity
  8
DEFPOINTS
 62
     0
100
AcDbPoint
 10
369.5087796942241
 20
139.7429945606549
 30
0.0
  0
POINT
  5
9BC5
330
9ADF
100
AcDbEntity
  8
DEFPOINTS
 62
     0
100
AcDbPoint
 10
396.5000016070787
 20
39.99284756065629
 30
0.0
  0
POINT
  5
9BC6
330
9ADF
100
AcDbEntity
  8
DEFPOINTS
 62
     0
100
AcDbPoint
 10
396.4999902442242
 20
145.9928475606544
 30
0.0
  0
POINT
  5
9BC7
330
9ADF
100
AcDbEntity
  8
DEFPOINTS
 62
     0
100
AcDbPoint
 10
386.5339326942242
 20
110.2545655606549
 30
0.0
  0
ENDBLK
  5
9AE1
330
9ADF
100
AcDbEntity
  8
0
100
AcDbBlockEnd
  0
BLOCK
  5
9AEE
330
9AED
100
AcDbEntity
  8
0
100
AcDbBlockBegin
  2
*D18
 70
     1
 10
0.0
 20
0.0
 30
0.0
  3
*D18
  1

  0
LINE
  5
9BC8
330
9AED
100
AcDbEntity
  8
0
 62
   115
370
    -2
100
AcDbLine
 10
365.4479545366396
 20
62.94080169845745
 30
0.0
 11
346.999997694224
 21
62.94080169845745
 31
0.0
  0
LINE
  5
9BC9
330
9AED
100
AcDbEntity
  8
0
 62
   115
370
    -2
100
AcDbLine
 10
365.4479545366396
 20
123.0448934228521
 30
0.0
 11
346.999997694224
 21
123.0448934228522
 31
0.0
  0
LINE
  5
9BCA
330
9AED
100
AcDbEntity
  8
0
 62
   115
370
    -2
100
AcDbLine
 10
347.999997694224
 20
65.94080169845746
 30
0.0
 11
347.999997694224
 21
120.0448934228522
 31
0.0
  0
SOLID
  5
9BCB
330
9AED
100
AcDbEntity
  8
0
 62
   115
100
AcDbTrace
 10
347.4999976942239
 20
65.94080169845746
 30
0.0
 11
348.499997694224
 21
65.94080169845746
 31
0.0
 12
347.999997694224
 22
62.94080169845745
 32
0.0
 13
347.999997694224
 23
62.94080169845745
 33
0.0
  0
SOLID
  5
9BCC
330
9AED
100
AcDbEntity
  8
0
 62
   115
100
AcDbTrace
 10
347.4999976942239
 20
120.0448934228522
 30
0.0
 11
348.499997694224
 21
120.0448934228522
 31
0.0
 12
347.999997694224
 22
123.0448934228522
 32
0.0
 13
347.999997694224
 23
123.0448934228522
 33
0.0
  0
MTEXT
  5
9BCD
330
9AED
100
AcDbEntity
  8
0
 62
     7
100
AcDbMText
 10
344.7142834085097
 20
92.99284756065487
 30
0.0
 40
3.0
 41
0.0
 71
     5
 72
     1
  1
\A1;(60.1)
 11
0.0000000000000001
 21
1.0
 31
0.0
 73
     1
 44
1.0
1001
ACAD
1000
MTEXTBEGIN
1070
    73
1070
     1
1070
    44
1040
1.0
1070
    74
1070
     0
1000
MTEXTEND
  0
POINT
  5
9BCE
330
9AED
100
AcDbEntity
  8
DEFPOINTS
 62
     0
100
AcDbPoint
 10
366.4479545366396
 20
62.94080169845745
 30
0.0
  0
POINT
  5
9BCF
330
9AED
100
AcDbEntity
  8
DEFPOINTS
 62
     0
100
AcDbPoint
 10
366.4479545366396
 20
123.0448934228521
 30
0.0
  0
POINT
  5
9BD0
330
9AED
100
AcDbEntity
  8
DEFPOINTS
 62
     0
100
AcDbPoint
 10
347.999997694224
 20
123.0448934228522
 30
0.0
  0
ENDBLK
  5
9AEF
330
9AED
100
AcDbEntity
  8
0
100
AcDbBlockEnd
  0
BLOCK
  5
9AFA
330
9AF9
100
AcDbEntity
  8
0
100
AcDbBlockBegin
  2
*D19
 70
     1
 10
0.0
 20
0.0
 30
0.0
  3
*D19
  1

  0
LINE
  5
9BD1
330
9AF9
100
AcDbEntity
  8
0
 62
   115
370
    -2
100
AcDbLine
 10
360.4375471870144
 20
56.93039376791131
 30
0.0
 11
348.9952907309043
 21
45.48813620587822
 31
0.0
  0
LINE
  5
9BD2
330
9AF9
100
AcDbEntity
  8
0
 62
   115
370
    -2
100
AcDbLine
 10
432.562456027143
 20
56.93039376791131
 30
0.0
 11
444.0047124832532
 21
45.48813620587819
 31
0.0
  0
ARC
  5
9BD3
330
9AF9
100
AcDbEntity
  8
0
 62
   115
370
    -2
100
AcDbCircle
 10
396.5000016070787
 20
92.99285167350252
 30
0.0
 40
66.181809644344
100
AcDbArc
 50
227.5974243132753
 51
312.4025756867247
  0
SOLID
  5
9BD4
330
9AF9
100
AcDbEntity
  8
0
 62
   115
100
AcDbTrace
 10
351.5258030562474
 20
43.7610712736147
 30
0.0
 11
352.2167016998909
 21
44.48402290699809
 31
0.0
 12
349.702397477919
 22
46.1952430212366
 32
0.0
 13
349.702397477919
 23
46.1952430212366
 33
0.0
  0
SOLID
  5
9BD5
330
9AF9
100
AcDbEntity
  8
0
 62
   115
100
AcDbTrace
 10
440.7833015142665
 20
44.48402290699806
 30
0.0
 11
441.47420015791
 21
43.76107127361467
 31
0.0
 12
443.2976057362385
 22
46.19524302123656
 32
0.0
 13
443.2976057362385
 23
46.19524302123656
 33
0.0
  0
MTEXT
  5
9BD6
102
{ACAD_XDICTIONARY
360
A250
102
}
330
9AF9
100
AcDbEntity
  8
0
 62
     7
100
AcDbMText
 10
396.5000016070787
 20
29.31104202915852
 30
0.0
 40
3.0
 41
0.0
 71
     5
 72
     1
  1
\A1;90\U+00B0
 73
     1
 44
1.0
1001
ACAD
1000
MTEXTBEGIN
1070
    73
1070
     1
1070
    44
1040
1.0
1070
    74
1070
     0
1000
MTEXTEND
  0
POINT
  5
9BD7
330
9AF9
100
AcDbEntity
  8
DEFPOINTS
 62
     0
100
AcDbPoint
 10
379.3708898615525
 20
29.06613223155509
 30
0.0
  0
POINT
  5
9BD8
330
9AF9
100
AcDbEntity
  8
DEFPOINTS
 62
     0
100
AcDbPoint
 10
361.1446539340292
 20
57.63750058326968
 30
0.0
  0
POINT
  5
9BD9
330
9AF9
100
AcDbEntity
  8
DEFPOINTS
 62
     0
100
AcDbPoint
 10
431.8553492801282
 20
57.63750058326968
 30
0.0
  0
POINT
  5
9BDA
330
9AF9
100
AcDbEntity
  8
DEFPOINTS
 62
     0
100
AcDbPoint
 10
421.2487480749074
 20
68.24410281364521
 30
0.0
  0
POINT
  5
9BDB
330
9AF9
100
AcDbEntity
  8
DEFPOINTS
 62
     0
100
AcDbPoint
 10
371.75125513925
 20
68.24410281364521
 30
0.0
  0
ENDBLK
  5
9AFB
330
9AF9
100
AcDbEntity
  8
0
100
AcDbBlockEnd
  0
BLOCK
  5
9B08
330
9B07
100
AcDbEntity
  8
0
100
AcDbBlockBegin
  2
*D20
 70
     1
 10
0.0
 20
0.0
 30
0.0
  3
*D20
  1

  0
LINE
  5
9BDC
330
9B07
100
AcDbEntity
  8
0
 62
   115
370
    -2
100
AcDbLine
 10
366.4479545366396
 20
61.94080169845745
 30
0.0
 11
366.4479545366396
 21
7.99999957100158
 31
0.0
  0
LINE
  5
9BDD
330
9B07
100
AcDbEntity
  8
0
 62
   115
370
    -2
100
AcDbLine
 10
426.5520486775178
 20
61.94080169845745
 30
0.0
 11
426.5520486775178
 21
7.99999957100158
 31
0.0
  0
LINE
  5
9BDE
330
9B07
100
AcDbEntity
  8
0
 62
   115
370
    -2
100
AcDbLine
 10
369.4479545366396
 20
8.99999957100158
 30
0.0
 11
423.5520486775178
 21
8.99999957100158
 31
0.0
  0
SOLID
  5
9BDF
330
9B07
100
AcDbEntity
  8
0
 62
   115
100
AcDbTrace
 10
369.4479545366396
 20
9.49999957100158
 30
0.0
 11
369.4479545366396
 21
8.49999957100158
 31
0.0
 12
366.4479545366396
 22
8.99999957100158
 32
0.0
 13
366.4479545366396
 23
8.99999957100158
 33
0.0
  0
SOLID
  5
9BE0
330
9B07
100
AcDbEntity
  8
0
 62
   115
100
AcDbTrace
 10
423.5520486775178
 20
9.49999957100158
 30
0.0
 11
423.5520486775178
 21
8.49999957100158
 31
0.0
 12
426.5520486775178
 22
8.99999957100158
 32
0.0
 13
426.5520486775178
 23
8.99999957100158
 33
0.0
  0
MTEXT
  5
9BE1
330
9B07
100
AcDbEntity
  8
0
 62
     7
100
AcDbMText
 10
396.5000016070787
 20
12.28571385671586
 30
0.0
 40
3.0
 41
0.0
 71
     5
 72
     1
  1
\A1;(60.1)
 73
     1
 44
1.0
1001
ACAD
1000
MTEXTBEGIN
1070
    73
1070
     1
1070
    44
1040
1.0
1070
    74
1070
     0
1000
MTEXTEND
  0
POINT
  5
9BE2
330
9B07
100
AcDbEntity
  8
DEFPOINTS
 62
     0
100
AcDbPoint
 10
366.4479545366396
 20
62.94080169845745
 30
0.0
  0
POINT
  5
9BE3
330
9B07
100
AcDbEntity
  8
DEFPOINTS
 62
     0
100
AcDbPoint
 10
426.5520486775178
 20
62.94080169845745
 30
0.0
  0
POINT
  5
9BE4
330
9B07
100
AcDbEntity
  8
DEFPOINTS
 62
     0
100
AcDbPoint
 10
426.5520486775178
 20
8.99999957100158
 30
0.0
  0
ENDBLK
  5
9B09
330
9B07
100
AcDbEntity
  8
0
100
AcDbBlockEnd
  0
BLOCK
  5
9B14
330
9B13
100
AcDbEntity
  8
0
100
AcDbBlockBegin
  2
*D21
 70
     1
 10
0.0
 20
0.0
 30
0.0
  3
*D21
  1

  0
LINE
  5
9BE5
330
9B13
100
AcDbEntity
  8
0
 62
   115
370
    -2
100
AcDbLine
 10
384.5001817053912
 20
51.94100333438223
 30
0.0
 11
338.9999976942239
 21
51.94100333438224
 31
0.0
  0
LINE
  5
9BE6
330
9B13
100
AcDbEntity
  8
0
 62
   115
370
    -2
100
AcDbLine
 10
384.5001806942241
 20
134.0446955606546
 30
0.0
 11
338.9999976942239
 21
134.0446955606546
 31
0.0
  0
LINE
  5
9BE7
330
9B13
100
AcDbEntity
  8
0
 62
   115
370
    -2
100
AcDbLine
 10
339.9999976942239
 20
54.94100333438224
 30
0.0
 11
339.999997694224
 21
131.0446955606546
 31
0.0
  0
SOLID
  5
9BE8
330
9B13
100
AcDbEntity
  8
0
 62
   115
100
AcDbTrace
 10
339.4999976942239
 20
54.94100333438224
 30
0.0
 11
340.4999976942239
 21
54.94100333438224
 31
0.0
 12
339.9999976942239
 22
51.94100333438224
 32
0.0
 13
339.9999976942239
 23
51.94100333438224
 33
0.0
  0
SOLID
  5
9BE9
330
9B13
100
AcDbEntity
  8
0
 62
   115
100
AcDbTrace
 10
339.499997694224
 20
131.0446955606546
 30
0.0
 11
340.499997694224
 21
131.0446955606546
 31
0.0
 12
339.999997694224
 22
134.0446955606546
 32
0.0
 13
339.999997694224
 23
134.0446955606546
 33
0.0
  0
MTEXT
  5
9BEA
330
9B13
100
AcDbEntity
  8
0
 62
     7
100
AcDbMText
 10
336.7142834085096
 20
92.99284944751851
 30
0.0
 40
3.0
 41
0.0
 71
     5
 72
     1
  1
\A1;(82.1)
 11
0.0000000000000001
 21
1.0
 31
0.0
 73
     1
 44
1.0
1001
ACAD
1000
MTEXTBEGIN
1070
    73
1070
     1
1070
    44
1040
1.0
1070
    74
1070
     0
1000
MTEXTEND
  0
POINT
  5
9BEB
330
9B13
100
AcDbEntity
  8
DEFPOINTS
 62
     0
100
AcDbPoint
 10
385.5001817053913
 20
51.94100333438223
 30
0.0
  0
POINT
  5
9BEC
330
9B13
100
AcDbEntity
  8
DEFPOINTS
 62
     0
100
AcDbPoint
 10
385.5001806942241
 20
134.0446955606546
 30
0.0
  0
POINT
  5
9BED
330
9B13
100
AcDbEntity
  8
DEFPOINTS
 62
     0
100
AcDbPoint
 10
339.999997694224
 20
134.0446955606546
 30
0.0
  0
ENDBLK
  5
9B15
330
9B13
100
AcDbEntity
  8
0
100
AcDbBlockEnd
  0
BLOCK
  5
9C4A
330
9C31
100
AcDbEntity
  8
0
100
AcDbBlockBegin
  2
A$C6F0B1B4C
 70
     0
 10
0.0
 20
0.0
 30
0.0
  3
A$C6F0B1B4C
  1

  0
CIRCLE
  5
9C32
330
9C31
100
AcDbEntity
  8
0
100
AcDbCircle
 10
27.50018350802657
 20
8.788658745793043
 30
0.0
 40
4.5
  0
CIRCLE
  5
9C33
330
9C31
100
AcDbEntity
  8
0
100
AcDbCircle
 10
49.49980260802658
 20
8.788658745793043
 30
0.0
 40
4.5
  0
CIRCLE
  5
9C34
330
9C31
100
AcDbEntity
  8
0
100
AcDbCircle
 10
68.55203140802655
 20
19.78846774579295
 30
0.0
 40
4.5
  0
CIRCLE
  5
9C35
330
9C31
100
AcDbEntity
  8
0
100
AcDbCircle
 10
68.55203140802655
 20
79.89254474579303
 30
0.0
 40
4.5
  0
CIRCLE
  5
9C36
330
9C31
100
AcDbEntity
  8
0
100
AcDbCircle
 10
27.50018350802668
 20
90.89235374579294
 30
0.0
 40
4.5
  0
LWPOLYLINE
  5
9C37
330
9C31
100
AcDbEntity
  8
2
100
AcDbPolyline
 90
        2
 70
     0
 43
0.0
 10
16.77127450802663
 20
93.87575074579302
 10
31.50142206413204
 20
68.36238580930632
  0
LWPOLYLINE
  5
9C38
330
9C31
100
AcDbEntity
  8
2
100
AcDbPolyline
 90
        2
 70
     0
 43
0.0
 10
11.22871150802655
 20
90.67575074579298
 10
25.95886004914337
 20
65.16238596648571
  0
LWPOLYLINE
  5
9C39
330
9C31
100
AcDbEntity
  8
2
100
AcDbPolyline
 90
        4
 70
     0
 43
0.0
 10
10.53589150802656
 20
90.27575074579301
 10
15.53589150802668
 20
81.61549674579299
 10
22.46409450802662
 20
85.615496745793
 10
17.46409450802662
 20
94.275750745793
  0
CIRCLE
  5
9C3A
330
9C31
100
AcDbEntity
  8
0
100
AcDbCircle
 10
49.4998026080267
 20
90.89235374579294
 30
0.0
 40
4.5
  0
CIRCLE
  5
9C3B
330
9C31
100
AcDbEntity
  8
0
100
AcDbCircle
 10
8.447954508026555
 20
19.78846774579295
 30
0.0
 40
4.5
  0
CIRCLE
  5
9C3C
330
9C31
100
AcDbEntity
  8
0
100
AcDbCircle
 10
8.447954508026555
 20
79.89254474579303
 30
0.0
 40
4.5
  0
ARC
  5
9C3D
330
9C31
100
AcDbEntity
  8
0
100
AcDbCircle
 10
38.49999305802669
 20
49.84050674579299
 30
0.0
 40
48.99999999999981
100
AcDbArc
 50
38.21319737532843
 51
141.7867752157471
  0
LINE
  5
9C3E
330
9C31
100
AcDbEntity
  8
0
100
AcDbLine
 10
22.61683704987752
 20
97.25068872414858
 30
0.0
 11
5.38314907087863
 21
87.3008143303436
 31
0.0
  0
LINE
  5
9C3F
330
9C31
100
AcDbEntity
  8
0
100
AcDbLine
 10
0.00000050802646
 20
81.74271001842265
 30
0.0
 11
0.0000005080265737
 21
17.93830347313582
 31
0.0
  0
LINE
  5
9C40
330
9C31
100
AcDbEntity
  8
0
100
AcDbLine
 10
77.00000010802671
 20
81.74269251965432
 30
0.0
 11
77.0000001080266
 21
17.93832097193154
 31
0.0
  0
ARC
  5
9C41
330
9C31
100
AcDbEntity
  8
0
100
AcDbCircle
 10
38.49999305802669
 20
49.84050674579299
 30
0.0
 40
49.9999999999996
100
AcDbArc
 50
39.6460984852982
 51
108.5216590188235
  0
ARC
  5
9C42
330
9C31
100
AcDbEntity
  8
0
100
AcDbCircle
 10
38.49999305802669
 20
49.84050674579299
 30
0.0
 40
48.99999999999996
100
AcDbArc
 50
218.2132247842529
 51
321.7868026246712
  0
ARC
  5
9C43
330
9C31
100
AcDbEntity
  8
0
100
AcDbCircle
 10
38.49999305802669
 20
49.84050674579299
 30
0.0
 40
49.99999999999997
100
AcDbArc
 50
219.6461245270409
 51
320.3539015147017
  0
ARC
  5
9C44
330
9C31
100
AcDbEntity
  8
0
100
AcDbCircle
 10
38.49999305802669
 20
49.84050674579299
 30
0.0
 40
49.99999999998298
100
AcDbArc
 50
131.4783409810736
 51
140.353875472984
  0
CIRCLE
  5
9C45
330
9C31
100
AcDbEntity
  8
0
100
AcDbCircle
 10
38.49999305802669
 20
49.84050674579299
 30
0.0
 40
35.0
  0
ARC
  5
9C46
330
9C31
100
AcDbEntity
  8
9
100
AcDbCircle
 10
38.49999305802669
 20
49.84050674579299
 30
0.0
 40
16.99999999999988
100
AcDbArc
 50
180.0
 51
90.0
  0
CIRCLE
  5
9C47
330
9C31
100
AcDbEntity
  8
0
100
AcDbCircle
 10
38.49999305802669
 20
49.84050674579299
 30
0.0
 40
19.79999999999995
  0
ENDBLK
  5
9C4B
330
9C31
100
AcDbEntity
  8
0
100
AcDbBlockEnd
  0
BLOCK
  5
9ECB
330
9ECA
100
AcDbEntity
  8
0
100
AcDbBlockBegin
  2
4040SDH
 70
     0
 10
0.0
 20
0.0
 30
0.0
  3
4040SDH
  1

  0
LINE
  5
A147
330
9ECA
100
AcDbEntity
  8
0
100
AcDbLine
 10
190.0000038442241
 20
242.9928475606412
 30
0.0
 11
190.0000038442241
 21
261.090644287984
 31
0.0
  0
LINE
  5
A148
330
9ECA
100
AcDbEntity
  8
0
100
AcDbLine
 10
190.0000038442241
 20
324.8950508332708
 30
0.0
 11
190.0000038442241
 21
342.9928475606407
 31
0.0
  0
LINE
  5
A149
330
9ECA
100
AcDbEntity
  8
0
100
AcDbLine
 10
189.0000038442241
 20
243.9928475606412
 30
0.0
 11
189.0000038442241
 21
341.9928475606407
 31
0.0
  0
LINE
  5
A14A
330
9ECA
100
AcDbEntity
  8
0
100
AcDbLine
 10
190.0000038442241
 20
342.9928475606407
 30
0.0
 11
189.0000038442241
 21
341.9928475606407
 31
0.0
  0
LINE
  5
A14B
330
9ECA
100
AcDbEntity
  8
0
100
AcDbLine
 10
190.0000038442241
 20
242.9928475606412
 30
0.0
 11
189.0000038442241
 21
243.9928475606412
 31
0.0
  0
LINE
  5
A14C
330
9ECA
100
AcDbEntity
  8
0
100
AcDbLine
 10
122.9999975442241
 20
327.9928211106413
 30
0.0
 11
122.9999975442241
 21
257.9928289106411
 31
0.0
  0
LINE
  5
A14D
330
9ECA
100
AcDbEntity
  8
0
100
AcDbLine
 10
222.9999978442241
 20
327.9928301106412
 30
0.0
 11
222.9999978442241
 21
257.9928350106412
 31
0.0
  0
LINE
  5
A14E
330
9ECA
100
AcDbEntity
  8
0
100
AcDbLine
 10
203.0000038442241
 20
243.9928475606412
 30
0.0
 11
203.000003844224
 21
341.9928475606407
 31
0.0
  0
LINE
  5
A14F
330
9ECA
100
AcDbEntity
  8
0
100
AcDbLine
 10
202.000003844224
 20
342.9928475606407
 30
0.0
 11
203.000003844224
 21
341.9928475606407
 31
0.0
  0
LINE
  5
A150
330
9ECA
100
AcDbEntity
  8
0
100
AcDbLine
 10
202.0000038442241
 20
242.9928475606412
 30
0.0
 11
203.0000038442241
 21
243.9928475606412
 31
0.0
  0
LINE
  5
A151
330
9ECA
100
AcDbEntity
  8
0
100
AcDbLine
 10
202.0000038442241
 20
342.9928475606407
 30
0.0
 11
202.0000038442241
 21
324.8950508332708
 31
0.0
  0
LINE
  5
A152
330
9ECA
100
AcDbEntity
  8
0
100
AcDbLine
 10
202.0000038442241
 20
261.090644287984
 30
0.0
 11
202.0000038442241
 21
242.9928475606412
 31
0.0
  0
LINE
  5
A153
330
9ECA
100
AcDbEntity
  8
0
100
AcDbLine
 10
121.9999975442241
 20
258.9928289106412
 30
0.0
 11
121.9999975442241
 21
326.9928211106412
 31
0.0
  0
LINE
  5
A154
330
9ECA
100
AcDbEntity
  8
0
100
AcDbLine
 10
122.9999975442241
 20
327.9928211106412
 30
0.0
 11
121.9999975442241
 21
326.9928211106412
 31
0.0
  0
LINE
  5
A155
330
9ECA
100
AcDbEntity
  8
0
100
AcDbLine
 10
122.9999975442241
 20
327.9928211106412
 30
0.0
 11
188.9999978442241
 21
327.9928211106412
 31
0.0
  0
LINE
  5
A156
330
9ECA
100
AcDbEntity
  8
0
100
AcDbLine
 10
190.0000038442241
 20
342.9928475606407
 30
0.0
 11
202.000003844224
 21
342.9928475606407
 31
0.0
  0
LINE
  5
A157
330
9ECA
100
AcDbEntity
  8
0
100
AcDbLine
 10
202.9999978442242
 20
327.9928301106412
 30
0.0
 11
222.9999978442241
 21
327.9928301106413
 31
0.0
  0
LINE
  5
A158
330
9ECA
100
AcDbEntity
  8
0
100
AcDbLine
 10
223.9999978442241
 20
326.9928301106412
 30
0.0
 11
223.9999978442241
 21
258.9928350106412
 31
0.0
  0
LINE
  5
A159
330
9ECA
100
AcDbEntity
  8
0
100
AcDbLine
 10
222.9999978442241
 20
327.9928301106413
 30
0.0
 11
223.9999978442241
 21
326.9928301106412
 31
0.0
  0
LINE
  5
A15A
330
9ECA
100
AcDbEntity
  8
0
100
AcDbLine
 10
222.9999978442241
 20
257.9928350106412
 30
0.0
 11
223.9999978442241
 21
258.9928350106412
 31
0.0
  0
LINE
  5
A15B
330
9ECA
100
AcDbEntity
  8
0
100
AcDbLine
 10
222.9999978442241
 20
257.9928350106412
 30
0.0
 11
202.9999978442242
 21
257.9928350106412
 31
0.0
  0
LINE
  5
A15C
330
9ECA
100
AcDbEntity
  8
0
100
AcDbLine
 10
202.0000038442241
 20
242.9928475606412
 30
0.0
 11
190.0000038442241
 21
242.9928475606412
 31
0.0
  0
LINE
  5
A15D
330
9ECA
100
AcDbEntity
  8
0
100
AcDbLine
 10
188.9999978442241
 20
257.9928289106411
 30
0.0
 11
122.9999975442241
 21
257.9928289106411
 31
0.0
  0
LINE
  5
A15E
330
9ECA
100
AcDbEntity
  8
0
100
AcDbLine
 10
121.9999975442241
 20
258.9928289106412
 30
0.0
 11
122.9999975442241
 21
257.9928289106411
 31
0.0
  0
LINE
  5
A161
330
9ECA
100
AcDbEntity
  8
2
100
AcDbLine
 10
121.9999975442241
 20
312.7928475606411
 30
0.0
 11
223.9999978442241
 21
312.7928475606411
 31
0.0
  0
LINE
  5
A162
330
9ECA
100
AcDbEntity
  8
2
100
AcDbLine
 10
121.9999975442241
 20
273.1928475606412
 30
0.0
 11
223.9999978442241
 21
273.1928475606412
 31
0.0
  0
LINE
  5
A163
330
9ECA
100
AcDbEntity
  8
0
100
AcDbLine
 10
189.0000038442241
 20
261.090644287984
 30
0.0
 11
203.0000038442241
 21
261.090644287984
 31
0.0
  0
LINE
  5
A164
330
9ECA
100
AcDbEntity
  8
0
100
AcDbLine
 10
189.0000038442241
 20
324.8950508332708
 30
0.0
 11
203.000003844224
 21
324.8950508332708
 31
0.0
  0
LINE
  5
A165
330
9ECA
100
AcDbEntity
  8
9
100
AcDbLine
 10
189.0000038442241
 20
261.090644287984
 30
0.0
 11
203.000003844224
 21
324.8950508332708
 31
0.0
  0
LINE
  5
A166
330
9ECA
100
AcDbEntity
  8
9
100
AcDbLine
 10
189.0000038442241
 20
324.8950508332708
 30
0.0
 11
203.0000038442241
 21
261.090644287984
 31
0.0
  0
TEXT
  5
A167
330
9ECA
100
AcDbEntity
  8
0
100
AcDbText
 10
142.9013229923078
 20
290.9928334106406
 30
0.0
 40
4.0
  1
SDH4040
 72
     4
 11
156.5203706113555
 21
292.9928334106406
 31
0.0
100
AcDbText
  0
LWPOLYLINE
  5
A179
330
9ECA
100
AcDbEntity
  8
0
100
AcDbPolyline
 90
       35
 70
   128
 43
0.0
 10
196.000003844224
 20
333.7284289987093
 10
196.6247522048004
 20
333.7573747292466
 10
197.2282255092603
 20
333.8432262087219
 10
197.789873198007
 20
333.9830598679689
 10
198.2905690326223
 20
334.1721138394341
 10
198.7132624169769
 20
334.4039501168645
 10
199.0435590348313
 20
334.6706737938891
 10
199.2702110310116
 20
334.9632019155868
 10
199.3855000436272
 20
335.2715727876216
 10
199.3855000436272
 20
335.5852852097969
 10
199.2702110310116
 20
335.8936560818318
 10
199.0435590348313
 20
336.1861842035294
 10
198.7132624169769
 20
336.452907880554
 10
198.2905690326223
 20
336.6847441579844
 10
197.789873198007
 20
336.8737981294496
 10
197.2282255092603
 20
337.0136317886967
 10
196.6247522048004
 20
337.0994832681719
 10
196.000003844224
 20
337.1284289987093
 10
195.3752554836477
 20
337.0994832681719
 10
194.7717821791878
 20
337.0136317886967
 10
194.2101344904411
 20
336.8737981294496
 10
193.7094386558257
 20
336.6847441579844
 10
193.2867452714713
 20
336.452907880554
 10
192.9564486536169
 20
336.1861842035294
 10
192.7297966574365
 20
335.8936560818317
 10
192.6145076448209
 20
335.5852852097969
 10
192.6145076448209
 20
335.2715727876216
 10
192.7297966574365
 20
334.9632019155868
 10
192.9564486536169
 20
334.6706737938891
 10
193.2867452714713
 20
334.4039501168645
 10
193.7094386558258
 20
334.1721138394341
 10
194.2101344904412
 20
333.9830598679689
 10
194.7717821791879
 20
333.8432262087219
 10
195.3752554836478
 20
333.7573747292466
 10
196.000003844224
 20
333.7284289987093
  0
LWPOLYLINE
  5
A17A
330
9ECA
100
AcDbEntity
  8
9
100
AcDbPolyline
 90
        9
 70
   128
 43
0.0
 10
200.0000038442241
 20
335.4284289987092
 10
199.6955219742692
 20
334.6630621339791
 10
198.8284309689703
 20
334.0142154363361
 10
197.5307375736845
 20
333.5806699336867
 10
196.0000038442241
 20
333.4284289987092
 10
194.4692701147637
 20
333.5806699336867
 10
193.1715767194779
 20
334.0142154363362
 10
192.304485714179
 20
334.6630621339791
 10
192.0000038442241
 20
335.4284289987092
  0
LWPOLYLINE
  5
A17B
330
9ECA
100
AcDbEntity
  8
9
100
AcDbPolyline
 90
        5
 70
   128
 43
0.0
 10
196.0000038442241
 20
337.4284289987092
 10
197.5307375736845
 20
337.2761880637319
 10
198.8284309689703
 20
336.8426425610824
 10
199.6955219742692
 20
336.1937958634394
 10
200.0000038442241
 20
335.4284289987092
  0
ENDBLK
  5
9ECC
330
9ECA
100
AcDbEntity
  8
0
100
AcDbBlockEnd
  0
ENDSEC
  0
SECTION
  2
ENTITIES
  0
DIMENSION
  5
99D1
330
19
100
AcDbEntity
  8
0
100
AcDbDimension
  2
*D1
 10
11.99999769422385
 20
109.992847560641
 30
0.0
 11
9.49999769422383
 21
92.9928475606411
 31
0.0
 70
    32
  1
%%C<>
 71
     5
 42
33.99999999999989
  3
STANDARD
100
AcDbAlignedDimension
 13
21.99999769422411
 23
75.99284756064117
 33
0.0
 14
21.99999769422408
 24
109.992847560641
 34
0.0
 50
90.0
100
AcDbRotatedDimension
1001
ACAD
1000
DSTYLE
1002
{
1070
    41
1040
3.0
1070
    42
1040
1.0
1070
    43
1040
1.0
1070
    44
1040
1.0
1070
    73
1070
     0
1070
    74
1070
     0
1070
    77
1070
     3
1070
    78
1070
     8
1070
   141
1040
-1.0
1070
   147
1040
1.0
1070
   172
1070
     1
1070
   176
1070
   115
1070
   177
1070
   115
1070
   178
1070
     7
1070
   271
1070
     2
1070
   272
1070
     2
1002
}
  0
DIMENSION
  5
99D2
330
19
100
AcDbEntity
  8
0
100
AcDbDimension
  2
*D2
 10
3.99999769422385
 20
112.7928475606411
 30
0.0
 11
1.499997694223831
 21
92.9928475606411
 31
0.0
 70
    32
  1
%%C<>
 71
     5
 42
39.60000000000002
  3
STANDARD
100
AcDbAlignedDimension
 13
21.99999769422408
 23
73.1928475606411
 33
0.0
 14
21.99999769422411
 24
112.7928475606411
 34
0.0
 50
90.0
100
AcDbRotatedDimension
1001
ACAD
1000
DSTYLE
1002
{
1070
    41
1040
3.0
1070
    42
1040
1.0
1070
    43
1040
1.0
1070
    44
1040
1.0
1070
    73
1070
     0
1070
    74
1070
     0
1070
    77
1070
     3
1070
    78
1070
     8
1070
   141
1040
-1.0
1070
   147
1040
1.0
1070
   172
1070
     1
1070
   176
1070
   115
1070
   177
1070
   115
1070
   178
1070
     7
1070
   271
1070
     2
1070
   272
1070
     2
1002
}
  0
DIMENSION
  5
99D3
330
19
100
AcDbEntity
  8
0
100
AcDbDimension
  2
*D3
 10
111.999997544224
 20
127.9928211106413
 30
0.0
 11
108.7142832585097
 21
92.99282501064125
 31
0.0
 70
    32
  1
%%C<> g6 ({\H0.5x;\S-0.010^ -0.029;})
 71
     5
 42
69.99999220000018
  3
STANDARD
100
AcDbAlignedDimension
 13
122.9999975442241
 23
57.99282891064112
 33
0.0
 14
122.9999975442241
 24
127.9928211106413
 34
0.0
 50
90.0
100
AcDbRotatedDimension
1001
ACAD
1000
DSTYLE
1002
{
1070
   998
1000
1,0,-0.01,-0.029,0,0,2,P7,g6,256
1070
    48
1040
0.029
1070
    47
1040
-0.01
1070
    71
1070
     0
1070
    72
1070
     0
1070
   284
1070
     8
1070
   283
1070
     1
1070
   146
1040
1.0
1070
     3
1000

1070
    41
1040
3.0
1070
    42
1040
1.0
1070
    43
1040
1.0
1070
    44
1040
1.0
1070
    73
1070
     0
1070
    74
1070
     0
1070
    77
1070
     3
1070
    78
1070
     8
1070
   141
1040
-1.0
1070
   147
1040
1.0
1070
   172
1070
     1
1070
   176
1070
   115
1070
   177
1070
   115
1070
   178
1070
     7
1070
   271
1070
     2
1070
   272
1070
     3
1002
}
  0
DIMENSION
  5
99D4
330
19
100
AcDbEntity
  8
0
100
AcDbDimension
  2
*D4
 10
121.9999975442241
 20
32.99284756064117
 30
0.0
 11
155.5000006942241
 21
35.49284756064117
 31
0.0
 70
    32
 71
     5
 42
67.00000629999998
  3
STANDARD
100
AcDbAlignedDimension
 13
189.0000038442241
 23
43.99284756064119
 33
0.0
 14
121.9999975442241
 24
58.99282891064117
 34
0.0
100
AcDbRotatedDimension
1001
ACAD
1000
DSTYLE
1002
{
1070
    41
1040
3.0
1070
    42
1040
1.0
1070
    43
1040
1.0
1070
    44
1040
1.0
1070
    47
1040
1.0
1070
    48
1040
1.0
1070
    73
1070
     0
1070
    74
1070
     0
1070
    77
1070
     3
1070
    78
1070
     8
1070
   141
1040
-1.0
1070
   147
1040
1.0
1070
   172
1070
     1
1070
   176
1070
   115
1070
   177
1070
   115
1070
   178
1070
     7
1070
   271
1070
     2
1070
   272
1070
     3
1070
   284
1070
     8
1002
}
  0
DIMENSION
  5
99D5
330
19
100
AcDbEntity
  8
0
100
AcDbDimension
  2
*D5
 10
203.0000038442241
 20
32.99284756064117
 30
0.0
 11
196.0000038442241
 21
35.49284756064117
 31
0.0
 70
    32
 71
     5
 42
14.0
  3
STANDARD
100
AcDbAlignedDimension
 13
189.0000038442241
 23
43.99284756064119
 33
0.0
 14
203.0000038442241
 24
43.99284756064122
 34
0.0
100
AcDbRotatedDimension
1001
ACAD
1000
DSTYLE
1002
{
1070
    41
1040
3.0
1070
    42
1040
1.0
1070
    43
1040
1.0
1070
    44
1040
1.0
1070
    73
1070
     0
1070
    74
1070
     0
1070
    77
1070
     3
1070
    78
1070
     8
1070
   141
1040
-1.0
1070
   147
1040
1.0
1070
   172
1070
     1
1070
   176
1070
   115
1070
   177
1070
   115
1070
   178
1070
     7
1070
   271
1070
     2
1070
   272
1070
     2
1002
}
  0
DIMENSION
  5
99D6
330
19
100
AcDbEntity
  8
0
100
AcDbDimension
  2
*D6
 10
223.9999978442241
 20
24.9928475606414
 30
0.0
 11
172.9999976942241
 21
27.4928475606414
 31
0.0
 70
    32
 71
     5
 42
102.0000003
  3
STANDARD
100
AcDbAlignedDimension
 13
121.9999975442241
 23
58.99282891064117
 33
0.0
 14
223.9999978442241
 24
58.99283501064124
 34
0.0
100
AcDbRotatedDimension
1001
ACAD
1000
DSTYLE
1002
{
1070
    41
1040
3.0
1070
    42
1040
1.0
1070
    43
1040
1.0
1070
    44
1040
1.0
1070
    47
1040
1.0
1070
    48
1040
1.0
1070
    73
1070
     0
1070
    74
1070
     0
1070
    77
1070
     3
1070
    78
1070
     8
1070
   141
1040
-1.0
1070
   147
1040
1.0
1070
   172
1070
     1
1070
   176
1070
   115
1070
   177
1070
   115
1070
   178
1070
     7
1070
   271
1070
     2
1070
   272
1070
     3
1070
   284
1070
     8
1002
}
  0
DIMENSION
  5
99D7
330
19
100
AcDbEntity
  8
0
100
AcDbDimension
  2
*D7
 10
434.9999972942241
 20
0.9999995710015809
 30
0.0
 11
396.4999974942242
 21
3.49999957100158
 31
0.0
 70
    32
 71
     5
 42
76.99999960000003
  3
STANDARD
100
AcDbAlignedDimension
 13
357.9999976942241
 23
61.09064428799775
 33
0.0
 14
434.9999972942241
 24
61.09066178679348
 34
0.0
100
AcDbRotatedDimension
1001
ACAD
1000
DSTYLE
1002
{
1070
    41
1040
3.0
1070
    42
1040
1.0
1070
    43
1040
1.0
1070
    44
1040
1.0
1070
    73
1070
     0
1070
    74
1070
     0
1070
    77
1070
     3
1070
    78
1070
     8
1070
   141
1040
-1.0
1070
   147
1040
1.0
1070
   172
1070
     1
1070
   176
1070
   115
1070
   177
1070
   115
1070
   178
1070
     7
1070
   271
1070
     2
1070
   272
1070
     2
1002
}
  0
DIMENSION
  5
99D8
330
19
100
AcDbEntity
  8
0
100
AcDbDimension
  2
*D8
 10
387.4413235375304
 20
59.18544325647315
 30
0.0
 11
396.5000016070787
 21
37.06808833313744
 31
0.0
 70
    34
 71
     5
 42
0.5235987769889903
  3
STANDARD
100
AcDb2LineAngularDimension
 13
409.4409653632396
 23
44.69655586483668
 33
0.0
 14
405.558679676627
 24
59.18544325647315
 34
0.0
 15
383.5590378509177
 25
44.69655586483668
 35
0.0
 16
391.4079446122692
 26
34.79041234346596
 36
0.0
1001
ACAD
1000
DSTYLE
1002
{
1070
    41
1040
3.0
1070
    42
1040
1.0
1070
    43
1040
1.0
1070
    44
1040
1.0
1070
    73
1070
     0
1070
    74
1070
     0
1070
    77
1070
     3
1070
    78
1070
     8
1070
    79
1070
     2
1070
   141
1040
-1.0
1070
   147
1040
1.0
1070
   172
1070
     1
1070
   176
1070
   115
1070
   177
1070
   115
1070
   178
1070
     7
1070
   271
1070
     2
1070
   272
1070
     2
1002
}
  0
DIMENSION
  5
99D9
330
19
100
AcDbEntity
  8
0
100
AcDbDimension
  2
*D9
 10
407.4998225199333
 20
16.99999957100158
 30
0.0
 11
396.5000016070787
 21
20.28571385671587
 31
0.0
 70
    32
  1
(<>)
 71
     5
 42
21.99964182570932
  3
STANDARD
100
AcDbAlignedDimension
 13
385.5001806942241
 23
51.94099956065497
 33
0.0
 14
407.4998225199333
 24
51.94099956065497
 34
0.0
100
AcDbRotatedDimension
1001
ACAD
1000
DSTYLE
1002
{
1070
    41
1040
3.0
1070
    42
1040
1.0
1070
    43
1040
1.0
1070
    44
1040
1.0
1070
    73
1070
     0
1070
    74
1070
     0
1070
    77
1070
     3
1070
    78
1070
     8
1070
   141
1040
-1.0
1070
   147
1040
1.0
1070
   172
1070
     1
1070
   176
1070
   115
1070
   177
1070
   115
1070
   178
1070
     7
1070
   271
1070
     2
1070
   272
1070
     2
1002
}
  0
DIMENSION
  5
99DA
330
19
100
AcDbEntity
  8
0
100
AcDbDimension
  2
*D10
 10
452.9999972942234
 20
135.4928455284016
 30
0.0
 11
450.4999972942234
 21
92.99284756065544
 31
0.0
 70
    32
  1
PCD <>
 71
     5
 42
84.99999593549251
  3
STANDARD
100
AcDbAlignedDimension
 13
396.4999959256514
 23
50.49284959290912
 33
0.0
 14
396.4999959256514
 24
135.4928455284016
 34
0.0
 50
90.0
100
AcDbRotatedDimension
1001
ACAD
1000
DSTYLE
1002
{
1070
    41
1040
3.0
1070
    42
1040
1.0
1070
    43
1040
1.0
1070
    44
1040
1.0
1070
    73
1070
     0
1070
    74
1070
     0
1070
    77
1070
     3
1070
    78
1070
     8
1070
   141
1040
-1.0
1070
   147
1040
1.0
1070
   172
1070
     1
1070
   176
1070
   115
1070
   177
1070
   115
1070
   178
1070
     7
1070
   271
1070
     2
1070
   272
1070
     2
1002
}
  0
DIMENSION
  5
99DB
330
19
100
AcDbEntity
  8
0
100
AcDbDimension
  2
*D11
 10
444.9999972942234
 20
127.5448855606549
 30
0.0
 11
442.4999972942234
 21
137.044885560655
 31
0.0
 70
    32
  1
6-%%C<>
 71
     5
 42
9.0
  3
STANDARD
100
AcDbAlignedDimension
 13
426.552028594224
 23
118.5448855606549
 33
0.0
 14
426.552028594224
 24
127.5448855606549
 34
0.0
 50
90.0
100
AcDbRotatedDimension
1001
ACAD
1000
DSTYLE
1002
{
1070
    41
1040
3.0
1070
    42
1040
1.0
1070
    43
1040
1.0
1070
    44
1040
1.0
1070
    73
1070
     0
1070
    74
1070
     0
1070
    77
1070
     3
1070
    78
1070
     8
1070
   141
1040
-1.0
1070
   147
1040
1.0
1070
   172
1070
     1
1070
   176
1070
   115
1070
   177
1070
   115
1070
   178
1070
     7
1070
   271
1070
     2
1070
   272
1070
     2
1002
}
  0
DIMENSION
  5
99DC
330
19
100
AcDbEntity
  8
0
100
AcDbDimension
  2
*D12
 10
233.9999978442242
 20
127.9928301106412
 30
0.0
 11
230.7142835585099
 21
92.99283256064128
 31
0.0
 70
    32
  1
%%C<> g6 ({\H0.5x;\S-0.010^ -0.029;})
 71
     5
 42
69.99999510000003
  3
STANDARD
100
AcDbAlignedDimension
 13
222.9999978442241
 23
57.99283501064124
 33
0.0
 14
222.9999978442241
 24
127.9928301106413
 34
0.0
 50
90.0
100
AcDbRotatedDimension
1001
ACAD
1000
DSTYLE
1002
{
1070
   998
1000
1,0,-0.01,-0.029,0,0,2,P7,g6,256
1070
    71
1070
     0
1070
    72
1070
     0
1070
   283
1070
     1
1070
   146
1040
1.0
1070
     3
1000

1070
    41
1040
3.0
1070
    42
1040
1.0
1070
    43
1040
1.0
1070
    44
1040
1.0
1070
    47
1040
-0.01
1070
    48
1040
0.029
1070
    73
1070
     0
1070
    74
1070
     0
1070
    77
1070
     3
1070
    78
1070
     8
1070
   141
1040
-1.0
1070
   147
1040
1.0
1070
   172
1070
     1
1070
   176
1070
   115
1070
   177
1070
   115
1070
   178
1070
     7
1070
   271
1070
     2
1070
   272
1070
     3
1070
   284
1070
     8
1002
}
  0
DIMENSION
  5
99DE
330
19
100
AcDbEntity
  8
0
100
AcDbDimension
  2
*D13
 10
223.9999978442241
 20
32.99284756064117
 30
0.0
 11
213.5000008442241
 21
35.49284756064117
 31
0.0
 70
    32
 71
     5
 42
20.99999400000001
  3
STANDARD
100
AcDbAlignedDimension
 13
203.0000038442241
 23
43.99284756064122
 33
0.0
 14
223.9999978442241
 24
58.99283501064124
 34
0.0
100
AcDbRotatedDimension
1001
ACAD
1000
DSTYLE
1002
{
1070
    41
1040
3.0
1070
    42
1040
1.0
1070
    43
1040
1.0
1070
    44
1040
1.0
1070
    73
1070
     0
1070
    74
1070
     0
1070
    77
1070
     3
1070
    78
1070
     8
1070
   141
1040
-1.0
1070
   147
1040
1.0
1070
   172
1070
     1
1070
   176
1070
   115
1070
   177
1070
   115
1070
   178
1070
     7
1070
   271
1070
     2
1070
   272
1070
     2
1002
}
  0
DIMENSION
  5
99DF
330
19
100
AcDbEntity
  8
0
100
AcDbDimension
  2
*D14
 10
241.9999978442241
 20
142.9928475606407
 30
0.0
 11
239.4999978442241
 21
92.99284756064102
 31
0.0
 70
    32
  1
%%C<>
 71
     5
 42
99.99999999999953
  3
STANDARD
100
AcDbAlignedDimension
 13
202.0000038442241
 23
42.99284756064122
 33
0.0
 14
202.0000038442241
 24
142.9928475606407
 34
0.0
 50
90.0
100
AcDbRotatedDimension
1001
ACAD
1000
DSTYLE
1002
{
1070
   998
1000
1,1,-0.007,-0.02,0,0,2,H7,g6,256
1070
    47
1040
-0.007
1070
    71
1070
     0
1070
    72
1070
     0
1070
   283
1070
     1
1070
   146
1040
1.0
1070
     3
1000

1070
    41
1040
3.0
1070
    42
1040
1.0
1070
    43
1040
1.0
1070
    44
1040
1.0
1070
    48
1040
0.02
1070
    73
1070
     0
1070
    74
1070
     0
1070
    77
1070
     3
1070
    78
1070
     8
1070
   141
1040
-1.0
1070
   147
1040
1.0
1070
   172
1070
     1
1070
   176
1070
   115
1070
   177
1070
   115
1070
   178
1070
     7
1070
   271
1070
     2
1070
   272
1070
     3
1070
   284
1070
     8
1002
}
  0
DIMENSION
  5
99E0
330
19
100
AcDbEntity
  8
0
100
AcDbDimension
  2
*D15
 10
405.0375854311791
 20
154.5003482491967
 30
0.0
 11
409.7026489438339
 21
151.4202212436653
 31
0.0
 70
    32
 71
     5
 42
9.999999989461329
  3
STANDARD
100
AcDbAlignedDimension
 13
380.4649611757879
 23
128.7663315744166
 33
0.0
 14
380.2880133475366
 24
140.2111760819351
 34
0.0
 50
120.0000001084169
100
AcDbRotatedDimension
1001
ACAD
1000
DSTYLE
1002
{
1070
    41
1040
3.0
1070
    42
1040
1.0
1070
    43
1040
1.0
1070
    44
1040
1.0
1070
    73
1070
     0
1070
    74
1070
     0
1070
    77
1070
     3
1070
    78
1070
     8
1070
   141
1040
-1.0
1070
   147
1040
1.0
1070
   172
1070
     1
1070
   176
1070
   115
1070
   177
1070
   115
1070
   178
1070
     7
1070
   271
1070
     2
1070
   272
1070
     2
1002
}
  0
DIMENSION
  5
99E1
330
19
100
AcDbEntity
  8
0
100
AcDbDimension
  2
*D16
 10
363.4887994967672
 20
142.0611593751989
 30
0.0
 11
351.9702126308581
 21
138.2976512581358
 31
0.0
 70
    32
  1
M<>x1
 71
     5
 42
7.999999800575608
  3
STANDARD
100
AcDbAlignedDimension
 13
375.4152637216634
 23
137.403917327768
 33
0.0
 14
368.4870607216633
 24
133.403917327768
 34
0.0
 50
210.000000984657
100
AcDbRotatedDimension
1001
ACAD
1000
DSTYLE
1002
{
1070
    41
1040
3.0
1070
    42
1040
1.0
1070
    43
1040
1.0
1070
    44
1040
1.0
1070
    73
1070
     0
1070
    74
1070
     0
1070
    77
1070
     3
1070
    78
1070
     8
1070
   141
1040
-1.0
1070
   147
1040
1.0
1070
   172
1070
     1
1070
   176
1070
   115
1070
   177
1070
   115
1070
   178
1070
     7
1070
   271
1070
     2
1070
   272
1070
     2
1002
}
  0
DIMENSION
  5
99E2
330
19
100
AcDbEntity
  8
0
100
AcDbDimension
  2
*D17
 10
386.5339326942242
 20
110.2545655606549
 30
0.0
 11
378.4831818914337
 21
160.2324872498575
 31
0.0
 70
    34
 71
     5
 42
0.5235986831243908
  3
STANDARD
100
AcDb2LineAngularDimension
 13
396.5000016070787
 23
39.99284756065629
 33
0.0
 14
396.4999902442242
 24
145.9928475606544
 34
0.0
 15
369.5087796942241
 25
139.7429945606549
 35
0.0
 16
384.8461824320003
 26
159.0848693587393
 36
0.0
1001
ACAD
1000
DSTYLE
1002
{
1070
    41
1040
3.0
1070
    42
1040
1.0
1070
    43
1040
1.0
1070
    44
1040
1.0
1070
    73
1070
     0
1070
    74
1070
     0
1070
    77
1070
     3
1070
    78
1070
     8
1070
    79
1070
     2
1070
   141
1040
-1.0
1070
   147
1040
1.0
1070
   172
1070
     1
1070
   176
1070
   115
1070
   177
1070
   115
1070
   178
1070
     7
1070
   179
1070
     1
1070
   271
1070
     2
1070
   272
1070
     2
1002
}
  0
DIMENSION
  5
99E3
330
19
100
AcDbEntity
  8
0
100
AcDbDimension
  2
*D18
 10
347.999997694224
 20
123.0448934228522
 30
0.0
 11
344.7142834085097
 21
92.99284756065487
 31
0.0
 70
    32
  1
(<>)
 71
     5
 42
60.10409172439473
  3
STANDARD
100
AcDbAlignedDimension
 13
366.4479545366396
 23
62.94080169845745
 33
0.0
 14
366.4479545366396
 24
123.0448934228521
 34
0.0
 50
90.0
100
AcDbRotatedDimension
1001
ACAD
1000
DSTYLE
1002
{
1070
    41
1040
3.0
1070
    42
1040
1.0
1070
    43
1040
1.0
1070
    44
1040
1.0
1070
    73
1070
     0
1070
    74
1070
     0
1070
    77
1070
     3
1070
    78
1070
     8
1070
   141
1040
-1.0
1070
   147
1040
1.0
1070
   172
1070
     1
1070
   176
1070
   115
1070
   177
1070
   115
1070
   178
1070
     7
1070
   271
1070
     2
1070
   272
1070
     2
1002
}
  0
LINE
  5
99E4
330
19
100
AcDbEntity
  8
1
100
AcDbLine
 10
18.9999976942241
 20
92.99284756064116
 30
0.0
 11
324.9999976942242
 21
92.99284756064116
 31
0.0
  0
LINE
  5
99E5
330
19
100
AcDbEntity
  8
1
100
AcDbLine
 10
189.0000038442241
 20
135.4284289987092
 30
0.0
 11
203.0000038442241
 21
135.4284289987092
 31
0.0
  0
LINE
  5
99E6
330
19
100
AcDbEntity
  8
1
100
AcDbLine
 10
196.0000038442241
 20
130.4284289987092
 30
0.0
 11
196.0000038442241
 21
140.4284289987092
 31
0.0
  0
DIMENSION
  5
99E7
330
19
100
AcDbEntity
  8
0
100
AcDbDimension
  2
*D19
 10
371.75125513925
 20
68.24410281364521
 30
0.0
 11
396.5000016070787
 21
29.31104202915852
 31
0.0
 70
    34
 71
     5
 42
1.570796230142385
  3
STANDARD
100
AcDb2LineAngularDimension
 13
431.8553492801282
 23
57.63750058326968
 33
0.0
 14
421.2487480749074
 24
68.24410281364521
 34
0.0
 15
361.1446539340292
 25
57.63750058326968
 35
0.0
 16
379.3708898615525
 26
29.06613223155509
 36
0.0
1001
ACAD
1000
DSTYLE
1002
{
1070
    41
1040
3.0
1070
    42
1040
1.0
1070
    43
1040
1.0
1070
    44
1040
1.0
1070
    73
1070
     0
1070
    74
1070
     0
1070
    77
1070
     3
1070
    78
1070
     8
1070
    79
1070
     2
1070
   141
1040
-1.0
1070
   147
1040
1.0
1070
   172
1070
     1
1070
   176
1070
   115
1070
   177
1070
   115
1070
   178
1070
     7
1070
   271
1070
     2
1070
   272
1070
     2
1002
}
  0
DIMENSION
  5
99E8
330
19
100
AcDbEntity
  8
0
100
AcDbDimension
  2
*D20
 10
426.5520486775178
 20
8.99999957100158
 30
0.0
 11
396.5000016070787
 21
12.28571385671586
 31
0.0
 70
    32
  1
(<>)
 71
     5
 42
60.10409414087826
  3
STANDARD
100
AcDbAlignedDimension
 13
366.4479545366396
 23
62.94080169845745
 33
0.0
 14
426.5520486775178
 24
62.94080169845745
 34
0.0
100
AcDbRotatedDimension
1001
ACAD
1000
DSTYLE
1002
{
1070
    41
1040
3.0
1070
    42
1040
1.0
1070
    43
1040
1.0
1070
    44
1040
1.0
1070
    73
1070
     0
1070
    74
1070
     0
1070
    77
1070
     3
1070
    78
1070
     8
1070
   141
1040
-1.0
1070
   147
1040
1.0
1070
   172
1070
     1
1070
   176
1070
   115
1070
   177
1070
   115
1070
   178
1070
     7
1070
   271
1070
     2
1070
   272
1070
     2
1002
}
  0
DIMENSION
  5
99E9
330
19
100
AcDbEntity
  8
0
100
AcDbDimension
  2
*D21
 10
339.999997694224
 20
134.0446955606546
 30
0.0
 11
336.7142834085096
 21
92.99284944751851
 31
0.0
 70
    32
  1
(<>)
 71
     5
 42
82.10369222627241
  3
STANDARD
100
AcDbAlignedDimension
 13
385.5001817053913
 23
51.94100333438223
 33
0.0
 14
385.5001806942241
 24
134.0446955606546
 34
0.0
 50
90.0
100
AcDbRotatedDimension
1001
ACAD
1000
DSTYLE
1002
{
1070
    41
1040
3.0
1070
    42
1040
1.0
1070
    43
1040
1.0
1070
    44
1040
1.0
1070
    73
1070
     0
1070
    74
1070
     0
1070
    77
1070
     3
1070
    78
1070
     8
1070
   141
1040
-1.0
1070
   147
1040
1.0
1070
   172
1070
     1
1070
   176
1070
   115
1070
   177
1070
   115
1070
   178
1070
     7
1070
   271
1070
     2
1070
   272
1070
     2
1002
}
  0
INSERT
  5
99EA
330
19
100
AcDbEntity
  8
0
100
AcDbBlockReference
  2
A$C206831CA
 10
21.99999838483643
 20
73.19284770672926
 30
0.0
  0
LINE
  5
99F3
330
19
100
AcDbEntity
  8
1
100
AcDbLine
 10
386.5339326942242
 20
110.2545655606549
 30
0.0
 11
369.5087796942241
 21
139.7429945606549
 31
0.0
  0
LINE
  5
9A03
330
19
100
AcDbEntity
  8
1
100
AcDbLine
 10
396.5000016070787
 20
39.99284756065629
 30
0.0
 11
396.4999902442242
 21
145.9928475606544
 31
0.0
  0
LINE
  5
9A04
330
19
100
AcDbEntity
  8
1
100
AcDbLine
 10
354.9999976942241
 20
92.99284756064116
 30
0.0
 11
437.9999972942242
 21
92.9928475606548
 31
0.0
  0
CIRCLE
  5
9A05
330
19
100
AcDbEntity
  8
1
100
AcDbCircle
 10
396.4999959256514
 20
92.99284756065537
 30
0.0
 40
42.49999796774627
  0
LINE
  5
9A06
330
19
100
AcDbEntity
  8
1
100
AcDbLine
 10
361.1446539340292
 20
57.63750058326968
 30
0.0
 11
371.75125513925
 21
68.24410281364521
 31
0.0
  0
LINE
  5
9A07
330
19
100
AcDbEntity
  8
1
100
AcDbLine
 10
383.5590378509177
 20
44.69655586483668
 30
0.0
 11
387.4413235375304
 21
59.18544325647315
 31
0.0
  0
LINE
  5
9A08
330
19
100
AcDbEntity
  8
1
100
AcDbLine
 10
431.8553492801282
 20
57.63750058326968
 30
0.0
 11
421.2487480749074
 21
68.24410281364521
 31
0.0
  0
LINE
  5
9A09
330
19
100
AcDbEntity
  8
1
100
AcDbLine
 10
409.4409653632396
 20
44.69655586483668
 30
0.0
 11
405.558679676627
 21
59.18544325647315
 31
0.0
  0
LINE
  5
9A0A
330
19
100
AcDbEntity
  8
1
100
AcDbLine
 10
361.1446539340292
 20
128.3481945380399
 30
0.0
 11
371.75125513925
 21
117.7415923076644
 31
0.0
  0
LINE
  5
9A0B
330
19
100
AcDbEntity
  8
1
100
AcDbLine
 10
383.5590378509177
 20
141.2891392564729
 30
0.0
 11
387.4413235375304
 21
126.8002518648364
 31
0.0
  0
LINE
  5
9A0C
330
19
100
AcDbEntity
  8
1
100
AcDbLine
 10
431.8553492801282
 20
128.3481945380399
 30
0.0
 11
421.2487480749074
 21
117.7415923076644
 31
0.0
  0
LINE
  5
9A0D
330
19
100
AcDbEntity
  8
1
100
AcDbLine
 10
409.4409653632396
 20
141.2891392564729
 30
0.0
 11
405.558679676627
 21
126.8002518648364
 31
0.0
  0
INSERT
  5
9C4C
330
19
100
AcDbEntity
  8
0
100
AcDbBlockReference
  2
A$C6F0B1B4C
 10
357.9999971861976
 20
43.15234081486193
 30
0.0
  0
INSERT
  5
9EEE
330
19
100
AcDbEntity
  8
0
100
AcDbBlockReference
  2
4040SDH
 10
0.0
 20
-200.0
 30
0.0
  0
ENDSEC
  0
SECTION
  2
OBJECTS
  0
DICTIONARY
  5
C
330
0
100
AcDbDictionary
281
     1
  3
ACAD_CIP_PREVIOUS_PRODUCT_INFO
350
8EAE
  3
ACAD_COLOR
350
8E8C
  3
ACAD_GROUP
350
D
  3
ACAD_LAYOUT
350
8EA3
  3
ACAD_MATERIAL
350
8E5A
  3
ACAD_MLEADERSTYLE
350
8EA1
  3
ACAD_MLINESTYLE
350
E
  3
ACAD_PLOTSETTINGS
350
8EA4
  3
ACAD_PLOTSTYLENAME
350
8E58
  3
ACAD_SCALELIST
350
8E8F
  3
ACAD_TABLESTYLE
350
8E8D
  3
ACAD_VISUALSTYLE
350
8E73
  3
ACDB_RECOMPOSE_DATA
350
A212
  3
ACDBVARIABLEDICTIONARY
350
1BF
  3
DWGPROPS
350
A213
  0
DICTIONARY
  5
9CD5
330
8
100
AcDbDictionary
280
     1
281
     1
  0
DICTIONARY
  5
9D95
330
2
100
AcDbDictionary
280
     1
281
     1
  3
ACAD_LAYERSTATES
360
9D96
  0
DICTIONARY
  5
9C56
330
F
100
AcDbDictionary
280
     1
281
     1
  3
ADSK_XREC_LAYER_RECONCILED
360
9C57
  0
DICTIONARY
  5
9C58
330
55
100
AcDbDictionary
280
     1
281
     1
  3
ADSK_XREC_LAYER_RECONCILED
360
9C59
  0
DICTIONARY
  5
9C5A
330
61
100
AcDbDictionary
280
     1
281
     1
  3
ADSK_XREC_LAYER_RECONCILED
360
9C5B
  0
DICTIONARY
  5
9C5C
330
62
100
AcDbDictionary
280
     1
281
     1
  3
ADSK_XREC_LAYER_RECONCILED
360
9C5D
  0
DICTIONARY
  5
925D
330
19
100
AcDbDictionary
280
     1
281
     1
  3
ACAD_SORTENTS
360
93A7
  0
DICTIONARY
  5
8F9D
330
8F9C
100
AcDbDictionary
280
     1
281
     1
  3
ACAD_SORTENTS
360
928C
  0
DICTIONARY
  5
9C48
330
9C31
100
AcDbDictionary
280
     1
281
     1
  3
ACAD_SORTENTS
360
9C49
  0
DICTIONARY
  5
A168
330
9ECA
100
AcDbDictionary
280
     1
281
     1
  0
DICTIONARY
  5
A24C
330
9B63
100
AcDbDictionary
280
     1
281
     1
  3
ACAD_MTEXT_RT
360
A24D
  0
DICTIONARY
  5
A24E
330
9BC2
100
AcDbDictionary
280
     1
281
     1
  3
ACAD_MTEXT_RT
360
A24F
  0
DICTIONARY
  5
A250
330
9BD6
100
AcDbDictionary
280
     1
281
     1
  3
ACAD_MTEXT_RT
360
A251
  0
XRECORD
  5
8EAE
102
{ACAD_REACTORS
330
C
102
}
330
C
100
AcDbXrecord
280
     1
300
ACDLT
300
2012
300
ACDLT_F_S
  0
DICTIONARY
  5
8E8C
102
{ACAD_REACTORS
330
C
102
}
330
C
100
AcDbDictionary
281
     1
  0
DICTIONARY
  5
D
102
{ACAD_REACTORS
330
C
102
}
330
C
100
AcDbDictionary
281
     1
  0
DICTIONARY
  5
8EA3
102
{ACAD_REACTORS
330
C
102
}
330
C
100
AcDbDictionary
281
     1
  3
Model
350
8EA5
  3
배치1
350
8EA6
  0
DICTIONARY
  5
8E5A
102
{ACAD_REACTORS
330
C
102
}
330
C
100
AcDbDictionary
281
     1
  3
ByBlock
350
8E63
  3
ByLayer
350
8E5B
  3
Global
350
8E6B
  0
DICTIONARY
  5
8EA1
102
{ACAD_REACTORS
330
C
102
}
330
C
100
AcDbDictionary
281
     1
  3
Standard
350
8EA2
  0
DICTIONARY
  5
E
102
{ACAD_REACTORS
330
C
102
}
330
C
100
AcDbDictionary
281
     1
  3
STANDARD
350
1C
  0
DICTIONARY
  5
8EA4
102
{ACAD_REACTORS
330
C
102
}
330
C
100
AcDbDictionary
281
     1
  0
ACDBDICTIONARYWDFLT
  5
8E58
102
{ACAD_REACTORS
330
C
102
}
330
C
100
AcDbDictionary
281
     1
  3
Normal
350
8E59
100
AcDbDictionaryWithDefault
340
8E59
  0
DICTIONARY
  5
8E8F
102
{ACAD_REACTORS
330
C
102
}
330
C
100
AcDbDictionary
281
     1
  3
A0
350
8E90
  3
A1
350
8E91
  3
A2
350
8E92
  3
A3
350
8E93
  3
A4
350
8E94
  3
A5
350
8E95
  3
A6
350
8E96
  3
A7
350
8E97
  3
A8
350
8E98
  3
A9
350
8E99
  3
B0
350
8E9A
  3
B1
350
8E9B
  3
B2
350
8E9C
  3
B3
350
8E9D
  3
B4
350
8E9E
  3
B5
350
8E9F
  3
B6
350
8EA0
  0
DICTIONARY
  5
8E8D
102
{ACAD_REACTORS
330
C
102
}
330
C
100
AcDbDictionary
281
     1
  3
Standard
350
8E8E
  0
DICTIONARY
  5
8E73
102
{ACAD_REACTORS
330
C
102
}
330
C
100
AcDbDictionary
281
     1
  3
2dWireframe
350
8E79
  3
Basic
350
8E78
  3
Brighten
350
8E7F
  3
ColorChange
350
8E83
  3
Conceptual
350
8E7C
  3
Dim
350
8E7E
  3
EdgeColorOff
350
8E8B
  3
Facepattern
350
8E82
  3
Flat
350
8E74
  3
FlatWithEdges
350
8E75
  3
Gouraud
350
8E76
  3
GouraudWithEdges
350
8E77
  3
Hidden
350
8E7B
  3
JitterOff
350
8E89
  3
Linepattern
350
8E81
  3
OverhangOff
350
8E8A
  3
Realistic
350
8E7D
  3
Shaded
350
8E88
  3
Shaded with edges
350
8E87
  3
Shades of Gray
350
8E84
  3
Sketchy
350
8E85
  3
Thicken
350
8E80
  3
Wireframe
350
8E7A
  3
X-Ray
350
8E86
  0
XRECORD
  5
A212
102
{ACAD_REACTORS
330
C
102
}
330
C
100
AcDbXrecord
280
     1
 90
        1
330
8E8E
  0
DICTIONARY
  5
1BF
102
{ACAD_REACTORS
330
C
102
}
330
C
100
AcDbDictionary
281
     1
  3
CANNOSCALE
350
9D3C
  3
CMLEADERSTYLE
350
9D3B
  3
CTABLESTYLE
350
9D3A
  3
DIMASSOC
350
9D3E
  3
INDEXCTL
350
9D3D
  3
SORTENTS
350
1C0
  3
XCLIPFRAME
350
A20E
  0
XRECORD
  5
A213
102
{ACAD_REACTORS
330
C
102
}
330
C
100
AcDbXrecord
280
     1
  1
DWGPROPS COOKIE
  2

  3

  4

  6

  7

  8
woni
  9

300
=
301
=
302
=
303
=
304
=
305
=
306
=
307
=
308
=
309
=
 40
0.5175622800925927
 41
2452464.575009942
 42
2456846.821468715
  1

 90
        0
  0
DICTIONARY
  5
9D96
102
{ACAD_REACTORS
330
9D95
102
}
330
9D95
100
AcDbDictionary
281
     1
  0
XRECORD
  5
9C57
102
{ACAD_REACTORS
330
9C56
102
}
330
9C56
100
AcDbXrecord
280
     1
290
     1
  0
XRECORD
  5
9C59
102
{ACAD_REACTORS
330
9C58
102
}
330
9C58
100
AcDbXrecord
280
     1
290
     1
  0
XRECORD
  5
9C5B
102
{ACAD_REACTORS
330
9C5A
102
}
330
9C5A
100
AcDbXrecord
280
     1
290
     1
  0
XRECORD
  5
9C5D
102
{ACAD_REACTORS
330
9C5C
102
}
330
9C5C
100
AcDbXrecord
280
     1
290
     1
  0
SORTENTSTABLE
  5
93A7
102
{ACAD_REACTORS
330
925D
102
}
330
925D
100
AcDbSortentsTable
330
19
331
99EA
  5
9E9D
331
9A05
  5
9EA1
331
99D8
  5
99D8
331
99E8
  5
99F3
331
9A03
  5
9E9F
331
99D6
  5
99D6
331
99E7
  5
99EA
331
99D4
  5
99D4
331
99D2
  5
99D2
331
99E5
  5
99E5
331
99E3
  5
99E3
331
9EEE
  5
A1C8
331
99F3
  5
9E9E
331
99E1
  5
99E1
331
9A0C
  5
9EEE
331
99DF
  5
99DF
331
9A0A
  5
9EA6
331
9A08
  5
9EA4
331
99DB
  5
99DB
331
9C4C
  5
A1C7
331
9A06
  5
9EA2
331
99D9
  5
99D9
331
99E9
  5
9E8E
331
9A04
  5
9EA0
331
99D7
  5
99D7
331
99D5
  5
99D5
331
99E6
  5
99E9
331
99D3
  5
99D3
331
99E4
  5
99E4
331
99D1
  5
99D1
331
99E2
  5
99E2
331
9A0D
  5
A1C6
331
99E0
  5
99E0
331
9A0B
  5
9EA7
331
99DE
  5
99DE
331
9A09
  5
9EA5
331
99DC
  5
99DC
331
9A07
  5
9EA3
331
99DA
  5
99DA
  0
SORTENTSTABLE
  5
928C
102
{ACAD_REACTORS
330
8F9D
102
}
330
8F9D
100
AcDbSortentsTable
330
8F9C
  0
SORTENTSTABLE
  5
9C49
102
{ACAD_REACTORS
330
9C48
102
}
330
9C48
100
AcDbSortentsTable
330
9C31
  0
XRECORD
  5
A24D
102
{ACAD_REACTORS
330
A24C
102
}
330
A24C
100
AcDbXrecord
280
     1
 40
5283.0
  1
\A1;30\U+00B0
  0
XRECORD
  5
A24F
102
{ACAD_REACTORS
330
A24E
102
}
330
A24E
100
AcDbXrecord
280
     1
 40
5283.0
  1
\A1;30\U+00B0
  0
XRECORD
  5
A251
102
{ACAD_REACTORS
330
A250
102
}
330
A250
100
AcDbXrecord
280
     1
 40
5313.0
  1
\A1;90\U+00B0
  0
LAYOUT
  5
8EA5
102
{ACAD_XDICTIONARY
360
A248
102
}
102
{ACAD_REACTORS
330
8EA3
102
}
330
8EA3
100
AcDbPlotSettings
  1

  2
SINDOH M402_408 Series
  4

  6

 40
0.0
 41
0.0
 42
0.0
 43
0.0
 44
0.0
 45
0.0
 46
0.0
 47
0.0
 48
0.0
 49
0.0
140
0.0
141
0.0
142
1.0
143
1.0
 70
  1712
 72
     0
 73
     0
 74
     0
  7

 75
     0
147
1.0
148
0.0
149
0.0
100
AcDbLayout
  1
Model
 70
     1
 71
     0
 10
0.0
 20
0.0
 11
12.0
 21
9.0
 12
0.0
 22
0.0
 32
0.0
 14
0.0
 24
0.0
 34
0.0
 15
0.0
 25
0.0
 35
0.0
146
0.0
 13
0.0
 23
0.0
 33
0.0
 16
1.0
 26
0.0
 36
0.0
 17
0.0
 27
1.0
 37
0.0
 76
     0
330
19
331
8E56
  0
LAYOUT
  5
8EA6
102
{ACAD_XDICTIONARY
360
A24A
102
}
102
{ACAD_REACTORS
330
8EA3
102
}
330
8EA3
100
AcDbPlotSettings
  1

  2
SINDOH M402_408 Series
  4

  6

 40
0.0
 41
0.0
 42
0.0
 43
0.0
 44
0.0
 45
0.0
 46
0.0
 47
0.0
 48
0.0
 49
0.0
140
0.0
141
0.0
142
1.0
143
1.0
 70
   688
 72
     0
 73
     0
 74
     5
  7

 75
    16
147
1.0
148
0.0
149
0.0
100
AcDbLayout
  1
배치1
 70
     1
 71
     1
 10
0.0
 20
0.0
 11
12.0
 21
9.0
 12
0.0
 22
0.0
 32
0.0
 14
1.000000000000000E+20
 24
1.000000000000000E+20
 34
1.000000000000000E+20
 15
-1.000000000000000E+20
 25
-1.000000000000000E+20
 35
-1.000000000000000E+20
146
0.0
 13
0.0
 23
0.0
 33
0.0
 16
1.0
 26
0.0
 36
0.0
 17
0.0
 27
1.0
 37
0.0
 76
     0
330
16
  0
MATERIAL
  5
8E63
102
{ACAD_XDICTIONARY
360
8E64
102
}
102
{ACAD_REACTORS
330
8E5A
102
}
330
8E5A
100
AcDbMaterial
  1
ByBlock
 72
     0
 43
0.0208333333333333
 43
0.0
 43
0.0
 43
0.0
 43
0.0
 43
0.0208333333333333
 43
0.0
 43
0.0
 43
0.0
 43
0.0
 43
1.0
 43
0.0
 43
0.0
 43
0.0
 43
0.0
 43
1.0
 77
     0
 47
0.0208333333333333
 47
0.0
 47
0.0
 47
0.0
 47
0.0
 47
0.0208333333333333
 47
0.0
 47
0.0
 47
0.0
 47
0.0
 47
1.0
 47
0.0
 47
0.0
 47
0.0
 47
0.0
 47
1.0
171
     0
 49
0.0208333333333333
 49
0.0
 49
0.0
 49
0.0
 49
0.0
 49
0.0208333333333333
 49
0.0
 49
0.0
 49
0.0
 49
0.0
 49
1.0
 49
0.0
 49
0.0
 49
0.0
 49
0.0
 49
1.0
175
     0
142
0.0208333333333333
142
0.0
142
0.0
142
0.0
142
0.0
142
0.0208333333333333
142
0.0
142
0.0
142
0.0
142
0.0
142
1.0
142
0.0
142
0.0
142
0.0
142
0.0
142
1.0
179
     0
144
0.0208333333333333
144
0.0
144
0.0
144
0.0
144
0.0
144
0.0208333333333333
144
0.0
144
0.0
144
0.0
144
0.0
144
1.0
144
0.0
144
0.0
144
0.0
144
0.0
144
1.0
147
0.0208333333333333
147
0.0
147
0.0
147
0.0
147
0.0
147
0.0208333333333333
147
0.0
147
0.0
147
0.0
147
0.0
147
1.0
147
0.0
147
0.0
147
0.0
147
0.0
147
1.0
  0
MATERIAL
  5
8E5B
102
{ACAD_XDICTIONARY
360
8E5C
102
}
102
{ACAD_REACTORS
330
8E5A
102
}
330
8E5A
100
AcDbMaterial
  1
ByLayer
 72
     0
 43
0.0208333333333333
 43
0.0
 43
0.0
 43
0.0
 43
0.0
 43
0.0208333333333333
 43
0.0
 43
0.0
 43
0.0
 43
0.0
 43
1.0
 43
0.0
 43
0.0
 43
0.0
 43
0.0
 43
1.0
 77
     0
 47
0.0208333333333333
 47
0.0
 47
0.0
 47
0.0
 47
0.0
 47
0.0208333333333333
 47
0.0
 47
0.0
 47
0.0
 47
0.0
 47
1.0
 47
0.0
 47
0.0
 47
0.0
 47
0.0
 47
1.0
171
     0
 49
0.0208333333333333
 49
0.0
 49
0.0
 49
0.0
 49
0.0
 49
0.0208333333333333
 49
0.0
 49
0.0
 49
0.0
 49
0.0
 49
1.0
 49
0.0
 49
0.0
 49
0.0
 49
0.0
 49
1.0
175
     0
142
0.0208333333333333
142
0.0
142
0.0
142
0.0
142
0.0
142
0.0208333333333333
142
0.0
142
0.0
142
0.0
142
0.0
142
1.0
142
0.0
142
0.0
142
0.0
142
0.0
142
1.0
179
     0
144
0.0208333333333333
144
0.0
144
0.0
144
0.0
144
0.0
144
0.0208333333333333
144
0.0
144
0.0
144
0.0
144
0.0
144
1.0
144
0.0
144
0.0
144
0.0
144
0.0
144
1.0
147
0.0208333333333333
147
0.0
147
0.0
147
0.0
147
0.0
147
0.0208333333333333
147
0.0
147
0.0
147
0.0
147
0.0
147
1.0
147
0.0
147
0.0
147
0.0
147
0.0
147
1.0
  0
MATERIAL
  5
8E6B
102
{ACAD_XDICTIONARY
360
8E6C
102
}
102
{ACAD_REACTORS
330
8E5A
102
}
330
8E5A
100
AcDbMaterial
  1
Global
 72
     0
 43
0.0208333333333333
 43
0.0
 43
0.0
 43
0.0
 43
0.0
 43
0.0208333333333333
 43
0.0
 43
0.0
 43
0.0
 43
0.0
 43
1.0
 43
0.0
 43
0.0
 43
0.0
 43
0.0
 43
1.0
 77
     0
 47
0.0208333333333333
 47
0.0
 47
0.0
 47
0.0
 47
0.0
 47
0.0208333333333333
 47
0.0
 47
0.0
 47
0.0
 47
0.0
 47
1.0
 47
0.0
 47
0.0
 47
0.0
 47
0.0
 47
1.0
171
     0
 49
0.0208333333333333
 49
0.0
 49
0.0
 49
0.0
 49
0.0
 49
0.0208333333333333
 49
0.0
 49
0.0
 49
0.0
 49
0.0
 49
1.0
 49
0.0
 49
0.0
 49
0.0
 49
0.0
 49
1.0
175
     0
142
0.0208333333333333
142
0.0
142
0.0
142
0.0
142
0.0
142
0.0208333333333333
142
0.0
142
0.0
142
0.0
142
0.0
142
1.0
142
0.0
142
0.0
142
0.0
142
0.0
142
1.0
179
     0
144
0.0208333333333333
144
0.0
144
0.0
144
0.0
144
0.0
144
0.0208333333333333
144
0.0
144
0.0
144
0.0
144
0.0
144
1.0
144
0.0
144
0.0
144
0.0
144
0.0
144
1.0
147
0.0208333333333333
147
0.0
147
0.0
147
0.0
147
0.0
147
0.0208333333333333
147
0.0
147
0.0
147
0.0
147
0.0
147
1.0
147
0.0
147
0.0
147
0.0
147
0.0
147
1.0
  0
MLEADERSTYLE
  5
8EA2
102
{ACAD_XDICTIONARY
360
A210
102
}
102
{ACAD_REACTORS
330
8EA1
102
}
330
8EA1
100
AcDbMLeaderStyle
170
     2
171
     1
172
     0
 90
        2
 40
0.0
 41
0.0
173
     1
 91
-1056964608
340
13
 92
       -2
290
     1
 42
0.09
291
     1
 43
0.36
  3
Standard
 44
0.18
300

342
10
174
     1
178
     6
175
     1
176
     0
 93
-1056964608
 45
0.18
292
     0
297
     0
 46
0.18
 94
-1056964608
 47
1.0
 49
1.0
140
1.0
293
     1
141
0.0
294
     1
177
     0
142
1.0
295
     0
296
     0
143
0.125
1001
ACAD_MLEADERVER
1070
     2
  0
MLINESTYLE
  5
1C
102
{ACAD_REACTORS
330
E
102
}
330
E
100
AcDbMlineStyle
  2
STANDARD
 70
     0
  3

 62
     0
 51
90.0
 52
90.0
 71
     2
 49
0.5
 62
   256
  6
BYLAYER
 49
-0.5
 62
   256
  6
BYLAYER
  0
ACDBPLACEHOLDER
  5
8E59
102
{ACAD_REACTORS
330
8E58
102
}
330
8E58
  0
SCALE
  5
8E90
102
{ACAD_REACTORS
330
8E8F
102
}
330
8E8F
100
AcDbScale
 70
     0
300
1:1
140
1.0
141
1.0
290
     1
  0
SCALE
  5
8E91
102
{ACAD_REACTORS
330
8E8F
102
}
330
8E8F
100
AcDbScale
 70
     0
300
1/128" = 1'-0"
140
0.0078125
141
12.0
290
     0
  0
SCALE
  5
8E92
102
{ACAD_REACTORS
330
8E8F
102
}
330
8E8F
100
AcDbScale
 70
     0
300
1/64" = 1'-0"
140
0.015625
141
12.0
290
     0
  0
SCALE
  5
8E93
102
{ACAD_REACTORS
330
8E8F
102
}
330
8E8F
100
AcDbScale
 70
     0
300
1/32" = 1'-0"
140
0.03125
141
12.0
290
     0
  0
SCALE
  5
8E94
102
{ACAD_REACTORS
330
8E8F
102
}
330
8E8F
100
AcDbScale
 70
     0
300
1/16" = 1'-0"
140
0.0625
141
12.0
290
     0
  0
SCALE
  5
8E95
102
{ACAD_REACTORS
330
8E8F
102
}
330
8E8F
100
AcDbScale
 70
     0
300
3/32" = 1'-0"
140
0.09375
141
12.0
290
     0
  0
SCALE
  5
8E96
102
{ACAD_REACTORS
330
8E8F
102
}
330
8E8F
100
AcDbScale
 70
     0
300
1/8" = 1'-0"
140
0.125
141
12.0
290
     0
  0
SCALE
  5
8E97
102
{ACAD_REACTORS
330
8E8F
102
}
330
8E8F
100
AcDbScale
 70
     0
300
3/16" = 1'-0"
140
0.1875
141
12.0
290
     0
  0
SCALE
  5
8E98
102
{ACAD_REACTORS
330
8E8F
102
}
330
8E8F
100
AcDbScale
 70
     0
300
1/4" = 1'-0"
140
0.25
141
12.0
290
     0
  0
SCALE
  5
8E99
102
{ACAD_REACTORS
330
8E8F
102
}
330
8E8F
100
AcDbScale
 70
     0
300
3/8" = 1'-0"
140
0.375
141
12.0
290
     0
  0
SCALE
  5
8E9A
102
{ACAD_REACTORS
330
8E8F
102
}
330
8E8F
100
AcDbScale
 70
     0
300
1/2" = 1'-0"
140
0.5
141
12.0
290
     0
  0
SCALE
  5
8E9B
102
{ACAD_REACTORS
330
8E8F
102
}
330
8E8F
100
AcDbScale
 70
     0
300
3/4" = 1'-0"
140
0.75
141
12.0
290
     0
  0
SCALE
  5
8E9C
102
{ACAD_REACTORS
330
8E8F
102
}
330
8E8F
100
AcDbScale
 70
     0
300
1" = 1'-0"
140
1.0
141
12.0
290
     0
  0
SCALE
  5
8E9D
102
{ACAD_REACTORS
330
8E8F
102
}
330
8E8F
100
AcDbScale
 70
     0
300
1-1/2" = 1'-0"
140
1.5
141
12.0
290
     0
  0
SCALE
  5
8E9E
102
{ACAD_REACTORS
330
8E8F
102
}
330
8E8F
100
AcDbScale
 70
     0
300
3" = 1'-0"
140
3.0
141
12.0
290
     0
  0
SCALE
  5
8E9F
102
{ACAD_REACTORS
330
8E8F
102
}
330
8E8F
100
AcDbScale
 70
     0
300
6" = 1'-0"
140
6.0
141
12.0
290
     0
  0
SCALE
  5
8EA0
102
{ACAD_REACTORS
330
8E8F
102
}
330
8E8F
100
AcDbScale
 70
     0
300
1'-0" = 1'-0"
140
12.0
141
12.0
290
     0
  0
TABLESTYLE
  5
8E8E
102
{ACAD_XDICTIONARY
360
9CCF
102
}
102
{ACAD_REACTORS
330
8E8D
102
}
330
8E8D
100
AcDbTableStyle
  3
Standard
 70
     0
 71
     0
 40
0.06
 41
0.06
280
     0
281
     0
  7
STANDARD
140
0.18
170
     2
 62
     0
 63
     7
283
     0
274
    -2
284
     1
 64
     0
275
    -2
285
     1
 65
     0
276
    -2
286
     1
 66
     0
277
    -2
287
     1
 67
     0
278
    -2
288
     1
 68
     0
279
    -2
289
     1
 69
     0
  7
STANDARD
140
0.25
170
     5
 62
     0
 63
     7
283
     0
274
    -2
284
     1
 64
     0
275
    -2
285
     1
 65
     0
276
    -2
286
     1
 66
     0
277
    -2
287
     1
 67
     0
278
    -2
288
     1
 68
     0
279
    -2
289
     1
 69
     0
  7
STANDARD
140
0.18
170
     5
 62
     0
 63
     7
283
     0
274
    -2
284
     1
 64
     0
275
    -2
285
     1
 65
     0
276
    -2
286
     1
 66
     0
277
    -2
287
     1
 67
     0
278
    -2
288
     1
 68
     0
279
    -2
289
     1
 69
     0
  0
VISUALSTYLE
  5
8E79
102
{ACAD_XDICTIONARY
360
A221
102
}
102
{ACAD_REACTORS
330
8E73
102
}
330
8E73
100
AcDbVisualStyle
  2
2dWireframe
 70
     4
 71
     0
 72
     2
 73
     0
 90
        0
 40
-0.6
 41
-30.0
 62
     5
 63
     7
 74
     1
 91
        4
 64
     7
 65
   257
 75
     1
175
     1
 42
1.0
 92
        0
 66
   257
 43
1.0
 76
     1
 77
     6
 78
     2
 67
     7
 79
     5
170
     0
171
     0
290
     0
174
     0
 93
        1
 44
0.0
173
     0
291
     0
 45
0.0
1001
ACAD
1000
AcDbSavedByObjectVersion
1070
     0
  0
VISUALSTYLE
  5
8E78
102
{ACAD_XDICTIONARY
360
A21F
102
}
102
{ACAD_REACTORS
330
8E73
102
}
330
8E73
100
AcDbVisualStyle
  2
Basic
 70
     7
 71
     1
 72
     0
 73
     1
 90
        0
 40
-0.6
 41
-30.0
 62
     5
 63
     7
 74
     0
 91
        4
 64
     7
 65
   257
 75
     1
175
     1
 42
1.0
 92
        8
 66
     7
 43
1.0
 76
     1
 77
     6
 78
     2
 67
     7
 79
     5
170
     0
171
     0
290
     0
174
     0
 93
        1
 44
0.0
173
     0
291
     1
 45
0.0
1001
ACAD
1000
AcDbSavedByObjectVersion
1070
     0
  0
VISUALSTYLE
  5
8E7F
102
{ACAD_XDICTIONARY
360
A22D
102
}
102
{ACAD_REACTORS
330
8E73
102
}
330
8E73
100
AcDbVisualStyle
  2
Brighten
 70
    12
 71
     2
 72
     2
 73
     0
 90
        0
 40
-0.6
 41
-30.0
 62
     5
 63
     7
 74
     1
 91
        4
 64
     7
 65
   257
 75
     1
175
     1
 42
1.0
 92
        8
 66
     7
 43
1.0
 76
     1
 77
     6
 78
     2
 67
     7
 79
     5
170
     0
171
     0
290
     0
174
     0
 93
        1
 44
50.0
173
     0
291
     1
 45
0.0
1001
ACAD
1000
AcDbSavedByObjectVersion
1070
     0
  0
VISUALSTYLE
  5
8E83
102
{ACAD_XDICTIONARY
360
A235
102
}
102
{ACAD_REACTORS
330
8E73
102
}
330
8E73
100
AcDbVisualStyle
  2
ColorChange
 70
    16
 71
     2
 72
     2
 73
     3
 90
        0
 40
-0.6
 41
-30.0
 62
     5
 63
     8
 74
     1
 91
        4
 64
     7
 65
   257
 75
     1
175
     1
 42
1.0
 92
        8
 66
     8
 43
1.0
 76
     1
 77
     6
 78
     2
 67
     7
 79
     5
170
     0
171
     0
290
     0
174
     0
 93
        1
 44
0.0
173
     0
291
     1
 45
0.0
1001
ACAD
1000
AcDbSavedByObjectVersion
1070
     0
  0
VISUALSTYLE
  5
8E7C
102
{ACAD_XDICTIONARY
360
A227
102
}
102
{ACAD_REACTORS
330
8E73
102
}
330
8E73
100
AcDbVisualStyle
  2
Conceptual
 70
     9
 71
     3
 72
     2
 73
     0
 90
        0
 40
-0.6
 41
-30.0
 62
     5
 63
     7
 74
     2
 91
        2
 64
     7
 65
   257
 75
     1
175
     1
 42
179.0
 92
        8
 66
     7
 43
1.0
 76
     1
 77
     6
 78
     2
 67
     7
 79
     3
170
     0
171
     0
290
     0
174
     0
 93
        1
 44
0.0
173
     0
291
     0
 45
0.0
1001
ACAD
1000
AcDbSavedByObjectVersion
1070
     0
  0
VISUALSTYLE
  5
8E7E
102
{ACAD_XDICTIONARY
360
A22B
102
}
102
{ACAD_REACTORS
330
8E73
102
}
330
8E73
100
AcDbVisualStyle
  2
Dim
 70
    11
 71
     2
 72
     2
 73
     0
 90
        0
 40
-0.6
 41
-30.0
 62
     5
 63
     7
 74
     1
 91
        4
 64
     7
 65
   257
 75
     1
175
     1
 42
1.0
 92
        8
 66
     7
 43
1.0
 76
     1
 77
     6
 78
     2
 67
     7
 79
     5
170
     0
171
     0
290
     0
174
     0
 93
        1
 44
-50.0
173
     0
291
     1
 45
0.0
1001
ACAD
1000
AcDbSavedByObjectVersion
1070
     0
  0
VISUALSTYLE
  5
8E8B
102
{ACAD_XDICTIONARY
360
A245
102
}
102
{ACAD_REACTORS
330
8E73
102
}
330
8E73
100
AcDbVisualStyle
  2
EdgeColorOff
 70
    22
 71
     2
 72
     2
 73
     0
 90
        0
 40
-0.6
 41
-30.0
 62
     5
 63
     7
 74
     1
 91
        4
 64
     7
 65
   257
 75
     1
175
     1
 42
1.0
 92
        8
 66
     7
 43
1.0
 76
     1
 77
     6
 78
     2
 67
     7
 79
     5
170
     0
171
     0
290
     0
174
     0
 93
        1
 44
0.0
173
     0
291
     1
 45
0.0
1001
ACAD
1000
AcDbSavedByObjectVersion
1070
     0
  0
VISUALSTYLE
  5
8E82
102
{ACAD_XDICTIONARY
360
A233
102
}
102
{ACAD_REACTORS
330
8E73
102
}
330
8E73
100
AcDbVisualStyle
  2
Facepattern
 70
    15
 71
     2
 72
     2
 73
     0
 90
        0
 40
-0.6
 41
-30.0
 62
     5
 63
     7
 74
     1
 91
        4
 64
     7
 65
   257
 75
     1
175
     1
 42
1.0
 92
        8
 66
     7
 43
1.0
 76
     1
 77
     6
 78
     2
 67
     7
 79
     5
170
     0
171
     0
290
     0
174
     0
 93
        1
 44
0.0
173
     0
291
     1
 45
0.0
1001
ACAD
1000
AcDbSavedByObjectVersion
1070
     0
  0
VISUALSTYLE
  5
8E74
102
{ACAD_XDICTIONARY
360
A217
102
}
102
{ACAD_REACTORS
330
8E73
102
}
330
8E73
100
AcDbVisualStyle
  2
Flat
 70
     0
 71
     2
 72
     1
 73
     1
 90
        2
 40
-0.6
 41
30.0
 62
     5
 63
     7
 74
     0
 91
        0
 64
     7
 65
   257
 75
     1
175
     1
 42
1.0
 92
        8
 66
     7
 43
1.0
 76
     1
 77
     6
 78
     2
 67
     7
 79
     5
170
     0
171
     0
290
     0
174
     0
 93
       13
 44
0.0
173
     0
291
     1
 45
0.0
1001
ACAD
1000
AcDbSavedByObjectVersion
1070
     0
  0
VISUALSTYLE
  5
8E75
102
{ACAD_XDICTIONARY
360
A219
102
}
102
{ACAD_REACTORS
330
8E73
102
}
330
8E73
100
AcDbVisualStyle
  2
FlatWithEdges
 70
     1
 71
     2
 72
     1
 73
     1
 90
        2
 40
-0.6
 41
30.0
 62
     5
 63
     7
 74
     1
 91
        0
 64
     7
 65
   257
 75
     1
175
     1
 42
1.0
 92
        0
 66
   257
 43
1.0
 76
     1
 77
     6
 78
     2
 67
     7
 79
     5
170
     0
171
     0
290
     0
174
     0
 93
       13
 44
0.0
173
     0
291
     1
 45
0.0
1001
ACAD
1000
AcDbSavedByObjectVersion
1070
     0
  0
VISUALSTYLE
  5
8E76
102
{ACAD_XDICTIONARY
360
A21B
102
}
102
{ACAD_REACTORS
330
8E73
102
}
330
8E73
100
AcDbVisualStyle
  2
Gouraud
 70
     2
 71
     2
 72
     2
 73
     1
 90
        2
 40
-0.6
 41
30.0
 62
     5
 63
     7
 74
     0
 91
        0
 64
     7
 65
   257
 75
     1
175
     1
 42
1.0
 92
        0
 66
     7
 43
1.0
 76
     1
 77
     6
 78
     2
 67
     7
 79
     5
170
     0
171
     0
290
     0
174
     0
 93
       13
 44
0.0
173
     0
291
     1
 45
0.0
1001
ACAD
1000
AcDbSavedByObjectVersion
1070
     0
  0
VISUALSTYLE
  5
8E77
102
{ACAD_XDICTIONARY
360
A21D
102
}
102
{ACAD_REACTORS
330
8E73
102
}
330
8E73
100
AcDbVisualStyle
  2
GouraudWithEdges
 70
     3
 71
     2
 72
     2
 73
     1
 90
        2
 40
-0.6
 41
30.0
 62
     5
 63
     7
 74
     1
 91
        0
 64
     7
 65
   257
 75
     1
175
     1
 42
1.0
 92
        0
 66
   257
 43
1.0
 76
     1
 77
     6
 78
     2
 67
     7
 79
     5
170
     0
171
     0
290
     0
174
     0
 93
       13
 44
0.0
173
     0
291
     1
 45
0.0
1001
ACAD
1000
AcDbSavedByObjectVersion
1070
     0
  0
VISUALSTYLE
  5
8E7B
102
{ACAD_XDICTIONARY
360
A225
102
}
102
{ACAD_REACTORS
330
8E73
102
}
330
8E73
100
AcDbVisualStyle
  2
Hidden
 70
     6
 71
     1
 72
     2
 73
     2
 90
        0
 40
-0.6
 41
-30.0
 62
     5
 63
     7
 74
     2
 91
        2
 64
     7
 65
   257
 75
     2
175
     1
 42
40.0
 92
        0
 66
   257
 43
1.0
 76
     1
 77
     6
 78
     2
 67
     7
 79
     3
170
     0
171
     0
290
     0
174
     0
 93
        1
 44
0.0
173
     0
291
     0
 45
0.0
1001
ACAD
1000
AcDbSavedByObjectVersion
1070
     0
  0
VISUALSTYLE
  5
8E89
102
{ACAD_XDICTIONARY
360
A241
102
}
102
{ACAD_REACTORS
330
8E73
102
}
330
8E73
100
AcDbVisualStyle
  2
JitterOff
 70
    20
 71
     2
 72
     2
 73
     0
 90
        0
 40
-0.6
 41
-30.0
 62
     5
 63
     7
 74
     1
 91
        4
 64
     7
 65
   257
 75
     1
175
     1
 42
1.0
 92
       10
 66
     7
 43
1.0
 76
     1
 77
     6
 78
     2
 67
     7
 79
     5
170
     0
171
     0
290
     0
174
     0
 93
        1
 44
0.0
173
     0
291
     1
 45
0.0
1001
ACAD
1000
AcDbSavedByObjectVersion
1070
     0
  0
VISUALSTYLE
  5
8E81
102
{ACAD_XDICTIONARY
360
A231
102
}
102
{ACAD_REACTORS
330
8E73
102
}
330
8E73
100
AcDbVisualStyle
  2
Linepattern
 70
    14
 71
     2
 72
     2
 73
     0
 90
        0
 40
-0.6
 41
-30.0
 62
     5
 63
     7
 74
     1
 91
        4
 64
     7
 65
   257
 75
     7
175
     7
 42
1.0
 92
        8
 66
     7
 43
1.0
 76
     1
 77
     6
 78
     2
 67
     7
 79
     5
170
     0
171
     0
290
     0
174
     0
 93
        1
 44
0.0
173
     0
291
     1
 45
0.0
1001
ACAD
1000
AcDbSavedByObjectVersion
1070
     0
  0
VISUALSTYLE
  5
8E8A
102
{ACAD_XDICTIONARY
360
A243
102
}
102
{ACAD_REACTORS
330
8E73
102
}
330
8E73
100
AcDbVisualStyle
  2
OverhangOff
 70
    21
 71
     2
 72
     2
 73
     0
 90
        0
 40
-0.6
 41
-30.0
 62
     5
 63
     7
 74
     1
 91
        4
 64
     7
 65
   257
 75
     1
175
     1
 42
1.0
 92
        9
 66
     7
 43
1.0
 76
     1
 77
     6
 78
     2
 67
     7
 79
     5
170
     0
171
     0
290
     0
174
     0
 93
        1
 44
0.0
173
     0
291
     1
 45
0.0
1001
ACAD
1000
AcDbSavedByObjectVersion
1070
     0
  0
VISUALSTYLE
  5
8E7D
102
{ACAD_XDICTIONARY
360
A229
102
}
102
{ACAD_REACTORS
330
8E73
102
}
330
8E73
100
AcDbVisualStyle
  2
Realistic
 70
     8
 71
     2
 72
     2
 73
     0
 90
        2
 40
-0.6
 41
30.0
 62
     5
 63
     7
 74
     0
 91
        0
 64
     7
 65
   257
 75
     1
175
     1
 42
1.0
 92
        8
 66
   257
 43
1.0
 76
     1
 77
     6
 78
     2
 67
     7
 79
     3
170
     0
171
     0
290
     0
174
     0
 93
       13
 44
0.0
173
     0
291
     0
 45
0.0
1001
ACAD
1000
AcDbSavedByObjectVersion
1070
     0
  0
VISUALSTYLE
  5
8E88
102
{ACAD_XDICTIONARY
360
A23F
102
}
102
{ACAD_REACTORS
330
8E73
102
}
330
8E73
100
AcDbVisualStyle
  2
Shaded
 70
    27
 71
     2
 72
     2
 73
     1
 90
        2
 40
-0.6
 41
30.0
 62
     5
 63
     7
 74
     0
 91
        4
 64
     7
 65
   257
 75
     1
175
     1
 42
1.0
 92
        8
 66
   257
 43
1.0
 76
     1
 77
     6
 78
     2
 67
     8
 79
     3
170
     0
171
     0
290
     0
174
     0
 93
        5
 44
0.0
173
     0
291
     0
 45
0.0
1001
ACAD
1000
AcDbSavedByObjectVersion
1070
     0
  0
VISUALSTYLE
  5
8E87
102
{ACAD_XDICTIONARY
360
A23D
102
}
102
{ACAD_REACTORS
330
8E73
102
}
330
8E73
100
AcDbVisualStyle
  2
Shaded with edges
 70
    26
 71
     2
 72
     2
 73
     1
 90
        2
 40
-0.6
 41
30.0
 62
     5
 63
     7
 74
     1
 91
       10
 64
     7
 65
   257
 75
     2
175
     1
 42
1.0
 92
        8
 66
   257
 43
1.0
 76
     1
 77
     6
 78
     2
 67
     7
 79
     3
170
     0
171
     0
290
     0
174
     0
 93
        5
 44
0.0
173
     0
291
     0
 45
0.0
1001
ACAD
1000
AcDbSavedByObjectVersion
1070
     0
  0
VISUALSTYLE
  5
8E84
102
{ACAD_XDICTIONARY
360
A237
102
}
102
{ACAD_REACTORS
330
8E73
102
}
330
8E73
100
AcDbVisualStyle
  2
Shades of Gray
 70
    23
 71
     2
 72
     2
 73
     3
 90
        0
 40
-0.6
 41
-30.0
 62
     5
 63
     7
 74
     2
 91
        2
 64
     7
 65
     7
 75
     1
175
     1
 42
40.0
 92
        8
 66
     7
 43
1.0
 76
     1
 77
     6
 78
     2
 67
     7
 79
     3
170
     0
171
     0
290
     0
174
     0
 93
        1
 44
0.0
173
     0
291
     0
 45
0.0
1001
ACAD
1000
AcDbSavedByObjectVersion
1070
     0
  0
VISUALSTYLE
  5
8E85
102
{ACAD_XDICTIONARY
360
A239
102
}
102
{ACAD_REACTORS
330
8E73
102
}
330
8E73
100
AcDbVisualStyle
  2
Sketchy
 70
    24
 71
     1
 72
     2
 73
     2
 90
        0
 40
-0.6
 41
-30.0
 62
     5
 63
     7
 74
     2
 91
        2
 64
     7
 65
     7
 75
     1
175
     1
 42
40.0
 92
       11
 66
     7
 43
1.0
 76
     1
 77
     6
 78
     2
 67
     7
 79
     6
170
     0
171
     0
290
     0
174
     0
 93
        1
 44
0.0
173
     0
291
     0
 45
0.0
1001
ACAD
1000
AcDbSavedByObjectVersion
1070
     0
  0
VISUALSTYLE
  5
8E80
102
{ACAD_XDICTIONARY
360
A22F
102
}
102
{ACAD_REACTORS
330
8E73
102
}
330
8E73
100
AcDbVisualStyle
  2
Thicken
 70
    13
 71
     2
 72
     2
 73
     0
 90
        0
 40
-0.6
 41
-30.0
 62
     5
 63
     7
 74
     1
 91
        4
 64
     7
 65
   257
 75
     1
175
     1
 42
1.0
 92
       12
 66
     7
 43
1.0
 76
     1
 77
     6
 78
     2
 67
     7
 79
     5
170
     0
171
     0
290
     0
174
     0
 93
        1
 44
0.0
173
     0
291
     1
 45
0.0
1001
ACAD
1000
AcDbSavedByObjectVersion
1070
     0
  0
VISUALSTYLE
  5
8E7A
102
{ACAD_XDICTIONARY
360
A223
102
}
102
{ACAD_REACTORS
330
8E73
102
}
330
8E73
100
AcDbVisualStyle
  2
Wireframe
 70
     5
 71
     0
 72
     2
 73
     0
 90
        0
 40
-0.6
 41
-30.0
 62
     5
 63
     7
 74
     1
 91
        4
 64
     7
 65
   257
 75
     1
175
     1
 42
1.0
 92
        0
 66
   257
 43
1.0
 76
     1
 77
     6
 78
     2
 67
     7
 79
     3
170
     0
171
     0
290
     0
174
     0
 93
        1
 44
0.0
173
     0
291
     0
 45
0.0
1001
ACAD
1000
AcDbSavedByObjectVersion
1070
     0
  0
VISUALSTYLE
  5
8E86
102
{ACAD_XDICTIONARY
360
A23B
102
}
102
{ACAD_REACTORS
330
8E73
102
}
330
8E73
100
AcDbVisualStyle
  2
X-Ray
 70
    25
 71
     2
 72
     2
 73
     1
 90
        1
 40
0.5
 41
-30.0
 62
     5
 63
     7
 74
     1
 91
        0
 64
     7
 65
   257
 75
     1
175
     1
 42
1.0
 92
        8
 66
     7
 43
1.0
 76
     1
 77
     6
 78
     2
 67
     7
 79
     3
170
     0
171
     0
290
     0
174
     0
 93
       13
 44
0.0
173
     0
291
     0
 45
0.0
1001
ACAD
1000
AcDbSavedByObjectVersion
1070
     0
  0
DICTIONARYVAR
  5
9D3C
102
{ACAD_REACTORS
330
1BF
102
}
330
1BF
100
DictionaryVariables
280
     0
  1
1:1
  0
DICTIONARYVAR
  5
9D3B
102
{ACAD_REACTORS
330
1BF
102
}
330
1BF
100
DictionaryVariables
280
     0
  1
STANDARD
  0
DICTIONARYVAR
  5
9D3A
102
{ACAD_REACTORS
330
1BF
102
}
330
1BF
100
DictionaryVariables
280
     0
  1
STANDARD
  0
DICTIONARYVAR
  5
9D3E
102
{ACAD_REACTORS
330
1BF
102
}
330
1BF
100
DictionaryVariables
280
     0
  1
1
  0
DICTIONARYVAR
  5
9D3D
102
{ACAD_REACTORS
330
1BF
102
}
330
1BF
100
DictionaryVariables
280
     0
  1
0
  0
DICTIONARYVAR
  5
1C0
102
{ACAD_REACTORS
330
1BF
102
}
330
1BF
100
DictionaryVariables
280
     0
  1
96
  0
DICTIONARYVAR
  5
A20E
102
{ACAD_REACTORS
330
1BF
102
}
330
1BF
100
DictionaryVariables
280
     0
  1
2
  0
DICTIONARY
  5
A248
330
8EA5
100
AcDbDictionary
280
     1
281
     1
  3
ACAD_XREC_ROUNDTRIP
360
A249
  0
DICTIONARY
  5
A24A
330
8EA6
100
AcDbDictionary
280
     1
281
     1
  3
ACAD_XREC_ROUNDTRIP
360
A24B
  0
DICTIONARY
  5
8E64
330
8E63
100
AcDbDictionary
280
     1
281
     1
  3
ACAD_XREC_ROUNDTRIP
360
A215
  3
BUMPTILE
360
8E66
  3
DIFFUSETILE
360
8E65
  3
OPACITYTILE
360
8E69
  3
REFLECTIONTILE
360
8E68
  3
REFRACTIONTILE
360
8E6A
  3
SPECULARTILE
360
8E67
  0
DICTIONARY
  5
8E5C
330
8E5B
100
AcDbDictionary
280
     1
281
     1
  3
ACAD_XREC_ROUNDTRIP
360
A214
  3
BUMPTILE
360
8E5E
  3
DIFFUSETILE
360
8E5D
  3
OPACITYTILE
360
8E61
  3
REFLECTIONTILE
360
8E60
  3
REFRACTIONTILE
360
8E62
  3
SPECULARTILE
360
8E5F
  0
DICTIONARY
  5
8E6C
330
8E6B
100
AcDbDictionary
280
     1
281
     1
  3
ACAD_XREC_ROUNDTRIP
360
A216
  3
BUMPTILE
360
8E6E
  3
DIFFUSETILE
360
8E6D
  3
OPACITYTILE
360
8E71
  3
REFLECTIONTILE
360
8E70
  3
REFRACTIONTILE
360
8E72
  3
SPECULARTILE
360
8E6F
  0
DICTIONARY
  5
A210
330
8EA2
100
AcDbDictionary
280
     1
281
     1
  3
ACAD_XREC_ROUNDTRIP
360
A211
  0
DICTIONARY
  5
9CCF
330
8E8E
100
AcDbDictionary
280
     1
281
     1
  3
ACAD_ROUNDTRIP_2008_TABLESTYLE_CELLSTYLEMAP
360
A20F
  3
ACAD_XREC_ROUNDTRIP
360
A247
  0
DICTIONARY
  5
A221
330
8E79
100
AcDbDictionary
280
     1
281
     1
  3
ACAD_XREC_ROUNDTRIP
360
A222
  0
DICTIONARY
  5
A21F
330
8E78
100
AcDbDictionary
280
     1
281
     1
  3
ACAD_XREC_ROUNDTRIP
360
A220
  0
DICTIONARY
  5
A22D
330
8E7F
100
AcDbDictionary
280
     1
281
     1
  3
ACAD_XREC_ROUNDTRIP
360
A22E
  0
DICTIONARY
  5
A235
330
8E83
100
AcDbDictionary
280
     1
281
     1
  3
ACAD_XREC_ROUNDTRIP
360
A236
  0
DICTIONARY
  5
A227
330
8E7C
100
AcDbDictionary
280
     1
281
     1
  3
ACAD_XREC_ROUNDTRIP
360
A228
  0
DICTIONARY
  5
A22B
330
8E7E
100
AcDbDictionary
280
     1
281
     1
  3
ACAD_XREC_ROUNDTRIP
360
A22C
  0
DICTIONARY
  5
A245
330
8E8B
100
AcDbDictionary
280
     1
281
     1
  3
ACAD_XREC_ROUNDTRIP
360
A246
  0
DICTIONARY
  5
A233
330
8E82
100
AcDbDictionary
280
     1
281
     1
  3
ACAD_XREC_ROUNDTRIP
360
A234
  0
DICTIONARY
  5
A217
330
8E74
100
AcDbDictionary
280
     1
281
     1
  3
ACAD_XREC_ROUNDTRIP
360
A218
  0
DICTIONARY
  5
A219
330
8E75
100
AcDbDictionary
280
     1
281
     1
  3
ACAD_XREC_ROUNDTRIP
360
A21A
  0
DICTIONARY
  5
A21B
330
8E76
100
AcDbDictionary
280
     1
281
     1
  3
ACAD_XREC_ROUNDTRIP
360
A21C
  0
DICTIONARY
  5
A21D
330
8E77
100
AcDbDictionary
280
     1
281
     1
  3
ACAD_XREC_ROUNDTRIP
360
A21E
  0
DICTIONARY
  5
A225
330
8E7B
100
AcDbDictionary
280
     1
281
     1
  3
ACAD_XREC_ROUNDTRIP
360
A226
  0
DICTIONARY
  5
A241
330
8E89
100
AcDbDictionary
280
     1
281
     1
  3
ACAD_XREC_ROUNDTRIP
360
A242
  0
DICTIONARY
  5
A231
330
8E81
100
AcDbDictionary
280
     1
281
     1
  3
ACAD_XREC_ROUNDTRIP
360
A232
  0
DICTIONARY
  5
A243
330
8E8A
100
AcDbDictionary
280
     1
281
     1
  3
ACAD_XREC_ROUNDTRIP
360
A244
  0
DICTIONARY
  5
A229
330
8E7D
100
AcDbDictionary
280
     1
281
     1
  3
ACAD_XREC_ROUNDTRIP
360
A22A
  0
DICTIONARY
  5
A23F
330
8E88
100
AcDbDictionary
280
     1
281
     1
  3
ACAD_XREC_ROUNDTRIP
360
A240
  0
DICTIONARY
  5
A23D
330
8E87
100
AcDbDictionary
280
     1
281
     1
  3
ACAD_XREC_ROUNDTRIP
360
A23E
  0
DICTIONARY
  5
A237
330
8E84
100
AcDbDictionary
280
     1
281
     1
  3
ACAD_XREC_ROUNDTRIP
360
A238
  0
DICTIONARY
  5
A239
330
8E85
100
AcDbDictionary
280
     1
281
     1
  3
ACAD_XREC_ROUNDTRIP
360
A23A
  0
DICTIONARY
  5
A22F
330
8E80
100
AcDbDictionary
280
     1
281
     1
  3
ACAD_XREC_ROUNDTRIP
360
A230
  0
DICTIONARY
  5
A223
330
8E7A
100
AcDbDictionary
280
     1
281
     1
  3
ACAD_XREC_ROUNDTRIP
360
A224
  0
DICTIONARY
  5
A23B
330
8E86
100
AcDbDictionary
280
     1
281
     1
  3
ACAD_XREC_ROUNDTRIP
360
A23C
  0
XRECORD
  5
A249
102
{ACAD_REACTORS
330
A248
102
}
330
A248
100
AcDbXrecord
280
     1
102
SHADEPLOT
 70
     0
102
SHADEPLOTRESLEVEL
 70
     2
102
SHADEPLOTCUSTOMDPI
 70
   300
  0
XRECORD
  5
A24B
102
{ACAD_REACTORS
330
A24A
102
}
330
A24A
100
AcDbXrecord
280
     1
102
SHADEPLOT
 70
     0
102
SHADEPLOTRESLEVEL
 70
     2
102
SHADEPLOTCUSTOMDPI
 70
   300
  0
XRECORD
  5
A215
102
{ACAD_REACTORS
330
8E64
102
}
330
8E64
100
AcDbXrecord
280
     1
102
MATERIAL
148
0.0
149
0.0
149
0.0
 93
        0
 94
      127
282
     0
 72
     0
 77
     0
171
     0
175
     0
179
     0
273
     0
  0
XRECORD
  5
8E66
102
{ACAD_REACTORS
330
8E64
102
}
330
8E64
100
AcDbXrecord
280
     1
270
     1
271
     1
  0
XRECORD
  5
8E65
102
{ACAD_REACTORS
330
8E64
102
}
330
8E64
100
AcDbXrecord
280
     1
270
     1
271
     1
  0
XRECORD
  5
8E69
102
{ACAD_REACTORS
330
8E64
102
}
330
8E64
100
AcDbXrecord
280
     1
270
     1
271
     1
  0
XRECORD
  5
8E68
102
{ACAD_REACTORS
330
8E64
102
}
330
8E64
100
AcDbXrecord
280
     1
270
     1
271
     1
  0
XRECORD
  5
8E6A
102
{ACAD_REACTORS
330
8E64
102
}
330
8E64
100
AcDbXrecord
280
     1
270
     1
271
     1
  0
XRECORD
  5
8E67
102
{ACAD_REACTORS
330
8E64
102
}
330
8E64
100
AcDbXrecord
280
     1
270
     1
271
     1
  0
XRECORD
  5
A214
102
{ACAD_REACTORS
330
8E5C
102
}
330
8E5C
100
AcDbXrecord
280
     1
102
MATERIAL
148
0.0
149
0.0
149
0.0
 93
        0
 94
      127
282
     0
 72
     0
 77
     0
171
     0
175
     0
179
     0
273
     0
  0
XRECORD
  5
8E5E
102
{ACAD_REACTORS
330
8E5C
102
}
330
8E5C
100
AcDbXrecord
280
     1
270
     1
271
     1
  0
XRECORD
  5
8E5D
102
{ACAD_REACTORS
330
8E5C
102
}
330
8E5C
100
AcDbXrecord
280
     1
270
     1
271
     1
  0
XRECORD
  5
8E61
102
{ACAD_REACTORS
330
8E5C
102
}
330
8E5C
100
AcDbXrecord
280
     1
270
     1
271
     1
  0
XRECORD
  5
8E60
102
{ACAD_REACTORS
330
8E5C
102
}
330
8E5C
100
AcDbXrecord
280
     1
270
     1
271
     1
  0
XRECORD
  5
8E62
102
{ACAD_REACTORS
330
8E5C
102
}
330
8E5C
100
AcDbXrecord
280
     1
270
     1
271
     1
  0
XRECORD
  5
8E5F
102
{ACAD_REACTORS
330
8E5C
102
}
330
8E5C
100
AcDbXrecord
280
     1
270
     1
271
     1
  0
XRECORD
  5
A216
102
{ACAD_REACTORS
330
8E6C
102
}
330
8E6C
100
AcDbXrecord
280
     1
102
MATERIAL
148
0.0
149
0.0
149
0.0
 93
        0
 94
      127
282
     0
 72
     0
 77
     0
171
     0
175
     0
179
     0
273
     0
  0
XRECORD
  5
8E6E
102
{ACAD_REACTORS
330
8E6C
102
}
330
8E6C
100
AcDbXrecord
280
     1
270
     1
271
     1
  0
XRECORD
  5
8E6D
102
{ACAD_REACTORS
330
8E6C
102
}
330
8E6C
100
AcDbXrecord
280
     1
270
     1
271
     1
  0
XRECORD
  5
8E71
102
{ACAD_REACTORS
330
8E6C
102
}
330
8E6C
100
AcDbXrecord
280
     1
270
     1
271
     1
  0
XRECORD
  5
8E70
102
{ACAD_REACTORS
330
8E6C
102
}
330
8E6C
100
AcDbXrecord
280
     1
270
     1
271
     1
  0
XRECORD
  5
8E72
102
{ACAD_REACTORS
330
8E6C
102
}
330
8E6C
100
AcDbXrecord
280
     1
270
     1
271
     1
  0
XRECORD
  5
8E6F
102
{ACAD_REACTORS
330
8E6C
102
}
330
8E6C
100
AcDbXrecord
280
     1
270
     1
271
     1
  0
XRECORD
  5
A211
102
{ACAD_REACTORS
330
A210
102
}
330
A210
100
AcDbXrecord
280
     1
102
ACAD_ROUNDTRIP_2012_MLEADER_STYLE
298
     1
  0
CELLSTYLEMAP
  5
A20F
102
{ACAD_REACTORS
330
9CCF
102
}
330
9CCF
100
AcDbCellStyleMap
 90
        3
300
CELLSTYLE
  1
TABLEFORMAT_BEGIN
 90
        5
170
     1
 91
        0
 92
    32768
 62
   257
 93
        1
300
CONTENTFORMAT
  1
CONTENTFORMAT_BEGIN
 90
        0
 91
        0
 92
      512
 93
        0
300

 40
0.0
140
1.0
 94
        5
 62
     0
340
10
144
0.25
309
CONTENTFORMAT_END
171
     0
 94
        0
309
TABLEFORMAT_END
  1
CELLSTYLE_BEGIN
 90
        1
 91
        1
300
_TITLE
309
CELLSTYLE_END
300
CELLSTYLE
  1
TABLEFORMAT_BEGIN
 90
        5
170
     1
 91
        0
 92
        0
 62
   257
 93
        1
300
CONTENTFORMAT
  1
CONTENTFORMAT_BEGIN
 90
        0
 91
        0
 92
      512
 93
        0
300

 40
0.0
140
1.0
 94
        5
 62
     0
340
10
144
0.18
309
CONTENTFORMAT_END
171
     0
 94
        0
309
TABLEFORMAT_END
  1
CELLSTYLE_BEGIN
 90
        2
 91
        1
300
_HEADER
309
CELLSTYLE_END
300
CELLSTYLE
  1
TABLEFORMAT_BEGIN
 90
        5
170
     1
 91
        0
 92
        0
 62
   257
 93
        1
300
CONTENTFORMAT
  1
CONTENTFORMAT_BEGIN
 90
        0
 91
        0
 92
      512
 93
        0
300

 40
0.0
140
1.0
 94
        2
 62
     0
340
10
144
0.18
309
CONTENTFORMAT_END
171
     0
 94
        0
309
TABLEFORMAT_END
  1
CELLSTYLE_BEGIN
 90
        3
 91
        2
300
_DATA
309
CELLSTYLE_END
  0
XRECORD
  5
A247
102
{ACAD_REACTORS
330
9CCF
102
}
330
9CCF
100
AcDbXrecord
280
     1
102
ACAD_ROUNDTRIP_PRE2007_TABLESTYLE
 90
      512
 91
        0
  1

 92
      512
 93
        0
  2

 94
      512
 95
        0
  3

  0
XRECORD
  5
A222
102
{ACAD_REACTORS
330
A221
102
}
330
A221
100
AcDbXrecord
280
     1
102
RTVSPropertyOp0
 70
     1
102
RTVSPropertyOp1
 70
     1
102
RTVSPropertyOp2
 70
     1
102
RTVSPropertyOp3
 70
     1
102
RTVSPropertyOp4
 70
     1
102
RTVSPropertyOp5
 70
     1
102
RTVSPropertyOp6
 70
     1
102
RTVSPropertyOp7
 70
     1
102
RTVSPropertyOp8
 70
     1
102
RTVSPropertyOp9
 70
     1
102
RTVSPropertyOp10
 70
     1
102
RTVSPropertyOp11
 70
     1
102
RTVSPropertyOp12
 70
     1
102
RTVSPropertyOp13
 70
     1
102
RTVSPropertyOp14
 70
     1
102
RTVSPropertyOp15
 70
     1
102
RTVSPropertyOp16
 70
     1
102
RTVSPropertyOp17
 70
     1
102
RTVSPropertyOp18
 70
     1
102
RTVSPropertyOp19
 70
     1
102
RTVSPropertyOp20
 70
     1
102
RTVSPropertyOp21
 70
     1
102
RTVSPropertyOp22
 70
     1
102
RTVSPropertyOp23
 70
     1
102
RTVSPropertyOp24
 70
     1
102
RTVSPropertyOp25
 70
     1
102
RTVSPropertyOp26
 70
     1
102
RTVSPropertyOp27
 70
     1
102
RTVSPropertyOp28
 70
     1
102
RTVSPropertyOp29
 70
     1
102
RTVSPropertyOp30
 70
     1
102
RTVSPropertyOp31
 70
     1
102
RTVSPropertyOp32
 70
     1
  0
XRECORD
  5
A220
102
{ACAD_REACTORS
330
A21F
102
}
330
A21F
100
AcDbXrecord
280
     1
102
RTVSPropertyOp0
 70
     1
102
RTVSPropertyOp1
 70
     1
102
RTVSPropertyOp2
 70
     1
102
RTVSPropertyOp3
 70
     1
102
RTVSPropertyOp4
 70
     1
102
RTVSPropertyOp5
 70
     1
102
RTVSPropertyOp6
 70
     1
102
RTVSPropertyOp7
 70
     1
102
RTVSPropertyOp8
 70
     1
102
RTVSPropertyOp9
 70
     1
102
RTVSPropertyOp10
 70
     1
102
RTVSPropertyOp11
 70
     1
102
RTVSPropertyOp12
 70
     1
102
RTVSPropertyOp13
 70
     1
102
RTVSPropertyOp14
 70
     1
102
RTVSPropertyOp15
 70
     1
102
RTVSPropertyOp16
 70
     1
102
RTVSPropertyOp17
 70
     1
102
RTVSPropertyOp18
 70
     1
102
RTVSPropertyOp19
 70
     1
102
RTVSPropertyOp20
 70
     1
102
RTVSPropertyOp21
 70
     1
102
RTVSPropertyOp22
 70
     1
102
RTVSPropertyOp23
 70
     1
102
RTVSPropertyOp24
 70
     1
102
RTVSPropertyOp25
 70
     1
102
RTVSPropertyOp26
 70
     1
102
RTVSPropertyOp27
 70
     1
102
RTVSPropertyOp28
 70
     1
102
RTVSPropertyOp29
 70
     1
102
RTVSPropertyOp30
 70
     1
102
RTVSPropertyOp31
 70
     1
102
RTVSPropertyOp32
 70
     1
  0
XRECORD
  5
A22E
102
{ACAD_REACTORS
330
A22D
102
}
330
A22D
100
AcDbXrecord
280
     1
102
RTVSPropertyOp0
 70
     1
102
RTVSPropertyOp1
 70
     1
102
RTVSPropertyOp2
 70
     1
102
RTVSPropertyOp3
 70
     1
102
RTVSPropertyOp4
 70
     1
102
RTVSPropertyOp5
 70
     1
102
RTVSPropertyOp6
 70
     1
102
RTVSPropertyOp7
 70
     1
102
RTVSPropertyOp8
 70
     1
102
RTVSPropertyOp9
 70
     1
102
RTVSPropertyOp10
 70
     1
102
RTVSPropertyOp11
 70
     1
102
RTVSPropertyOp12
 70
     1
102
RTVSPropertyOp13
 70
     1
102
RTVSPropertyOp14
 70
     1
102
RTVSPropertyOp15
 70
     1
102
RTVSPropertyOp16
 70
     1
102
RTVSPropertyOp17
 70
     1
102
RTVSPropertyOp18
 70
     1
102
RTVSPropertyOp19
 70
     1
102
RTVSPropertyOp20
 70
     1
102
RTVSPropertyOp21
 70
     1
102
RTVSPropertyOp22
 70
     1
102
RTVSPropertyOp23
 70
     1
102
RTVSPropertyOp24
 70
     1
102
RTVSPropertyOp25
 70
     1
102
RTVSPropertyOp26
 70
     1
102
RTVSPropertyOp27
 70
     1
102
RTVSPropertyOp28
 70
     1
102
RTVSPropertyOp29
 70
     1
102
RTVSPropertyOp30
 70
     1
102
RTVSPropertyOp31
 70
     1
102
RTVSPropertyOp32
 70
     1
  0
XRECORD
  5
A236
102
{ACAD_REACTORS
330
A235
102
}
330
A235
100
AcDbXrecord
280
     1
102
RTVSPropertyOp0
 70
     1
102
RTVSPropertyOp1
 70
     1
102
RTVSPropertyOp2
 70
     1
102
RTVSPropertyOp3
 70
     1
102
RTVSPropertyOp4
 70
     1
102
RTVSPropertyOp5
 70
     1
102
RTVSPropertyOp6
 70
     1
102
RTVSPropertyOp7
 70
     1
102
RTVSPropertyOp8
 70
     1
102
RTVSPropertyOp9
 70
     1
102
RTVSPropertyOp10
 70
     1
102
RTVSPropertyOp11
 70
     1
102
RTVSPropertyOp12
 70
     1
102
RTVSPropertyOp13
 70
     1
102
RTVSPropertyOp14
 70
     1
102
RTVSPropertyOp15
 70
     1
102
RTVSPropertyOp16
 70
     1
102
RTVSPropertyOp17
 70
     1
102
RTVSPropertyOp18
 70
     1
102
RTVSPropertyOp19
 70
     1
102
RTVSPropertyOp20
 70
     1
102
RTVSPropertyOp21
 70
     1
102
RTVSPropertyOp22
 70
     1
102
RTVSPropertyOp23
 70
     1
102
RTVSPropertyOp24
 70
     1
102
RTVSPropertyOp25
 70
     1
102
RTVSPropertyOp26
 70
     1
102
RTVSPropertyOp27
 70
     1
102
RTVSPropertyOp28
 70
     1
102
RTVSPropertyOp29
 70
     1
102
RTVSPropertyOp30
 70
     1
102
RTVSPropertyOp31
 70
     1
102
RTVSPropertyOp32
 70
     1
  0
XRECORD
  5
A228
102
{ACAD_REACTORS
330
A227
102
}
330
A227
100
AcDbXrecord
280
     1
102
RTVSPropertyOp0
 70
     1
102
RTVSPropertyOp1
 70
     1
102
RTVSPropertyOp2
 70
     1
102
RTVSPropertyOp3
 70
     1
102
RTVSPropertyOp4
 70
     1
102
RTVSPropertyOp5
 70
     1
102
RTVSPropertyOp6
 70
     1
102
RTVSPropertyOp7
 70
     1
102
RTVSPropertyOp8
 70
     1
102
RTVSPropertyOp9
 70
     1
102
RTVSPropertyOp10
 70
     1
102
RTVSPropertyOp11
 70
     1
102
RTVSPropertyOp12
 70
     1
102
RTVSPropertyOp13
 70
     1
102
RTVSPropertyOp14
 70
     1
102
RTVSPropertyOp15
 70
     1
102
RTVSPropertyOp16
 70
     1
102
RTVSPropertyOp17
 70
     1
102
RTVSPropertyOp18
 70
     1
102
RTVSPropertyOp19
 70
     1
102
RTVSPropertyOp20
 70
     1
102
RTVSPropertyOp21
 70
     1
102
RTVSPropertyOp22
 70
     1
102
RTVSPropertyOp23
 70
     1
102
RTVSPropertyOp24
 70
     1
102
RTVSPropertyOp25
 70
     1
102
RTVSPropertyOp26
 70
     1
102
RTVSPropertyOp27
 70
     1
102
RTVSPropertyOp28
 70
     1
102
RTVSPropertyOp29
 70
     1
102
RTVSPropertyOp30
 70
     1
102
RTVSPropertyOp31
 70
     1
102
RTVSPropertyOp32
 70
     1
  0
XRECORD
  5
A22C
102
{ACAD_REACTORS
330
A22B
102
}
330
A22B
100
AcDbXrecord
280
     1
102
RTVSPropertyOp0
 70
     1
102
RTVSPropertyOp1
 70
     1
102
RTVSPropertyOp2
 70
     1
102
RTVSPropertyOp3
 70
     1
102
RTVSPropertyOp4
 70
     1
102
RTVSPropertyOp5
 70
     1
102
RTVSPropertyOp6
 70
     1
102
RTVSPropertyOp7
 70
     1
102
RTVSPropertyOp8
 70
     1
102
RTVSPropertyOp9
 70
     1
102
RTVSPropertyOp10
 70
     1
102
RTVSPropertyOp11
 70
     1
102
RTVSPropertyOp12
 70
     1
102
RTVSPropertyOp13
 70
     1
102
RTVSPropertyOp14
 70
     1
102
RTVSPropertyOp15
 70
     1
102
RTVSPropertyOp16
 70
     1
102
RTVSPropertyOp17
 70
     1
102
RTVSPropertyOp18
 70
     1
102
RTVSPropertyOp19
 70
     1
102
RTVSPropertyOp20
 70
     1
102
RTVSPropertyOp21
 70
     1
102
RTVSPropertyOp22
 70
     1
102
RTVSPropertyOp23
 70
     1
102
RTVSPropertyOp24
 70
     1
102
RTVSPropertyOp25
 70
     1
102
RTVSPropertyOp26
 70
     1
102
RTVSPropertyOp27
 70
     1
102
RTVSPropertyOp28
 70
     1
102
RTVSPropertyOp29
 70
     1
102
RTVSPropertyOp30
 70
     1
102
RTVSPropertyOp31
 70
     1
102
RTVSPropertyOp32
 70
     1
  0
XRECORD
  5
A246
102
{ACAD_REACTORS
330
A245
102
}
330
A245
100
AcDbXrecord
280
     1
102
RTVSPropertyOp0
 70
     0
102
RTVSPropertyOp1
 70
     0
102
RTVSPropertyOp2
 70
     0
102
RTVSPropertyOp3
 70
     0
102
RTVSPropertyOp4
 70
     0
102
RTVSPropertyOp5
 70
     0
102
RTVSPropertyOp6
 70
     0
102
RTVSPropertyOp7
 70
     0
102
RTVSPropertyOp8
 70
     0
102
RTVSPropertyOp9
 70
     0
102
RTVSPropertyOp10
 70
     0
102
RTVSPropertyOp11
 70
     0
102
RTVSPropertyOp12
 70
     0
102
RTVSPropertyOp13
 70
     0
102
RTVSPropertyOp14
 70
     2
102
RTVSPropertyOp15
 70
     0
102
RTVSPropertyOp16
 70
     0
102
RTVSPropertyOp17
 70
     0
102
RTVSPropertyOp18
 70
     0
102
RTVSPropertyOp19
 70
     0
102
RTVSPropertyOp20
 70
     0
102
RTVSPropertyOp21
 70
     0
102
RTVSPropertyOp22
 70
     0
102
RTVSPropertyOp23
 70
     0
102
RTVSPropertyOp24
 70
     0
102
RTVSPropertyOp25
 70
     0
102
RTVSPropertyOp26
 70
     0
102
RTVSPropertyOp27
 70
     0
102
RTVSPropertyOp28
 70
     0
102
RTVSPropertyOp29
 70
     0
102
RTVSPropertyOp30
 70
     0
102
RTVSPropertyOp31
 70
     0
102
RTVSPropertyOp32
 70
     0
  0
XRECORD
  5
A234
102
{ACAD_REACTORS
330
A233
102
}
330
A233
100
AcDbXrecord
280
     1
102
RTVSPropertyOp0
 70
     1
102
RTVSPropertyOp1
 70
     1
102
RTVSPropertyOp2
 70
     1
102
RTVSPropertyOp3
 70
     1
102
RTVSPropertyOp4
 70
     1
102
RTVSPropertyOp5
 70
     1
102
RTVSPropertyOp6
 70
     1
102
RTVSPropertyOp7
 70
     1
102
RTVSPropertyOp8
 70
     1
102
RTVSPropertyOp9
 70
     1
102
RTVSPropertyOp10
 70
     1
102
RTVSPropertyOp11
 70
     1
102
RTVSPropertyOp12
 70
     1
102
RTVSPropertyOp13
 70
     1
102
RTVSPropertyOp14
 70
     1
102
RTVSPropertyOp15
 70
     1
102
RTVSPropertyOp16
 70
     1
102
RTVSPropertyOp17
 70
     1
102
RTVSPropertyOp18
 70
     1
102
RTVSPropertyOp19
 70
     1
102
RTVSPropertyOp20
 70
     1
102
RTVSPropertyOp21
 70
     1
102
RTVSPropertyOp22
 70
     1
102
RTVSPropertyOp23
 70
     1
102
RTVSPropertyOp24
 70
     1
102
RTVSPropertyOp25
 70
     1
102
RTVSPropertyOp26
 70
     1
102
RTVSPropertyOp27
 70
     1
102
RTVSPropertyOp28
 70
     1
102
RTVSPropertyOp29
 70
     1
102
RTVSPropertyOp30
 70
     1
102
RTVSPropertyOp31
 70
     1
102
RTVSPropertyOp32
 70
     1
  0
XRECORD
  5
A218
102
{ACAD_REACTORS
330
A217
102
}
330
A217
100
AcDbXrecord
280
     1
102
RTVSPropertyOp0
 70
     1
102
RTVSPropertyOp1
 70
     1
102
RTVSPropertyOp2
 70
     1
102
RTVSPropertyOp3
 70
     1
102
RTVSPropertyOp4
 70
     1
102
RTVSPropertyOp5
 70
     1
102
RTVSPropertyOp6
 70
     1
102
RTVSPropertyOp7
 70
     1
102
RTVSPropertyOp8
 70
     1
102
RTVSPropertyOp9
 70
     1
102
RTVSPropertyOp10
 70
     1
102
RTVSPropertyOp11
 70
     1
102
RTVSPropertyOp12
 70
     1
102
RTVSPropertyOp13
 70
     1
102
RTVSPropertyOp14
 70
     1
102
RTVSPropertyOp15
 70
     1
102
RTVSPropertyOp16
 70
     1
102
RTVSPropertyOp17
 70
     1
102
RTVSPropertyOp18
 70
     1
102
RTVSPropertyOp19
 70
     1
102
RTVSPropertyOp20
 70
     1
102
RTVSPropertyOp21
 70
     1
102
RTVSPropertyOp22
 70
     1
102
RTVSPropertyOp23
 70
     1
102
RTVSPropertyOp24
 70
     1
102
RTVSPropertyOp25
 70
     1
102
RTVSPropertyOp26
 70
     1
102
RTVSPropertyOp27
 70
     1
102
RTVSPropertyOp28
 70
     1
102
RTVSPropertyOp29
 70
     1
102
RTVSPropertyOp30
 70
     1
102
RTVSPropertyOp31
 70
     1
102
RTVSPropertyOp32
 70
     1
  0
XRECORD
  5
A21A
102
{ACAD_REACTORS
330
A219
102
}
330
A219
100
AcDbXrecord
280
     1
102
RTVSPropertyOp0
 70
     1
102
RTVSPropertyOp1
 70
     1
102
RTVSPropertyOp2
 70
     1
102
RTVSPropertyOp3
 70
     1
102
RTVSPropertyOp4
 70
     1
102
RTVSPropertyOp5
 70
     1
102
RTVSPropertyOp6
 70
     1
102
RTVSPropertyOp7
 70
     1
102
RTVSPropertyOp8
 70
     1
102
RTVSPropertyOp9
 70
     1
102
RTVSPropertyOp10
 70
     1
102
RTVSPropertyOp11
 70
     1
102
RTVSPropertyOp12
 70
     1
102
RTVSPropertyOp13
 70
     1
102
RTVSPropertyOp14
 70
     1
102
RTVSPropertyOp15
 70
     1
102
RTVSPropertyOp16
 70
     1
102
RTVSPropertyOp17
 70
     1
102
RTVSPropertyOp18
 70
     1
102
RTVSPropertyOp19
 70
     1
102
RTVSPropertyOp20
 70
     1
102
RTVSPropertyOp21
 70
     1
102
RTVSPropertyOp22
 70
     1
102
RTVSPropertyOp23
 70
     1
102
RTVSPropertyOp24
 70
     1
102
RTVSPropertyOp25
 70
     1
102
RTVSPropertyOp26
 70
     1
102
RTVSPropertyOp27
 70
     1
102
RTVSPropertyOp28
 70
     1
102
RTVSPropertyOp29
 70
     1
102
RTVSPropertyOp30
 70
     1
102
RTVSPropertyOp31
 70
     1
102
RTVSPropertyOp32
 70
     1
  0
XRECORD
  5
A21C
102
{ACAD_REACTORS
330
A21B
102
}
330
A21B
100
AcDbXrecord
280
     1
102
RTVSPropertyOp0
 70
     1
102
RTVSPropertyOp1
 70
     1
102
RTVSPropertyOp2
 70
     1
102
RTVSPropertyOp3
 70
     1
102
RTVSPropertyOp4
 70
     1
102
RTVSPropertyOp5
 70
     1
102
RTVSPropertyOp6
 70
     1
102
RTVSPropertyOp7
 70
     1
102
RTVSPropertyOp8
 70
     1
102
RTVSPropertyOp9
 70
     1
102
RTVSPropertyOp10
 70
     1
102
RTVSPropertyOp11
 70
     1
102
RTVSPropertyOp12
 70
     1
102
RTVSPropertyOp13
 70
     1
102
RTVSPropertyOp14
 70
     1
102
RTVSPropertyOp15
 70
     1
102
RTVSPropertyOp16
 70
     1
102
RTVSPropertyOp17
 70
     1
102
RTVSPropertyOp18
 70
     1
102
RTVSPropertyOp19
 70
     1
102
RTVSPropertyOp20
 70
     1
102
RTVSPropertyOp21
 70
     1
102
RTVSPropertyOp22
 70
     1
102
RTVSPropertyOp23
 70
     1
102
RTVSPropertyOp24
 70
     1
102
RTVSPropertyOp25
 70
     1
102
RTVSPropertyOp26
 70
     1
102
RTVSPropertyOp27
 70
     1
102
RTVSPropertyOp28
 70
     1
102
RTVSPropertyOp29
 70
     1
102
RTVSPropertyOp30
 70
     1
102
RTVSPropertyOp31
 70
     1
102
RTVSPropertyOp32
 70
     1
  0
XRECORD
  5
A21E
102
{ACAD_REACTORS
330
A21D
102
}
330
A21D
100
AcDbXrecord
280
     1
102
RTVSPropertyOp0
 70
     1
102
RTVSPropertyOp1
 70
     1
102
RTVSPropertyOp2
 70
     1
102
RTVSPropertyOp3
 70
     1
102
RTVSPropertyOp4
 70
     1
102
RTVSPropertyOp5
 70
     1
102
RTVSPropertyOp6
 70
     1
102
RTVSPropertyOp7
 70
     1
102
RTVSPropertyOp8
 70
     1
102
RTVSPropertyOp9
 70
     1
102
RTVSPropertyOp10
 70
     1
102
RTVSPropertyOp11
 70
     1
102
RTVSPropertyOp12
 70
     1
102
RTVSPropertyOp13
 70
     1
102
RTVSPropertyOp14
 70
     1
102
RTVSPropertyOp15
 70
     1
102
RTVSPropertyOp16
 70
     1
102
RTVSPropertyOp17
 70
     1
102
RTVSPropertyOp18
 70
     1
102
RTVSPropertyOp19
 70
     1
102
RTVSPropertyOp20
 70
     1
102
RTVSPropertyOp21
 70
     1
102
RTVSPropertyOp22
 70
     1
102
RTVSPropertyOp23
 70
     1
102
RTVSPropertyOp24
 70
     1
102
RTVSPropertyOp25
 70
     1
102
RTVSPropertyOp26
 70
     1
102
RTVSPropertyOp27
 70
     1
102
RTVSPropertyOp28
 70
     1
102
RTVSPropertyOp29
 70
     1
102
RTVSPropertyOp30
 70
     1
102
RTVSPropertyOp31
 70
     1
102
RTVSPropertyOp32
 70
     1
  0
XRECORD
  5
A226
102
{ACAD_REACTORS
330
A225
102
}
330
A225
100
AcDbXrecord
280
     1
102
RTVSPropertyOp0
 70
     1
102
RTVSPropertyOp1
 70
     1
102
RTVSPropertyOp2
 70
     1
102
RTVSPropertyOp3
 70
     1
102
RTVSPropertyOp4
 70
     1
102
RTVSPropertyOp5
 70
     1
102
RTVSPropertyOp6
 70
     1
102
RTVSPropertyOp7
 70
     1
102
RTVSPropertyOp8
 70
     1
102
RTVSPropertyOp9
 70
     1
102
RTVSPropertyOp10
 70
     1
102
RTVSPropertyOp11
 70
     1
102
RTVSPropertyOp12
 70
     1
102
RTVSPropertyOp13
 70
     1
102
RTVSPropertyOp14
 70
     1
102
RTVSPropertyOp15
 70
     1
102
RTVSPropertyOp16
 70
     1
102
RTVSPropertyOp17
 70
     1
102
RTVSPropertyOp18
 70
     1
102
RTVSPropertyOp19
 70
     1
102
RTVSPropertyOp20
 70
     1
102
RTVSPropertyOp21
 70
     1
102
RTVSPropertyOp22
 70
     1
102
RTVSPropertyOp23
 70
     1
102
RTVSPropertyOp24
 70
     1
102
RTVSPropertyOp25
 70
     1
102
RTVSPropertyOp26
 70
     1
102
RTVSPropertyOp27
 70
     1
102
RTVSPropertyOp28
 70
     1
102
RTVSPropertyOp29
 70
     1
102
RTVSPropertyOp30
 70
     1
102
RTVSPropertyOp31
 70
     1
102
RTVSPropertyOp32
 70
     1
  0
XRECORD
  5
A242
102
{ACAD_REACTORS
330
A241
102
}
330
A241
100
AcDbXrecord
280
     1
102
RTVSPropertyOp0
 70
     0
102
RTVSPropertyOp1
 70
     0
102
RTVSPropertyOp2
 70
     0
102
RTVSPropertyOp3
 70
     0
102
RTVSPropertyOp4
 70
     0
102
RTVSPropertyOp5
 70
     0
102
RTVSPropertyOp6
 70
     0
102
RTVSPropertyOp7
 70
     0
102
RTVSPropertyOp8
 70
     0
102
RTVSPropertyOp9
 70
     0
102
RTVSPropertyOp10
 70
     0
102
RTVSPropertyOp11
 70
     0
102
RTVSPropertyOp12
 70
     0
102
RTVSPropertyOp13
 70
     0
102
RTVSPropertyOp14
 70
     2
102
RTVSPropertyOp15
 70
     0
102
RTVSPropertyOp16
 70
     0
102
RTVSPropertyOp17
 70
     0
102
RTVSPropertyOp18
 70
     0
102
RTVSPropertyOp19
 70
     0
102
RTVSPropertyOp20
 70
     0
102
RTVSPropertyOp21
 70
     0
102
RTVSPropertyOp22
 70
     0
102
RTVSPropertyOp23
 70
     0
102
RTVSPropertyOp24
 70
     0
102
RTVSPropertyOp25
 70
     0
102
RTVSPropertyOp26
 70
     0
102
RTVSPropertyOp27
 70
     0
102
RTVSPropertyOp28
 70
     0
102
RTVSPropertyOp29
 70
     0
102
RTVSPropertyOp30
 70
     0
102
RTVSPropertyOp31
 70
     0
102
RTVSPropertyOp32
 70
     0
  0
XRECORD
  5
A232
102
{ACAD_REACTORS
330
A231
102
}
330
A231
100
AcDbXrecord
280
     1
102
RTVSPropertyOp0
 70
     1
102
RTVSPropertyOp1
 70
     1
102
RTVSPropertyOp2
 70
     1
102
RTVSPropertyOp3
 70
     1
102
RTVSPropertyOp4
 70
     1
102
RTVSPropertyOp5
 70
     1
102
RTVSPropertyOp6
 70
     1
102
RTVSPropertyOp7
 70
     1
102
RTVSPropertyOp8
 70
     1
102
RTVSPropertyOp9
 70
     1
102
RTVSPropertyOp10
 70
     1
102
RTVSPropertyOp11
 70
     1
102
RTVSPropertyOp12
 70
     1
102
RTVSPropertyOp13
 70
     1
102
RTVSPropertyOp14
 70
     1
102
RTVSPropertyOp15
 70
     1
102
RTVSPropertyOp16
 70
     1
102
RTVSPropertyOp17
 70
     1
102
RTVSPropertyOp18
 70
     1
102
RTVSPropertyOp19
 70
     1
102
RTVSPropertyOp20
 70
     1
102
RTVSPropertyOp21
 70
     1
102
RTVSPropertyOp22
 70
     1
102
RTVSPropertyOp23
 70
     1
102
RTVSPropertyOp24
 70
     1
102
RTVSPropertyOp25
 70
     1
102
RTVSPropertyOp26
 70
     1
102
RTVSPropertyOp27
 70
     1
102
RTVSPropertyOp28
 70
     1
102
RTVSPropertyOp29
 70
     1
102
RTVSPropertyOp30
 70
     1
102
RTVSPropertyOp31
 70
     1
102
RTVSPropertyOp32
 70
     1
  0
XRECORD
  5
A244
102
{ACAD_REACTORS
330
A243
102
}
330
A243
100
AcDbXrecord
280
     1
102
RTVSPropertyOp0
 70
     0
102
RTVSPropertyOp1
 70
     0
102
RTVSPropertyOp2
 70
     0
102
RTVSPropertyOp3
 70
     0
102
RTVSPropertyOp4
 70
     0
102
RTVSPropertyOp5
 70
     0
102
RTVSPropertyOp6
 70
     0
102
RTVSPropertyOp7
 70
     0
102
RTVSPropertyOp8
 70
     0
102
RTVSPropertyOp9
 70
     0
102
RTVSPropertyOp10
 70
     0
102
RTVSPropertyOp11
 70
     0
102
RTVSPropertyOp12
 70
     0
102
RTVSPropertyOp13
 70
     0
102
RTVSPropertyOp14
 70
     2
102
RTVSPropertyOp15
 70
     0
102
RTVSPropertyOp16
 70
     0
102
RTVSPropertyOp17
 70
     0
102
RTVSPropertyOp18
 70
     0
102
RTVSPropertyOp19
 70
     0
102
RTVSPropertyOp20
 70
     0
102
RTVSPropertyOp21
 70
     0
102
RTVSPropertyOp22
 70
     0
102
RTVSPropertyOp23
 70
     0
102
RTVSPropertyOp24
 70
     0
102
RTVSPropertyOp25
 70
     0
102
RTVSPropertyOp26
 70
     0
102
RTVSPropertyOp27
 70
     0
102
RTVSPropertyOp28
 70
     0
102
RTVSPropertyOp29
 70
     0
102
RTVSPropertyOp30
 70
     0
102
RTVSPropertyOp31
 70
     0
102
RTVSPropertyOp32
 70
     0
  0
XRECORD
  5
A22A
102
{ACAD_REACTORS
330
A229
102
}
330
A229
100
AcDbXrecord
280
     1
102
RTVSPropertyOp0
 70
     1
102
RTVSPropertyOp1
 70
     1
102
RTVSPropertyOp2
 70
     1
102
RTVSPropertyOp3
 70
     1
102
RTVSPropertyOp4
 70
     1
102
RTVSPropertyOp5
 70
     1
102
RTVSPropertyOp6
 70
     1
102
RTVSPropertyOp7
 70
     1
102
RTVSPropertyOp8
 70
     1
102
RTVSPropertyOp9
 70
     1
102
RTVSPropertyOp10
 70
     1
102
RTVSPropertyOp11
 70
     1
102
RTVSPropertyOp12
 70
     1
102
RTVSPropertyOp13
 70
     1
102
RTVSPropertyOp14
 70
     1
102
RTVSPropertyOp15
 70
     1
102
RTVSPropertyOp16
 70
     1
102
RTVSPropertyOp17
 70
     1
102
RTVSPropertyOp18
 70
     1
102
RTVSPropertyOp19
 70
     1
102
RTVSPropertyOp20
 70
     1
102
RTVSPropertyOp21
 70
     1
102
RTVSPropertyOp22
 70
     1
102
RTVSPropertyOp23
 70
     1
102
RTVSPropertyOp24
 70
     1
102
RTVSPropertyOp25
 70
     1
102
RTVSPropertyOp26
 70
     1
102
RTVSPropertyOp27
 70
     1
102
RTVSPropertyOp28
 70
     1
102
RTVSPropertyOp29
 70
     1
102
RTVSPropertyOp30
 70
     1
102
RTVSPropertyOp31
 70
     1
102
RTVSPropertyOp32
 70
     1
  0
XRECORD
  5
A240
102
{ACAD_REACTORS
330
A23F
102
}
330
A23F
100
AcDbXrecord
280
     1
102
RTVSPropertyOp0
 70
     1
102
RTVSPropertyOp1
 70
     1
102
RTVSPropertyOp2
 70
     1
102
RTVSPropertyOp3
 70
     1
102
RTVSPropertyOp4
 70
     1
102
RTVSPropertyOp5
 70
     1
102
RTVSPropertyOp6
 70
     1
102
RTVSPropertyOp7
 70
     1
102
RTVSPropertyOp8
 70
     1
102
RTVSPropertyOp9
 70
     1
102
RTVSPropertyOp10
 70
     1
102
RTVSPropertyOp11
 70
     1
102
RTVSPropertyOp12
 70
     1
102
RTVSPropertyOp13
 70
     1
102
RTVSPropertyOp14
 70
     1
102
RTVSPropertyOp15
 70
     1
102
RTVSPropertyOp16
 70
     1
102
RTVSPropertyOp17
 70
     1
102
RTVSPropertyOp18
 70
     1
102
RTVSPropertyOp19
 70
     1
102
RTVSPropertyOp20
 70
     1
102
RTVSPropertyOp21
 70
     1
102
RTVSPropertyOp22
 70
     1
102
RTVSPropertyOp23
 70
     1
102
RTVSPropertyOp24
 70
     1
102
RTVSPropertyOp25
 70
     1
102
RTVSPropertyOp26
 70
     1
102
RTVSPropertyOp27
 70
     1
102
RTVSPropertyOp28
 70
     1
102
RTVSPropertyOp29
 70
     1
102
RTVSPropertyOp30
 70
     1
102
RTVSPropertyOp31
 70
     1
102
RTVSPropertyOp32
 70
     1
  0
XRECORD
  5
A23E
102
{ACAD_REACTORS
330
A23D
102
}
330
A23D
100
AcDbXrecord
280
     1
102
RTVSPropertyOp0
 70
     1
102
RTVSPropertyOp1
 70
     1
102
RTVSPropertyOp2
 70
     1
102
RTVSPropertyOp3
 70
     1
102
RTVSPropertyOp4
 70
     1
102
RTVSPropertyOp5
 70
     1
102
RTVSPropertyOp6
 70
     1
102
RTVSPropertyOp7
 70
     1
102
RTVSPropertyOp8
 70
     1
102
RTVSPropertyOp9
 70
     1
102
RTVSPropertyOp10
 70
     1
102
RTVSPropertyOp11
 70
     1
102
RTVSPropertyOp12
 70
     1
102
RTVSPropertyOp13
 70
     1
102
RTVSPropertyOp14
 70
     1
102
RTVSPropertyOp15
 70
     1
102
RTVSPropertyOp16
 70
     1
102
RTVSPropertyOp17
 70
     1
102
RTVSPropertyOp18
 70
     1
102
RTVSPropertyOp19
 70
     1
102
RTVSPropertyOp20
 70
     1
102
RTVSPropertyOp21
 70
     1
102
RTVSPropertyOp22
 70
     1
102
RTVSPropertyOp23
 70
     1
102
RTVSPropertyOp24
 70
     1
102
RTVSPropertyOp25
 70
     1
102
RTVSPropertyOp26
 70
     1
102
RTVSPropertyOp27
 70
     1
102
RTVSPropertyOp28
 70
     1
102
RTVSPropertyOp29
 70
     1
102
RTVSPropertyOp30
 70
     1
102
RTVSPropertyOp31
 70
     1
102
RTVSPropertyOp32
 70
     1
  0
XRECORD
  5
A238
102
{ACAD_REACTORS
330
A237
102
}
330
A237
100
AcDbXrecord
280
     1
102
RTVSPropertyOp0
 70
     1
102
RTVSPropertyOp1
 70
     1
102
RTVSPropertyOp2
 70
     1
102
RTVSPropertyOp3
 70
     1
102
RTVSPropertyOp4
 70
     1
102
RTVSPropertyOp5
 70
     1
102
RTVSPropertyOp6
 70
     1
102
RTVSPropertyOp7
 70
     1
102
RTVSPropertyOp8
 70
     1
102
RTVSPropertyOp9
 70
     1
102
RTVSPropertyOp10
 70
     1
102
RTVSPropertyOp11
 70
     1
102
RTVSPropertyOp12
 70
     1
102
RTVSPropertyOp13
 70
     1
102
RTVSPropertyOp14
 70
     1
102
RTVSPropertyOp15
 70
     1
102
RTVSPropertyOp16
 70
     1
102
RTVSPropertyOp17
 70
     1
102
RTVSPropertyOp18
 70
     1
102
RTVSPropertyOp19
 70
     1
102
RTVSPropertyOp20
 70
     1
102
RTVSPropertyOp21
 70
     1
102
RTVSPropertyOp22
 70
     1
102
RTVSPropertyOp23
 70
     1
102
RTVSPropertyOp24
 70
     1
102
RTVSPropertyOp25
 70
     1
102
RTVSPropertyOp26
 70
     1
102
RTVSPropertyOp27
 70
     1
102
RTVSPropertyOp28
 70
     1
102
RTVSPropertyOp29
 70
     1
102
RTVSPropertyOp30
 70
     1
102
RTVSPropertyOp31
 70
     1
102
RTVSPropertyOp32
 70
     1
  0
XRECORD
  5
A23A
102
{ACAD_REACTORS
330
A239
102
}
330
A239
100
AcDbXrecord
280
     1
102
RTVSPropertyOp0
 70
     1
102
RTVSPropertyOp1
 70
     1
102
RTVSPropertyOp2
 70
     1
102
RTVSPropertyOp3
 70
     1
102
RTVSPropertyOp4
 70
     1
102
RTVSPropertyOp5
 70
     1
102
RTVSPropertyOp6
 70
     1
102
RTVSPropertyOp7
 70
     1
102
RTVSPropertyOp8
 70
     1
102
RTVSPropertyOp9
 70
     1
102
RTVSPropertyOp10
 70
     1
102
RTVSPropertyOp11
 70
     1
102
RTVSPropertyOp12
 70
     1
102
RTVSPropertyOp13
 70
     1
102
RTVSPropertyOp14
 70
     1
102
RTVSPropertyOp15
 70
     1
102
RTVSPropertyOp16
 70
     1
102
RTVSPropertyOp17
 70
     1
102
RTVSPropertyOp18
 70
     1
102
RTVSPropertyOp19
 70
     1
102
RTVSPropertyOp20
 70
     1
102
RTVSPropertyOp21
 70
     1
102
RTVSPropertyOp22
 70
     1
102
RTVSPropertyOp23
 70
     1
102
RTVSPropertyOp24
 70
     1
102
RTVSPropertyOp25
 70
     1
102
RTVSPropertyOp26
 70
     1
102
RTVSPropertyOp27
 70
     1
102
RTVSPropertyOp28
 70
     1
102
RTVSPropertyOp29
 70
     1
102
RTVSPropertyOp30
 70
     1
102
RTVSPropertyOp31
 70
     1
102
RTVSPropertyOp32
 70
     1
  0
XRECORD
  5
A230
102
{ACAD_REACTORS
330
A22F
102
}
330
A22F
100
AcDbXrecord
280
     1
102
RTVSPropertyOp0
 70
     1
102
RTVSPropertyOp1
 70
     1
102
RTVSPropertyOp2
 70
     1
102
RTVSPropertyOp3
 70
     1
102
RTVSPropertyOp4
 70
     1
102
RTVSPropertyOp5
 70
     1
102
RTVSPropertyOp6
 70
     1
102
RTVSPropertyOp7
 70
     1
102
RTVSPropertyOp8
 70
     1
102
RTVSPropertyOp9
 70
     1
102
RTVSPropertyOp10
 70
     1
102
RTVSPropertyOp11
 70
     1
102
RTVSPropertyOp12
 70
     1
102
RTVSPropertyOp13
 70
     1
102
RTVSPropertyOp14
 70
     1
102
RTVSPropertyOp15
 70
     1
102
RTVSPropertyOp16
 70
     1
102
RTVSPropertyOp17
 70
     1
102
RTVSPropertyOp18
 70
     1
102
RTVSPropertyOp19
 70
     1
102
RTVSPropertyOp20
 70
     1
102
RTVSPropertyOp21
 70
     1
102
RTVSPropertyOp22
 70
     1
102
RTVSPropertyOp23
 70
     1
102
RTVSPropertyOp24
 70
     1
102
RTVSPropertyOp25
 70
     1
102
RTVSPropertyOp26
 70
     1
102
RTVSPropertyOp27
 70
     1
102
RTVSPropertyOp28
 70
     1
102
RTVSPropertyOp29
 70
     1
102
RTVSPropertyOp30
 70
     1
102
RTVSPropertyOp31
 70
     1
102
RTVSPropertyOp32
 70
     1
  0
XRECORD
  5
A224
102
{ACAD_REACTORS
330
A223
102
}
330
A223
100
AcDbXrecord
280
     1
102
RTVSPropertyOp0
 70
     1
102
RTVSPropertyOp1
 70
     1
102
RTVSPropertyOp2
 70
     1
102
RTVSPropertyOp3
 70
     1
102
RTVSPropertyOp4
 70
     1
102
RTVSPropertyOp5
 70
     1
102
RTVSPropertyOp6
 70
     1
102
RTVSPropertyOp7
 70
     1
102
RTVSPropertyOp8
 70
     1
102
RTVSPropertyOp9
 70
     1
102
RTVSPropertyOp10
 70
     1
102
RTVSPropertyOp11
 70
     1
102
RTVSPropertyOp12
 70
     1
102
RTVSPropertyOp13
 70
     1
102
RTVSPropertyOp14
 70
     1
102
RTVSPropertyOp15
 70
     1
102
RTVSPropertyOp16
 70
     1
102
RTVSPropertyOp17
 70
     1
102
RTVSPropertyOp18
 70
     1
102
RTVSPropertyOp19
 70
     1
102
RTVSPropertyOp20
 70
     1
102
RTVSPropertyOp21
 70
     1
102
RTVSPropertyOp22
 70
     1
102
RTVSPropertyOp23
 70
     1
102
RTVSPropertyOp24
 70
     1
102
RTVSPropertyOp25
 70
     1
102
RTVSPropertyOp26
 70
     1
102
RTVSPropertyOp27
 70
     1
102
RTVSPropertyOp28
 70
     1
102
RTVSPropertyOp29
 70
     1
102
RTVSPropertyOp30
 70
     1
102
RTVSPropertyOp31
 70
     1
102
RTVSPropertyOp32
 70
     1
  0
XRECORD
  5
A23C
102
{ACAD_REACTORS
330
A23B
102
}
330
A23B
100
AcDbXrecord
280
     1
102
RTVSPropertyOp0
 70
     1
102
RTVSPropertyOp1
 70
     1
102
RTVSPropertyOp2
 70
     1
102
RTVSPropertyOp3
 70
     1
102
RTVSPropertyOp4
 70
     1
102
RTVSPropertyOp5
 70
     1
102
RTVSPropertyOp6
 70
     1
102
RTVSPropertyOp7
 70
     1
102
RTVSPropertyOp8
 70
     1
102
RTVSPropertyOp9
 70
     1
102
RTVSPropertyOp10
 70
     1
102
RTVSPropertyOp11
 70
     1
102
RTVSPropertyOp12
 70
     1
102
RTVSPropertyOp13
 70
     1
102
RTVSPropertyOp14
 70
     1
102
RTVSPropertyOp15
 70
     1
102
RTVSPropertyOp16
 70
     1
102
RTVSPropertyOp17
 70
     1
102
RTVSPropertyOp18
 70
     1
102
RTVSPropertyOp19
 70
     1
102
RTVSPropertyOp20
 70
     1
102
RTVSPropertyOp21
 70
     1
102
RTVSPropertyOp22
 70
     1
102
RTVSPropertyOp23
 70
     1
102
RTVSPropertyOp24
 70
     1
102
RTVSPropertyOp25
 70
     1
102
RTVSPropertyOp26
 70
     1
102
RTVSPropertyOp27
 70
     1
102
RTVSPropertyOp28
 70
     1
102
RTVSPropertyOp29
 70
     1
102
RTVSPropertyOp30
 70
     1
102
RTVSPropertyOp31
 70
     1
102
RTVSPropertyOp32
 70
     1
  0
ENDSEC
  0
EOF
