  0
SECTION
  2
HEADER
  9
$ACADVER
  1
AC1015
  9
$ACADMAINTVER
 70
    20
  9
$DWGCODEPAGE
  3
ANSI_949
  9
$INSBASE
 10
0.0
 20
0.0
 30
0.0
  9
$EXTMIN
 10
0.0000023524727893
 20
-0.0000008203375046
 30
0.0
  9
$EXTMAX
 10
435.0000023524723
 20
134.2027501222505
 30
0.0
  9
$LIMMIN
 10
0.0
 20
0.0
  9
$LIMMAX
 10
420.0
 20
297.0
  9
$ORTHOMODE
 70
     1
  9
$REGENMODE
 70
     1
  9
$FILLMODE
 70
     1
  9
$QTEXTMODE
 70
     0
  9
$MIRRTEXT
 70
     1
  9
$LTSCALE
 40
10.0
  9
$ATTMODE
 70
     1
  9
$TEXTSIZE
 40
3.149999999999999
  9
$TRACEWID
 40
0.05
  9
$TEXTSTYLE
  7
CIWHS
  9
$CLAYER
  8
0
  9
$CELTYPE
  6
BYLAYER
  9
$CECOLOR
 62
   256
  9
$CELTSCALE
 40
1.0
  9
$DISPSILH
 70
     0
  9
$DIMSCALE
 40
1.5
  9
$DIMASZ
 40
2.5
  9
$DIMEXO
 40
0.8
  9
$DIMDLI
 40
0.8
  9
$DIMRND
 40
0.0
  9
$DIMDLE
 40
0.0
  9
$DIMEXE
 40
0.8
  9
$DIMTP
 40
0.0
  9
$DIMTM
 40
0.0
  9
$DIMTXT
 40
3.0
  9
$DIMCEN
 40
-1.0
  9
$DIMTSZ
 40
0.0
  9
$DIMTOL
 70
     0
  9
$DIMLIM
 70
     0
  9
$DIMTIH
 70
     0
  9
$DIMTOH
 70
     0
  9
$DIMSE1
 70
     0
  9
$DIMSE2
 70
     0
  9
$DIMTAD
 70
     3
  9
$DIMZIN
 70
     8
  9
$DIMBLK
  1

  9
$DIMASO
 70
     1
  9
$DIMSHO
 70
     1
  9
$DIMPOST
  1

  9
$DIMAPOST
  1

  9
$DIMALT
 70
     0
  9
$DIMALTD
 70
     2
  9
$DIMALTF
 40
25.4
  9
$DIMLFAC
 40
1.0
  9
$DIMTOFL
 70
     1
  9
$DIMTVP
 40
0.0
  9
$DIMTIX
 70
     0
  9
$DIMSOXD
 70
     0
  9
$DIMSAH
 70
     0
  9
$DIMBLK1
  1

  9
$DIMBLK2
  1

  9
$DIMSTYLE
  2
STANDARD
  9
$DIMCLRD
 70
   115
  9
$DIMCLRE
 70
   115
  9
$DIMCLRT
 70
     7
  9
$DIMTFAC
 40
1.0
  9
$DIMGAP
 40
1.0
  9
$DIMJUST
 70
     0
  9
$DIMSD1
 70
     0
  9
$DIMSD2
 70
     0
  9
$DIMTOLJ
 70
     1
  9
$DIMTZIN
 70
     0
  9
$DIMALTZ
 70
     0
  9
$DIMALTTZ
 70
     0
  9
$DIMUPT
 70
     0
  9
$DIMDEC
 70
     3
  9
$DIMTDEC
 70
     4
  9
$DIMALTU
 70
     2
  9
$DIMALTTD
 70
     2
  9
$DIMTXSTY
  7
STANDARD
  9
$DIMAUNIT
 70
     0
  9
$DIMADEC
 70
     0
  9
$DIMALTRND
 40
0.0
  9
$DIMAZIN
 70
     0
  9
$DIMDSEP
 70
    46
  9
$DIMATFIT
 70
     3
  9
$DIMFRAC
 70
     0
  9
$DIMLDRBLK
  1

  9
$DIMLUNIT
 70
     2
  9
$DIMLWD
 70
    -2
  9
$DIMLWE
 70
    -2
  9
$DIMTMOVE
 70
     0
  9
$LUNITS
 70
     2
  9
$LUPREC
 70
     4
  9
$SKETCHINC
 40
0.1
  9
$FILLETRAD
 40
0.0
  9
$AUNITS
 70
     0
  9
$AUPREC
 70
     0
  9
$MENU
  1
.
  9
$ELEVATION
 40
0.0
  9
$PELEVATION
 40
0.0
  9
$THICKNESS
 40
0.0
  9
$LIMCHECK
 70
     0
  9
$CHAMFERA
 40
1.0
  9
$CHAMFERB
 40
1.0
  9
$CHAMFERC
 40
1.0
  9
$CHAMFERD
 40
0.0
  9
$SKPOLY
 70
     1
  9
$TDCREATE
 40
2452464.575009942
  9
$TDUCREATE
 40
2452464.200009942
  9
$TDUPDATE
 40
2456842.721166505
  9
$TDUUPDATE
 40
2456842.346166505
  9
$TDINDWG
 40
0.3884132870
  9
$TDUSRTIMER
 40
0.3884132870
  9
$USRTIMER
 70
     1
  9
$ANGBASE
 50
0.0
  9
$ANGDIR
 70
     0
  9
$PDMODE
 70
     0
  9
$PDSIZE
 40
0.0
  9
$PLINEWID
 40
0.5
  9
$SPLFRAME
 70
     0
  9
$SPLINETYPE
 70
     6
  9
$SPLINESEGS
 70
     8
  9
$HANDSEED
  5
7E57
  9
$SURFTAB1
 70
     6
  9
$SURFTAB2
 70
     6
  9
$SURFTYPE
 70
     6
  9
$SURFU
 70
     6
  9
$SURFV
 70
     6
  9
$UCSBASE
  2

  9
$UCSNAME
  2

  9
$UCSORG
 10
0.0
 20
0.0
 30
0.0
  9
$UCSXDIR
 10
1.0
 20
0.0
 30
0.0
  9
$UCSYDIR
 10
0.0
 20
1.0
 30
0.0
  9
$UCSORTHOREF
  2

  9
$UCSORTHOVIEW
 70
     0
  9
$UCSORGTOP
 10
0.0
 20
0.0
 30
0.0
  9
$UCSORGBOTTOM
 10
0.0
 20
0.0
 30
0.0
  9
$UCSORGLEFT
 10
0.0
 20
0.0
 30
0.0
  9
$UCSORGRIGHT
 10
0.0
 20
0.0
 30
0.0
  9
$UCSORGFRONT
 10
0.0
 20
0.0
 30
0.0
  9
$UCSORGBACK
 10
0.0
 20
0.0
 30
0.0
  9
$PUCSBASE
  2

  9
$PUCSNAME
  2

  9
$PUCSORG
 10
0.0
 20
0.0
 30
0.0
  9
$PUCSXDIR
 10
1.0
 20
0.0
 30
0.0
  9
$PUCSYDIR
 10
0.0
 20
1.0
 30
0.0
  9
$PUCSORTHOREF
  2

  9
$PUCSORTHOVIEW
 70
     0
  9
$PUCSORGTOP
 10
0.0
 20
0.0
 30
0.0
  9
$PUCSORGBOTTOM
 10
0.0
 20
0.0
 30
0.0
  9
$PUCSORGLEFT
 10
0.0
 20
0.0
 30
0.0
  9
$PUCSORGRIGHT
 10
0.0
 20
0.0
 30
0.0
  9
$PUCSORGFRONT
 10
0.0
 20
0.0
 30
0.0
  9
$PUCSORGBACK
 10
0.0
 20
0.0
 30
0.0
  9
$USERI1
 70
     0
  9
$USERI2
 70
   452
  9
$USERI3
 70
     1
  9
$USERI4
 70
     0
  9
$USERI5
 70
     0
  9
$USERR1
 40
0.0
  9
$USERR2
 40
0.0
  9
$USERR3
 40
0.0
  9
$USERR4
 40
0.0
  9
$USERR5
 40
0.0
  9
$WORLDVIEW
 70
     1
  9
$SHADEDGE
 70
     3
  9
$SHADEDIF
 70
    70
  9
$TILEMODE
 70
     1
  9
$MAXACTVP
 70
    48
  9
$PINSBASE
 10
0.0
 20
0.0
 30
0.0
  9
$PLIMCHECK
 70
     0
  9
$PEXTMIN
 10
1.000000000000000E+20
 20
1.000000000000000E+20
 30
1.000000000000000E+20
  9
$PEXTMAX
 10
-1.000000000000000E+20
 20
-1.000000000000000E+20
 30
-1.000000000000000E+20
  9
$PLIMMIN
 10
0.0
 20
0.0
  9
$PLIMMAX
 10
12.0
 20
9.0
  9
$UNITMODE
 70
     0
  9
$VISRETAIN
 70
     1
  9
$PLINEGEN
 70
     0
  9
$PSLTSCALE
 70
     1
  9
$TREEDEPTH
 70
  3020
  9
$CMLSTYLE
  2
STANDARD
  9
$CMLJUST
 70
     0
  9
$CMLSCALE
 40
1.0
  9
$PROXYGRAPHICS
 70
     1
  9
$MEASUREMENT
 70
     0
  9
$CELWEIGHT
370
    -1
  9
$ENDCAPS
280
     0
  9
$JOINSTYLE
280
     0
  9
$LWDISPLAY
290
     0
  9
$INSUNITS
 70
     0
  9
$HYPERLINKBASE
  1

  9
$STYLESHEET
  1

  9
$XEDIT
290
     1
  9
$CEPSNTYPE
380
     0
  9
$PSTYLEMODE
290
     1
  9
$FINGERPRINTGUID
  2
{18A6105A-60D6-4035-82A3-0843769D4E07}
  9
$VERSIONGUID
  2
{D53CABEE-217B-4E26-BF0F-5C209741F902}
  9
$EXTNAMES
290
     1
  9
$PSVPSCALE
 40
0.0
  9
$OLESTARTUP
290
     0
  0
ENDSEC
  0
SECTION
  2
CLASSES
  0
CLASS
  1
DICTIONARYVAR
  2
AcDbDictionaryVar
  3
ObjectDBX Classes
 90
        0
280
     0
281
     0
  0
CLASS
  1
ACDBDICTIONARYWDFLT
  2
AcDbDictionaryWithDefault
  3
ObjectDBX Classes
 90
        0
280
     0
281
     0
  0
CLASS
  1
MATERIAL
  2
AcDbMaterial
  3
ObjectDBX Classes
 90
     1153
280
     0
281
     0
  0
CLASS
  1
VISUALSTYLE
  2
AcDbVisualStyle
  3
ObjectDBX Classes
 90
     4095
280
     0
281
     0
  0
CLASS
  1
TABLESTYLE
  2
AcDbTableStyle
  3
ObjectDBX Classes
 90
     4095
280
     0
281
     0
  0
CLASS
  1
SCALE
  2
AcDbScale
  3
ObjectDBX Classes
 90
     1153
280
     0
281
     0
  0
CLASS
  1
MLEADERSTYLE
  2
AcDbMLeaderStyle
  3
ACDB_MLEADERSTYLE_CLASS
 90
     4095
280
     0
281
     0
  0
CLASS
  1
SORTENTSTABLE
  2
AcDbSortentsTable
  3
ObjectDBX Classes
 90
        0
280
     0
281
     0
  0
CLASS
  1
CELLSTYLEMAP
  2
AcDbCellStyleMap
  3
ObjectDBX Classes
 90
     1152
280
     0
281
     0
  0
CLASS
  1
ACDBPLACEHOLDER
  2
AcDbPlaceHolder
  3
ObjectDBX Classes
 90
        0
280
     0
281
     0
  0
CLASS
  1
LAYOUT
  2
AcDbLayout
  3
ObjectDBX Classes
 90
        0
280
     0
281
     0
  0
CLASS
  1
ACAD_EVALUATION_GRAPH
  2
AcDbEvalGraph
  3
ObjectDBX Classes
 90
    33921
280
     0
281
     0
  0
CLASS
  1
ACAECUSTOBJ
  2
AcAeEditorObj
  3
AcAeEditorObj
 90
    33792
280
     0
281
     0
  0
CLASS
  1
ACDB_DYNAMICBLOCKPURGEPREVENTER_VERSION
  2
AcDbDynamicBlockPurgePreventer
  3
ObjectDBX Classes
 90
    33921
280
     0
281
     0
  0
ENDSEC
  0
SECTION
  2
TABLES
  0
TABLE
  2
VPORT
  5
8
102
{ACAD_XDICTIONARY
360
7095
102
}
330
0
100
AcDbSymbolTable
 70
     1
  0
VPORT
  5
6AF9
330
8
100
AcDbSymbolTableRecord
100
AcDbViewportTableRecord
  2
*ACTIVE
 70
     0
 10
0.0
 20
0.0
 11
1.0
 21
1.0
 12
217.4981709447945
 22
67.10039554022656
 13
0.0
 23
0.0
 14
0.5
 24
0.5
 15
0.5
 25
0.5
 16
0.0
 26
0.0
 36
1.0
 17
0.0
 27
0.0
 37
0.0
 40
193.5049294915526
 41
2.257287705956907
 42
50.0
 43
0.0
 44
0.0
 50
0.0
 51
0.0
 71
     0
 72
   100
 73
     1
 74
     1
 75
     0
 76
     0
 77
     0
 78
     0
281
     0
 65
     1
110
0.0
120
0.0
130
0.0
111
1.0
121
0.0
131
0.0
112
0.0
122
1.0
132
0.0
 79
     0
146
0.0
1001
ACAD_NAV_VCDISPLAY
1070
     3
  0
ENDTAB
  0
TABLE
  2
LTYPE
  5
5
330
0
100
AcDbSymbolTable
 70
     4
  0
LTYPE
  5
13
330
5
100
AcDbSymbolTableRecord
100
AcDbLinetypeTableRecord
  2
BYBLOCK
 70
     0
  3

 72
    65
 73
     0
 40
0.0
  0
LTYPE
  5
14
330
5
100
AcDbSymbolTableRecord
100
AcDbLinetypeTableRecord
  2
BYLAYER
 70
     0
  3

 72
    65
 73
     0
 40
0.0
  0
LTYPE
  5
15
330
5
100
AcDbSymbolTableRecord
100
AcDbLinetypeTableRecord
  2
CONTINUOUS
 70
     0
  3
Solid line
 72
    65
 73
     0
 40
0.0
  0
LTYPE
  5
765D
330
5
100
AcDbSymbolTableRecord
100
AcDbLinetypeTableRecord
  2
CENTER
 70
     0
  3
Center ____ _ ____ _ ____ _ ____ _ ____ _ ____
 72
    65
 73
     4
 40
2.0
 49
1.25
 74
     0
 49
-0.25
 74
     0
 49
0.25
 74
     0
 49
-0.25
 74
     0
  0
LTYPE
  5
765E
330
5
100
AcDbSymbolTableRecord
100
AcDbLinetypeTableRecord
  2
HIDDEN
 70
     0
  3
Hidden __ __ __ __ __ __ __ __ __ __ __ __ __ _
 72
    65
 73
     2
 40
0.375
 49
0.25
 74
     0
 49
-0.125
 74
     0
  0
ENDTAB
  0
TABLE
  2
LAYER
  5
2
102
{ACAD_XDICTIONARY
360
7982
102
}
330
0
100
AcDbSymbolTable
 70
     6
  0
LAYER
  5
F
102
{ACAD_XDICTIONARY
360
705B
102
}
330
2
100
AcDbSymbolTableRecord
100
AcDbLayerTableRecord
  2
0
 70
     0
 62
     7
  6
CONTINUOUS
370
    -3
390
6AFC
  0
LAYER
  5
24EF
330
2
100
AcDbSymbolTableRecord
100
AcDbLayerTableRecord
  2
DEFPOINTS
 70
     0
 62
     7
  6
CONTINUOUS
290
     0
370
    -3
390
6AFC
  0
LAYER
  5
7660
102
{ACAD_XDICTIONARY
360
7661
102
}
330
2
100
AcDbSymbolTableRecord
100
AcDbLayerTableRecord
  2
9
 70
     0
 62
     3
  6
CONTINUOUS
370
    -3
390
6AFC
  0
LAYER
  5
7662
102
{ACAD_XDICTIONARY
360
7663
102
}
330
2
100
AcDbSymbolTableRecord
100
AcDbLayerTableRecord
  2
1
 70
     0
 62
     1
  6
CENTER
370
    -3
390
6AFC
  0
LAYER
  5
7664
102
{ACAD_XDICTIONARY
360
7665
102
}
330
2
100
AcDbSymbolTableRecord
100
AcDbLayerTableRecord
  2
2
 70
     0
 62
     2
  6
HIDDEN
370
    -3
390
6AFC
  0
ENDTAB
  0
TABLE
  2
STYLE
  5
3
330
0
100
AcDbSymbolTable
 70
     3
  0
STYLE
  5
10
330
3
100
AcDbSymbolTableRecord
100
AcDbTextStyleTableRecord
  2
STANDARD
 70
     0
 40
0.0
 41
1.0
 50
0.0
 71
     0
 42
3.0
  3
romans.shx
  4

  0
STYLE
  5
24FC
330
3
100
AcDbSymbolTableRecord
100
AcDbTextStyleTableRecord
  2
CIWHS
 70
     0
 40
0.0
 41
1.0
 50
0.0
 71
     0
 42
3.149999999999999
  3
CIES
  4
CIWHS
  0
ENDTAB
  0
TABLE
  2
VIEW
  5
6
330
0
100
AcDbSymbolTable
 70
     0
  0
ENDTAB
  0
TABLE
  2
UCS
  5
7
330
0
100
AcDbSymbolTable
 70
     0
  0
ENDTAB
  0
TABLE
  2
APPID
  5
9
330
0
100
AcDbSymbolTable
 70
     9
  0
APPID
  5
11
330
9
100
AcDbSymbolTableRecord
100
AcDbRegAppTableRecord
  2
ACAD
 70
     0
  0
APPID
  5
2325
330
9
100
AcDbSymbolTableRecord
100
AcDbRegAppTableRecord
  2
MCLBOMATTRIB
 70
     0
  0
APPID
  5
2326
330
9
100
AcDbSymbolTableRecord
100
AcDbRegAppTableRecord
  2
MCLBOM
 70
     0
  0
APPID
  5
6C95
330
9
100
AcDbSymbolTableRecord
100
AcDbRegAppTableRecord
  2
ACAD_NAV_VCDISPLAY
 70
     0
  0
APPID
  5
6FA9
330
9
100
AcDbSymbolTableRecord
100
AcDbRegAppTableRecord
  2
ACAD_EXEMPT_FROM_CAD_STANDARDS
 70
     0
  0
APPID
  5
7101
330
9
100
AcDbSymbolTableRecord
100
AcDbRegAppTableRecord
  2
ACAD_MLEADERVER
 70
     0
  0
APPID
  5
7D1D
330
9
100
AcDbSymbolTableRecord
100
AcDbRegAppTableRecord
  2
ACAUTHENVIRON
 70
     0
  0
APPID
  5
7D22
330
9
100
AcDbSymbolTableRecord
100
AcDbRegAppTableRecord
  2
AcDbDynamicBlockTrueName
 70
     0
  0
APPID
  5
7D23
330
9
100
AcDbSymbolTableRecord
100
AcDbRegAppTableRecord
  2
AcDbDynamicBlockGUID
 70
     0
  0
ENDTAB
  0
TABLE
  2
DIMSTYLE
  5
A
330
0
100
AcDbSymbolTable
 70
     1
100
AcDbDimStyleTable
 71
     1
340
1D
  0
DIMSTYLE
105
1D
102
{ACAD_REACTORS
330
768F
330
7690
330
7691
330
7692
330
7693
330
7694
330
7695
330
7696
330
7697
330
7698
330
7699
330
769A
330
769C
330
769D
330
769E
330
769F
330
76A1
330
76A2
102
}
330
A
100
AcDbSymbolTableRecord
100
AcDbDimStyleTableRecord
  2
STANDARD
 70
     0
 41
2.0
140
3.0
176
     2
177
     2
178
     4
340
10
  0
ENDTAB
  0
TABLE
  2
BLOCK_RECORD
  5
1
330
0
100
AcDbSymbolTable
 70
    22
  0
BLOCK_RECORD
  5
19
102
{ACAD_XDICTIONARY
360
6F7F
102
}
330
1
100
AcDbSymbolTableRecord
100
AcDbBlockTableRecord
  2
*MODEL_SPACE
340
6B48
  0
BLOCK_RECORD
  5
16
330
1
100
AcDbSymbolTableRecord
100
AcDbBlockTableRecord
  2
*PAPER_SPACE
340
6B49
  0
BLOCK_RECORD
  5
760C
102
{ACAD_XDICTIONARY
360
760D
102
}
330
1
100
AcDbSymbolTableRecord
100
AcDbBlockTableRecord
  2
A$C16361175
340
0
102
{BLKREFS
331
76A6
102
}
  0
BLOCK_RECORD
  5
7641
102
{ACAD_XDICTIONARY
360
7642
102
}
330
1
100
AcDbSymbolTableRecord
100
AcDbBlockTableRecord
  2
A$C0761419C
340
0
102
{BLKREFS
331
76A8
102
}
  0
BLOCK_RECORD
  5
76B0
330
1
100
AcDbSymbolTableRecord
100
AcDbBlockTableRecord
  2
*D3
340
0
  0
BLOCK_RECORD
  5
76BC
330
1
100
AcDbSymbolTableRecord
100
AcDbBlockTableRecord
  2
*D4
340
0
  0
BLOCK_RECORD
  5
76C8
330
1
100
AcDbSymbolTableRecord
100
AcDbBlockTableRecord
  2
*D5
340
0
  0
BLOCK_RECORD
  5
76D4
330
1
100
AcDbSymbolTableRecord
100
AcDbBlockTableRecord
  2
*D6
340
0
  0
BLOCK_RECORD
  5
76E0
330
1
100
AcDbSymbolTableRecord
100
AcDbBlockTableRecord
  2
*D7
340
0
  0
BLOCK_RECORD
  5
76EC
330
1
100
AcDbSymbolTableRecord
100
AcDbBlockTableRecord
  2
*D8
340
0
  0
BLOCK_RECORD
  5
76F8
330
1
100
AcDbSymbolTableRecord
100
AcDbBlockTableRecord
  2
*D9
340
0
  0
BLOCK_RECORD
  5
7704
330
1
100
AcDbSymbolTableRecord
100
AcDbBlockTableRecord
  2
*D10
340
0
  0
BLOCK_RECORD
  5
7712
330
1
100
AcDbSymbolTableRecord
100
AcDbBlockTableRecord
  2
*D11
340
0
  0
BLOCK_RECORD
  5
771E
330
1
100
AcDbSymbolTableRecord
100
AcDbBlockTableRecord
  2
*D12
340
0
  0
BLOCK_RECORD
  5
772A
330
1
100
AcDbSymbolTableRecord
100
AcDbBlockTableRecord
  2
*D13
340
0
  0
BLOCK_RECORD
  5
7737
330
1
100
AcDbSymbolTableRecord
100
AcDbBlockTableRecord
  2
*D14
340
0
  0
BLOCK_RECORD
  5
774F
330
1
100
AcDbSymbolTableRecord
100
AcDbBlockTableRecord
  2
*D15
340
0
  0
BLOCK_RECORD
  5
775B
330
1
100
AcDbSymbolTableRecord
100
AcDbBlockTableRecord
  2
*D16
340
0
  0
BLOCK_RECORD
  5
7767
330
1
100
AcDbSymbolTableRecord
100
AcDbBlockTableRecord
  2
*D17
340
0
  0
BLOCK_RECORD
  5
7775
330
1
100
AcDbSymbolTableRecord
100
AcDbBlockTableRecord
  2
*D18
340
0
  0
BLOCK_RECORD
  5
7783
330
1
100
AcDbSymbolTableRecord
100
AcDbBlockTableRecord
  2
*D19
340
0
  0
BLOCK_RECORD
  5
7791
330
1
100
AcDbSymbolTableRecord
100
AcDbBlockTableRecord
  2
*D20
340
0
  0
BLOCK_RECORD
  5
7AF0
102
{ACAD_XDICTIONARY
360
7D1E
102
}
330
1
100
AcDbSymbolTableRecord
100
AcDbBlockTableRecord
  2
3220SDH
340
0
310
2800000020000000200000000100080000000000000400000000000000000000000000000000000000000000000080000080000000808000800000008000800080800000C0C0C000C0DCC000F0CAA6000020400000206000002080000020A0000020C0000020E00000400000004020000040400000406000004080000040A0
310
000040C0000040E00000600000006020000060400000606000006080000060A0000060C0000060E00000800000008020000080400000806000008080000080A0000080C0000080E00000A0000000A0200000A0400000A0600000A0800000A0A00000A0C00000A0E00000C0000000C0200000C0400000C0600000C0800000C0
310
A00000C0C00000C0E00000E0000000E0200000E0400000E0600000E0800000E0A00000E0C00000E0E00040000000400020004000400040006000400080004000A0004000C0004000E00040200000402020004020400040206000402080004020A0004020C0004020E000404000004040200040404000404060004040800040
310
40A0004040C0004040E00040600000406020004060400040606000406080004060A0004060C0004060E00040800000408020004080400040806000408080004080A0004080C0004080E00040A0000040A0200040A0400040A0600040A0800040A0A00040A0C00040A0E00040C0000040C0200040C0400040C0600040C08000
310
40C0A00040C0C00040C0E00040E0000040E0200040E0400040E0600040E0800040E0A00040E0C00040E0E00080000000800020008000400080006000800080008000A0008000C0008000E00080200000802020008020400080206000802080008020A0008020C0008020E00080400000804020008040400080406000804080
310
008040A0008040C0008040E00080600000806020008060400080606000806080008060A0008060C0008060E00080800000808020008080400080806000808080008080A0008080C0008080E00080A0000080A0200080A0400080A0600080A0800080A0A00080A0C00080A0E00080C0000080C0200080C0400080C0600080C0
310
800080C0A00080C0C00080C0E00080E0000080E0200080E0400080E0600080E0800080E0A00080E0C00080E0E000C0000000C0002000C0004000C0006000C0008000C000A000C000C000C000E000C0200000C0202000C0204000C0206000C0208000C020A000C020C000C020E000C0400000C0402000C0404000C0406000C0
310
408000C040A000C040C000C040E000C0600000C0602000C0604000C0606000C0608000C060A000C060C000C060E000C0800000C0802000C0804000C0806000C0808000C080A000C080C000C080E000C0A00000C0A02000C0A04000C0A06000C0A08000C0A0A000C0A0C000C0A0E000C0C00000C0C02000C0C04000C0C06000
310
C0C08000C0C0A000F0FBFF00A4A0A000808080000000FF0000FF000000FFFF00FF000000FF00FF00FFFF0000FFFFFF004949494949494949494949494949494949494949494949494949494949494949494949494949494949494949494949494949494949FFFFFFFF49494949494949494949494949494949494949494949
310
494949494949FF4949FFFF494949494949494949494949494949494949494949494949494949FF4949FFFF494949494949494949494949494949494949494949494949494949FF4949FFFF494949494949494949494949494949494949494949494949494949FF4949FFFF4949494949494949FFFFFFFFFFFFFFFFFFFFFFFF
310
FFFFFFFFFFFFFFFF4949FFFFFFFFFFFF49494949FF494949494949494949494949494949494949FFFFFFFFFF494949FF49494949FF494949494949494949494949494949494949FA494949FA494949FF49494949FF494949494949494949494949494949494949FA494949FA494949FF49494949FFFBFBFBFBFBFBFBFBFBFB
310
FBFBFBFBFBFBFBFBFBFAFBFAFBFBFBFBFF49494949FF494949494949494949494949494949494949FFFA49FAFF494949FF49494949FF494949494949494949494949494949494949FFFA49FAFF494949FF49494949FF494949494949494949494949494949494949FFFA49FAFF494949FF49494949FF494949494949494949
310
494949494949494949FF49FA49FF494949FF49494949FF4949494949FFFFFFFFFFFFFFFFFF49494949FF49FA49FF494949FF49494949FF4949494949FFFFFFFFFFFFFFFFFF49494949FF49FA49FF494949FF49494949FF494949494949494949494949494949494949FF49FA49FF494949FF49494949FF4949494949494949
310
49494949494949494949FFFA49FAFF494949FF49494949FF494949494949494949494949494949494949FFFA49FAFF494949FF49494949FF494949494949494949494949494949494949FFFA49FAFF494949FF49494949FFFBFBFBFBFBFBFBFBFBFBFBFBFBFBFBFBFBFBFBFAFBFAFBFBFBFBFF49494949FF49494949494949
310
4949494949494949494949FA494949FA494949FF49494949FF494949494949494949494949494949494949FA494949FA494949FF49494949FF494949494949494949494949494949494949FFFFFFFFFF494949FF49494949FFFFFFFFFFFFFFFFFFFFFFFFFFFFFFFFFFFFFFFF4949FFFFFFFFFFFF4949494949494949494949
310
494949494949494949494949FF4949FFFF494949494949494949494949494949494949494949494949494949FF4949FFFF494949494949494949494949494949494949494949494949494949FFFFFFFAFF494949494949494949494949494949494949494949494949494949FFFFFFFFFF4949494949494949494949494949
310
49494949494949494949494949FFFFFFFF494949494949494949494949494949494949494949494949494949494949494949494949494949
102
{BLKREFS
331
7B14
102
}
1001
AcDbDynamicBlockGUID
1000
{4264F747-686E-4023-A601-18BFD45514C8}
  0
ENDTAB
  0
ENDSEC
  0
SECTION
  2
BLOCKS
  0
BLOCK
  5
1A
330
19
100
AcDbEntity
  8
0
100
AcDbBlockBegin
  2
*MODEL_SPACE
 70
     0
 10
0.0
 20
0.0
 30
0.0
  3
*MODEL_SPACE
  1

  0
ENDBLK
  5
1B
330
19
100
AcDbEntity
  8
0
100
AcDbBlockEnd
  0
BLOCK
  5
17
330
16
100
AcDbEntity
 67
     1
  8
0
100
AcDbBlockBegin
  2
*PAPER_SPACE
 70
     0
 10
0.0
 20
0.0
 30
0.0
  3
*PAPER_SPACE
  1

  0
ENDBLK
  5
18
330
16
100
AcDbEntity
 67
     1
  8
0
100
AcDbBlockEnd
  0
BLOCK
  5
760F
330
760C
100
AcDbEntity
  8
0
100
AcDbBlockBegin
  2
A$C16361175
 70
     0
 10
0.0
 20
0.0
 30
0.0
  3
A$C16361175
  1

  0
TEXT
  5
7610
330
760C
100
AcDbEntity
  8
0
100
AcDbText
 10
32.25000156586009
 20
13.99999906856715
 30
0.0
 40
4.0
  1
RM3220
 72
     4
 11
44.25000156586008
 21
15.99999906856715
 31
0.0
100
AcDbText
  0
LINE
  5
7611
330
760C
100
AcDbEntity
  8
0
  6
Continuous
100
AcDbLine
 10
-0.0000014341399606
 20
31.8999990685669
 30
0.0
 11
299.9999985658601
 21
31.8999990685669
 31
0.0
  0
LINE
  5
7612
330
760C
100
AcDbEntity
  8
0
  6
Continuous
100
AcDbLine
 10
-0.0000014341399606
 20
0.0999990685669445
 30
0.0
 11
299.9999985658601
 21
0.0999990685669445
 31
0.0
  0
LINE
  5
7613
330
760C
100
AcDbEntity
  8
9
  6
Continuous
100
AcDbLine
 10
-0.0000014341399606
 20
29.54999906856699
 30
0.0
 11
299.9999985658601
 21
29.54999906856699
 31
0.0
  0
LINE
  5
7614
330
760C
100
AcDbEntity
  8
9
  6
Continuous
100
AcDbLine
 10
-0.0000014341399321
 20
2.449999068566967
 30
0.0
 11
299.9999985658601
 21
2.449999068566967
 31
0.0
  0
LINE
  5
7615
330
760C
100
AcDbEntity
  8
0
100
AcDbLine
 10
-0.0000014341399606
 20
0.0999990685669445
 30
0.0
 11
-0.0000014341399606
 21
31.8999990685669
 31
0.0
  0
LINE
  5
7616
330
760C
100
AcDbEntity
  8
0
100
AcDbLine
 10
299.9999985658601
 20
0.0999990685669445
 30
0.0
 11
299.9999985658601
 21
31.8999990685669
 31
0.0
  0
ENDBLK
  5
7617
330
760C
100
AcDbEntity
  8
0
100
AcDbBlockEnd
  0
BLOCK
  5
7644
330
7641
100
AcDbEntity
  8
0
100
AcDbBlockBegin
  2
A$C0761419C
 70
     0
 10
0.0
 20
0.0
 30
0.0
  3
A$C0761419C
  1

  0
CIRCLE
  5
7645
330
7641
100
AcDbEntity
  8
0
100
AcDbCircle
 10
8.897824980258747
 20
17.89607362464721
 30
0.0
 40
4.5
  0
CIRCLE
  5
7646
330
7641
100
AcDbEntity
  8
0
100
AcDbCircle
 10
59.10239978025879
 20
17.89604262464718
 30
0.0
 40
4.5
  0
CIRCLE
  5
7647
330
7641
100
AcDbEntity
  8
0
100
AcDbCircle
 10
33.99999798025874
 20
43.0000006246471
 30
0.0
 40
28.000006
  0
CIRCLE
  5
7648
330
7641
100
AcDbEntity
  8
0
100
AcDbCircle
 10
33.99999798025874
 20
43.0000006246471
 30
0.0
 40
27.4999847
  0
CIRCLE
  5
7649
330
7641
100
AcDbEntity
  8
0
100
AcDbCircle
 10
33.99999798025874
 20
7.498352924647178
 30
0.0
 40
4.5
  0
CIRCLE
  5
764A
330
7641
100
AcDbEntity
  8
0
100
AcDbCircle
 10
59.1024149802588
 20
68.10066262464715
 30
0.0
 40
4.5
  0
CIRCLE
  5
764B
330
7641
100
AcDbEntity
  8
0
100
AcDbCircle
 10
8.897824980258747
 20
68.10063262464723
 30
0.0
 40
4.5
  0
CIRCLE
  5
764C
330
7641
100
AcDbEntity
  8
0
100
AcDbCircle
 10
33.99999798025874
 20
78.49833762464709
 30
0.0
 40
4.5
  0
LINE
  5
764D
330
7641
100
AcDbEntity
  8
2
100
AcDbLine
 10
30.30105783082547
 20
58.46375960398041
 30
0.0
 11
20.23751598025876
 21
82.75926262464713
 31
0.0
  0
LINE
  5
764E
330
7641
100
AcDbEntity
  8
2
100
AcDbLine
 10
15.61813198025879
 20
80.84584162464716
 30
0.0
 11
25.6816164335358
 21
56.55044447136811
 31
0.0
  0
ARC
  5
764F
330
7641
100
AcDbEntity
  8
0
100
AcDbCircle
 10
33.99999798025874
 20
43.0000006246471
 30
0.0
 40
43.0
100
AcDbArc
 50
217.7492418730113
 51
322.2507581269887
  0
LINE
  5
7650
330
7641
100
AcDbEntity
  8
0
100
AcDbLine
 10
-0.0000020197412596
 20
16.6751074624708
 30
0.0
 11
-0.0000020197412596
 21
69.32489378682351
 31
0.0
  0
LINE
  5
7651
330
7641
100
AcDbEntity
  8
0
100
AcDbLine
 10
67.99999798025874
 20
16.6751074624708
 30
0.0
 11
67.99999798025874
 21
69.32489378682362
 31
0.0
  0
ARC
  5
7652
330
7641
100
AcDbEntity
  8
0
100
AcDbCircle
 10
33.99999798025874
 20
43.0000006246471
 30
0.0
 40
42.0
100
AcDbArc
 50
215.9505676196185
 51
324.0494323803816
  0
LINE
  5
7653
330
7641
100
AcDbEntity
  8
0
100
AcDbLine
 10
26.44504225081835
 20
85.3311079090804
 30
0.0
 11
9.409545392152267
 21
78.27477406845673
 31
0.0
  0
ARC
  5
7654
330
7641
100
AcDbEntity
  8
0
100
AcDbCircle
 10
33.99999798025874
 20
43.0000006246471
 30
0.0
 40
42.0
100
AcDbArc
 50
35.95056761961844
 51
144.0494323803815
  0
ARC
  5
7655
330
7641
100
AcDbEntity
  8
0
100
AcDbCircle
 10
33.99999798025874
 20
43.0000006246471
 30
0.0
 40
43.0
100
AcDbArc
 50
37.74924187301133
 51
100.1192010737532
  0
ARC
  5
7656
330
7641
100
AcDbEntity
  8
0
100
AcDbCircle
 10
33.99999798025874
 20
43.0000006246471
 30
0.0
 40
43.0
100
AcDbArc
 50
124.8807989262447
 51
142.2507581269886
  0
LINE
  5
7657
330
7641
100
AcDbEntity
  8
2
100
AcDbLine
 10
23.76071884787348
 20
75.56008714744598
 30
0.0
 11
18.21744152657356
 21
73.26398650096826
 31
0.0
  0
LWPOLYLINE
  5
7658
330
7641
100
AcDbEntity
  8
2
100
AcDbPolyline
 90
        2
 70
     0
 43
0.0
 10
20.69946098025866
 20
82.95060862464721
 10
23.76071884787348
 20
75.56008714744598
  0
LWPOLYLINE
  5
7659
330
7641
100
AcDbEntity
  8
2
100
AcDbPolyline
 90
        2
 70
     0
 43
0.0
 10
18.21744152657356
 20
73.26398650096826
 10
15.15618698025878
 20
80.65452662464712
  0
CIRCLE
  5
765A
330
7641
100
AcDbEntity
  8
0
100
AcDbCircle
 10
33.99999798025874
 20
43.0000006246471
 30
0.0
 40
15.89999999999998
  0
ARC
  5
765B
330
7641
100
AcDbEntity
  8
9
100
AcDbCircle
 10
33.99999798025874
 20
43.0000006246471
 30
0.0
 40
13.55000000000007
100
AcDbArc
 50
180.0
 51
90.0
  0
ENDBLK
  5
765C
330
7641
100
AcDbEntity
  8
0
100
AcDbBlockEnd
  0
BLOCK
  5
76B1
330
76B0
100
AcDbEntity
  8
0
100
AcDbBlockBegin
  2
*D3
 70
     1
 10
0.0
 20
0.0
 30
0.0
  3
*D3
  1

  0
LINE
  5
779D
330
76B0
100
AcDbEntity
  8
0
 62
   115
370
    -2
100
AcDbLine
 10
21.00000235247305
 20
56.44999917966265
 30
0.0
 11
11.0000023524728
 21
56.44999917966266
 31
0.0
  0
LINE
  5
779E
330
76B0
100
AcDbEntity
  8
0
 62
   115
370
    -2
100
AcDbLine
 10
21.00000235247302
 20
83.54999917966267
 30
0.0
 11
11.0000023524728
 21
83.54999917966267
 31
0.0
  0
LINE
  5
779F
330
76B0
100
AcDbEntity
  8
0
 62
   115
370
    -2
100
AcDbLine
 10
12.0000023524728
 20
59.44999917966266
 30
0.0
 11
12.0000023524728
 21
80.54999917966268
 31
0.0
  0
SOLID
  5
77A0
330
76B0
100
AcDbEntity
  8
0
 62
   115
100
AcDbTrace
 10
11.5000023524728
 20
59.44999917966266
 30
0.0
 11
12.5000023524728
 21
59.44999917966266
 31
0.0
 12
12.0000023524728
 22
56.44999917966266
 32
0.0
 13
12.0000023524728
 23
56.44999917966266
 33
0.0
  0
SOLID
  5
77A1
330
76B0
100
AcDbEntity
  8
0
 62
   115
100
AcDbTrace
 10
11.5000023524728
 20
80.54999917966268
 30
0.0
 11
12.5000023524728
 21
80.54999917966268
 31
0.0
 12
12.0000023524728
 22
83.54999917966267
 32
0.0
 13
12.0000023524728
 23
83.54999917966267
 33
0.0
  0
MTEXT
  5
77A2
330
76B0
100
AcDbEntity
  8
0
 62
     7
100
AcDbMText
 10
9.50000235247279
 20
69.99999917966267
 30
0.0
 40
3.0
 41
0.0
 71
     5
 72
     1
  1
\A1;%%C27.1
 11
0.0000000000000001
 21
1.0
 31
0.0
 73
     1
 44
1.0
1001
ACAD
1000
MTEXTBEGIN
1070
    73
1070
     1
1070
    44
1040
1.0
1070
    74
1070
     0
1000
MTEXTEND
  0
POINT
  5
77A3
330
76B0
100
AcDbEntity
  8
DEFPOINTS
 62
     0
100
AcDbPoint
 10
22.00000235247305
 20
56.44999917966265
 30
0.0
  0
POINT
  5
77A4
330
76B0
100
AcDbEntity
  8
DEFPOINTS
 62
     0
100
AcDbPoint
 10
22.00000235247302
 20
83.54999917966267
 30
0.0
  0
POINT
  5
77A5
330
76B0
100
AcDbEntity
  8
DEFPOINTS
 62
     0
100
AcDbPoint
 10
12.0000023524728
 20
83.54999917966267
 30
0.0
  0
ENDBLK
  5
76B2
330
76B0
100
AcDbEntity
  8
0
100
AcDbBlockEnd
  0
BLOCK
  5
76BD
330
76BC
100
AcDbEntity
  8
0
100
AcDbBlockBegin
  2
*D4
 70
     1
 10
0.0
 20
0.0
 30
0.0
  3
*D4
  1

  0
LINE
  5
77A6
330
76BC
100
AcDbEntity
  8
0
 62
   115
370
    -2
100
AcDbLine
 10
21.00000235247302
 20
54.09999917966263
 30
0.0
 11
3.000002352472799
 21
54.09999917966263
 31
0.0
  0
LINE
  5
77A7
330
76BC
100
AcDbEntity
  8
0
 62
   115
370
    -2
100
AcDbLine
 10
21.00000235247302
 20
85.89999917966258
 30
0.0
 11
3.000002352472806
 21
85.89999917966258
 31
0.0
  0
LINE
  5
77A8
330
76BC
100
AcDbEntity
  8
0
 62
   115
370
    -2
100
AcDbLine
 10
4.000002352472798
 20
57.09999917966264
 30
0.0
 11
4.000002352472805
 21
82.89999917966259
 31
0.0
  0
SOLID
  5
77A9
330
76BC
100
AcDbEntity
  8
0
 62
   115
100
AcDbTrace
 10
3.500002352472799
 20
57.09999917966264
 30
0.0
 11
4.500002352472798
 21
57.09999917966264
 31
0.0
 12
4.000002352472798
 22
54.09999917966263
 32
0.0
 13
4.000002352472798
 23
54.09999917966263
 33
0.0
  0
SOLID
  5
77AA
330
76BC
100
AcDbEntity
  8
0
 62
   115
100
AcDbTrace
 10
3.500002352472804
 20
82.89999917966259
 30
0.0
 11
4.500002352472805
 21
82.89999917966259
 31
0.0
 12
4.000002352472805
 22
85.89999917966258
 32
0.0
 13
4.000002352472805
 23
85.89999917966258
 33
0.0
  0
MTEXT
  5
77AB
330
76BC
100
AcDbEntity
  8
0
 62
     7
100
AcDbMText
 10
1.50000235247279
 20
69.99999917966261
 30
0.0
 40
3.0
 41
0.0
 71
     5
 72
     1
  1
\A1;%%C31.8
 11
0.0000000000000001
 21
1.0
 31
0.0
 73
     1
 44
1.0
1001
ACAD
1000
MTEXTBEGIN
1070
    73
1070
     1
1070
    44
1040
1.0
1070
    74
1070
     0
1000
MTEXTEND
  0
POINT
  5
77AC
330
76BC
100
AcDbEntity
  8
DEFPOINTS
 62
     0
100
AcDbPoint
 10
22.00000235247302
 20
54.09999917966263
 30
0.0
  0
POINT
  5
77AD
330
76BC
100
AcDbEntity
  8
DEFPOINTS
 62
     0
100
AcDbPoint
 10
22.00000235247302
 20
85.89999917966258
 30
0.0
  0
POINT
  5
77AE
330
76BC
100
AcDbEntity
  8
DEFPOINTS
 62
     0
100
AcDbPoint
 10
4.000002352472805
 20
85.89999917966258
 30
0.0
  0
ENDBLK
  5
76BE
330
76BC
100
AcDbEntity
  8
0
100
AcDbBlockEnd
  0
BLOCK
  5
76C9
330
76C8
100
AcDbEntity
  8
0
100
AcDbBlockBegin
  2
*D5
 70
     1
 10
0.0
 20
0.0
 30
0.0
  3
*D5
  1

  0
LINE
  5
7D37
330
76C8
100
AcDbEntity
  8
0
 62
   115
370
    -2
100
AcDbLine
 10
125.500002202473
 20
42.00089652966267
 30
0.0
 11
114.5000022024729
 21
42.00089652966267
 31
0.0
  0
LINE
  5
7D38
330
76C8
100
AcDbEntity
  8
0
 62
   115
370
    -2
100
AcDbLine
 10
125.5000022024731
 20
98.00088872966274
 30
0.0
 11
114.5000022024729
 21
98.00088872966274
 31
0.0
  0
LINE
  5
7D39
330
76C8
100
AcDbEntity
  8
0
 62
   115
370
    -2
100
AcDbLine
 10
115.5000022024729
 20
45.00089652966266
 30
0.0
 11
115.5000022024729
 21
95.00088872966273
 31
0.0
  0
SOLID
  5
7D3A
330
76C8
100
AcDbEntity
  8
0
 62
   115
100
AcDbTrace
 10
115.0000022024729
 20
45.00089652966266
 30
0.0
 11
116.0000022024729
 21
45.00089652966266
 31
0.0
 12
115.5000022024729
 22
42.00089652966267
 32
0.0
 13
115.5000022024729
 23
42.00089652966267
 33
0.0
  0
SOLID
  5
7D3B
330
76C8
100
AcDbEntity
  8
0
 62
   115
100
AcDbTrace
 10
115.0000022024729
 20
95.00088872966273
 30
0.0
 11
116.0000022024729
 21
95.00088872966273
 31
0.0
 12
115.5000022024729
 22
98.00088872966274
 32
0.0
 13
115.5000022024729
 23
98.00088872966274
 33
0.0
  0
MTEXT
  5
7D3C
330
76C8
100
AcDbEntity
  8
0
 62
     7
100
AcDbMText
 10
112.2142879167586
 20
70.00089262966273
 30
0.0
 40
3.0
 41
0.0
 71
     5
 72
     1
  1
\A1;%%C56 g6 ({\H0.5x;\S-0.010^ -0.029;})
 11
0.0000000000000001
 21
1.0
 31
0.0
 73
     1
 44
1.0
1001
ACAD
1000
MTEXTBEGIN
1070
    73
1070
     1
1070
    44
1040
1.0
1070
    74
1070
     0
1000
MTEXTEND
  0
POINT
  5
7D3D
330
76C8
100
AcDbEntity
  8
DEFPOINTS
 62
     0
100
AcDbPoint
 10
126.500002202473
 20
42.00089652966267
 30
0.0
  0
POINT
  5
7D3E
330
76C8
100
AcDbEntity
  8
DEFPOINTS
 62
     0
100
AcDbPoint
 10
126.5000022024731
 20
98.00088872966274
 30
0.0
  0
POINT
  5
7D3F
330
76C8
100
AcDbEntity
  8
DEFPOINTS
 62
     0
100
AcDbPoint
 10
115.5000022024729
 20
98.00088872966274
 30
0.0
  0
ENDBLK
  5
76CA
330
76C8
100
AcDbEntity
  8
0
100
AcDbBlockEnd
  0
BLOCK
  5
76D5
330
76D4
100
AcDbEntity
  8
0
100
AcDbBlockBegin
  2
*D6
 70
     1
 10
0.0
 20
0.0
 30
0.0
  3
*D6
  1

  0
LINE
  5
7BDE
330
76D4
100
AcDbEntity
  8
0
 62
   115
370
    -2
100
AcDbLine
 10
182.5000085024731
 20
26.99999917966275
 30
0.0
 11
182.5000085024731
 21
15.99999917966261
 31
0.0
  0
LINE
  5
7BDF
330
76D4
100
AcDbEntity
  8
0
 62
   115
370
    -2
100
AcDbLine
 10
125.500002202473
 20
42.00089652966267
 30
0.0
 11
125.500002202473
 21
15.99999917966261
 31
0.0
  0
LINE
  5
7BE0
330
76D4
100
AcDbEntity
  8
0
 62
   115
370
    -2
100
AcDbLine
 10
179.5000085024731
 20
16.99999917966261
 30
0.0
 11
128.500002202473
 21
16.99999917966261
 31
0.0
  0
SOLID
  5
7BE1
330
76D4
100
AcDbEntity
  8
0
 62
   115
100
AcDbTrace
 10
179.5000085024731
 20
17.49999917966261
 30
0.0
 11
179.5000085024731
 21
16.49999917966261
 31
0.0
 12
182.5000085024731
 22
16.99999917966261
 32
0.0
 13
182.5000085024731
 23
16.99999917966261
 33
0.0
  0
SOLID
  5
7BE2
330
76D4
100
AcDbEntity
  8
0
 62
   115
100
AcDbTrace
 10
128.500002202473
 20
17.49999917966261
 30
0.0
 11
128.500002202473
 21
16.49999917966261
 31
0.0
 12
125.500002202473
 22
16.99999917966261
 32
0.0
 13
125.500002202473
 23
16.99999917966261
 33
0.0
  0
MTEXT
  5
7BE3
330
76D4
100
AcDbEntity
  8
0
 62
     7
100
AcDbMText
 10
154.000005352473
 20
19.49999917966261
 30
0.0
 40
3.0
 41
0.0
 71
     5
 72
     1
  1
\A1;57
 73
     1
 44
1.0
1001
ACAD
1000
MTEXTBEGIN
1070
    73
1070
     1
1070
    44
1040
1.0
1070
    74
1070
     0
1000
MTEXTEND
  0
POINT
  5
7BE4
330
76D4
100
AcDbEntity
  8
DEFPOINTS
 62
     0
100
AcDbPoint
 10
182.5000085024731
 20
27.99999917966275
 30
0.0
  0
POINT
  5
7BE5
330
76D4
100
AcDbEntity
  8
DEFPOINTS
 62
     0
100
AcDbPoint
 10
125.500002202473
 20
43.00089652966266
 30
0.0
  0
POINT
  5
7BE6
330
76D4
100
AcDbEntity
  8
DEFPOINTS
 62
     0
100
AcDbPoint
 10
125.500002202473
 20
16.99999917966261
 30
0.0
  0
ENDBLK
  5
76D6
330
76D4
100
AcDbEntity
  8
0
100
AcDbBlockEnd
  0
BLOCK
  5
76E1
330
76E0
100
AcDbEntity
  8
0
100
AcDbBlockBegin
  2
*D7
 70
     1
 10
0.0
 20
0.0
 30
0.0
  3
*D7
  1

  0
LINE
  5
7BCB
330
76E0
100
AcDbEntity
  8
0
 62
   115
370
    -2
100
AcDbLine
 10
182.5000085024731
 20
26.99999917966275
 30
0.0
 11
182.5000085024731
 21
15.99999917966261
 31
0.0
  0
LINE
  5
7BCC
330
76E0
100
AcDbEntity
  8
0
 62
   115
370
    -2
100
AcDbLine
 10
194.500008502473
 20
26.9999991796625
 30
0.0
 11
194.500008502473
 21
15.99999917966261
 31
0.0
  0
LINE
  5
7BCD
330
76E0
100
AcDbEntity
  8
0
 62
   115
370
    -2
100
AcDbLine
 10
185.5000085024731
 20
16.99999917966261
 30
0.0
 11
191.500008502473
 21
16.99999917966261
 31
0.0
  0
SOLID
  5
7BCE
330
76E0
100
AcDbEntity
  8
0
 62
   115
100
AcDbTrace
 10
185.5000085024731
 20
17.49999917966261
 30
0.0
 11
185.5000085024731
 21
16.49999917966261
 31
0.0
 12
182.5000085024731
 22
16.99999917966261
 32
0.0
 13
182.5000085024731
 23
16.99999917966261
 33
0.0
  0
SOLID
  5
7BCF
330
76E0
100
AcDbEntity
  8
0
 62
   115
100
AcDbTrace
 10
191.500008502473
 20
17.49999917966261
 30
0.0
 11
191.500008502473
 21
16.49999917966261
 31
0.0
 12
194.500008502473
 22
16.99999917966261
 32
0.0
 13
194.500008502473
 23
16.99999917966261
 33
0.0
  0
MTEXT
  5
7BD0
330
76E0
100
AcDbEntity
  8
0
 62
     7
100
AcDbMText
 10
188.500008502473
 20
19.49999917966261
 30
0.0
 40
3.0
 41
0.0
 71
     5
 72
     1
  1
\A1;12
 73
     1
 44
1.0
1001
ACAD
1000
MTEXTBEGIN
1070
    73
1070
     1
1070
    44
1040
1.0
1070
    74
1070
     0
1000
MTEXTEND
  0
POINT
  5
7BD1
330
76E0
100
AcDbEntity
  8
DEFPOINTS
 62
     0
100
AcDbPoint
 10
182.5000085024731
 20
27.99999917966275
 30
0.0
  0
POINT
  5
7BD2
330
76E0
100
AcDbEntity
  8
DEFPOINTS
 62
     0
100
AcDbPoint
 10
194.500008502473
 20
27.9999991796625
 30
0.0
  0
POINT
  5
7BD3
330
76E0
100
AcDbEntity
  8
DEFPOINTS
 62
     0
100
AcDbPoint
 10
194.500008502473
 20
16.99999917966261
 30
0.0
  0
ENDBLK
  5
76E2
330
76E0
100
AcDbEntity
  8
0
100
AcDbBlockEnd
  0
BLOCK
  5
76ED
330
76EC
100
AcDbEntity
  8
0
100
AcDbBlockBegin
  2
*D8
 70
     1
 10
0.0
 20
0.0
 30
0.0
  3
*D8
  1

  0
LINE
  5
7C4B
330
76EC
100
AcDbEntity
  8
0
 62
   115
370
    -2
100
AcDbLine
 10
125.500002202473
 20
42.00089652966267
 30
0.0
 11
125.500002202473
 21
7.999999179662381
 31
0.0
  0
LINE
  5
7C4C
330
76EC
100
AcDbEntity
  8
0
 62
   115
370
    -2
100
AcDbLine
 10
208.5000025024731
 20
42.00090262966273
 30
0.0
 11
208.5000025024731
 21
7.999999179662381
 31
0.0
  0
LINE
  5
7C4D
330
76EC
100
AcDbEntity
  8
0
 62
   115
370
    -2
100
AcDbLine
 10
128.500002202473
 20
8.999999179662381
 30
0.0
 11
205.500002502473
 21
8.999999179662381
 31
0.0
  0
SOLID
  5
7C4E
330
76EC
100
AcDbEntity
  8
0
 62
   115
100
AcDbTrace
 10
128.500002202473
 20
9.499999179662381
 30
0.0
 11
128.500002202473
 21
8.499999179662381
 31
0.0
 12
125.500002202473
 22
8.999999179662381
 32
0.0
 13
125.500002202473
 23
8.999999179662381
 33
0.0
  0
SOLID
  5
7C4F
330
76EC
100
AcDbEntity
  8
0
 62
   115
100
AcDbTrace
 10
205.500002502473
 20
9.499999179662381
 30
0.0
 11
205.500002502473
 21
8.499999179662381
 31
0.0
 12
208.5000025024731
 22
8.999999179662381
 32
0.0
 13
208.5000025024731
 23
8.999999179662381
 33
0.0
  0
MTEXT
  5
7C50
330
76EC
100
AcDbEntity
  8
0
 62
     7
100
AcDbMText
 10
167.000002352473
 20
11.49999917966238
 30
0.0
 40
3.0
 41
0.0
 71
     5
 72
     1
  1
\A1;83
 73
     1
 44
1.0
1001
ACAD
1000
MTEXTBEGIN
1070
    73
1070
     1
1070
    44
1040
1.0
1070
    74
1070
     0
1000
MTEXTEND
  0
POINT
  5
7C51
330
76EC
100
AcDbEntity
  8
DEFPOINTS
 62
     0
100
AcDbPoint
 10
125.500002202473
 20
43.00089652966266
 30
0.0
  0
POINT
  5
7C52
330
76EC
100
AcDbEntity
  8
DEFPOINTS
 62
     0
100
AcDbPoint
 10
208.5000025024731
 20
43.00090262966273
 30
0.0
  0
POINT
  5
7C53
330
76EC
100
AcDbEntity
  8
DEFPOINTS
 62
     0
100
AcDbPoint
 10
208.5000025024731
 20
8.999999179662381
 30
0.0
  0
ENDBLK
  5
76EE
330
76EC
100
AcDbEntity
  8
0
100
AcDbBlockEnd
  0
BLOCK
  5
76F9
330
76F8
100
AcDbEntity
  8
0
100
AcDbBlockBegin
  2
*D9
 70
     1
 10
0.0
 20
0.0
 30
0.0
  3
*D9
  1

  0
LINE
  5
77D3
330
76F8
100
AcDbEntity
  8
0
 62
   115
370
    -2
100
AcDbLine
 10
348.0000023524731
 20
42.67510601748608
 30
0.0
 11
348.0000023524731
 21
-0.0000008203375046
 31
0.0
  0
LINE
  5
77D4
330
76F8
100
AcDbEntity
  8
0
 62
   115
370
    -2
100
AcDbLine
 10
416.000002352473
 20
42.67510601748608
 30
0.0
 11
416.000002352473
 21
-0.0000008203375046
 31
0.0
  0
LINE
  5
77D5
330
76F8
100
AcDbEntity
  8
0
 62
   115
370
    -2
100
AcDbLine
 10
351.0000023524731
 20
0.9999991796624954
 30
0.0
 11
413.000002352473
 21
0.9999991796624954
 31
0.0
  0
SOLID
  5
77D6
330
76F8
100
AcDbEntity
  8
0
 62
   115
100
AcDbTrace
 10
351.0000023524731
 20
1.499999179662495
 30
0.0
 11
351.0000023524731
 21
0.4999991796624954
 31
0.0
 12
348.0000023524731
 22
0.9999991796624954
 32
0.0
 13
348.0000023524731
 23
0.9999991796624954
 33
0.0
  0
SOLID
  5
77D7
330
76F8
100
AcDbEntity
  8
0
 62
   115
100
AcDbTrace
 10
413.000002352473
 20
1.499999179662495
 30
0.0
 11
413.000002352473
 21
0.4999991796624954
 31
0.0
 12
416.000002352473
 22
0.9999991796624954
 32
0.0
 13
416.000002352473
 23
0.9999991796624954
 33
0.0
  0
MTEXT
  5
77D8
330
76F8
100
AcDbEntity
  8
0
 62
     7
100
AcDbMText
 10
382.0000023524731
 20
3.499999179662495
 30
0.0
 40
3.0
 41
0.0
 71
     5
 72
     1
  1
\A1;68
 73
     1
 44
1.0
1001
ACAD
1000
MTEXTBEGIN
1070
    73
1070
     1
1070
    44
1040
1.0
1070
    74
1070
     0
1000
MTEXTEND
  0
POINT
  5
77D9
330
76F8
100
AcDbEntity
  8
DEFPOINTS
 62
     0
100
AcDbPoint
 10
348.0000023524731
 20
43.67510601748608
 30
0.0
  0
POINT
  5
77DA
330
76F8
100
AcDbEntity
  8
DEFPOINTS
 62
     0
100
AcDbPoint
 10
416.000002352473
 20
43.67510601748608
 30
0.0
  0
POINT
  5
77DB
330
76F8
100
AcDbEntity
  8
DEFPOINTS
 62
     0
100
AcDbPoint
 10
416.000002352473
 20
0.9999991796624954
 30
0.0
  0
ENDBLK
  5
76FA
330
76F8
100
AcDbEntity
  8
0
100
AcDbBlockEnd
  0
BLOCK
  5
7705
330
7704
100
AcDbEntity
  8
0
100
AcDbBlockBegin
  2
*D10
 70
     1
 10
0.0
 20
0.0
 30
0.0
  3
*D10
  1

  0
LINE
  5
77DC
330
7704
100
AcDbEntity
  8
0
 62
   115
370
    -2
100
AcDbLine
 10
351.6654219806241
 20
39.66329919633712
 30
0.0
 11
344.8888289750282
 21
32.88623268017574
 31
0.0
  0
LINE
  5
77DD
330
7704
100
AcDbEntity
  8
0
 62
   115
370
    -2
100
AcDbLine
 10
412.334582724322
 20
39.66329919633712
 30
0.0
 11
419.1111757299179
 21
32.88623268017572
 31
0.0
  0
ARC
  5
77DE
330
7704
100
AcDbEntity
  8
0
 62
   115
370
    -2
100
AcDbCircle
 10
382.0000023524731
 20
69.99999917966263
 30
0.0
 40
51.4849583521718
100
AcDbArc
 50
228.3410675128191
 51
311.6589324871809
  0
SOLID
  5
77DF
330
7704
100
AcDbEntity
  8
0
 62
   115
100
AcDbTrace
 10
347.4351169630546
 20
31.17110868286608
 30
0.0
 11
348.1212967997306
 21
31.89854062589525
 31
0.0
 12
345.5959110523051
 22
33.5933641644089
 32
0.0
 13
345.5959110523051
 23
33.5933641644089
 33
0.0
  0
SOLID
  5
77E0
330
7704
100
AcDbEntity
  8
0
 62
   115
100
AcDbTrace
 10
415.8787079052155
 20
31.89854062589523
 30
0.0
 11
416.5648877418916
 21
31.17110868286606
 31
0.0
 12
418.404093652641
 22
33.59336416440888
 32
0.0
 13
418.404093652641
 23
33.59336416440888
 33
0.0
  0
MTEXT
  5
77E1
102
{ACAD_XDICTIONARY
360
7E53
102
}
330
7704
100
AcDbEntity
  8
0
 62
     7
100
AcDbMText
 10
382.0000023524731
 20
21.01504082749084
 30
0.0
 40
3.0
 41
0.0
 71
     5
 72
     1
  1
\A1;90\U+00B0
 73
     1
 44
1.0
1001
ACAD
1000
MTEXTBEGIN
1070
    73
1070
     1
1070
    44
1040
1.0
1070
    74
1070
     0
1000
MTEXTEND
  0
POINT
  5
77E2
330
7704
100
AcDbEntity
  8
DEFPOINTS
 62
     0
100
AcDbPoint
 10
368.6752937254291
 20
20.26919306786465
 30
0.0
  0
POINT
  5
77E3
330
7704
100
AcDbEntity
  8
DEFPOINTS
 62
     0
100
AcDbPoint
 10
352.372504057901
 20
40.37043068057028
 30
0.0
  0
POINT
  5
77E4
330
7704
100
AcDbEntity
  8
DEFPOINTS
 62
     0
100
AcDbPoint
 10
411.6275006470451
 20
40.37043068057028
 30
0.0
  0
POINT
  5
77E5
330
7704
100
AcDbEntity
  8
DEFPOINTS
 62
     0
100
AcDbPoint
 10
402.5768500579009
 20
49.42171367875471
 30
0.0
  0
POINT
  5
77E6
330
7704
100
AcDbEntity
  8
DEFPOINTS
 62
     0
100
AcDbPoint
 10
361.4231546470452
 20
49.42171367875471
 30
0.0
  0
ENDBLK
  5
7706
330
7704
100
AcDbEntity
  8
0
100
AcDbBlockEnd
  0
BLOCK
  5
7713
330
7712
100
AcDbEntity
  8
0
100
AcDbBlockBegin
  2
*D11
 70
     1
 10
0.0
 20
0.0
 30
0.0
  3
*D11
  1

  0
LINE
  5
77E7
330
7712
100
AcDbEntity
  8
0
 62
   115
370
    -2
100
AcDbLine
 10
356.8978293524731
 20
43.8960721796625
 30
0.0
 11
356.8978293524731
 21
7.999999179662495
 31
0.0
  0
LINE
  5
77E8
330
7712
100
AcDbEntity
  8
0
 62
   115
370
    -2
100
AcDbLine
 10
407.1002402183084
 20
43.89800744904369
 30
0.0
 11
407.1002402183084
 21
7.999999179662495
 31
0.0
  0
LINE
  5
77E9
330
7712
100
AcDbEntity
  8
0
 62
   115
370
    -2
100
AcDbLine
 10
359.8978293524731
 20
8.999999179662495
 30
0.0
 11
404.1002402183084
 21
8.999999179662495
 31
0.0
  0
SOLID
  5
77EA
330
7712
100
AcDbEntity
  8
0
 62
   115
100
AcDbTrace
 10
359.8978293524731
 20
9.499999179662495
 30
0.0
 11
359.8978293524731
 21
8.499999179662495
 31
0.0
 12
356.8978293524731
 22
8.999999179662495
 32
0.0
 13
356.8978293524731
 23
8.999999179662495
 33
0.0
  0
SOLID
  5
77EB
330
7712
100
AcDbEntity
  8
0
 62
   115
100
AcDbTrace
 10
404.1002402183084
 20
9.499999179662495
 30
0.0
 11
404.1002402183084
 21
8.499999179662495
 31
0.0
 12
407.1002402183084
 22
8.999999179662495
 32
0.0
 13
407.1002402183084
 23
8.999999179662495
 33
0.0
  0
MTEXT
  5
77EC
330
7712
100
AcDbEntity
  8
0
 62
     7
100
AcDbMText
 10
381.9990347853908
 20
12.28571346537678
 30
0.0
 40
3.0
 41
0.0
 71
     5
 72
     1
  1
\A1;(50.2)
 73
     1
 44
1.0
1001
ACAD
1000
MTEXTBEGIN
1070
    73
1070
     1
1070
    44
1040
1.0
1070
    74
1070
     0
1000
MTEXTEND
  0
POINT
  5
77ED
330
7712
100
AcDbEntity
  8
DEFPOINTS
 62
     0
100
AcDbPoint
 10
356.8978293524731
 20
44.89607217966249
 30
0.0
  0
POINT
  5
77EE
330
7712
100
AcDbEntity
  8
DEFPOINTS
 62
     0
100
AcDbPoint
 10
407.1002402183084
 20
44.89800744904369
 30
0.0
  0
POINT
  5
77EF
330
7712
100
AcDbEntity
  8
DEFPOINTS
 62
     0
100
AcDbPoint
 10
407.1002402183084
 20
8.999999179662495
 30
0.0
  0
ENDBLK
  5
7714
330
7712
100
AcDbEntity
  8
0
100
AcDbBlockEnd
  0
BLOCK
  5
771F
330
771E
100
AcDbEntity
  8
0
100
AcDbBlockBegin
  2
*D12
 70
     1
 10
0.0
 20
0.0
 30
0.0
  3
*D12
  1

  0
LINE
  5
77F0
330
771E
100
AcDbEntity
  8
0
 62
   115
370
    -2
100
AcDbLine
 10
383.0000023524731
 20
34.50166217966239
 30
0.0
 11
435.0000023524723
 21
34.50166217966238
 31
0.0
  0
LINE
  5
77F1
330
771E
100
AcDbEntity
  8
0
 62
   115
370
    -2
100
AcDbLine
 10
383.0000023524731
 20
105.4983361796623
 30
0.0
 11
435.0000023524723
 21
105.4983361796623
 31
0.0
  0
LINE
  5
77F2
330
771E
100
AcDbEntity
  8
0
 62
   115
370
    -2
100
AcDbLine
 10
434.0000023524722
 20
37.50166217966238
 30
0.0
 11
434.0000023524722
 21
102.4983361796623
 31
0.0
  0
SOLID
  5
77F3
330
771E
100
AcDbEntity
  8
0
 62
   115
100
AcDbTrace
 10
433.5000023524722
 20
37.50166217966238
 30
0.0
 11
434.5000023524723
 21
37.50166217966238
 31
0.0
 12
434.0000023524722
 22
34.50166217966238
 32
0.0
 13
434.0000023524722
 23
34.50166217966238
 33
0.0
  0
SOLID
  5
77F4
330
771E
100
AcDbEntity
  8
0
 62
   115
100
AcDbTrace
 10
433.5000023524722
 20
102.4983361796623
 30
0.0
 11
434.5000023524723
 21
102.4983361796623
 31
0.0
 12
434.0000023524722
 22
105.4983361796623
 32
0.0
 13
434.0000023524722
 23
105.4983361796623
 33
0.0
  0
MTEXT
  5
77F5
330
771E
100
AcDbEntity
  8
0
 62
     7
100
AcDbMText
 10
431.5000023524723
 20
69.99999917966244
 30
0.0
 40
3.0
 41
0.0
 71
     5
 72
     1
  1
\A1;PCD 71
 11
0.0000000000000001
 21
1.0
 31
0.0
 73
     1
 44
1.0
1001
ACAD
1000
MTEXTBEGIN
1070
    73
1070
     1
1070
    44
1040
1.0
1070
    74
1070
     0
1000
MTEXTEND
  0
POINT
  5
77F6
330
771E
100
AcDbEntity
  8
DEFPOINTS
 62
     0
100
AcDbPoint
 10
382.0000023524731
 20
34.50166217966239
 30
0.0
  0
POINT
  5
77F7
330
771E
100
AcDbEntity
  8
DEFPOINTS
 62
     0
100
AcDbPoint
 10
382.0000023524731
 20
105.4983361796623
 30
0.0
  0
POINT
  5
77F8
330
771E
100
AcDbEntity
  8
DEFPOINTS
 62
     0
100
AcDbPoint
 10
434.0000023524722
 20
105.4983361796623
 30
0.0
  0
ENDBLK
  5
7720
330
771E
100
AcDbEntity
  8
0
100
AcDbBlockEnd
  0
BLOCK
  5
772B
330
772A
100
AcDbEntity
  8
0
100
AcDbBlockBegin
  2
*D13
 70
     1
 10
0.0
 20
0.0
 30
0.0
  3
*D13
  1

  0
LINE
  5
77F9
330
772A
100
AcDbEntity
  8
0
 62
   115
370
    -2
100
AcDbLine
 10
408.1024193524731
 20
90.60066117966243
 30
0.0
 11
427.0000023524723
 21
90.60066117966242
 31
0.0
  0
LINE
  5
77FA
330
772A
100
AcDbEntity
  8
0
 62
   115
370
    -2
100
AcDbLine
 10
408.1024193524731
 20
99.60066117966244
 30
0.0
 11
427.0000023524723
 21
99.60066117966242
 31
0.0
  0
LINE
  5
77FB
330
772A
100
AcDbEntity
  8
0
 62
   115
370
    -2
100
AcDbLine
 10
426.0000023524723
 20
93.60066117966242
 30
0.0
 11
426.0000023524723
 21
96.60066117966243
 31
0.0
  0
LINE
  5
77FC
330
772A
100
AcDbEntity
  8
0
 62
   115
370
    -2
100
AcDbLine
 10
426.0000023524723
 20
99.60066117966242
 30
0.0
 11
426.0000023524723
 21
115.6006611796624
 31
0.0
  0
SOLID
  5
77FD
330
772A
100
AcDbEntity
  8
0
 62
   115
100
AcDbTrace
 10
425.5000023524722
 20
93.60066117966242
 30
0.0
 11
426.5000023524723
 21
93.60066117966242
 31
0.0
 12
426.0000023524723
 22
90.60066117966242
 32
0.0
 13
426.0000023524723
 23
90.60066117966242
 33
0.0
  0
SOLID
  5
77FE
330
772A
100
AcDbEntity
  8
0
 62
   115
100
AcDbTrace
 10
425.5000023524722
 20
96.60066117966243
 30
0.0
 11
426.5000023524723
 21
96.60066117966243
 31
0.0
 12
426.0000023524723
 22
99.60066117966242
 32
0.0
 13
426.0000023524723
 23
99.60066117966242
 33
0.0
  0
MTEXT
  5
77FF
330
772A
100
AcDbEntity
  8
0
 62
     7
100
AcDbMText
 10
423.5000023524722
 20
109.1006611796625
 30
0.0
 40
3.0
 41
0.0
 71
     5
 72
     1
  1
\A1;6-%%C9
 11
0.0000000000000001
 21
1.0
 31
0.0
 73
     1
 44
1.0
1001
ACAD
1000
MTEXTBEGIN
1070
    73
1070
     1
1070
    44
1040
1.0
1070
    74
1070
     0
1000
MTEXTEND
  0
POINT
  5
7800
330
772A
100
AcDbEntity
  8
DEFPOINTS
 62
     0
100
AcDbPoint
 10
407.1024193524731
 20
90.60066117966243
 30
0.0
  0
POINT
  5
7801
330
772A
100
AcDbEntity
  8
DEFPOINTS
 62
     0
100
AcDbPoint
 10
407.1024193524731
 20
99.60066117966244
 30
0.0
  0
POINT
  5
7802
330
772A
100
AcDbEntity
  8
DEFPOINTS
 62
     0
100
AcDbPoint
 10
426.0000023524723
 20
99.60066117966242
 30
0.0
  0
ENDBLK
  5
772C
330
772A
100
AcDbEntity
  8
0
100
AcDbBlockEnd
  0
BLOCK
  5
7738
330
7737
100
AcDbEntity
  8
0
100
AcDbBlockBegin
  2
*D14
 70
     1
 10
0.0
 20
0.0
 30
0.0
  3
*D14
  1

  0
LINE
  5
7CA7
330
7737
100
AcDbEntity
  8
0
 62
   115
370
    -2
100
AcDbLine
 10
208.5000025024731
 20
42.00090262966273
 30
0.0
 11
219.500002502473
 21
42.00090262966273
 31
0.0
  0
LINE
  5
7CA8
330
7737
100
AcDbEntity
  8
0
 62
   115
370
    -2
100
AcDbLine
 10
208.500002502473
 20
98.00089772966272
 30
0.0
 11
219.5000025024731
 21
98.00089772966272
 31
0.0
  0
LINE
  5
7CA9
330
7737
100
AcDbEntity
  8
0
 62
   115
370
    -2
100
AcDbLine
 10
218.500002502473
 20
45.00090262966272
 30
0.0
 11
218.5000025024731
 21
95.00089772966271
 31
0.0
  0
SOLID
  5
7CAA
330
7737
100
AcDbEntity
  8
0
 62
   115
100
AcDbTrace
 10
218.000002502473
 20
45.00090262966272
 30
0.0
 11
219.000002502473
 21
45.00090262966272
 31
0.0
 12
218.500002502473
 22
42.00090262966273
 32
0.0
 13
218.500002502473
 23
42.00090262966273
 33
0.0
  0
SOLID
  5
7CAB
330
7737
100
AcDbEntity
  8
0
 62
   115
100
AcDbTrace
 10
218.000002502473
 20
95.00089772966271
 30
0.0
 11
219.0000025024731
 21
95.00089772966271
 31
0.0
 12
218.5000025024731
 22
98.00089772966272
 32
0.0
 13
218.5000025024731
 23
98.00089772966272
 33
0.0
  0
MTEXT
  5
7CAC
330
7737
100
AcDbEntity
  8
0
 62
     7
100
AcDbMText
 10
215.2142882167587
 20
70.00090017966275
 30
0.0
 40
3.0
 41
0.0
 71
     5
 72
     1
  1
\A1;%%C56 g6 ({\H0.5x;\S-0.010^ -0.029;})
 11
0.0000000000000001
 21
1.0
 31
0.0
 73
     1
 44
1.0
1001
ACAD
1000
MTEXTBEGIN
1070
    73
1070
     1
1070
    44
1040
1.0
1070
    74
1070
     0
1000
MTEXTEND
  0
POINT
  5
7CAD
330
7737
100
AcDbEntity
  8
DEFPOINTS
 62
     0
100
AcDbPoint
 10
207.500002502473
 20
42.00090262966273
 30
0.0
  0
POINT
  5
7CAE
330
7737
100
AcDbEntity
  8
DEFPOINTS
 62
     0
100
AcDbPoint
 10
207.500002502473
 20
98.00089772966272
 30
0.0
  0
POINT
  5
7CAF
330
7737
100
AcDbEntity
  8
DEFPOINTS
 62
     0
100
AcDbPoint
 10
218.5000025024731
 20
98.00089772966272
 30
0.0
  0
ENDBLK
  5
7739
330
7737
100
AcDbEntity
  8
0
100
AcDbBlockEnd
  0
BLOCK
  5
7750
330
774F
100
AcDbEntity
  8
0
100
AcDbBlockBegin
  2
*D15
 70
     1
 10
0.0
 20
0.0
 30
0.0
  3
*D15
  1

  0
LINE
  5
7C42
330
774F
100
AcDbEntity
  8
0
 62
   115
370
    -2
100
AcDbLine
 10
194.500008502473
 20
26.9999991796625
 30
0.0
 11
194.500008502473
 21
15.99999917966238
 31
0.0
  0
LINE
  5
7C43
330
774F
100
AcDbEntity
  8
0
 62
   115
370
    -2
100
AcDbLine
 10
208.5000025024731
 20
42.00090262966273
 30
0.0
 11
208.5000025024731
 21
15.99999917966238
 31
0.0
  0
LINE
  5
7C44
330
774F
100
AcDbEntity
  8
0
 62
   115
370
    -2
100
AcDbLine
 10
197.500008502473
 20
16.99999917966238
 30
0.0
 11
205.500002502473
 21
16.99999917966238
 31
0.0
  0
SOLID
  5
7C45
330
774F
100
AcDbEntity
  8
0
 62
   115
100
AcDbTrace
 10
197.500008502473
 20
17.49999917966238
 30
0.0
 11
197.500008502473
 21
16.49999917966238
 31
0.0
 12
194.500008502473
 22
16.99999917966238
 32
0.0
 13
194.500008502473
 23
16.99999917966238
 33
0.0
  0
SOLID
  5
7C46
330
774F
100
AcDbEntity
  8
0
 62
   115
100
AcDbTrace
 10
205.500002502473
 20
17.49999917966238
 30
0.0
 11
205.500002502473
 21
16.49999917966238
 31
0.0
 12
208.5000025024731
 22
16.99999917966238
 32
0.0
 13
208.5000025024731
 23
16.99999917966238
 33
0.0
  0
MTEXT
  5
7C47
330
774F
100
AcDbEntity
  8
0
 62
     7
100
AcDbMText
 10
201.5000055024731
 20
19.49999917966238
 30
0.0
 40
3.0
 41
0.0
 71
     5
 72
     1
  1
\A1;14
 73
     1
 44
1.0
1001
ACAD
1000
MTEXTBEGIN
1070
    73
1070
     1
1070
    44
1040
1.0
1070
    74
1070
     0
1000
MTEXTEND
  0
POINT
  5
7C48
330
774F
100
AcDbEntity
  8
DEFPOINTS
 62
     0
100
AcDbPoint
 10
194.500008502473
 20
27.9999991796625
 30
0.0
  0
POINT
  5
7C49
330
774F
100
AcDbEntity
  8
DEFPOINTS
 62
     0
100
AcDbPoint
 10
208.5000025024731
 20
43.00090262966273
 30
0.0
  0
POINT
  5
7C4A
330
774F
100
AcDbEntity
  8
DEFPOINTS
 62
     0
100
AcDbPoint
 10
208.5000025024731
 20
16.99999917966238
 30
0.0
  0
ENDBLK
  5
7751
330
774F
100
AcDbEntity
  8
0
100
AcDbBlockEnd
  0
BLOCK
  5
775C
330
775B
100
AcDbEntity
  8
0
100
AcDbBlockBegin
  2
*D16
 70
     1
 10
0.0
 20
0.0
 30
0.0
  3
*D16
  1

  0
LINE
  5
7B55
330
775B
100
AcDbEntity
  8
0
 62
   115
370
    -2
100
AcDbLine
 10
194.500008502473
 20
26.9999991796625
 30
0.0
 11
227.500002502473
 21
26.99999917966249
 31
0.0
  0
LINE
  5
7B56
330
775B
100
AcDbEntity
  8
0
 62
   115
370
    -2
100
AcDbLine
 10
194.500008502473
 20
112.9999991796626
 30
0.0
 11
227.500002502473
 21
112.9999991796626
 31
0.0
  0
LINE
  5
7B57
330
775B
100
AcDbEntity
  8
0
 62
   115
370
    -2
100
AcDbLine
 10
226.500002502473
 20
29.99999917966249
 30
0.0
 11
226.500002502473
 21
109.9999991796626
 31
0.0
  0
SOLID
  5
7B58
330
775B
100
AcDbEntity
  8
0
 62
   115
100
AcDbTrace
 10
226.000002502473
 20
29.99999917966249
 30
0.0
 11
227.000002502473
 21
29.99999917966249
 31
0.0
 12
226.500002502473
 22
26.99999917966249
 32
0.0
 13
226.500002502473
 23
26.99999917966249
 33
0.0
  0
SOLID
  5
7B59
330
775B
100
AcDbEntity
  8
0
 62
   115
100
AcDbTrace
 10
226.000002502473
 20
109.9999991796626
 30
0.0
 11
227.000002502473
 21
109.9999991796626
 31
0.0
 12
226.500002502473
 22
112.9999991796626
 32
0.0
 13
226.500002502473
 23
112.9999991796626
 33
0.0
  0
MTEXT
  5
7B5A
330
775B
100
AcDbEntity
  8
0
 62
     7
100
AcDbMText
 10
224.000002502473
 20
69.99999917966261
 30
0.0
 40
3.0
 41
0.0
 71
     5
 72
     1
  1
\A1;%%C86
 11
0.0000000000000001
 21
1.0
 31
0.0
 73
     1
 44
1.0
1001
ACAD
1000
MTEXTBEGIN
1070
    73
1070
     1
1070
    44
1040
1.0
1070
    74
1070
     0
1000
MTEXTEND
  0
POINT
  5
7B5B
330
775B
100
AcDbEntity
  8
DEFPOINTS
 62
     0
100
AcDbPoint
 10
193.500008502473
 20
26.9999991796625
 30
0.0
  0
POINT
  5
7B5C
330
775B
100
AcDbEntity
  8
DEFPOINTS
 62
     0
100
AcDbPoint
 10
193.500008502473
 20
112.9999991796626
 30
0.0
  0
POINT
  5
7B5D
330
775B
100
AcDbEntity
  8
DEFPOINTS
 62
     0
100
AcDbPoint
 10
226.500002502473
 20
112.9999991796626
 30
0.0
  0
ENDBLK
  5
775D
330
775B
100
AcDbEntity
  8
0
100
AcDbBlockEnd
  0
BLOCK
  5
7768
330
7767
100
AcDbEntity
  8
0
100
AcDbBlockBegin
  2
*D17
 70
     1
 10
0.0
 20
0.0
 30
0.0
  3
*D17
  1

  0
LINE
  5
7827
330
7767
100
AcDbEntity
  8
0
 62
   115
370
    -2
100
AcDbLine
 10
372.6846039581699
 20
102.942771147033
 30
0.0
 11
393.9318869787405
 21
111.7436843655282
 31
0.0
  0
LINE
  5
7828
330
7767
100
AcDbEntity
  8
0
 62
   115
370
    -2
100
AcDbLine
 10
375.3689261489673
 20
112.7137899123381
 30
0.0
 11
390.8704199619962
 21
119.1347191988463
 31
0.0
  0
LINE
  5
7829
330
7767
100
AcDbEntity
  8
0
 62
   115
370
    -2
100
AcDbLine
 10
394.1560577975333
 20
108.5893623394818
 30
0.0
 11
395.3041081422607
 21
105.8177237616778
 31
0.0
  0
LINE
  5
782A
330
7767
100
AcDbEntity
  8
0
 62
   115
370
    -2
100
AcDbLine
 10
388.7984900913342
 20
121.5236743284078
 30
0.0
 11
387.6504397466068
 21
124.2953129062118
 31
0.0
  0
LINE
  5
782B
330
7767
100
AcDbEntity
  8
0
 62
   115
370
    -2
100
AcDbLine
 10
393.0080074528059
 20
111.3610009172858
 30
0.0
 11
389.9465404360616
 21
118.7520357506038
 31
0.0
  0
SOLID
  5
782C
330
7767
100
AcDbEntity
  8
0
 62
   115
100
AcDbTrace
 10
394.6179975605005
 20
108.780704063603
 30
0.0
 11
393.6941180345659
 21
108.3980206153606
 31
0.0
 12
393.0080074528059
 22
111.3610009172858
 32
0.0
 13
393.0080074528059
 23
111.3610009172858
 33
0.0
  0
SOLID
  5
782D
330
7767
100
AcDbEntity
  8
0
 62
   115
100
AcDbTrace
 10
389.2604298543015
 20
121.715016052529
 30
0.0
 11
388.3365503283668
 21
121.3323326042865
 31
0.0
 12
389.9465404360616
 22
118.7520357506038
 32
0.0
 13
389.9465404360616
 23
118.7520357506038
 33
0.0
  0
MTEXT
  5
782E
330
7767
100
AcDbEntity
  8
0
 62
     7
100
AcDbMText
 10
393.7869727592704
 20
116.0132269545509
 30
0.0
 40
3.0
 41
0.0
 71
     5
 72
     1
  1
\A1;8
 11
0.3826834482424646
 21
-0.9238795259346625
 31
0.0
 73
     1
 44
1.0
1001
ACAD
1000
MTEXTBEGIN
1070
    73
1070
     1
1070
    44
1040
1.0
1070
    74
1070
     0
1000
MTEXTEND
  0
POINT
  5
782F
330
7767
100
AcDbEntity
  8
DEFPOINTS
 62
     0
100
AcDbPoint
 10
371.7607244322352
 20
102.5600876987905
 30
0.0
  0
POINT
  5
7830
330
7767
100
AcDbEntity
  8
DEFPOINTS
 62
     0
100
AcDbPoint
 10
374.4450466230326
 20
112.3311064640956
 30
0.0
  0
POINT
  5
7831
330
7767
100
AcDbEntity
  8
DEFPOINTS
 62
     0
100
AcDbPoint
 10
389.9465404360616
 20
118.7520357506038
 30
0.0
  0
ENDBLK
  5
7769
330
7767
100
AcDbEntity
  8
0
100
AcDbBlockEnd
  0
BLOCK
  5
7776
330
7775
100
AcDbEntity
  8
0
100
AcDbBlockBegin
  2
*D18
 70
     1
 10
0.0
 20
0.0
 30
0.0
  3
*D18
  1

  0
LINE
  5
7832
330
7775
100
AcDbEntity
  8
0
 62
   115
370
    -2
100
AcDbLine
 10
368.3165734839927
 20
110.8750032247251
 30
0.0
 11
364.4897394241925
 21
120.1137974637663
 31
0.0
  0
LINE
  5
7833
330
7775
100
AcDbEntity
  8
0
 62
   115
370
    -2
100
AcDbLine
 10
362.7732969371475
 20
108.5789016478701
 30
0.0
 11
358.9464624744526
 21
117.8176968595849
 31
0.0
  0
LINE
  5
7834
330
7775
100
AcDbEntity
  8
0
 62
   115
370
    -2
100
AcDbLine
 10
367.644061450239
 20
120.337968282559
 30
0.0
 11
370.415700028043
 21
121.4860186272864
 31
0.0
  0
LINE
  5
7835
330
7775
100
AcDbEntity
  8
0
 62
   115
370
    -2
100
AcDbLine
 10
356.5575073448911
 20
115.7457669889229
 30
0.0
 11
342.9632800347096
 21
110.1148533933553
 31
0.0
  0
LINE
  5
7836
330
7775
100
AcDbEntity
  8
0
 62
   115
370
    -2
100
AcDbLine
 10
364.872422872435
 20
119.1899179378317
 30
0.0
 11
359.3291459226951
 21
116.8938173336503
 31
0.0
  0
SOLID
  5
7837
330
7775
100
AcDbEntity
  8
0
 62
   115
100
AcDbTrace
 10
367.4527197261178
 20
120.7999080455264
 30
0.0
 11
367.8354031743602
 21
119.8760285195917
 31
0.0
 12
364.872422872435
 22
119.1899179378317
 32
0.0
 13
364.872422872435
 23
119.1899179378317
 33
0.0
  0
SOLID
  5
7838
330
7775
100
AcDbEntity
  8
0
 62
   115
100
AcDbTrace
 10
356.3661656207699
 20
116.2077067518902
 30
0.0
 11
356.7488490690124
 21
115.2838272259556
 31
0.0
 12
359.3291459226951
 22
116.8938173336503
 32
0.0
 13
359.3291459226951
 23
116.8938173336503
 33
0.0
  0
MTEXT
  5
7839
330
7775
100
AcDbEntity
  8
0
 62
     7
100
AcDbMText
 10
347.4178657802923
 20
114.6659838336121
 30
0.0
 40
3.0
 41
0.0
 71
     5
 72
     1
  1
\A1;M6x1
 11
0.9238795259346645
 21
0.3826834482424597
 31
0.0
 73
     1
 44
1.0
1001
ACAD
1000
MTEXTBEGIN
1070
    73
1070
     1
1070
    44
1040
1.0
1070
    74
1070
     0
1000
MTEXTEND
  0
POINT
  5
783A
330
7775
100
AcDbEntity
  8
DEFPOINTS
 62
     0
100
AcDbPoint
 10
368.6992569322352
 20
109.9511236987905
 30
0.0
  0
POINT
  5
783B
330
7775
100
AcDbEntity
  8
DEFPOINTS
 62
     0
100
AcDbPoint
 10
363.15598038539
 20
107.6550221219354
 30
0.0
  0
POINT
  5
783C
330
7775
100
AcDbEntity
  8
DEFPOINTS
 62
     0
100
AcDbPoint
 10
359.3291459226951
 20
116.8938173336503
 30
0.0
  0
ENDBLK
  5
7777
330
7775
100
AcDbEntity
  8
0
100
AcDbBlockEnd
  0
BLOCK
  5
7784
330
7783
100
AcDbEntity
  8
0
100
AcDbBlockBegin
  2
*D19
 70
     1
 10
0.0
 20
0.0
 30
0.0
  3
*D19
  1

  0
LINE
  5
783D
330
7783
100
AcDbEntity
  8
0
 62
   115
370
    -2
100
AcDbLine
 10
382.0000023524731
 20
116.9999991796624
 30
0.0
 11
382.0000023524732
 21
131.4375605307787
 31
0.0
  0
LINE
  5
783E
330
7783
100
AcDbEntity
  8
0
 62
   115
370
    -2
100
AcDbLine
 10
364.396888458378
 20
112.498591876595
 30
0.0
 11
358.4892161872158
 21
126.7609743956906
 31
0.0
  0
ARC
  5
783F
330
7783
100
AcDbEntity
  8
0
 62
   115
370
    -2
100
AcDbCircle
 10
382.0000023524731
 20
70.00091557347146
 30
0.0
 40
60.43664495730729
100
AcDbArc
 50
92.84438341505447
 51
109.655616584945
  0
SOLID
  5
7840
330
7783
100
AcDbEntity
  8
0
 62
   115
100
AcDbTrace
 10
378.9885168076513
 20
130.8629483694965
 30
0.0
 11
379.0133361867061
 21
129.8632564177317
 31
0.0
 12
382.0000023524731
 22
130.4375605307787
 32
0.0
 13
382.0000023524731
 23
130.4375605307787
 33
0.0
  0
SOLID
  5
7841
330
7783
100
AcDbEntity
  8
0
 62
   115
100
AcDbTrace
 10
361.8509960297792
 20
126.4494547073425
 30
0.0
 11
361.4913605986886
 21
127.3825476055602
 31
0.0
 12
358.8718996195809
 22
125.8370948631793
 32
0.0
 13
358.8718996195809
 23
125.8370948631793
 33
0.0
  0
MTEXT
  5
7842
102
{ACAD_XDICTIONARY
360
7E55
102
}
330
7783
100
AcDbEntity
  8
0
 62
     7
100
AcDbMText
 10
369.7216720211376
 20
131.7282505455627
 30
0.0
 40
3.0
 41
0.0
 71
     5
 72
     1
  1
\A1;22.5\U+00B0
 11
0.9807852804032314
 21
0.1950903220161228
 31
0.0
 73
     1
 44
1.0
1001
ACAD
1000
MTEXTBEGIN
1070
    73
1070
     1
1070
    44
1040
1.0
1070
    74
1070
     0
1000
MTEXTEND
  0
POINT
  5
7843
330
7783
100
AcDbEntity
  8
DEFPOINTS
 62
     0
100
AcDbPoint
 10
374.1114372156408
 20
129.9205166550672
 30
0.0
  0
POINT
  5
7844
330
7783
100
AcDbEntity
  8
DEFPOINTS
 62
     0
100
AcDbPoint
 10
364.7795718907431
 20
111.5747123440837
 30
0.0
  0
POINT
  5
7845
330
7783
100
AcDbEntity
  8
DEFPOINTS
 62
     0
100
AcDbPoint
 10
382.0000023524731
 20
23.9999991796624
 30
0.0
  0
POINT
  5
7846
330
7783
100
AcDbEntity
  8
DEFPOINTS
 62
     0
100
AcDbPoint
 10
382.0000023524731
 20
115.9999991796624
 30
0.0
  0
POINT
  5
7847
330
7783
100
AcDbEntity
  8
DEFPOINTS
 62
     0
100
AcDbPoint
 10
372.8924601003858
 20
91.98846759834713
 30
0.0
  0
ENDBLK
  5
7785
330
7783
100
AcDbEntity
  8
0
100
AcDbBlockEnd
  0
BLOCK
  5
7792
330
7791
100
AcDbEntity
  8
0
100
AcDbBlockBegin
  2
*D20
 70
     1
 10
0.0
 20
0.0
 30
0.0
  3
*D20
  1

  0
LINE
  5
7848
330
7791
100
AcDbEntity
  8
0
 62
   115
370
    -2
100
AcDbLine
 10
355.8978293524731
 20
44.89607217966249
 30
0.0
 11
337.000002352473
 21
44.89607217966249
 31
0.0
  0
LINE
  5
7849
330
7791
100
AcDbEntity
  8
0
 62
   115
370
    -2
100
AcDbLine
 10
355.8997644866379
 20
95.1019909102813
 30
0.0
 11
337.000002352473
 21
95.10199091028132
 31
0.0
  0
LINE
  5
784A
330
7791
100
AcDbEntity
  8
0
 62
   115
370
    -2
100
AcDbLine
 10
338.000002352473
 20
47.89607217966249
 30
0.0
 11
338.000002352473
 21
92.10199091028131
 31
0.0
  0
SOLID
  5
784B
330
7791
100
AcDbEntity
  8
0
 62
   115
100
AcDbTrace
 10
337.500002352473
 20
47.89607217966249
 30
0.0
 11
338.5000023524729
 21
47.89607217966249
 31
0.0
 12
338.000002352473
 22
44.89607217966249
 32
0.0
 13
338.000002352473
 23
44.89607217966249
 33
0.0
  0
SOLID
  5
784C
330
7791
100
AcDbEntity
  8
0
 62
   115
100
AcDbTrace
 10
337.500002352473
 20
92.10199091028131
 30
0.0
 11
338.5000023524729
 21
92.10199091028131
 31
0.0
 12
338.000002352473
 22
95.10199091028132
 32
0.0
 13
338.000002352473
 23
95.10199091028132
 33
0.0
  0
MTEXT
  5
784D
330
7791
100
AcDbEntity
  8
0
 62
     7
100
AcDbMText
 10
334.7142880667587
 20
69.99903154497197
 30
0.0
 40
3.0
 41
0.0
 71
     5
 72
     1
  1
\A1;(50.21)
 11
0.0000000000000001
 21
1.0
 31
0.0
 73
     1
 44
1.0
1001
ACAD
1000
MTEXTBEGIN
1070
    73
1070
     1
1070
    44
1040
1.0
1070
    74
1070
     0
1000
MTEXTEND
  0
POINT
  5
784E
330
7791
100
AcDbEntity
  8
DEFPOINTS
 62
     0
100
AcDbPoint
 10
356.8978293524731
 20
44.89607217966249
 30
0.0
  0
POINT
  5
784F
330
7791
100
AcDbEntity
  8
DEFPOINTS
 62
     0
100
AcDbPoint
 10
356.8997644866379
 20
95.1019909102813
 30
0.0
  0
POINT
  5
7850
330
7791
100
AcDbEntity
  8
DEFPOINTS
 62
     0
100
AcDbPoint
 10
338.000002352473
 20
95.10199091028132
 30
0.0
  0
ENDBLK
  5
7793
330
7791
100
AcDbEntity
  8
0
100
AcDbBlockEnd
  0
BLOCK
  5
7AF1
330
7AF0
100
AcDbEntity
  8
0
100
AcDbBlockBegin
  2
3220SDH
 70
     0
 10
0.0
 20
0.0
 30
0.0
  3
3220SDH
  1

  0
TEXT
  5
7CFC
330
7AF0
100
AcDbEntity
  8
0
100
AcDbText
 10
142.7154126070003
 20
268.0009010296621
 30
0.0
 40
4.0
  1
SDH3220
 72
     4
 11
156.3344602260479
 21
270.0009010296621
 31
0.0
100
AcDbText
  0
LINE
  5
7CFD
330
7AF0
100
AcDbEntity
  8
0
100
AcDbLine
 10
183.5000085024731
 20
226.9999991796628
 30
0.0
 11
183.5000085024731
 21
243.6751060174865
 31
0.0
  0
LINE
  5
7CFE
330
7AF0
100
AcDbEntity
  8
0
100
AcDbLine
 10
183.5000085024731
 20
296.324892341839
 30
0.0
 11
183.5000085024731
 21
312.9999991796625
 31
0.0
  0
LINE
  5
7CFF
330
7AF0
100
AcDbEntity
  8
0
100
AcDbLine
 10
182.5000085024731
 20
227.9999991796628
 30
0.0
 11
182.5000085024731
 21
311.9999991796626
 31
0.0
  0
LINE
  5
7D00
330
7AF0
100
AcDbEntity
  8
0
100
AcDbLine
 10
183.5000085024731
 20
312.9999991796625
 30
0.0
 11
182.5000085024731
 21
311.9999991796626
 31
0.0
  0
LINE
  5
7D01
330
7AF0
100
AcDbEntity
  8
0
100
AcDbLine
 10
183.5000085024731
 20
226.9999991796627
 30
0.0
 11
182.5000085024731
 21
227.9999991796628
 31
0.0
  0
LINE
  5
7D02
330
7AF0
100
AcDbEntity
  8
0
100
AcDbLine
 10
126.5000022024731
 20
298.0008887296628
 30
0.0
 11
126.5000022024731
 21
242.0008965296626
 31
0.0
  0
LINE
  5
7D03
330
7AF0
100
AcDbEntity
  8
0
100
AcDbLine
 10
207.500002502473
 20
298.0008977296627
 30
0.0
 11
207.500002502473
 21
242.0009026296627
 31
0.0
  0
LINE
  5
7D04
330
7AF0
100
AcDbEntity
  8
0
100
AcDbLine
 10
194.500008502473
 20
227.9999991796625
 30
0.0
 11
194.500008502473
 21
311.9999991796627
 31
0.0
  0
LINE
  5
7D05
330
7AF0
100
AcDbEntity
  8
0
100
AcDbLine
 10
193.500008502473
 20
226.9999991796625
 30
0.0
 11
194.500008502473
 21
227.9999991796625
 31
0.0
  0
LINE
  5
7D06
330
7AF0
100
AcDbEntity
  8
0
100
AcDbLine
 10
193.500008502473
 20
312.9999991796627
 30
0.0
 11
193.500008502473
 21
296.3248923418391
 31
0.0
  0
LINE
  5
7D07
330
7AF0
100
AcDbEntity
  8
0
100
AcDbLine
 10
193.5000085024731
 20
243.6751060174862
 30
0.0
 11
193.500008502473
 21
226.9999991796625
 31
0.0
  0
LINE
  5
7D08
330
7AF0
100
AcDbEntity
  8
0
100
AcDbLine
 10
125.500002202473
 20
243.0008965296627
 30
0.0
 11
125.5000022024731
 21
297.0008887296628
 31
0.0
  0
LINE
  5
7D09
330
7AF0
100
AcDbEntity
  8
0
100
AcDbLine
 10
126.500002202473
 20
242.0008965296627
 30
0.0
 11
125.500002202473
 21
243.0008965296627
 31
0.0
  0
LINE
  5
7D0A
330
7AF0
100
AcDbEntity
  8
0
100
AcDbLine
 10
126.5000022024731
 20
298.0008887296628
 30
0.0
 11
182.500002502473
 21
298.0008887296627
 31
0.0
  0
LINE
  5
7D0B
330
7AF0
100
AcDbEntity
  8
0
100
AcDbLine
 10
125.5000022024731
 20
297.0008887296628
 30
0.0
 11
126.5000022024731
 21
298.0008887296628
 31
0.0
  0
LINE
  5
7D0C
330
7AF0
100
AcDbEntity
  8
0
100
AcDbLine
 10
183.5000085024731
 20
312.9999991796625
 30
0.0
 11
193.500008502473
 21
312.9999991796627
 31
0.0
  0
LINE
  5
7D0D
330
7AF0
100
AcDbEntity
  8
0
100
AcDbLine
 10
194.500008502473
 20
311.9999991796627
 30
0.0
 11
193.500008502473
 21
312.9999991796627
 31
0.0
  0
LINE
  5
7D0E
330
7AF0
100
AcDbEntity
  8
0
100
AcDbLine
 10
194.500008502473
 20
298.0008977296627
 30
0.0
 11
207.500002502473
 21
298.0008977296627
 31
0.0
  0
LINE
  5
7D0F
330
7AF0
100
AcDbEntity
  8
0
100
AcDbLine
 10
208.500002502473
 20
297.0008977296627
 30
0.0
 11
208.5000025024731
 21
243.0009026296627
 31
0.0
  0
LINE
  5
7D10
330
7AF0
100
AcDbEntity
  8
0
100
AcDbLine
 10
207.500002502473
 20
298.0008977296627
 30
0.0
 11
208.500002502473
 21
297.0008977296627
 31
0.0
  0
LINE
  5
7D11
330
7AF0
100
AcDbEntity
  8
0
100
AcDbLine
 10
207.500002502473
 20
242.0009026296627
 30
0.0
 11
208.5000025024731
 21
243.0009026296627
 31
0.0
  0
LINE
  5
7D12
330
7AF0
100
AcDbEntity
  8
0
100
AcDbLine
 10
207.500002502473
 20
242.0009026296627
 30
0.0
 11
194.500008502473
 21
242.0009026296627
 31
0.0
  0
LINE
  5
7D13
330
7AF0
100
AcDbEntity
  8
0
100
AcDbLine
 10
193.500008502473
 20
226.9999991796625
 30
0.0
 11
183.5000085024731
 21
226.9999991796627
 31
0.0
  0
LINE
  5
7D14
330
7AF0
100
AcDbEntity
  8
0
100
AcDbLine
 10
182.500002502473
 20
242.0008965296627
 30
0.0
 11
126.500002202473
 21
242.0008965296627
 31
0.0
  0
LINE
  5
7D15
330
7AF0
100
AcDbEntity
  8
2
100
AcDbLine
 10
125.5000022024731
 20
285.8999991796626
 30
0.0
 11
208.500002502473
 21
285.8999991796626
 31
0.0
  0
LINE
  5
7D16
330
7AF0
100
AcDbEntity
  8
2
100
AcDbLine
 10
208.500002502473
 20
254.0999991796626
 30
0.0
 11
125.500002202473
 21
254.0999991796626
 31
0.0
  0
LINE
  5
7D17
330
7AF0
100
AcDbEntity
  8
0
100
AcDbLine
 10
182.500008502473
 20
296.324892341839
 30
0.0
 11
194.500008502473
 21
296.324892341839
 31
0.0
  0
LINE
  5
7D18
330
7AF0
100
AcDbEntity
  8
0
100
AcDbLine
 10
182.5000085024731
 20
243.6751060174863
 30
0.0
 11
194.500008502473
 21
243.6751060174863
 31
0.0
  0
LINE
  5
7D19
330
7AF0
100
AcDbEntity
  8
9
100
AcDbLine
 10
182.5000085024731
 20
243.6751060174863
 30
0.0
 11
194.500008502473
 21
296.324892341839
 31
0.0
  0
LINE
  5
7D1A
330
7AF0
100
AcDbEntity
  8
9
100
AcDbLine
 10
182.500008502473
 20
296.324892341839
 30
0.0
 11
194.500008502473
 21
243.6751060174863
 31
0.0
  0
ELLIPSE
  5
7D1B
330
7AF0
100
AcDbEntity
  8
9
100
AcDbEllipse
 10
188.500008502473
 20
308.8032012465503
 30
0.0
 11
2.999463687718955
 21
-0.0000000000000945
 31
0.0
210
0.0
220
0.0
230
-1.0
 40
0.3827521957271129
 41
3.141592653589758
 42
7.853981633974454
  0
ELLIPSE
  5
7D1C
330
7AF0
100
AcDbEntity
  8
0
100
AcDbEllipse
 10
188.500008502473
 20
308.8030737465504
 30
0.0
 11
-2.499554249533093
 21
-0.0000000000001227
 31
0.0
210
0.0
220
0.0
230
-1.0
 40
0.3828033789051975
 41
0.0
 42
6.283185307179584
  0
ENDBLK
  5
7AF2
330
7AF0
100
AcDbEntity
  8
0
100
AcDbBlockEnd
  0
ENDSEC
  0
SECTION
  2
ENTITIES
  0
DIMENSION
  5
768F
330
19
100
AcDbEntity
  8
0
100
AcDbDimension
  2
*D3
 10
12.0000023524728
 20
83.54999917966267
 30
0.0
 11
9.50000235247279
 21
69.99999917966267
 31
0.0
 70
    32
  1
%%C<>
 71
     5
 42
27.10000000000002
  3
STANDARD
100
AcDbAlignedDimension
 13
22.00000235247305
 23
56.44999917966265
 33
0.0
 14
22.00000235247302
 24
83.54999917966267
 34
0.0
 50
90.0
100
AcDbRotatedDimension
1001
ACAD
1000
DSTYLE
1002
{
1070
    41
1040
3.0
1070
    42
1040
1.0
1070
    43
1040
1.0
1070
    44
1040
1.0
1070
    73
1070
     0
1070
    74
1070
     0
1070
    77
1070
     3
1070
    78
1070
     8
1070
   141
1040
-1.0
1070
   147
1040
1.0
1070
   172
1070
     1
1070
   176
1070
   115
1070
   177
1070
   115
1070
   178
1070
     7
1070
   271
1070
     2
1070
   272
1070
     2
1002
}
  0
DIMENSION
  5
7690
330
19
100
AcDbEntity
  8
0
100
AcDbDimension
  2
*D4
 10
4.000002352472805
 20
85.89999917966258
 30
0.0
 11
1.50000235247279
 21
69.99999917966261
 31
0.0
 70
    32
  1
%%C<>
 71
     5
 42
31.79999999999995
  3
STANDARD
100
AcDbAlignedDimension
 13
22.00000235247302
 23
54.09999917966263
 33
0.0
 14
22.00000235247302
 24
85.89999917966258
 34
0.0
 50
90.0
100
AcDbRotatedDimension
1001
ACAD
1000
DSTYLE
1002
{
1070
    41
1040
3.0
1070
    42
1040
1.0
1070
    43
1040
1.0
1070
    44
1040
1.0
1070
    73
1070
     0
1070
    74
1070
     0
1070
    77
1070
     3
1070
    78
1070
     8
1070
   141
1040
-1.0
1070
   147
1040
1.0
1070
   172
1070
     1
1070
   176
1070
   115
1070
   177
1070
   115
1070
   178
1070
     7
1070
   271
1070
     2
1070
   272
1070
     2
1002
}
  0
DIMENSION
  5
7691
330
19
100
AcDbEntity
  8
0
100
AcDbDimension
  2
*D5
 10
115.5000022024729
 20
98.00088872966274
 30
0.0
 11
112.2142879167586
 21
70.00089262966273
 31
0.0
 70
    32
  1
%%C<> g6 ({\H0.5x;\S-0.010^ -0.029;})
 71
     5
 42
55.99999220000007
  3
STANDARD
100
AcDbAlignedDimension
 13
126.500002202473
 23
42.00089652966267
 33
0.0
 14
126.5000022024731
 24
98.00088872966274
 34
0.0
 50
90.0
100
AcDbRotatedDimension
1001
ACAD
1000
DSTYLE
1002
{
1070
    41
1040
3.0
1070
    42
1040
1.0
1070
    43
1040
1.0
1070
    44
1040
1.0
1070
    47
1040
-0.01
1070
    48
1040
0.029
1070
    73
1070
     0
1070
    74
1070
     0
1070
    77
1070
     3
1070
    78
1070
     8
1070
   141
1040
-1.0
1070
   147
1040
1.0
1070
   172
1070
     1
1070
   176
1070
   115
1070
   177
1070
   115
1070
   178
1070
     7
1070
   271
1070
     2
1070
   272
1070
     3
1070
   284
1070
     8
1002
}
  0
DIMENSION
  5
7692
330
19
100
AcDbEntity
  8
0
100
AcDbDimension
  2
*D6
 10
125.500002202473
 20
16.99999917966261
 30
0.0
 11
154.000005352473
 21
19.49999917966261
 31
0.0
 70
    32
 71
     5
 42
57.00000630000007
  3
STANDARD
100
AcDbAlignedDimension
 13
182.5000085024731
 23
27.99999917966275
 33
0.0
 14
125.500002202473
 24
43.00089652966266
 34
0.0
100
AcDbRotatedDimension
1001
ACAD
1000
DSTYLE
1002
{
1070
    41
1040
3.0
1070
    42
1040
1.0
1070
    43
1040
1.0
1070
    44
1040
1.0
1070
    47
1040
1.0
1070
    48
1040
1.0
1070
    73
1070
     0
1070
    74
1070
     0
1070
    77
1070
     3
1070
    78
1070
     8
1070
   141
1040
-1.0
1070
   147
1040
1.0
1070
   172
1070
     1
1070
   176
1070
   115
1070
   177
1070
   115
1070
   178
1070
     7
1070
   271
1070
     2
1070
   272
1070
     3
1070
   284
1070
     8
1002
}
  0
DIMENSION
  5
7693
330
19
100
AcDbEntity
  8
0
100
AcDbDimension
  2
*D7
 10
194.500008502473
 20
16.99999917966261
 30
0.0
 11
188.500008502473
 21
19.49999917966261
 31
0.0
 70
    32
 71
     5
 42
11.99999999999997
  3
STANDARD
100
AcDbAlignedDimension
 13
182.5000085024731
 23
27.99999917966275
 33
0.0
 14
194.500008502473
 24
27.9999991796625
 34
0.0
100
AcDbRotatedDimension
1001
ACAD
1000
DSTYLE
1002
{
1070
    41
1040
3.0
1070
    42
1040
1.0
1070
    43
1040
1.0
1070
    44
1040
1.0
1070
    73
1070
     0
1070
    74
1070
     0
1070
    77
1070
     3
1070
    78
1070
     8
1070
   141
1040
-1.0
1070
   147
1040
1.0
1070
   172
1070
     1
1070
   176
1070
   115
1070
   177
1070
   115
1070
   178
1070
     7
1070
   271
1070
     2
1070
   272
1070
     2
1002
}
  0
DIMENSION
  5
7694
330
19
100
AcDbEntity
  8
0
100
AcDbDimension
  2
*D8
 10
208.5000025024731
 20
8.999999179662381
 30
0.0
 11
167.000002352473
 21
11.49999917966238
 31
0.0
 70
    32
 71
     5
 42
83.00000030000003
  3
STANDARD
100
AcDbAlignedDimension
 13
125.500002202473
 23
43.00089652966266
 33
0.0
 14
208.5000025024731
 24
43.00090262966273
 34
0.0
100
AcDbRotatedDimension
1001
ACAD
1000
DSTYLE
1002
{
1070
    41
1040
3.0
1070
    42
1040
1.0
1070
    43
1040
1.0
1070
    44
1040
1.0
1070
    47
1040
1.0
1070
    48
1040
1.0
1070
    73
1070
     0
1070
    74
1070
     0
1070
    77
1070
     3
1070
    78
1070
     8
1070
   141
1040
-1.0
1070
   147
1040
1.0
1070
   172
1070
     1
1070
   176
1070
   115
1070
   177
1070
   115
1070
   178
1070
     7
1070
   271
1070
     2
1070
   272
1070
     3
1070
   284
1070
     8
1002
}
  0
DIMENSION
  5
7695
330
19
100
AcDbEntity
  8
0
100
AcDbDimension
  2
*D9
 10
416.000002352473
 20
0.9999991796624954
 30
0.0
 11
382.0000023524731
 21
3.499999179662495
 31
0.0
 70
    32
 71
     5
 42
68.0
  3
STANDARD
100
AcDbAlignedDimension
 13
348.0000023524731
 23
43.67510601748608
 33
0.0
 14
416.000002352473
 24
43.67510601748608
 34
0.0
100
AcDbRotatedDimension
1001
ACAD
1000
DSTYLE
1002
{
1070
    41
1040
3.0
1070
    42
1040
1.0
1070
    43
1040
1.0
1070
    44
1040
1.0
1070
    73
1070
     0
1070
    74
1070
     0
1070
    77
1070
     3
1070
    78
1070
     8
1070
   141
1040
-1.0
1070
   147
1040
1.0
1070
   172
1070
     1
1070
   176
1070
   115
1070
   177
1070
   115
1070
   178
1070
     7
1070
   271
1070
     2
1070
   272
1070
     2
1002
}
  0
DIMENSION
  5
7696
330
19
100
AcDbEntity
  8
0
100
AcDbDimension
  2
*D10
 10
361.4231546470452
 20
49.42171367875471
 30
0.0
 11
382.0000023524731
 21
21.01504082749084
 31
0.0
 70
    34
 71
     5
 42
1.570726454807251
  3
STANDARD
100
AcDb2LineAngularDimension
 13
411.6275006470451
 23
40.37043068057028
 33
0.0
 14
402.5768500579009
 24
49.42171367875471
 34
0.0
 15
352.372504057901
 25
40.37043068057028
 35
0.0
 16
368.6752937254291
 26
20.26919306786465
 36
0.0
1001
ACAD
1000
DSTYLE
1002
{
1070
    41
1040
3.0
1070
    42
1040
1.0
1070
    43
1040
1.0
1070
    44
1040
1.0
1070
    73
1070
     0
1070
    74
1070
     0
1070
    77
1070
     3
1070
    78
1070
     8
1070
    79
1070
     2
1070
   141
1040
-1.0
1070
   147
1040
1.0
1070
   172
1070
     1
1070
   176
1070
   115
1070
   177
1070
   115
1070
   178
1070
     7
1070
   271
1070
     2
1070
   272
1070
     2
1002
}
  0
DIMENSION
  5
7697
330
19
100
AcDbEntity
  8
0
100
AcDbDimension
  2
*D11
 10
407.1002402183084
 20
8.999999179662495
 30
0.0
 11
381.9990347853908
 21
12.28571346537678
 31
0.0
 70
    32
  1
(<>)
 71
     5
 42
50.20241086583536
  3
STANDARD
100
AcDbAlignedDimension
 13
356.8978293524731
 23
44.89607217966249
 33
0.0
 14
407.1002402183084
 24
44.89800744904369
 34
0.0
100
AcDbRotatedDimension
1001
ACAD
1000
DSTYLE
1002
{
1070
    41
1040
3.0
1070
    42
1040
1.0
1070
    43
1040
1.0
1070
    44
1040
1.0
1070
    73
1070
     0
1070
    74
1070
     0
1070
    77
1070
     3
1070
    78
1070
     8
1070
   141
1040
-1.0
1070
   147
1040
1.0
1070
   172
1070
     1
1070
   176
1070
   115
1070
   177
1070
   115
1070
   178
1070
     7
1070
   271
1070
     2
1070
   272
1070
     2
1002
}
  0
DIMENSION
  5
7698
330
19
100
AcDbEntity
  8
0
100
AcDbDimension
  2
*D12
 10
434.0000023524722
 20
105.4983361796623
 30
0.0
 11
431.5000023524723
 21
69.99999917966244
 31
0.0
 70
    32
  1
PCD <>
 71
     5
 42
70.99667399999998
  3
STANDARD
100
AcDbAlignedDimension
 13
382.0000023524731
 23
34.50166217966239
 33
0.0
 14
382.0000023524731
 24
105.4983361796623
 34
0.0
 50
90.0
100
AcDbRotatedDimension
1001
ACAD
1000
DSTYLE
1002
{
1070
    41
1040
3.0
1070
    42
1040
1.0
1070
    43
1040
1.0
1070
    44
1040
1.0
1070
    73
1070
     0
1070
    74
1070
     0
1070
    77
1070
     3
1070
    78
1070
     8
1070
   141
1040
-1.0
1070
   147
1040
1.0
1070
   172
1070
     1
1070
   176
1070
   115
1070
   177
1070
   115
1070
   178
1070
     7
1070
   271
1070
     2
1070
   272
1070
     2
1002
}
  0
DIMENSION
  5
7699
330
19
100
AcDbEntity
  8
0
100
AcDbDimension
  2
*D13
 10
426.0000023524723
 20
99.60066117966242
 30
0.0
 11
423.5000023524722
 21
109.1006611796625
 31
0.0
 70
    32
  1
6-%%C<>
 71
     5
 42
9.0
  3
STANDARD
100
AcDbAlignedDimension
 13
407.1024193524731
 23
90.60066117966243
 33
0.0
 14
407.1024193524731
 24
99.60066117966244
 34
0.0
 50
90.0
100
AcDbRotatedDimension
1001
ACAD
1000
DSTYLE
1002
{
1070
    41
1040
3.0
1070
    42
1040
1.0
1070
    43
1040
1.0
1070
    44
1040
1.0
1070
    73
1070
     0
1070
    74
1070
     0
1070
    77
1070
     3
1070
    78
1070
     8
1070
   141
1040
-1.0
1070
   147
1040
1.0
1070
   172
1070
     1
1070
   176
1070
   115
1070
   177
1070
   115
1070
   178
1070
     7
1070
   271
1070
     2
1070
   272
1070
     2
1002
}
  0
DIMENSION
  5
769A
330
19
100
AcDbEntity
  8
0
100
AcDbDimension
  2
*D14
 10
218.5000025024731
 20
98.00089772966272
 30
0.0
 11
215.2142882167587
 21
70.00090017966275
 31
0.0
 70
    32
  1
%%C<> g6 ({\H0.5x;\S-0.010^ -0.029;})
 71
     5
 42
55.99999509999998
  3
STANDARD
100
AcDbAlignedDimension
 13
207.500002502473
 23
42.00090262966273
 33
0.0
 14
207.500002502473
 24
98.00089772966272
 34
0.0
 50
90.0
100
AcDbRotatedDimension
1001
ACAD
1000
DSTYLE
1002
{
1070
   998
1000
1,0,-0.01,-0.029,0,0,2,P7,g6,256
1070
    71
1070
     0
1070
    72
1070
     0
1070
   283
1070
     1
1070
   146
1040
1.0
1070
     3
1000

1070
    41
1040
3.0
1070
    42
1040
1.0
1070
    43
1040
1.0
1070
    44
1040
1.0
1070
    47
1040
-0.01
1070
    48
1040
0.029
1070
    73
1070
     0
1070
    74
1070
     0
1070
    77
1070
     3
1070
    78
1070
     8
1070
   141
1040
-1.0
1070
   147
1040
1.0
1070
   172
1070
     1
1070
   176
1070
   115
1070
   177
1070
   115
1070
   178
1070
     7
1070
   271
1070
     2
1070
   272
1070
     3
1070
   284
1070
     8
1002
}
  0
DIMENSION
  5
769C
330
19
100
AcDbEntity
  8
0
100
AcDbDimension
  2
*D15
 10
208.5000025024731
 20
16.99999917966238
 30
0.0
 11
201.5000055024731
 21
19.49999917966238
 31
0.0
 70
    32
 71
     5
 42
13.99999399999998
  3
STANDARD
100
AcDbAlignedDimension
 13
194.500008502473
 23
27.9999991796625
 33
0.0
 14
208.5000025024731
 24
43.00090262966273
 34
0.0
100
AcDbRotatedDimension
1001
ACAD
1000
DSTYLE
1002
{
1070
    41
1040
3.0
1070
    42
1040
1.0
1070
    43
1040
1.0
1070
    44
1040
1.0
1070
    73
1070
     0
1070
    74
1070
     0
1070
    77
1070
     3
1070
    78
1070
     8
1070
   141
1040
-1.0
1070
   147
1040
1.0
1070
   172
1070
     1
1070
   176
1070
   115
1070
   177
1070
   115
1070
   178
1070
     7
1070
   271
1070
     2
1070
   272
1070
     2
1002
}
  0
DIMENSION
  5
769D
330
19
100
AcDbEntity
  8
0
100
AcDbDimension
  2
*D16
 10
226.500002502473
 20
112.9999991796626
 30
0.0
 11
224.000002502473
 21
69.99999917966261
 31
0.0
 70
    32
  1
%%C<>
 71
     5
 42
86.00000000000017
  3
STANDARD
100
AcDbAlignedDimension
 13
193.500008502473
 23
26.9999991796625
 33
0.0
 14
193.500008502473
 24
112.9999991796626
 34
0.0
 50
90.0
100
AcDbRotatedDimension
1001
ACAD
1000
DSTYLE
1002
{
1070
   998
1000
1,1,-0.007,-0.02,0,0,2,H7,g6,256
1070
    47
1040
-0.007
1070
    71
1070
     0
1070
    72
1070
     0
1070
   283
1070
     1
1070
   146
1040
1.0
1070
     3
1000

1070
    41
1040
3.0
1070
    42
1040
1.0
1070
    43
1040
1.0
1070
    44
1040
1.0
1070
    48
1040
0.02
1070
    73
1070
     0
1070
    74
1070
     0
1070
    77
1070
     3
1070
    78
1070
     8
1070
   141
1040
-1.0
1070
   147
1040
1.0
1070
   172
1070
     1
1070
   176
1070
   115
1070
   177
1070
   115
1070
   178
1070
     7
1070
   271
1070
     2
1070
   272
1070
     3
1070
   284
1070
     8
1002
}
  0
DIMENSION
  5
769E
330
19
100
AcDbEntity
  8
0
100
AcDbDimension
  2
*D17
 10
389.9465404360616
 20
118.7520357506038
 30
0.0
 11
393.7869727592704
 21
116.0132269545509
 31
0.0
 70
    32
 71
     5
 42
7.999998512620692
  3
STANDARD
100
AcDbAlignedDimension
 13
371.7607244322353
 23
102.5600876987905
 33
0.0
 14
374.4450466230327
 24
112.3311064640956
 34
0.0
 50
112.5000009846593
100
AcDbRotatedDimension
1001
ACAD
1000
DSTYLE
1002
{
1070
    41
1040
3.0
1070
    42
1040
1.0
1070
    43
1040
1.0
1070
    44
1040
1.0
1070
    73
1070
     0
1070
    74
1070
     0
1070
    77
1070
     3
1070
    78
1070
     8
1070
   141
1040
-1.0
1070
   147
1040
1.0
1070
   172
1070
     1
1070
   176
1070
   115
1070
   177
1070
   115
1070
   178
1070
     7
1070
   271
1070
     2
1070
   272
1070
     2
1002
}
  0
DIMENSION
  5
769F
330
19
100
AcDbEntity
  8
0
100
AcDbDimension
  2
*D18
 10
359.3291459226951
 20
116.8938173336503
 30
0.0
 11
347.4178657802923
 21
114.6659838336121
 31
0.0
 70
    32
  1
M<>x1
 71
     5
 42
5.999999777169989
  3
STANDARD
100
AcDbAlignedDimension
 13
368.6992569322352
 23
109.9511236987905
 33
0.0
 14
363.15598038539
 24
107.6550221219354
 34
0.0
 50
202.500000984659
100
AcDbRotatedDimension
1001
ACAD
1000
DSTYLE
1002
{
1070
    41
1040
3.0
1070
    42
1040
1.0
1070
    43
1040
1.0
1070
    44
1040
1.0
1070
    73
1070
     0
1070
    74
1070
     0
1070
    77
1070
     3
1070
    78
1070
     8
1070
   141
1040
-1.0
1070
   147
1040
1.0
1070
   172
1070
     1
1070
   176
1070
   115
1070
   177
1070
   115
1070
   178
1070
     7
1070
   271
1070
     2
1070
   272
1070
     2
1002
}
  0
LINE
  5
76A0
330
19
100
AcDbEntity
  8
1
100
AcDbLine
 10
364.7795718907431
 20
111.5747123440837
 30
0.0
 11
372.8924601003858
 21
91.98846759834713
 31
0.0
  0
DIMENSION
  5
76A1
330
19
100
AcDbEntity
  8
0
100
AcDbDimension
  2
*D19
 10
372.8924601003858
 20
91.98846759834713
 30
0.0
 11
369.7216720211375
 21
131.7282505455627
 31
0.0
 70
    34
 71
     5
 42
0.3926990816987157
  3
STANDARD
100
AcDb2LineAngularDimension
 13
382.0000023524731
 23
23.99999917966238
 33
0.0
 14
382.0000023524731
 24
115.9999991796624
 34
0.0
 15
364.7795718907431
 25
111.5747123440837
 35
0.0
 16
374.1114372156408
 26
129.9205166550672
 36
0.0
1001
ACAD
1000
DSTYLE
1002
{
1070
    41
1040
3.0
1070
    42
1040
1.0
1070
    43
1040
1.0
1070
    44
1040
1.0
1070
    73
1070
     0
1070
    74
1070
     0
1070
    77
1070
     3
1070
    78
1070
     8
1070
   141
1040
-1.0
1070
   147
1040
1.0
1070
   172
1070
     1
1070
   176
1070
   115
1070
   177
1070
   115
1070
   178
1070
     7
1070
   179
1070
     1
1070
   271
1070
     2
1070
   272
1070
     2
1002
}
  0
DIMENSION
  5
76A2
330
19
100
AcDbEntity
  8
0
100
AcDbDimension
  2
*D20
 10
338.000002352473
 20
95.10199091028132
 30
0.0
 11
334.7142880667587
 21
69.99903154497197
 31
0.0
 70
    32
  1
(<>)
 71
     5
 42
50.20591873061881
  3
STANDARD
100
AcDbAlignedDimension
 13
356.8978293524731
 23
44.89607217966249
 33
0.0
 14
356.8997644866379
 24
95.1019909102813
 34
0.0
 50
90.0
100
AcDbRotatedDimension
1001
ACAD
1000
DSTYLE
1002
{
1070
    41
1040
3.0
1070
    42
1040
1.0
1070
    43
1040
1.0
1070
    44
1040
1.0
1070
    73
1070
     0
1070
    74
1070
     0
1070
    77
1070
     3
1070
    78
1070
     8
1070
   141
1040
-1.0
1070
   147
1040
1.0
1070
   172
1070
     1
1070
   176
1070
   115
1070
   177
1070
   115
1070
   178
1070
     7
1070
   271
1070
     2
1070
   272
1070
     2
1002
}
  0
LINE
  5
76A3
330
19
100
AcDbEntity
  8
1
100
AcDbLine
 10
19.00000235247303
 20
69.99999917966261
 30
0.0
 11
325.0000023524731
 21
69.99999917966261
 31
0.0
  0
LINE
  5
76A4
330
19
100
AcDbEntity
  8
1
100
AcDbLine
 10
182.5005448147541
 20
108.8030737465503
 30
0.0
 11
194.499472190192
 21
108.8030737465503
 31
0.0
  0
LINE
  5
76A5
330
19
100
AcDbEntity
  8
1
100
AcDbLine
 10
188.500008502473
 20
104.6550224340724
 30
0.0
 11
188.500008502473
 21
112.9511250590287
 31
0.0
  0
INSERT
  5
76A6
330
19
100
AcDbEntity
  8
0
100
AcDbBlockReference
  2
A$C16361175
 10
22.00000378661298
 20
54.00000011109568
 30
0.0
  0
INSERT
  5
76A8
330
19
100
AcDbEntity
  8
0
100
AcDbBlockReference
  2
A$C0761419C
 10
348.0000043722143
 20
26.99999855501528
 30
0.0
  0
LINE
  5
76A9
330
19
100
AcDbEntity
  8
1
100
AcDbLine
 10
345.0000023524731
 20
69.99999917966261
 30
0.0
 11
419.000002352473
 21
69.99999917966238
 31
0.0
  0
LINE
  5
76AA
330
19
100
AcDbEntity
  8
1
100
AcDbLine
 10
382.0000023524731
 20
23.99999917966238
 30
0.0
 11
382.0000023524731
 21
115.9999991796624
 31
0.0
  0
CIRCLE
  5
76AB
330
19
100
AcDbEntity
  8
1
100
AcDbCircle
 10
382.0000023524731
 20
69.99999917966238
 30
0.0
 40
35.49833699999999
  0
LINE
  5
76AC
330
19
100
AcDbEntity
  8
1
100
AcDbLine
 10
352.372504057901
 20
40.37043068057028
 30
0.0
 11
361.4231546470452
 21
49.42171367875471
 31
0.0
  0
LINE
  5
76AD
330
19
100
AcDbEntity
  8
1
100
AcDbLine
 10
411.6275006470451
 20
40.37043068057028
 30
0.0
 11
402.5768500579009
 21
49.42171367875471
 31
0.0
  0
LINE
  5
76AE
330
19
100
AcDbEntity
  8
1
100
AcDbLine
 10
352.372504057901
 20
99.62956767875471
 30
0.0
 11
361.4231546470452
 21
90.57828468057028
 31
0.0
  0
LINE
  5
76AF
330
19
100
AcDbEntity
  8
1
100
AcDbLine
 10
411.6275006470451
 20
99.62956767875471
 30
0.0
 11
402.5768500579009
 21
90.57828468057028
 31
0.0
  0
INSERT
  5
7B14
330
19
100
AcDbEntity
  8
0
100
AcDbBlockReference
  2
3220SDH
 10
0.0
 20
-200.0
 30
0.0
  0
ENDSEC
  0
SECTION
  2
OBJECTS
  0
DICTIONARY
  5
C
330
0
100
AcDbDictionary
281
     1
  3
ACAD_CIP_PREVIOUS_PRODUCT_INFO
350
6B51
  3
ACAD_COLOR
350
6B2F
  3
ACAD_GROUP
350
D
  3
ACAD_LAYOUT
350
6B46
  3
ACAD_MATERIAL
350
6AFD
  3
ACAD_MLEADERSTYLE
350
6B44
  3
ACAD_MLINESTYLE
350
E
  3
ACAD_PLOTSETTINGS
350
6B47
  3
ACAD_PLOTSTYLENAME
350
6AFB
  3
ACAD_SCALELIST
350
6B32
  3
ACAD_TABLESTYLE
350
6B30
  3
ACAD_VISUALSTYLE
350
6B16
  3
ACDB_RECOMPOSE_DATA
350
7E19
  3
ACDBVARIABLEDICTIONARY
350
1BF
  3
DWGPROPS
350
7E1A
  0
DICTIONARY
  5
7095
330
8
100
AcDbDictionary
280
     1
281
     1
  0
DICTIONARY
  5
7982
330
2
100
AcDbDictionary
280
     1
281
     1
  3
ACAD_LAYERSTATES
360
7983
  0
DICTIONARY
  5
705B
330
F
100
AcDbDictionary
280
     1
281
     1
  3
ADSK_XREC_LAYER_RECONCILED
360
705C
  0
DICTIONARY
  5
7661
330
7660
100
AcDbDictionary
280
     1
281
     1
  0
DICTIONARY
  5
7663
330
7662
100
AcDbDictionary
280
     1
281
     1
  0
DICTIONARY
  5
7665
330
7664
100
AcDbDictionary
280
     1
281
     1
  0
DICTIONARY
  5
6F7F
330
19
100
AcDbDictionary
280
     1
281
     1
  3
ACAD_SORTENTS
360
6F80
  0
DICTIONARY
  5
760D
330
760C
100
AcDbDictionary
280
     1
281
     1
  3
ACAD_SORTENTS
360
760E
  0
DICTIONARY
  5
7642
330
7641
100
AcDbDictionary
280
     1
281
     1
  3
ACAD_SORTENTS
360
7643
  0
DICTIONARY
  5
7D1E
330
7AF0
100
AcDbDictionary
280
     1
281
     1
  0
DICTIONARY
  5
7E53
330
77E1
100
AcDbDictionary
280
     1
281
     1
  3
ACAD_MTEXT_RT
360
7E54
  0
DICTIONARY
  5
7E55
330
7842
100
AcDbDictionary
280
     1
281
     1
  3
ACAD_MTEXT_RT
360
7E56
  0
XRECORD
  5
6B51
102
{ACAD_REACTORS
330
C
102
}
330
C
100
AcDbXrecord
280
     1
300
ACDLT
300
2012
300
ACDLT_F_S
  0
DICTIONARY
  5
6B2F
102
{ACAD_REACTORS
330
C
102
}
330
C
100
AcDbDictionary
281
     1
  0
DICTIONARY
  5
D
102
{ACAD_REACTORS
330
C
102
}
330
C
100
AcDbDictionary
281
     1
  0
DICTIONARY
  5
6B46
102
{ACAD_REACTORS
330
C
102
}
330
C
100
AcDbDictionary
281
     1
  3
Model
350
6B48
  3
배치1
350
6B49
  0
DICTIONARY
  5
6AFD
102
{ACAD_REACTORS
330
C
102
}
330
C
100
AcDbDictionary
281
     1
  3
ByBlock
350
6B06
  3
ByLayer
350
6AFE
  3
Global
350
6B0E
  0
DICTIONARY
  5
6B44
102
{ACAD_REACTORS
330
C
102
}
330
C
100
AcDbDictionary
281
     1
  3
Standard
350
6B45
  0
DICTIONARY
  5
E
102
{ACAD_REACTORS
330
C
102
}
330
C
100
AcDbDictionary
281
     1
  3
STANDARD
350
1C
  0
DICTIONARY
  5
6B47
102
{ACAD_REACTORS
330
C
102
}
330
C
100
AcDbDictionary
281
     1
  0
ACDBDICTIONARYWDFLT
  5
6AFB
102
{ACAD_REACTORS
330
C
102
}
330
C
100
AcDbDictionary
281
     1
  3
Normal
350
6AFC
100
AcDbDictionaryWithDefault
340
6AFC
  0
DICTIONARY
  5
6B32
102
{ACAD_REACTORS
330
C
102
}
330
C
100
AcDbDictionary
281
     1
  3
A0
350
6B33
  3
A1
350
6B34
  3
A2
350
6B35
  3
A3
350
6B36
  3
A4
350
6B37
  3
A5
350
6B38
  3
A6
350
6B39
  3
A7
350
6B3A
  3
A8
350
6B3B
  3
A9
350
6B3C
  3
B0
350
6B3D
  3
B1
350
6B3E
  3
B2
350
6B3F
  3
B3
350
6B40
  3
B4
350
6B41
  3
B5
350
6B42
  3
B6
350
6B43
  0
DICTIONARY
  5
6B30
102
{ACAD_REACTORS
330
C
102
}
330
C
100
AcDbDictionary
281
     1
  3
Standard
350
6B31
  0
DICTIONARY
  5
6B16
102
{ACAD_REACTORS
330
C
102
}
330
C
100
AcDbDictionary
281
     1
  3
2dWireframe
350
6B1C
  3
Basic
350
6B1B
  3
Brighten
350
6B22
  3
ColorChange
350
6B26
  3
Conceptual
350
6B1F
  3
Dim
350
6B21
  3
EdgeColorOff
350
6B2E
  3
Facepattern
350
6B25
  3
Flat
350
6B17
  3
FlatWithEdges
350
6B18
  3
Gouraud
350
6B19
  3
GouraudWithEdges
350
6B1A
  3
Hidden
350
6B1E
  3
JitterOff
350
6B2C
  3
Linepattern
350
6B24
  3
OverhangOff
350
6B2D
  3
Realistic
350
6B20
  3
Shaded
350
6B2B
  3
Shaded with edges
350
6B2A
  3
Shades of Gray
350
6B27
  3
Sketchy
350
6B28
  3
Thicken
350
6B23
  3
Wireframe
350
6B1D
  3
X-Ray
350
6B29
  0
XRECORD
  5
7E19
102
{ACAD_REACTORS
330
C
102
}
330
C
100
AcDbXrecord
280
     1
 90
        1
330
6B31
  0
DICTIONARY
  5
1BF
102
{ACAD_REACTORS
330
C
102
}
330
C
100
AcDbDictionary
281
     1
  3
CANNOSCALE
350
7108
  3
CMLEADERSTYLE
350
7107
  3
CTABLESTYLE
350
7106
  3
DIMASSOC
350
710A
  3
INDEXCTL
350
7109
  3
SORTENTS
350
1C0
  3
XCLIPFRAME
350
7E15
  0
XRECORD
  5
7E1A
102
{ACAD_REACTORS
330
C
102
}
330
C
100
AcDbXrecord
280
     1
  1
DWGPROPS COOKIE
  2

  3

  4

  6

  7

  8
woni
  9

300
=
301
=
302
=
303
=
304
=
305
=
306
=
307
=
308
=
309
=
 40
0.3884131134259259
 41
2452464.575009942
 42
2456842.721166505
  1

 90
        0
  0
DICTIONARY
  5
7983
102
{ACAD_REACTORS
330
7982
102
}
330
7982
100
AcDbDictionary
281
     1
  0
XRECORD
  5
705C
102
{ACAD_REACTORS
330
705B
102
}
330
705B
100
AcDbXrecord
280
     1
290
     1
  0
SORTENTSTABLE
  5
6F80
102
{ACAD_REACTORS
330
6F7F
102
}
330
6F7F
100
AcDbSortentsTable
330
19
331
76A3
  5
76A3
331
76A6
  5
76A6
331
76A8
  5
7A85
331
7691
  5
7691
331
7692
  5
7692
331
76AA
  5
7A87
331
7B14
  5
7B14
331
76AC
  5
7A89
331
7695
  5
7695
331
7696
  5
7696
331
76AE
  5
7A8B
331
76AF
  5
7A8C
331
769A
  5
769A
331
769F
  5
769F
331
769E
  5
769E
331
769D
  5
769D
331
769C
  5
769C
331
7699
  5
7699
331
7698
  5
7698
331
7697
  5
7697
331
76AD
  5
7A8A
331
7694
  5
7694
331
76AB
  5
7A88
331
7693
  5
7693
331
76A9
  5
7A86
331
7690
  5
7690
331
768F
  5
768F
331
76A5
  5
76A5
331
76A4
  5
76A4
331
76A2
  5
76A2
331
76A1
  5
76A1
331
76A0
  5
76A0
  0
SORTENTSTABLE
  5
760E
102
{ACAD_REACTORS
330
760D
102
}
330
760D
100
AcDbSortentsTable
330
760C
  0
SORTENTSTABLE
  5
7643
102
{ACAD_REACTORS
330
7642
102
}
330
7642
100
AcDbSortentsTable
330
7641
  0
XRECORD
  5
7E54
102
{ACAD_REACTORS
330
7E53
102
}
330
7E53
100
AcDbXrecord
280
     1
 40
5313.0
  1
\A1;90\U+00B0
  0
XRECORD
  5
7E56
102
{ACAD_REACTORS
330
7E55
102
}
330
7E55
100
AcDbXrecord
280
     1
 40
6896.0
  1
\A1;22.5\U+00B0
  0
LAYOUT
  5
6B48
102
{ACAD_XDICTIONARY
360
7E4F
102
}
102
{ACAD_REACTORS
330
6B46
102
}
330
6B46
100
AcDbPlotSettings
  1

  2
SINDOH M402_408 Series
  4

  6

 40
0.0
 41
0.0
 42
0.0
 43
0.0
 44
0.0
 45
0.0
 46
0.0
 47
0.0
 48
0.0
 49
0.0
140
0.0
141
0.0
142
1.0
143
1.0
 70
  1712
 72
     0
 73
     0
 74
     0
  7

 75
     0
147
1.0
148
0.0
149
0.0
100
AcDbLayout
  1
Model
 70
     1
 71
     0
 10
0.0
 20
0.0
 11
12.0
 21
9.0
 12
0.0
 22
0.0
 32
0.0
 14
0.0
 24
0.0
 34
0.0
 15
0.0
 25
0.0
 35
0.0
146
0.0
 13
0.0
 23
0.0
 33
0.0
 16
1.0
 26
0.0
 36
0.0
 17
0.0
 27
1.0
 37
0.0
 76
     0
330
19
331
6AF9
  0
LAYOUT
  5
6B49
102
{ACAD_XDICTIONARY
360
7E51
102
}
102
{ACAD_REACTORS
330
6B46
102
}
330
6B46
100
AcDbPlotSettings
  1

  2
SINDOH M402_408 Series
  4

  6

 40
0.0
 41
0.0
 42
0.0
 43
0.0
 44
0.0
 45
0.0
 46
0.0
 47
0.0
 48
0.0
 49
0.0
140
0.0
141
0.0
142
1.0
143
1.0
 70
   688
 72
     0
 73
     0
 74
     5
  7

 75
    16
147
1.0
148
0.0
149
0.0
100
AcDbLayout
  1
배치1
 70
     1
 71
     1
 10
0.0
 20
0.0
 11
12.0
 21
9.0
 12
0.0
 22
0.0
 32
0.0
 14
1.000000000000000E+20
 24
1.000000000000000E+20
 34
1.000000000000000E+20
 15
-1.000000000000000E+20
 25
-1.000000000000000E+20
 35
-1.000000000000000E+20
146
0.0
 13
0.0
 23
0.0
 33
0.0
 16
1.0
 26
0.0
 36
0.0
 17
0.0
 27
1.0
 37
0.0
 76
     0
330
16
  0
MATERIAL
  5
6B06
102
{ACAD_XDICTIONARY
360
6B07
102
}
102
{ACAD_REACTORS
330
6AFD
102
}
330
6AFD
100
AcDbMaterial
  1
ByBlock
 72
     0
 43
0.0208333333333333
 43
0.0
 43
0.0
 43
0.0
 43
0.0
 43
0.0208333333333333
 43
0.0
 43
0.0
 43
0.0
 43
0.0
 43
1.0
 43
0.0
 43
0.0
 43
0.0
 43
0.0
 43
1.0
 77
     0
 47
0.0208333333333333
 47
0.0
 47
0.0
 47
0.0
 47
0.0
 47
0.0208333333333333
 47
0.0
 47
0.0
 47
0.0
 47
0.0
 47
1.0
 47
0.0
 47
0.0
 47
0.0
 47
0.0
 47
1.0
171
     0
 49
0.0208333333333333
 49
0.0
 49
0.0
 49
0.0
 49
0.0
 49
0.0208333333333333
 49
0.0
 49
0.0
 49
0.0
 49
0.0
 49
1.0
 49
0.0
 49
0.0
 49
0.0
 49
0.0
 49
1.0
175
     0
142
0.0208333333333333
142
0.0
142
0.0
142
0.0
142
0.0
142
0.0208333333333333
142
0.0
142
0.0
142
0.0
142
0.0
142
1.0
142
0.0
142
0.0
142
0.0
142
0.0
142
1.0
179
     0
144
0.0208333333333333
144
0.0
144
0.0
144
0.0
144
0.0
144
0.0208333333333333
144
0.0
144
0.0
144
0.0
144
0.0
144
1.0
144
0.0
144
0.0
144
0.0
144
0.0
144
1.0
147
0.0208333333333333
147
0.0
147
0.0
147
0.0
147
0.0
147
0.0208333333333333
147
0.0
147
0.0
147
0.0
147
0.0
147
1.0
147
0.0
147
0.0
147
0.0
147
0.0
147
1.0
  0
MATERIAL
  5
6AFE
102
{ACAD_XDICTIONARY
360
6AFF
102
}
102
{ACAD_REACTORS
330
6AFD
102
}
330
6AFD
100
AcDbMaterial
  1
ByLayer
 72
     0
 43
0.0208333333333333
 43
0.0
 43
0.0
 43
0.0
 43
0.0
 43
0.0208333333333333
 43
0.0
 43
0.0
 43
0.0
 43
0.0
 43
1.0
 43
0.0
 43
0.0
 43
0.0
 43
0.0
 43
1.0
 77
     0
 47
0.0208333333333333
 47
0.0
 47
0.0
 47
0.0
 47
0.0
 47
0.0208333333333333
 47
0.0
 47
0.0
 47
0.0
 47
0.0
 47
1.0
 47
0.0
 47
0.0
 47
0.0
 47
0.0
 47
1.0
171
     0
 49
0.0208333333333333
 49
0.0
 49
0.0
 49
0.0
 49
0.0
 49
0.0208333333333333
 49
0.0
 49
0.0
 49
0.0
 49
0.0
 49
1.0
 49
0.0
 49
0.0
 49
0.0
 49
0.0
 49
1.0
175
     0
142
0.0208333333333333
142
0.0
142
0.0
142
0.0
142
0.0
142
0.0208333333333333
142
0.0
142
0.0
142
0.0
142
0.0
142
1.0
142
0.0
142
0.0
142
0.0
142
0.0
142
1.0
179
     0
144
0.0208333333333333
144
0.0
144
0.0
144
0.0
144
0.0
144
0.0208333333333333
144
0.0
144
0.0
144
0.0
144
0.0
144
1.0
144
0.0
144
0.0
144
0.0
144
0.0
144
1.0
147
0.0208333333333333
147
0.0
147
0.0
147
0.0
147
0.0
147
0.0208333333333333
147
0.0
147
0.0
147
0.0
147
0.0
147
1.0
147
0.0
147
0.0
147
0.0
147
0.0
147
1.0
  0
MATERIAL
  5
6B0E
102
{ACAD_XDICTIONARY
360
6B0F
102
}
102
{ACAD_REACTORS
330
6AFD
102
}
330
6AFD
100
AcDbMaterial
  1
Global
 72
     0
 43
0.0208333333333333
 43
0.0
 43
0.0
 43
0.0
 43
0.0
 43
0.0208333333333333
 43
0.0
 43
0.0
 43
0.0
 43
0.0
 43
1.0
 43
0.0
 43
0.0
 43
0.0
 43
0.0
 43
1.0
 77
     0
 47
0.0208333333333333
 47
0.0
 47
0.0
 47
0.0
 47
0.0
 47
0.0208333333333333
 47
0.0
 47
0.0
 47
0.0
 47
0.0
 47
1.0
 47
0.0
 47
0.0
 47
0.0
 47
0.0
 47
1.0
171
     0
 49
0.0208333333333333
 49
0.0
 49
0.0
 49
0.0
 49
0.0
 49
0.0208333333333333
 49
0.0
 49
0.0
 49
0.0
 49
0.0
 49
1.0
 49
0.0
 49
0.0
 49
0.0
 49
0.0
 49
1.0
175
     0
142
0.0208333333333333
142
0.0
142
0.0
142
0.0
142
0.0
142
0.0208333333333333
142
0.0
142
0.0
142
0.0
142
0.0
142
1.0
142
0.0
142
0.0
142
0.0
142
0.0
142
1.0
179
     0
144
0.0208333333333333
144
0.0
144
0.0
144
0.0
144
0.0
144
0.0208333333333333
144
0.0
144
0.0
144
0.0
144
0.0
144
1.0
144
0.0
144
0.0
144
0.0
144
0.0
144
1.0
147
0.0208333333333333
147
0.0
147
0.0
147
0.0
147
0.0
147
0.0208333333333333
147
0.0
147
0.0
147
0.0
147
0.0
147
1.0
147
0.0
147
0.0
147
0.0
147
0.0
147
1.0
  0
MLEADERSTYLE
  5
6B45
102
{ACAD_XDICTIONARY
360
7E17
102
}
102
{ACAD_REACTORS
330
6B44
102
}
330
6B44
100
AcDbMLeaderStyle
170
     2
171
     1
172
     0
 90
        2
 40
0.0
 41
0.0
173
     1
 91
-1056964608
340
13
 92
       -2
290
     1
 42
0.09
291
     1
 43
0.36
  3
Standard
 44
0.18
300

342
10
174
     1
178
     6
175
     1
176
     0
 93
-1056964608
 45
0.18
292
     0
297
     0
 46
0.18
 94
-1056964608
 47
1.0
 49
1.0
140
1.0
293
     1
141
0.0
294
     1
177
     0
142
1.0
295
     0
296
     0
143
0.125
1001
ACAD_MLEADERVER
1070
     2
  0
MLINESTYLE
  5
1C
102
{ACAD_REACTORS
330
E
102
}
330
E
100
AcDbMlineStyle
  2
STANDARD
 70
     0
  3

 62
     0
 51
90.0
 52
90.0
 71
     2
 49
0.5
 62
   256
  6
BYLAYER
 49
-0.5
 62
   256
  6
BYLAYER
  0
ACDBPLACEHOLDER
  5
6AFC
102
{ACAD_REACTORS
330
6AFB
102
}
330
6AFB
  0
SCALE
  5
6B33
102
{ACAD_REACTORS
330
6B32
102
}
330
6B32
100
AcDbScale
 70
     0
300
1:1
140
1.0
141
1.0
290
     1
  0
SCALE
  5
6B34
102
{ACAD_REACTORS
330
6B32
102
}
330
6B32
100
AcDbScale
 70
     0
300
1/128" = 1'-0"
140
0.0078125
141
12.0
290
     0
  0
SCALE
  5
6B35
102
{ACAD_REACTORS
330
6B32
102
}
330
6B32
100
AcDbScale
 70
     0
300
1/64" = 1'-0"
140
0.015625
141
12.0
290
     0
  0
SCALE
  5
6B36
102
{ACAD_REACTORS
330
6B32
102
}
330
6B32
100
AcDbScale
 70
     0
300
1/32" = 1'-0"
140
0.03125
141
12.0
290
     0
  0
SCALE
  5
6B37
102
{ACAD_REACTORS
330
6B32
102
}
330
6B32
100
AcDbScale
 70
     0
300
1/16" = 1'-0"
140
0.0625
141
12.0
290
     0
  0
SCALE
  5
6B38
102
{ACAD_REACTORS
330
6B32
102
}
330
6B32
100
AcDbScale
 70
     0
300
3/32" = 1'-0"
140
0.09375
141
12.0
290
     0
  0
SCALE
  5
6B39
102
{ACAD_REACTORS
330
6B32
102
}
330
6B32
100
AcDbScale
 70
     0
300
1/8" = 1'-0"
140
0.125
141
12.0
290
     0
  0
SCALE
  5
6B3A
102
{ACAD_REACTORS
330
6B32
102
}
330
6B32
100
AcDbScale
 70
     0
300
3/16" = 1'-0"
140
0.1875
141
12.0
290
     0
  0
SCALE
  5
6B3B
102
{ACAD_REACTORS
330
6B32
102
}
330
6B32
100
AcDbScale
 70
     0
300
1/4" = 1'-0"
140
0.25
141
12.0
290
     0
  0
SCALE
  5
6B3C
102
{ACAD_REACTORS
330
6B32
102
}
330
6B32
100
AcDbScale
 70
     0
300
3/8" = 1'-0"
140
0.375
141
12.0
290
     0
  0
SCALE
  5
6B3D
102
{ACAD_REACTORS
330
6B32
102
}
330
6B32
100
AcDbScale
 70
     0
300
1/2" = 1'-0"
140
0.5
141
12.0
290
     0
  0
SCALE
  5
6B3E
102
{ACAD_REACTORS
330
6B32
102
}
330
6B32
100
AcDbScale
 70
     0
300
3/4" = 1'-0"
140
0.75
141
12.0
290
     0
  0
SCALE
  5
6B3F
102
{ACAD_REACTORS
330
6B32
102
}
330
6B32
100
AcDbScale
 70
     0
300
1" = 1'-0"
140
1.0
141
12.0
290
     0
  0
SCALE
  5
6B40
102
{ACAD_REACTORS
330
6B32
102
}
330
6B32
100
AcDbScale
 70
     0
300
1-1/2" = 1'-0"
140
1.5
141
12.0
290
     0
  0
SCALE
  5
6B41
102
{ACAD_REACTORS
330
6B32
102
}
330
6B32
100
AcDbScale
 70
     0
300
3" = 1'-0"
140
3.0
141
12.0
290
     0
  0
SCALE
  5
6B42
102
{ACAD_REACTORS
330
6B32
102
}
330
6B32
100
AcDbScale
 70
     0
300
6" = 1'-0"
140
6.0
141
12.0
290
     0
  0
SCALE
  5
6B43
102
{ACAD_REACTORS
330
6B32
102
}
330
6B32
100
AcDbScale
 70
     0
300
1'-0" = 1'-0"
140
12.0
141
12.0
290
     0
  0
TABLESTYLE
  5
6B31
102
{ACAD_XDICTIONARY
360
708F
102
}
102
{ACAD_REACTORS
330
6B30
102
}
330
6B30
100
AcDbTableStyle
  3
Standard
 70
     0
 71
     0
 40
0.06
 41
0.06
280
     0
281
     0
  7
STANDARD
140
0.18
170
     2
 62
     0
 63
     7
283
     0
274
    -2
284
     1
 64
     0
275
    -2
285
     1
 65
     0
276
    -2
286
     1
 66
     0
277
    -2
287
     1
 67
     0
278
    -2
288
     1
 68
     0
279
    -2
289
     1
 69
     0
  7
STANDARD
140
0.25
170
     5
 62
     0
 63
     7
283
     0
274
    -2
284
     1
 64
     0
275
    -2
285
     1
 65
     0
276
    -2
286
     1
 66
     0
277
    -2
287
     1
 67
     0
278
    -2
288
     1
 68
     0
279
    -2
289
     1
 69
     0
  7
STANDARD
140
0.18
170
     5
 62
     0
 63
     7
283
     0
274
    -2
284
     1
 64
     0
275
    -2
285
     1
 65
     0
276
    -2
286
     1
 66
     0
277
    -2
287
     1
 67
     0
278
    -2
288
     1
 68
     0
279
    -2
289
     1
 69
     0
  0
VISUALSTYLE
  5
6B1C
102
{ACAD_XDICTIONARY
360
7E28
102
}
102
{ACAD_REACTORS
330
6B16
102
}
330
6B16
100
AcDbVisualStyle
  2
2dWireframe
 70
     4
 71
     0
 72
     2
 73
     0
 90
        0
 40
-0.6
 41
-30.0
 62
     5
 63
     7
 74
     1
 91
        4
 64
     7
 65
   257
 75
     1
175
     1
 42
1.0
 92
        0
 66
   257
 43
1.0
 76
     1
 77
     6
 78
     2
 67
     7
 79
     5
170
     0
171
     0
290
     0
174
     0
 93
        1
 44
0.0
173
     0
291
     0
 45
0.0
1001
ACAD
1000
AcDbSavedByObjectVersion
1070
     0
  0
VISUALSTYLE
  5
6B1B
102
{ACAD_XDICTIONARY
360
7E26
102
}
102
{ACAD_REACTORS
330
6B16
102
}
330
6B16
100
AcDbVisualStyle
  2
Basic
 70
     7
 71
     1
 72
     0
 73
     1
 90
        0
 40
-0.6
 41
-30.0
 62
     5
 63
     7
 74
     0
 91
        4
 64
     7
 65
   257
 75
     1
175
     1
 42
1.0
 92
        8
 66
     7
 43
1.0
 76
     1
 77
     6
 78
     2
 67
     7
 79
     5
170
     0
171
     0
290
     0
174
     0
 93
        1
 44
0.0
173
     0
291
     1
 45
0.0
1001
ACAD
1000
AcDbSavedByObjectVersion
1070
     0
  0
VISUALSTYLE
  5
6B22
102
{ACAD_XDICTIONARY
360
7E34
102
}
102
{ACAD_REACTORS
330
6B16
102
}
330
6B16
100
AcDbVisualStyle
  2
Brighten
 70
    12
 71
     2
 72
     2
 73
     0
 90
        0
 40
-0.6
 41
-30.0
 62
     5
 63
     7
 74
     1
 91
        4
 64
     7
 65
   257
 75
     1
175
     1
 42
1.0
 92
        8
 66
     7
 43
1.0
 76
     1
 77
     6
 78
     2
 67
     7
 79
     5
170
     0
171
     0
290
     0
174
     0
 93
        1
 44
50.0
173
     0
291
     1
 45
0.0
1001
ACAD
1000
AcDbSavedByObjectVersion
1070
     0
  0
VISUALSTYLE
  5
6B26
102
{ACAD_XDICTIONARY
360
7E3C
102
}
102
{ACAD_REACTORS
330
6B16
102
}
330
6B16
100
AcDbVisualStyle
  2
ColorChange
 70
    16
 71
     2
 72
     2
 73
     3
 90
        0
 40
-0.6
 41
-30.0
 62
     5
 63
     8
 74
     1
 91
        4
 64
     7
 65
   257
 75
     1
175
     1
 42
1.0
 92
        8
 66
     8
 43
1.0
 76
     1
 77
     6
 78
     2
 67
     7
 79
     5
170
     0
171
     0
290
     0
174
     0
 93
        1
 44
0.0
173
     0
291
     1
 45
0.0
1001
ACAD
1000
AcDbSavedByObjectVersion
1070
     0
  0
VISUALSTYLE
  5
6B1F
102
{ACAD_XDICTIONARY
360
7E2E
102
}
102
{ACAD_REACTORS
330
6B16
102
}
330
6B16
100
AcDbVisualStyle
  2
Conceptual
 70
     9
 71
     3
 72
     2
 73
     0
 90
        0
 40
-0.6
 41
-30.0
 62
     5
 63
     7
 74
     2
 91
        2
 64
     7
 65
   257
 75
     1
175
     1
 42
179.0
 92
        8
 66
     7
 43
1.0
 76
     1
 77
     6
 78
     2
 67
     7
 79
     3
170
     0
171
     0
290
     0
174
     0
 93
        1
 44
0.0
173
     0
291
     0
 45
0.0
1001
ACAD
1000
AcDbSavedByObjectVersion
1070
     0
  0
VISUALSTYLE
  5
6B21
102
{ACAD_XDICTIONARY
360
7E32
102
}
102
{ACAD_REACTORS
330
6B16
102
}
330
6B16
100
AcDbVisualStyle
  2
Dim
 70
    11
 71
     2
 72
     2
 73
     0
 90
        0
 40
-0.6
 41
-30.0
 62
     5
 63
     7
 74
     1
 91
        4
 64
     7
 65
   257
 75
     1
175
     1
 42
1.0
 92
        8
 66
     7
 43
1.0
 76
     1
 77
     6
 78
     2
 67
     7
 79
     5
170
     0
171
     0
290
     0
174
     0
 93
        1
 44
-50.0
173
     0
291
     1
 45
0.0
1001
ACAD
1000
AcDbSavedByObjectVersion
1070
     0
  0
VISUALSTYLE
  5
6B2E
102
{ACAD_XDICTIONARY
360
7E4C
102
}
102
{ACAD_REACTORS
330
6B16
102
}
330
6B16
100
AcDbVisualStyle
  2
EdgeColorOff
 70
    22
 71
     2
 72
     2
 73
     0
 90
        0
 40
-0.6
 41
-30.0
 62
     5
 63
     7
 74
     1
 91
        4
 64
     7
 65
   257
 75
     1
175
     1
 42
1.0
 92
        8
 66
     7
 43
1.0
 76
     1
 77
     6
 78
     2
 67
     7
 79
     5
170
     0
171
     0
290
     0
174
     0
 93
        1
 44
0.0
173
     0
291
     1
 45
0.0
1001
ACAD
1000
AcDbSavedByObjectVersion
1070
     0
  0
VISUALSTYLE
  5
6B25
102
{ACAD_XDICTIONARY
360
7E3A
102
}
102
{ACAD_REACTORS
330
6B16
102
}
330
6B16
100
AcDbVisualStyle
  2
Facepattern
 70
    15
 71
     2
 72
     2
 73
     0
 90
        0
 40
-0.6
 41
-30.0
 62
     5
 63
     7
 74
     1
 91
        4
 64
     7
 65
   257
 75
     1
175
     1
 42
1.0
 92
        8
 66
     7
 43
1.0
 76
     1
 77
     6
 78
     2
 67
     7
 79
     5
170
     0
171
     0
290
     0
174
     0
 93
        1
 44
0.0
173
     0
291
     1
 45
0.0
1001
ACAD
1000
AcDbSavedByObjectVersion
1070
     0
  0
VISUALSTYLE
  5
6B17
102
{ACAD_XDICTIONARY
360
7E1E
102
}
102
{ACAD_REACTORS
330
6B16
102
}
330
6B16
100
AcDbVisualStyle
  2
Flat
 70
     0
 71
     2
 72
     1
 73
     1
 90
        2
 40
-0.6
 41
30.0
 62
     5
 63
     7
 74
     0
 91
        0
 64
     7
 65
   257
 75
     1
175
     1
 42
1.0
 92
        8
 66
     7
 43
1.0
 76
     1
 77
     6
 78
     2
 67
     7
 79
     5
170
     0
171
     0
290
     0
174
     0
 93
       13
 44
0.0
173
     0
291
     1
 45
0.0
1001
ACAD
1000
AcDbSavedByObjectVersion
1070
     0
  0
VISUALSTYLE
  5
6B18
102
{ACAD_XDICTIONARY
360
7E20
102
}
102
{ACAD_REACTORS
330
6B16
102
}
330
6B16
100
AcDbVisualStyle
  2
FlatWithEdges
 70
     1
 71
     2
 72
     1
 73
     1
 90
        2
 40
-0.6
 41
30.0
 62
     5
 63
     7
 74
     1
 91
        0
 64
     7
 65
   257
 75
     1
175
     1
 42
1.0
 92
        0
 66
   257
 43
1.0
 76
     1
 77
     6
 78
     2
 67
     7
 79
     5
170
     0
171
     0
290
     0
174
     0
 93
       13
 44
0.0
173
     0
291
     1
 45
0.0
1001
ACAD
1000
AcDbSavedByObjectVersion
1070
     0
  0
VISUALSTYLE
  5
6B19
102
{ACAD_XDICTIONARY
360
7E22
102
}
102
{ACAD_REACTORS
330
6B16
102
}
330
6B16
100
AcDbVisualStyle
  2
Gouraud
 70
     2
 71
     2
 72
     2
 73
     1
 90
        2
 40
-0.6
 41
30.0
 62
     5
 63
     7
 74
     0
 91
        0
 64
     7
 65
   257
 75
     1
175
     1
 42
1.0
 92
        0
 66
     7
 43
1.0
 76
     1
 77
     6
 78
     2
 67
     7
 79
     5
170
     0
171
     0
290
     0
174
     0
 93
       13
 44
0.0
173
     0
291
     1
 45
0.0
1001
ACAD
1000
AcDbSavedByObjectVersion
1070
     0
  0
VISUALSTYLE
  5
6B1A
102
{ACAD_XDICTIONARY
360
7E24
102
}
102
{ACAD_REACTORS
330
6B16
102
}
330
6B16
100
AcDbVisualStyle
  2
GouraudWithEdges
 70
     3
 71
     2
 72
     2
 73
     1
 90
        2
 40
-0.6
 41
30.0
 62
     5
 63
     7
 74
     1
 91
        0
 64
     7
 65
   257
 75
     1
175
     1
 42
1.0
 92
        0
 66
   257
 43
1.0
 76
     1
 77
     6
 78
     2
 67
     7
 79
     5
170
     0
171
     0
290
     0
174
     0
 93
       13
 44
0.0
173
     0
291
     1
 45
0.0
1001
ACAD
1000
AcDbSavedByObjectVersion
1070
     0
  0
VISUALSTYLE
  5
6B1E
102
{ACAD_XDICTIONARY
360
7E2C
102
}
102
{ACAD_REACTORS
330
6B16
102
}
330
6B16
100
AcDbVisualStyle
  2
Hidden
 70
     6
 71
     1
 72
     2
 73
     2
 90
        0
 40
-0.6
 41
-30.0
 62
     5
 63
     7
 74
     2
 91
        2
 64
     7
 65
   257
 75
     2
175
     1
 42
40.0
 92
        0
 66
   257
 43
1.0
 76
     1
 77
     6
 78
     2
 67
     7
 79
     3
170
     0
171
     0
290
     0
174
     0
 93
        1
 44
0.0
173
     0
291
     0
 45
0.0
1001
ACAD
1000
AcDbSavedByObjectVersion
1070
     0
  0
VISUALSTYLE
  5
6B2C
102
{ACAD_XDICTIONARY
360
7E48
102
}
102
{ACAD_REACTORS
330
6B16
102
}
330
6B16
100
AcDbVisualStyle
  2
JitterOff
 70
    20
 71
     2
 72
     2
 73
     0
 90
        0
 40
-0.6
 41
-30.0
 62
     5
 63
     7
 74
     1
 91
        4
 64
     7
 65
   257
 75
     1
175
     1
 42
1.0
 92
       10
 66
     7
 43
1.0
 76
     1
 77
     6
 78
     2
 67
     7
 79
     5
170
     0
171
     0
290
     0
174
     0
 93
        1
 44
0.0
173
     0
291
     1
 45
0.0
1001
ACAD
1000
AcDbSavedByObjectVersion
1070
     0
  0
VISUALSTYLE
  5
6B24
102
{ACAD_XDICTIONARY
360
7E38
102
}
102
{ACAD_REACTORS
330
6B16
102
}
330
6B16
100
AcDbVisualStyle
  2
Linepattern
 70
    14
 71
     2
 72
     2
 73
     0
 90
        0
 40
-0.6
 41
-30.0
 62
     5
 63
     7
 74
     1
 91
        4
 64
     7
 65
   257
 75
     7
175
     7
 42
1.0
 92
        8
 66
     7
 43
1.0
 76
     1
 77
     6
 78
     2
 67
     7
 79
     5
170
     0
171
     0
290
     0
174
     0
 93
        1
 44
0.0
173
     0
291
     1
 45
0.0
1001
ACAD
1000
AcDbSavedByObjectVersion
1070
     0
  0
VISUALSTYLE
  5
6B2D
102
{ACAD_XDICTIONARY
360
7E4A
102
}
102
{ACAD_REACTORS
330
6B16
102
}
330
6B16
100
AcDbVisualStyle
  2
OverhangOff
 70
    21
 71
     2
 72
     2
 73
     0
 90
        0
 40
-0.6
 41
-30.0
 62
     5
 63
     7
 74
     1
 91
        4
 64
     7
 65
   257
 75
     1
175
     1
 42
1.0
 92
        9
 66
     7
 43
1.0
 76
     1
 77
     6
 78
     2
 67
     7
 79
     5
170
     0
171
     0
290
     0
174
     0
 93
        1
 44
0.0
173
     0
291
     1
 45
0.0
1001
ACAD
1000
AcDbSavedByObjectVersion
1070
     0
  0
VISUALSTYLE
  5
6B20
102
{ACAD_XDICTIONARY
360
7E30
102
}
102
{ACAD_REACTORS
330
6B16
102
}
330
6B16
100
AcDbVisualStyle
  2
Realistic
 70
     8
 71
     2
 72
     2
 73
     0
 90
        2
 40
-0.6
 41
30.0
 62
     5
 63
     7
 74
     0
 91
        0
 64
     7
 65
   257
 75
     1
175
     1
 42
1.0
 92
        8
 66
   257
 43
1.0
 76
     1
 77
     6
 78
     2
 67
     7
 79
     3
170
     0
171
     0
290
     0
174
     0
 93
       13
 44
0.0
173
     0
291
     0
 45
0.0
1001
ACAD
1000
AcDbSavedByObjectVersion
1070
     0
  0
VISUALSTYLE
  5
6B2B
102
{ACAD_XDICTIONARY
360
7E46
102
}
102
{ACAD_REACTORS
330
6B16
102
}
330
6B16
100
AcDbVisualStyle
  2
Shaded
 70
    27
 71
     2
 72
     2
 73
     1
 90
        2
 40
-0.6
 41
30.0
 62
     5
 63
     7
 74
     0
 91
        4
 64
     7
 65
   257
 75
     1
175
     1
 42
1.0
 92
        8
 66
   257
 43
1.0
 76
     1
 77
     6
 78
     2
 67
     8
 79
     3
170
     0
171
     0
290
     0
174
     0
 93
        5
 44
0.0
173
     0
291
     0
 45
0.0
1001
ACAD
1000
AcDbSavedByObjectVersion
1070
     0
  0
VISUALSTYLE
  5
6B2A
102
{ACAD_XDICTIONARY
360
7E44
102
}
102
{ACAD_REACTORS
330
6B16
102
}
330
6B16
100
AcDbVisualStyle
  2
Shaded with edges
 70
    26
 71
     2
 72
     2
 73
     1
 90
        2
 40
-0.6
 41
30.0
 62
     5
 63
     7
 74
     1
 91
       10
 64
     7
 65
   257
 75
     2
175
     1
 42
1.0
 92
        8
 66
   257
 43
1.0
 76
     1
 77
     6
 78
     2
 67
     7
 79
     3
170
     0
171
     0
290
     0
174
     0
 93
        5
 44
0.0
173
     0
291
     0
 45
0.0
1001
ACAD
1000
AcDbSavedByObjectVersion
1070
     0
  0
VISUALSTYLE
  5
6B27
102
{ACAD_XDICTIONARY
360
7E3E
102
}
102
{ACAD_REACTORS
330
6B16
102
}
330
6B16
100
AcDbVisualStyle
  2
Shades of Gray
 70
    23
 71
     2
 72
     2
 73
     3
 90
        0
 40
-0.6
 41
-30.0
 62
     5
 63
     7
 74
     2
 91
        2
 64
     7
 65
     7
 75
     1
175
     1
 42
40.0
 92
        8
 66
     7
 43
1.0
 76
     1
 77
     6
 78
     2
 67
     7
 79
     3
170
     0
171
     0
290
     0
174
     0
 93
        1
 44
0.0
173
     0
291
     0
 45
0.0
1001
ACAD
1000
AcDbSavedByObjectVersion
1070
     0
  0
VISUALSTYLE
  5
6B28
102
{ACAD_XDICTIONARY
360
7E40
102
}
102
{ACAD_REACTORS
330
6B16
102
}
330
6B16
100
AcDbVisualStyle
  2
Sketchy
 70
    24
 71
     1
 72
     2
 73
     2
 90
        0
 40
-0.6
 41
-30.0
 62
     5
 63
     7
 74
     2
 91
        2
 64
     7
 65
     7
 75
     1
175
     1
 42
40.0
 92
       11
 66
     7
 43
1.0
 76
     1
 77
     6
 78
     2
 67
     7
 79
     6
170
     0
171
     0
290
     0
174
     0
 93
        1
 44
0.0
173
     0
291
     0
 45
0.0
1001
ACAD
1000
AcDbSavedByObjectVersion
1070
     0
  0
VISUALSTYLE
  5
6B23
102
{ACAD_XDICTIONARY
360
7E36
102
}
102
{ACAD_REACTORS
330
6B16
102
}
330
6B16
100
AcDbVisualStyle
  2
Thicken
 70
    13
 71
     2
 72
     2
 73
     0
 90
        0
 40
-0.6
 41
-30.0
 62
     5
 63
     7
 74
     1
 91
        4
 64
     7
 65
   257
 75
     1
175
     1
 42
1.0
 92
       12
 66
     7
 43
1.0
 76
     1
 77
     6
 78
     2
 67
     7
 79
     5
170
     0
171
     0
290
     0
174
     0
 93
        1
 44
0.0
173
     0
291
     1
 45
0.0
1001
ACAD
1000
AcDbSavedByObjectVersion
1070
     0
  0
VISUALSTYLE
  5
6B1D
102
{ACAD_XDICTIONARY
360
7E2A
102
}
102
{ACAD_REACTORS
330
6B16
102
}
330
6B16
100
AcDbVisualStyle
  2
Wireframe
 70
     5
 71
     0
 72
     2
 73
     0
 90
        0
 40
-0.6
 41
-30.0
 62
     5
 63
     7
 74
     1
 91
        4
 64
     7
 65
   257
 75
     1
175
     1
 42
1.0
 92
        0
 66
   257
 43
1.0
 76
     1
 77
     6
 78
     2
 67
     7
 79
     3
170
     0
171
     0
290
     0
174
     0
 93
        1
 44
0.0
173
     0
291
     0
 45
0.0
1001
ACAD
1000
AcDbSavedByObjectVersion
1070
     0
  0
VISUALSTYLE
  5
6B29
102
{ACAD_XDICTIONARY
360
7E42
102
}
102
{ACAD_REACTORS
330
6B16
102
}
330
6B16
100
AcDbVisualStyle
  2
X-Ray
 70
    25
 71
     2
 72
     2
 73
     1
 90
        1
 40
0.5
 41
-30.0
 62
     5
 63
     7
 74
     1
 91
        0
 64
     7
 65
   257
 75
     1
175
     1
 42
1.0
 92
        8
 66
     7
 43
1.0
 76
     1
 77
     6
 78
     2
 67
     7
 79
     3
170
     0
171
     0
290
     0
174
     0
 93
       13
 44
0.0
173
     0
291
     0
 45
0.0
1001
ACAD
1000
AcDbSavedByObjectVersion
1070
     0
  0
DICTIONARYVAR
  5
7108
102
{ACAD_REACTORS
330
1BF
102
}
330
1BF
100
DictionaryVariables
280
     0
  1
1:1
  0
DICTIONARYVAR
  5
7107
102
{ACAD_REACTORS
330
1BF
102
}
330
1BF
100
DictionaryVariables
280
     0
  1
STANDARD
  0
DICTIONARYVAR
  5
7106
102
{ACAD_REACTORS
330
1BF
102
}
330
1BF
100
DictionaryVariables
280
     0
  1
STANDARD
  0
DICTIONARYVAR
  5
710A
102
{ACAD_REACTORS
330
1BF
102
}
330
1BF
100
DictionaryVariables
280
     0
  1
1
  0
DICTIONARYVAR
  5
7109
102
{ACAD_REACTORS
330
1BF
102
}
330
1BF
100
DictionaryVariables
280
     0
  1
0
  0
DICTIONARYVAR
  5
1C0
102
{ACAD_REACTORS
330
1BF
102
}
330
1BF
100
DictionaryVariables
280
     0
  1
96
  0
DICTIONARYVAR
  5
7E15
102
{ACAD_REACTORS
330
1BF
102
}
330
1BF
100
DictionaryVariables
280
     0
  1
2
  0
DICTIONARY
  5
7E4F
330
6B48
100
AcDbDictionary
280
     1
281
     1
  3
ACAD_XREC_ROUNDTRIP
360
7E50
  0
DICTIONARY
  5
7E51
330
6B49
100
AcDbDictionary
280
     1
281
     1
  3
ACAD_XREC_ROUNDTRIP
360
7E52
  0
DICTIONARY
  5
6B07
330
6B06
100
AcDbDictionary
280
     1
281
     1
  3
ACAD_XREC_ROUNDTRIP
360
7E1C
  3
BUMPTILE
360
6B09
  3
DIFFUSETILE
360
6B08
  3
OPACITYTILE
360
6B0C
  3
REFLECTIONTILE
360
6B0B
  3
REFRACTIONTILE
360
6B0D
  3
SPECULARTILE
360
6B0A
  0
DICTIONARY
  5
6AFF
330
6AFE
100
AcDbDictionary
280
     1
281
     1
  3
ACAD_XREC_ROUNDTRIP
360
7E1B
  3
BUMPTILE
360
6B01
  3
DIFFUSETILE
360
6B00
  3
OPACITYTILE
360
6B04
  3
REFLECTIONTILE
360
6B03
  3
REFRACTIONTILE
360
6B05
  3
SPECULARTILE
360
6B02
  0
DICTIONARY
  5
6B0F
330
6B0E
100
AcDbDictionary
280
     1
281
     1
  3
ACAD_XREC_ROUNDTRIP
360
7E1D
  3
BUMPTILE
360
6B11
  3
DIFFUSETILE
360
6B10
  3
OPACITYTILE
360
6B14
  3
REFLECTIONTILE
360
6B13
  3
REFRACTIONTILE
360
6B15
  3
SPECULARTILE
360
6B12
  0
DICTIONARY
  5
7E17
330
6B45
100
AcDbDictionary
280
     1
281
     1
  3
ACAD_XREC_ROUNDTRIP
360
7E18
  0
DICTIONARY
  5
708F
330
6B31
100
AcDbDictionary
280
     1
281
     1
  3
ACAD_ROUNDTRIP_2008_TABLESTYLE_CELLSTYLEMAP
360
7E16
  3
ACAD_XREC_ROUNDTRIP
360
7E4E
  0
DICTIONARY
  5
7E28
330
6B1C
100
AcDbDictionary
280
     1
281
     1
  3
ACAD_XREC_ROUNDTRIP
360
7E29
  0
DICTIONARY
  5
7E26
330
6B1B
100
AcDbDictionary
280
     1
281
     1
  3
ACAD_XREC_ROUNDTRIP
360
7E27
  0
DICTIONARY
  5
7E34
330
6B22
100
AcDbDictionary
280
     1
281
     1
  3
ACAD_XREC_ROUNDTRIP
360
7E35
  0
DICTIONARY
  5
7E3C
330
6B26
100
AcDbDictionary
280
     1
281
     1
  3
ACAD_XREC_ROUNDTRIP
360
7E3D
  0
DICTIONARY
  5
7E2E
330
6B1F
100
AcDbDictionary
280
     1
281
     1
  3
ACAD_XREC_ROUNDTRIP
360
7E2F
  0
DICTIONARY
  5
7E32
330
6B21
100
AcDbDictionary
280
     1
281
     1
  3
ACAD_XREC_ROUNDTRIP
360
7E33
  0
DICTIONARY
  5
7E4C
330
6B2E
100
AcDbDictionary
280
     1
281
     1
  3
ACAD_XREC_ROUNDTRIP
360
7E4D
  0
DICTIONARY
  5
7E3A
330
6B25
100
AcDbDictionary
280
     1
281
     1
  3
ACAD_XREC_ROUNDTRIP
360
7E3B
  0
DICTIONARY
  5
7E1E
330
6B17
100
AcDbDictionary
280
     1
281
     1
  3
ACAD_XREC_ROUNDTRIP
360
7E1F
  0
DICTIONARY
  5
7E20
330
6B18
100
AcDbDictionary
280
     1
281
     1
  3
ACAD_XREC_ROUNDTRIP
360
7E21
  0
DICTIONARY
  5
7E22
330
6B19
100
AcDbDictionary
280
     1
281
     1
  3
ACAD_XREC_ROUNDTRIP
360
7E23
  0
DICTIONARY
  5
7E24
330
6B1A
100
AcDbDictionary
280
     1
281
     1
  3
ACAD_XREC_ROUNDTRIP
360
7E25
  0
DICTIONARY
  5
7E2C
330
6B1E
100
AcDbDictionary
280
     1
281
     1
  3
ACAD_XREC_ROUNDTRIP
360
7E2D
  0
DICTIONARY
  5
7E48
330
6B2C
100
AcDbDictionary
280
     1
281
     1
  3
ACAD_XREC_ROUNDTRIP
360
7E49
  0
DICTIONARY
  5
7E38
330
6B24
100
AcDbDictionary
280
     1
281
     1
  3
ACAD_XREC_ROUNDTRIP
360
7E39
  0
DICTIONARY
  5
7E4A
330
6B2D
100
AcDbDictionary
280
     1
281
     1
  3
ACAD_XREC_ROUNDTRIP
360
7E4B
  0
DICTIONARY
  5
7E30
330
6B20
100
AcDbDictionary
280
     1
281
     1
  3
ACAD_XREC_ROUNDTRIP
360
7E31
  0
DICTIONARY
  5
7E46
330
6B2B
100
AcDbDictionary
280
     1
281
     1
  3
ACAD_XREC_ROUNDTRIP
360
7E47
  0
DICTIONARY
  5
7E44
330
6B2A
100
AcDbDictionary
280
     1
281
     1
  3
ACAD_XREC_ROUNDTRIP
360
7E45
  0
DICTIONARY
  5
7E3E
330
6B27
100
AcDbDictionary
280
     1
281
     1
  3
ACAD_XREC_ROUNDTRIP
360
7E3F
  0
DICTIONARY
  5
7E40
330
6B28
100
AcDbDictionary
280
     1
281
     1
  3
ACAD_XREC_ROUNDTRIP
360
7E41
  0
DICTIONARY
  5
7E36
330
6B23
100
AcDbDictionary
280
     1
281
     1
  3
ACAD_XREC_ROUNDTRIP
360
7E37
  0
DICTIONARY
  5
7E2A
330
6B1D
100
AcDbDictionary
280
     1
281
     1
  3
ACAD_XREC_ROUNDTRIP
360
7E2B
  0
DICTIONARY
  5
7E42
330
6B29
100
AcDbDictionary
280
     1
281
     1
  3
ACAD_XREC_ROUNDTRIP
360
7E43
  0
XRECORD
  5
7E50
102
{ACAD_REACTORS
330
7E4F
102
}
330
7E4F
100
AcDbXrecord
280
     1
102
SHADEPLOT
 70
     0
102
SHADEPLOTRESLEVEL
 70
     2
102
SHADEPLOTCUSTOMDPI
 70
   300
  0
XRECORD
  5
7E52
102
{ACAD_REACTORS
330
7E51
102
}
330
7E51
100
AcDbXrecord
280
     1
102
SHADEPLOT
 70
     0
102
SHADEPLOTRESLEVEL
 70
     2
102
SHADEPLOTCUSTOMDPI
 70
   300
  0
XRECORD
  5
7E1C
102
{ACAD_REACTORS
330
6B07
102
}
330
6B07
100
AcDbXrecord
280
     1
102
MATERIAL
148
0.0
149
0.0
149
0.0
 93
        0
 94
      127
282
     0
 72
     0
 77
     0
171
     0
175
     0
179
     0
273
     0
  0
XRECORD
  5
6B09
102
{ACAD_REACTORS
330
6B07
102
}
330
6B07
100
AcDbXrecord
280
     1
270
     1
271
     1
  0
XRECORD
  5
6B08
102
{ACAD_REACTORS
330
6B07
102
}
330
6B07
100
AcDbXrecord
280
     1
270
     1
271
     1
  0
XRECORD
  5
6B0C
102
{ACAD_REACTORS
330
6B07
102
}
330
6B07
100
AcDbXrecord
280
     1
270
     1
271
     1
  0
XRECORD
  5
6B0B
102
{ACAD_REACTORS
330
6B07
102
}
330
6B07
100
AcDbXrecord
280
     1
270
     1
271
     1
  0
XRECORD
  5
6B0D
102
{ACAD_REACTORS
330
6B07
102
}
330
6B07
100
AcDbXrecord
280
     1
270
     1
271
     1
  0
XRECORD
  5
6B0A
102
{ACAD_REACTORS
330
6B07
102
}
330
6B07
100
AcDbXrecord
280
     1
270
     1
271
     1
  0
XRECORD
  5
7E1B
102
{ACAD_REACTORS
330
6AFF
102
}
330
6AFF
100
AcDbXrecord
280
     1
102
MATERIAL
148
0.0
149
0.0
149
0.0
 93
        0
 94
      127
282
     0
 72
     0
 77
     0
171
     0
175
     0
179
     0
273
     0
  0
XRECORD
  5
6B01
102
{ACAD_REACTORS
330
6AFF
102
}
330
6AFF
100
AcDbXrecord
280
     1
270
     1
271
     1
  0
XRECORD
  5
6B00
102
{ACAD_REACTORS
330
6AFF
102
}
330
6AFF
100
AcDbXrecord
280
     1
270
     1
271
     1
  0
XRECORD
  5
6B04
102
{ACAD_REACTORS
330
6AFF
102
}
330
6AFF
100
AcDbXrecord
280
     1
270
     1
271
     1
  0
XRECORD
  5
6B03
102
{ACAD_REACTORS
330
6AFF
102
}
330
6AFF
100
AcDbXrecord
280
     1
270
     1
271
     1
  0
XRECORD
  5
6B05
102
{ACAD_REACTORS
330
6AFF
102
}
330
6AFF
100
AcDbXrecord
280
     1
270
     1
271
     1
  0
XRECORD
  5
6B02
102
{ACAD_REACTORS
330
6AFF
102
}
330
6AFF
100
AcDbXrecord
280
     1
270
     1
271
     1
  0
XRECORD
  5
7E1D
102
{ACAD_REACTORS
330
6B0F
102
}
330
6B0F
100
AcDbXrecord
280
     1
102
MATERIAL
148
0.0
149
0.0
149
0.0
 93
        0
 94
      127
282
     0
 72
     0
 77
     0
171
     0
175
     0
179
     0
273
     0
  0
XRECORD
  5
6B11
102
{ACAD_REACTORS
330
6B0F
102
}
330
6B0F
100
AcDbXrecord
280
     1
270
     1
271
     1
  0
XRECORD
  5
6B10
102
{ACAD_REACTORS
330
6B0F
102
}
330
6B0F
100
AcDbXrecord
280
     1
270
     1
271
     1
  0
XRECORD
  5
6B14
102
{ACAD_REACTORS
330
6B0F
102
}
330
6B0F
100
AcDbXrecord
280
     1
270
     1
271
     1
  0
XRECORD
  5
6B13
102
{ACAD_REACTORS
330
6B0F
102
}
330
6B0F
100
AcDbXrecord
280
     1
270
     1
271
     1
  0
XRECORD
  5
6B15
102
{ACAD_REACTORS
330
6B0F
102
}
330
6B0F
100
AcDbXrecord
280
     1
270
     1
271
     1
  0
XRECORD
  5
6B12
102
{ACAD_REACTORS
330
6B0F
102
}
330
6B0F
100
AcDbXrecord
280
     1
270
     1
271
     1
  0
XRECORD
  5
7E18
102
{ACAD_REACTORS
330
7E17
102
}
330
7E17
100
AcDbXrecord
280
     1
102
ACAD_ROUNDTRIP_2012_MLEADER_STYLE
298
     1
  0
CELLSTYLEMAP
  5
7E16
102
{ACAD_REACTORS
330
708F
102
}
330
708F
100
AcDbCellStyleMap
 90
        3
300
CELLSTYLE
  1
TABLEFORMAT_BEGIN
 90
        5
170
     1
 91
        0
 92
    32768
 62
   257
 93
        1
300
CONTENTFORMAT
  1
CONTENTFORMAT_BEGIN
 90
        0
 91
        0
 92
      512
 93
        0
300

 40
0.0
140
1.0
 94
        5
 62
     0
340
10
144
0.25
309
CONTENTFORMAT_END
171
     0
 94
        0
309
TABLEFORMAT_END
  1
CELLSTYLE_BEGIN
 90
        1
 91
        1
300
_TITLE
309
CELLSTYLE_END
300
CELLSTYLE
  1
TABLEFORMAT_BEGIN
 90
        5
170
     1
 91
        0
 92
        0
 62
   257
 93
        1
300
CONTENTFORMAT
  1
CONTENTFORMAT_BEGIN
 90
        0
 91
        0
 92
      512
 93
        0
300

 40
0.0
140
1.0
 94
        5
 62
     0
340
10
144
0.18
309
CONTENTFORMAT_END
171
     0
 94
        0
309
TABLEFORMAT_END
  1
CELLSTYLE_BEGIN
 90
        2
 91
        1
300
_HEADER
309
CELLSTYLE_END
300
CELLSTYLE
  1
TABLEFORMAT_BEGIN
 90
        5
170
     1
 91
        0
 92
        0
 62
   257
 93
        1
300
CONTENTFORMAT
  1
CONTENTFORMAT_BEGIN
 90
        0
 91
        0
 92
      512
 93
        0
300

 40
0.0
140
1.0
 94
        2
 62
     0
340
10
144
0.18
309
CONTENTFORMAT_END
171
     0
 94
        0
309
TABLEFORMAT_END
  1
CELLSTYLE_BEGIN
 90
        3
 91
        2
300
_DATA
309
CELLSTYLE_END
  0
XRECORD
  5
7E4E
102
{ACAD_REACTORS
330
708F
102
}
330
708F
100
AcDbXrecord
280
     1
102
ACAD_ROUNDTRIP_PRE2007_TABLESTYLE
 90
      512
 91
        0
  1

 92
      512
 93
        0
  2

 94
      512
 95
        0
  3

  0
XRECORD
  5
7E29
102
{ACAD_REACTORS
330
7E28
102
}
330
7E28
100
AcDbXrecord
280
     1
102
RTVSPropertyOp0
 70
     1
102
RTVSPropertyOp1
 70
     1
102
RTVSPropertyOp2
 70
     1
102
RTVSPropertyOp3
 70
     1
102
RTVSPropertyOp4
 70
     1
102
RTVSPropertyOp5
 70
     1
102
RTVSPropertyOp6
 70
     1
102
RTVSPropertyOp7
 70
     1
102
RTVSPropertyOp8
 70
     1
102
RTVSPropertyOp9
 70
     1
102
RTVSPropertyOp10
 70
     1
102
RTVSPropertyOp11
 70
     1
102
RTVSPropertyOp12
 70
     1
102
RTVSPropertyOp13
 70
     1
102
RTVSPropertyOp14
 70
     1
102
RTVSPropertyOp15
 70
     1
102
RTVSPropertyOp16
 70
     1
102
RTVSPropertyOp17
 70
     1
102
RTVSPropertyOp18
 70
     1
102
RTVSPropertyOp19
 70
     1
102
RTVSPropertyOp20
 70
     1
102
RTVSPropertyOp21
 70
     1
102
RTVSPropertyOp22
 70
     1
102
RTVSPropertyOp23
 70
     1
102
RTVSPropertyOp24
 70
     1
102
RTVSPropertyOp25
 70
     1
102
RTVSPropertyOp26
 70
     1
102
RTVSPropertyOp27
 70
     1
102
RTVSPropertyOp28
 70
     1
102
RTVSPropertyOp29
 70
     1
102
RTVSPropertyOp30
 70
     1
102
RTVSPropertyOp31
 70
     1
102
RTVSPropertyOp32
 70
     1
  0
XRECORD
  5
7E27
102
{ACAD_REACTORS
330
7E26
102
}
330
7E26
100
AcDbXrecord
280
     1
102
RTVSPropertyOp0
 70
     1
102
RTVSPropertyOp1
 70
     1
102
RTVSPropertyOp2
 70
     1
102
RTVSPropertyOp3
 70
     1
102
RTVSPropertyOp4
 70
     1
102
RTVSPropertyOp5
 70
     1
102
RTVSPropertyOp6
 70
     1
102
RTVSPropertyOp7
 70
     1
102
RTVSPropertyOp8
 70
     1
102
RTVSPropertyOp9
 70
     1
102
RTVSPropertyOp10
 70
     1
102
RTVSPropertyOp11
 70
     1
102
RTVSPropertyOp12
 70
     1
102
RTVSPropertyOp13
 70
     1
102
RTVSPropertyOp14
 70
     1
102
RTVSPropertyOp15
 70
     1
102
RTVSPropertyOp16
 70
     1
102
RTVSPropertyOp17
 70
     1
102
RTVSPropertyOp18
 70
     1
102
RTVSPropertyOp19
 70
     1
102
RTVSPropertyOp20
 70
     1
102
RTVSPropertyOp21
 70
     1
102
RTVSPropertyOp22
 70
     1
102
RTVSPropertyOp23
 70
     1
102
RTVSPropertyOp24
 70
     1
102
RTVSPropertyOp25
 70
     1
102
RTVSPropertyOp26
 70
     1
102
RTVSPropertyOp27
 70
     1
102
RTVSPropertyOp28
 70
     1
102
RTVSPropertyOp29
 70
     1
102
RTVSPropertyOp30
 70
     1
102
RTVSPropertyOp31
 70
     1
102
RTVSPropertyOp32
 70
     1
  0
XRECORD
  5
7E35
102
{ACAD_REACTORS
330
7E34
102
}
330
7E34
100
AcDbXrecord
280
     1
102
RTVSPropertyOp0
 70
     1
102
RTVSPropertyOp1
 70
     1
102
RTVSPropertyOp2
 70
     1
102
RTVSPropertyOp3
 70
     1
102
RTVSPropertyOp4
 70
     1
102
RTVSPropertyOp5
 70
     1
102
RTVSPropertyOp6
 70
     1
102
RTVSPropertyOp7
 70
     1
102
RTVSPropertyOp8
 70
     1
102
RTVSPropertyOp9
 70
     1
102
RTVSPropertyOp10
 70
     1
102
RTVSPropertyOp11
 70
     1
102
RTVSPropertyOp12
 70
     1
102
RTVSPropertyOp13
 70
     1
102
RTVSPropertyOp14
 70
     1
102
RTVSPropertyOp15
 70
     1
102
RTVSPropertyOp16
 70
     1
102
RTVSPropertyOp17
 70
     1
102
RTVSPropertyOp18
 70
     1
102
RTVSPropertyOp19
 70
     1
102
RTVSPropertyOp20
 70
     1
102
RTVSPropertyOp21
 70
     1
102
RTVSPropertyOp22
 70
     1
102
RTVSPropertyOp23
 70
     1
102
RTVSPropertyOp24
 70
     1
102
RTVSPropertyOp25
 70
     1
102
RTVSPropertyOp26
 70
     1
102
RTVSPropertyOp27
 70
     1
102
RTVSPropertyOp28
 70
     1
102
RTVSPropertyOp29
 70
     1
102
RTVSPropertyOp30
 70
     1
102
RTVSPropertyOp31
 70
     1
102
RTVSPropertyOp32
 70
     1
  0
XRECORD
  5
7E3D
102
{ACAD_REACTORS
330
7E3C
102
}
330
7E3C
100
AcDbXrecord
280
     1
102
RTVSPropertyOp0
 70
     1
102
RTVSPropertyOp1
 70
     1
102
RTVSPropertyOp2
 70
     1
102
RTVSPropertyOp3
 70
     1
102
RTVSPropertyOp4
 70
     1
102
RTVSPropertyOp5
 70
     1
102
RTVSPropertyOp6
 70
     1
102
RTVSPropertyOp7
 70
     1
102
RTVSPropertyOp8
 70
     1
102
RTVSPropertyOp9
 70
     1
102
RTVSPropertyOp10
 70
     1
102
RTVSPropertyOp11
 70
     1
102
RTVSPropertyOp12
 70
     1
102
RTVSPropertyOp13
 70
     1
102
RTVSPropertyOp14
 70
     1
102
RTVSPropertyOp15
 70
     1
102
RTVSPropertyOp16
 70
     1
102
RTVSPropertyOp17
 70
     1
102
RTVSPropertyOp18
 70
     1
102
RTVSPropertyOp19
 70
     1
102
RTVSPropertyOp20
 70
     1
102
RTVSPropertyOp21
 70
     1
102
RTVSPropertyOp22
 70
     1
102
RTVSPropertyOp23
 70
     1
102
RTVSPropertyOp24
 70
     1
102
RTVSPropertyOp25
 70
     1
102
RTVSPropertyOp26
 70
     1
102
RTVSPropertyOp27
 70
     1
102
RTVSPropertyOp28
 70
     1
102
RTVSPropertyOp29
 70
     1
102
RTVSPropertyOp30
 70
     1
102
RTVSPropertyOp31
 70
     1
102
RTVSPropertyOp32
 70
     1
  0
XRECORD
  5
7E2F
102
{ACAD_REACTORS
330
7E2E
102
}
330
7E2E
100
AcDbXrecord
280
     1
102
RTVSPropertyOp0
 70
     1
102
RTVSPropertyOp1
 70
     1
102
RTVSPropertyOp2
 70
     1
102
RTVSPropertyOp3
 70
     1
102
RTVSPropertyOp4
 70
     1
102
RTVSPropertyOp5
 70
     1
102
RTVSPropertyOp6
 70
     1
102
RTVSPropertyOp7
 70
     1
102
RTVSPropertyOp8
 70
     1
102
RTVSPropertyOp9
 70
     1
102
RTVSPropertyOp10
 70
     1
102
RTVSPropertyOp11
 70
     1
102
RTVSPropertyOp12
 70
     1
102
RTVSPropertyOp13
 70
     1
102
RTVSPropertyOp14
 70
     1
102
RTVSPropertyOp15
 70
     1
102
RTVSPropertyOp16
 70
     1
102
RTVSPropertyOp17
 70
     1
102
RTVSPropertyOp18
 70
     1
102
RTVSPropertyOp19
 70
     1
102
RTVSPropertyOp20
 70
     1
102
RTVSPropertyOp21
 70
     1
102
RTVSPropertyOp22
 70
     1
102
RTVSPropertyOp23
 70
     1
102
RTVSPropertyOp24
 70
     1
102
RTVSPropertyOp25
 70
     1
102
RTVSPropertyOp26
 70
     1
102
RTVSPropertyOp27
 70
     1
102
RTVSPropertyOp28
 70
     1
102
RTVSPropertyOp29
 70
     1
102
RTVSPropertyOp30
 70
     1
102
RTVSPropertyOp31
 70
     1
102
RTVSPropertyOp32
 70
     1
  0
XRECORD
  5
7E33
102
{ACAD_REACTORS
330
7E32
102
}
330
7E32
100
AcDbXrecord
280
     1
102
RTVSPropertyOp0
 70
     1
102
RTVSPropertyOp1
 70
     1
102
RTVSPropertyOp2
 70
     1
102
RTVSPropertyOp3
 70
     1
102
RTVSPropertyOp4
 70
     1
102
RTVSPropertyOp5
 70
     1
102
RTVSPropertyOp6
 70
     1
102
RTVSPropertyOp7
 70
     1
102
RTVSPropertyOp8
 70
     1
102
RTVSPropertyOp9
 70
     1
102
RTVSPropertyOp10
 70
     1
102
RTVSPropertyOp11
 70
     1
102
RTVSPropertyOp12
 70
     1
102
RTVSPropertyOp13
 70
     1
102
RTVSPropertyOp14
 70
     1
102
RTVSPropertyOp15
 70
     1
102
RTVSPropertyOp16
 70
     1
102
RTVSPropertyOp17
 70
     1
102
RTVSPropertyOp18
 70
     1
102
RTVSPropertyOp19
 70
     1
102
RTVSPropertyOp20
 70
     1
102
RTVSPropertyOp21
 70
     1
102
RTVSPropertyOp22
 70
     1
102
RTVSPropertyOp23
 70
     1
102
RTVSPropertyOp24
 70
     1
102
RTVSPropertyOp25
 70
     1
102
RTVSPropertyOp26
 70
     1
102
RTVSPropertyOp27
 70
     1
102
RTVSPropertyOp28
 70
     1
102
RTVSPropertyOp29
 70
     1
102
RTVSPropertyOp30
 70
     1
102
RTVSPropertyOp31
 70
     1
102
RTVSPropertyOp32
 70
     1
  0
XRECORD
  5
7E4D
102
{ACAD_REACTORS
330
7E4C
102
}
330
7E4C
100
AcDbXrecord
280
     1
102
RTVSPropertyOp0
 70
     0
102
RTVSPropertyOp1
 70
     0
102
RTVSPropertyOp2
 70
     0
102
RTVSPropertyOp3
 70
     0
102
RTVSPropertyOp4
 70
     0
102
RTVSPropertyOp5
 70
     0
102
RTVSPropertyOp6
 70
     0
102
RTVSPropertyOp7
 70
     0
102
RTVSPropertyOp8
 70
     0
102
RTVSPropertyOp9
 70
     0
102
RTVSPropertyOp10
 70
     0
102
RTVSPropertyOp11
 70
     0
102
RTVSPropertyOp12
 70
     0
102
RTVSPropertyOp13
 70
     0
102
RTVSPropertyOp14
 70
     2
102
RTVSPropertyOp15
 70
     0
102
RTVSPropertyOp16
 70
     0
102
RTVSPropertyOp17
 70
     0
102
RTVSPropertyOp18
 70
     0
102
RTVSPropertyOp19
 70
     0
102
RTVSPropertyOp20
 70
     0
102
RTVSPropertyOp21
 70
     0
102
RTVSPropertyOp22
 70
     0
102
RTVSPropertyOp23
 70
     0
102
RTVSPropertyOp24
 70
     0
102
RTVSPropertyOp25
 70
     0
102
RTVSPropertyOp26
 70
     0
102
RTVSPropertyOp27
 70
     0
102
RTVSPropertyOp28
 70
     0
102
RTVSPropertyOp29
 70
     0
102
RTVSPropertyOp30
 70
     0
102
RTVSPropertyOp31
 70
     0
102
RTVSPropertyOp32
 70
     0
  0
XRECORD
  5
7E3B
102
{ACAD_REACTORS
330
7E3A
102
}
330
7E3A
100
AcDbXrecord
280
     1
102
RTVSPropertyOp0
 70
     1
102
RTVSPropertyOp1
 70
     1
102
RTVSPropertyOp2
 70
     1
102
RTVSPropertyOp3
 70
     1
102
RTVSPropertyOp4
 70
     1
102
RTVSPropertyOp5
 70
     1
102
RTVSPropertyOp6
 70
     1
102
RTVSPropertyOp7
 70
     1
102
RTVSPropertyOp8
 70
     1
102
RTVSPropertyOp9
 70
     1
102
RTVSPropertyOp10
 70
     1
102
RTVSPropertyOp11
 70
     1
102
RTVSPropertyOp12
 70
     1
102
RTVSPropertyOp13
 70
     1
102
RTVSPropertyOp14
 70
     1
102
RTVSPropertyOp15
 70
     1
102
RTVSPropertyOp16
 70
     1
102
RTVSPropertyOp17
 70
     1
102
RTVSPropertyOp18
 70
     1
102
RTVSPropertyOp19
 70
     1
102
RTVSPropertyOp20
 70
     1
102
RTVSPropertyOp21
 70
     1
102
RTVSPropertyOp22
 70
     1
102
RTVSPropertyOp23
 70
     1
102
RTVSPropertyOp24
 70
     1
102
RTVSPropertyOp25
 70
     1
102
RTVSPropertyOp26
 70
     1
102
RTVSPropertyOp27
 70
     1
102
RTVSPropertyOp28
 70
     1
102
RTVSPropertyOp29
 70
     1
102
RTVSPropertyOp30
 70
     1
102
RTVSPropertyOp31
 70
     1
102
RTVSPropertyOp32
 70
     1
  0
XRECORD
  5
7E1F
102
{ACAD_REACTORS
330
7E1E
102
}
330
7E1E
100
AcDbXrecord
280
     1
102
RTVSPropertyOp0
 70
     1
102
RTVSPropertyOp1
 70
     1
102
RTVSPropertyOp2
 70
     1
102
RTVSPropertyOp3
 70
     1
102
RTVSPropertyOp4
 70
     1
102
RTVSPropertyOp5
 70
     1
102
RTVSPropertyOp6
 70
     1
102
RTVSPropertyOp7
 70
     1
102
RTVSPropertyOp8
 70
     1
102
RTVSPropertyOp9
 70
     1
102
RTVSPropertyOp10
 70
     1
102
RTVSPropertyOp11
 70
     1
102
RTVSPropertyOp12
 70
     1
102
RTVSPropertyOp13
 70
     1
102
RTVSPropertyOp14
 70
     1
102
RTVSPropertyOp15
 70
     1
102
RTVSPropertyOp16
 70
     1
102
RTVSPropertyOp17
 70
     1
102
RTVSPropertyOp18
 70
     1
102
RTVSPropertyOp19
 70
     1
102
RTVSPropertyOp20
 70
     1
102
RTVSPropertyOp21
 70
     1
102
RTVSPropertyOp22
 70
     1
102
RTVSPropertyOp23
 70
     1
102
RTVSPropertyOp24
 70
     1
102
RTVSPropertyOp25
 70
     1
102
RTVSPropertyOp26
 70
     1
102
RTVSPropertyOp27
 70
     1
102
RTVSPropertyOp28
 70
     1
102
RTVSPropertyOp29
 70
     1
102
RTVSPropertyOp30
 70
     1
102
RTVSPropertyOp31
 70
     1
102
RTVSPropertyOp32
 70
     1
  0
XRECORD
  5
7E21
102
{ACAD_REACTORS
330
7E20
102
}
330
7E20
100
AcDbXrecord
280
     1
102
RTVSPropertyOp0
 70
     1
102
RTVSPropertyOp1
 70
     1
102
RTVSPropertyOp2
 70
     1
102
RTVSPropertyOp3
 70
     1
102
RTVSPropertyOp4
 70
     1
102
RTVSPropertyOp5
 70
     1
102
RTVSPropertyOp6
 70
     1
102
RTVSPropertyOp7
 70
     1
102
RTVSPropertyOp8
 70
     1
102
RTVSPropertyOp9
 70
     1
102
RTVSPropertyOp10
 70
     1
102
RTVSPropertyOp11
 70
     1
102
RTVSPropertyOp12
 70
     1
102
RTVSPropertyOp13
 70
     1
102
RTVSPropertyOp14
 70
     1
102
RTVSPropertyOp15
 70
     1
102
RTVSPropertyOp16
 70
     1
102
RTVSPropertyOp17
 70
     1
102
RTVSPropertyOp18
 70
     1
102
RTVSPropertyOp19
 70
     1
102
RTVSPropertyOp20
 70
     1
102
RTVSPropertyOp21
 70
     1
102
RTVSPropertyOp22
 70
     1
102
RTVSPropertyOp23
 70
     1
102
RTVSPropertyOp24
 70
     1
102
RTVSPropertyOp25
 70
     1
102
RTVSPropertyOp26
 70
     1
102
RTVSPropertyOp27
 70
     1
102
RTVSPropertyOp28
 70
     1
102
RTVSPropertyOp29
 70
     1
102
RTVSPropertyOp30
 70
     1
102
RTVSPropertyOp31
 70
     1
102
RTVSPropertyOp32
 70
     1
  0
XRECORD
  5
7E23
102
{ACAD_REACTORS
330
7E22
102
}
330
7E22
100
AcDbXrecord
280
     1
102
RTVSPropertyOp0
 70
     1
102
RTVSPropertyOp1
 70
     1
102
RTVSPropertyOp2
 70
     1
102
RTVSPropertyOp3
 70
     1
102
RTVSPropertyOp4
 70
     1
102
RTVSPropertyOp5
 70
     1
102
RTVSPropertyOp6
 70
     1
102
RTVSPropertyOp7
 70
     1
102
RTVSPropertyOp8
 70
     1
102
RTVSPropertyOp9
 70
     1
102
RTVSPropertyOp10
 70
     1
102
RTVSPropertyOp11
 70
     1
102
RTVSPropertyOp12
 70
     1
102
RTVSPropertyOp13
 70
     1
102
RTVSPropertyOp14
 70
     1
102
RTVSPropertyOp15
 70
     1
102
RTVSPropertyOp16
 70
     1
102
RTVSPropertyOp17
 70
     1
102
RTVSPropertyOp18
 70
     1
102
RTVSPropertyOp19
 70
     1
102
RTVSPropertyOp20
 70
     1
102
RTVSPropertyOp21
 70
     1
102
RTVSPropertyOp22
 70
     1
102
RTVSPropertyOp23
 70
     1
102
RTVSPropertyOp24
 70
     1
102
RTVSPropertyOp25
 70
     1
102
RTVSPropertyOp26
 70
     1
102
RTVSPropertyOp27
 70
     1
102
RTVSPropertyOp28
 70
     1
102
RTVSPropertyOp29
 70
     1
102
RTVSPropertyOp30
 70
     1
102
RTVSPropertyOp31
 70
     1
102
RTVSPropertyOp32
 70
     1
  0
XRECORD
  5
7E25
102
{ACAD_REACTORS
330
7E24
102
}
330
7E24
100
AcDbXrecord
280
     1
102
RTVSPropertyOp0
 70
     1
102
RTVSPropertyOp1
 70
     1
102
RTVSPropertyOp2
 70
     1
102
RTVSPropertyOp3
 70
     1
102
RTVSPropertyOp4
 70
     1
102
RTVSPropertyOp5
 70
     1
102
RTVSPropertyOp6
 70
     1
102
RTVSPropertyOp7
 70
     1
102
RTVSPropertyOp8
 70
     1
102
RTVSPropertyOp9
 70
     1
102
RTVSPropertyOp10
 70
     1
102
RTVSPropertyOp11
 70
     1
102
RTVSPropertyOp12
 70
     1
102
RTVSPropertyOp13
 70
     1
102
RTVSPropertyOp14
 70
     1
102
RTVSPropertyOp15
 70
     1
102
RTVSPropertyOp16
 70
     1
102
RTVSPropertyOp17
 70
     1
102
RTVSPropertyOp18
 70
     1
102
RTVSPropertyOp19
 70
     1
102
RTVSPropertyOp20
 70
     1
102
RTVSPropertyOp21
 70
     1
102
RTVSPropertyOp22
 70
     1
102
RTVSPropertyOp23
 70
     1
102
RTVSPropertyOp24
 70
     1
102
RTVSPropertyOp25
 70
     1
102
RTVSPropertyOp26
 70
     1
102
RTVSPropertyOp27
 70
     1
102
RTVSPropertyOp28
 70
     1
102
RTVSPropertyOp29
 70
     1
102
RTVSPropertyOp30
 70
     1
102
RTVSPropertyOp31
 70
     1
102
RTVSPropertyOp32
 70
     1
  0
XRECORD
  5
7E2D
102
{ACAD_REACTORS
330
7E2C
102
}
330
7E2C
100
AcDbXrecord
280
     1
102
RTVSPropertyOp0
 70
     1
102
RTVSPropertyOp1
 70
     1
102
RTVSPropertyOp2
 70
     1
102
RTVSPropertyOp3
 70
     1
102
RTVSPropertyOp4
 70
     1
102
RTVSPropertyOp5
 70
     1
102
RTVSPropertyOp6
 70
     1
102
RTVSPropertyOp7
 70
     1
102
RTVSPropertyOp8
 70
     1
102
RTVSPropertyOp9
 70
     1
102
RTVSPropertyOp10
 70
     1
102
RTVSPropertyOp11
 70
     1
102
RTVSPropertyOp12
 70
     1
102
RTVSPropertyOp13
 70
     1
102
RTVSPropertyOp14
 70
     1
102
RTVSPropertyOp15
 70
     1
102
RTVSPropertyOp16
 70
     1
102
RTVSPropertyOp17
 70
     1
102
RTVSPropertyOp18
 70
     1
102
RTVSPropertyOp19
 70
     1
102
RTVSPropertyOp20
 70
     1
102
RTVSPropertyOp21
 70
     1
102
RTVSPropertyOp22
 70
     1
102
RTVSPropertyOp23
 70
     1
102
RTVSPropertyOp24
 70
     1
102
RTVSPropertyOp25
 70
     1
102
RTVSPropertyOp26
 70
     1
102
RTVSPropertyOp27
 70
     1
102
RTVSPropertyOp28
 70
     1
102
RTVSPropertyOp29
 70
     1
102
RTVSPropertyOp30
 70
     1
102
RTVSPropertyOp31
 70
     1
102
RTVSPropertyOp32
 70
     1
  0
XRECORD
  5
7E49
102
{ACAD_REACTORS
330
7E48
102
}
330
7E48
100
AcDbXrecord
280
     1
102
RTVSPropertyOp0
 70
     0
102
RTVSPropertyOp1
 70
     0
102
RTVSPropertyOp2
 70
     0
102
RTVSPropertyOp3
 70
     0
102
RTVSPropertyOp4
 70
     0
102
RTVSPropertyOp5
 70
     0
102
RTVSPropertyOp6
 70
     0
102
RTVSPropertyOp7
 70
     0
102
RTVSPropertyOp8
 70
     0
102
RTVSPropertyOp9
 70
     0
102
RTVSPropertyOp10
 70
     0
102
RTVSPropertyOp11
 70
     0
102
RTVSPropertyOp12
 70
     0
102
RTVSPropertyOp13
 70
     0
102
RTVSPropertyOp14
 70
     2
102
RTVSPropertyOp15
 70
     0
102
RTVSPropertyOp16
 70
     0
102
RTVSPropertyOp17
 70
     0
102
RTVSPropertyOp18
 70
     0
102
RTVSPropertyOp19
 70
     0
102
RTVSPropertyOp20
 70
     0
102
RTVSPropertyOp21
 70
     0
102
RTVSPropertyOp22
 70
     0
102
RTVSPropertyOp23
 70
     0
102
RTVSPropertyOp24
 70
     0
102
RTVSPropertyOp25
 70
     0
102
RTVSPropertyOp26
 70
     0
102
RTVSPropertyOp27
 70
     0
102
RTVSPropertyOp28
 70
     0
102
RTVSPropertyOp29
 70
     0
102
RTVSPropertyOp30
 70
     0
102
RTVSPropertyOp31
 70
     0
102
RTVSPropertyOp32
 70
     0
  0
XRECORD
  5
7E39
102
{ACAD_REACTORS
330
7E38
102
}
330
7E38
100
AcDbXrecord
280
     1
102
RTVSPropertyOp0
 70
     1
102
RTVSPropertyOp1
 70
     1
102
RTVSPropertyOp2
 70
     1
102
RTVSPropertyOp3
 70
     1
102
RTVSPropertyOp4
 70
     1
102
RTVSPropertyOp5
 70
     1
102
RTVSPropertyOp6
 70
     1
102
RTVSPropertyOp7
 70
     1
102
RTVSPropertyOp8
 70
     1
102
RTVSPropertyOp9
 70
     1
102
RTVSPropertyOp10
 70
     1
102
RTVSPropertyOp11
 70
     1
102
RTVSPropertyOp12
 70
     1
102
RTVSPropertyOp13
 70
     1
102
RTVSPropertyOp14
 70
     1
102
RTVSPropertyOp15
 70
     1
102
RTVSPropertyOp16
 70
     1
102
RTVSPropertyOp17
 70
     1
102
RTVSPropertyOp18
 70
     1
102
RTVSPropertyOp19
 70
     1
102
RTVSPropertyOp20
 70
     1
102
RTVSPropertyOp21
 70
     1
102
RTVSPropertyOp22
 70
     1
102
RTVSPropertyOp23
 70
     1
102
RTVSPropertyOp24
 70
     1
102
RTVSPropertyOp25
 70
     1
102
RTVSPropertyOp26
 70
     1
102
RTVSPropertyOp27
 70
     1
102
RTVSPropertyOp28
 70
     1
102
RTVSPropertyOp29
 70
     1
102
RTVSPropertyOp30
 70
     1
102
RTVSPropertyOp31
 70
     1
102
RTVSPropertyOp32
 70
     1
  0
XRECORD
  5
7E4B
102
{ACAD_REACTORS
330
7E4A
102
}
330
7E4A
100
AcDbXrecord
280
     1
102
RTVSPropertyOp0
 70
     0
102
RTVSPropertyOp1
 70
     0
102
RTVSPropertyOp2
 70
     0
102
RTVSPropertyOp3
 70
     0
102
RTVSPropertyOp4
 70
     0
102
RTVSPropertyOp5
 70
     0
102
RTVSPropertyOp6
 70
     0
102
RTVSPropertyOp7
 70
     0
102
RTVSPropertyOp8
 70
     0
102
RTVSPropertyOp9
 70
     0
102
RTVSPropertyOp10
 70
     0
102
RTVSPropertyOp11
 70
     0
102
RTVSPropertyOp12
 70
     0
102
RTVSPropertyOp13
 70
     0
102
RTVSPropertyOp14
 70
     2
102
RTVSPropertyOp15
 70
     0
102
RTVSPropertyOp16
 70
     0
102
RTVSPropertyOp17
 70
     0
102
RTVSPropertyOp18
 70
     0
102
RTVSPropertyOp19
 70
     0
102
RTVSPropertyOp20
 70
     0
102
RTVSPropertyOp21
 70
     0
102
RTVSPropertyOp22
 70
     0
102
RTVSPropertyOp23
 70
     0
102
RTVSPropertyOp24
 70
     0
102
RTVSPropertyOp25
 70
     0
102
RTVSPropertyOp26
 70
     0
102
RTVSPropertyOp27
 70
     0
102
RTVSPropertyOp28
 70
     0
102
RTVSPropertyOp29
 70
     0
102
RTVSPropertyOp30
 70
     0
102
RTVSPropertyOp31
 70
     0
102
RTVSPropertyOp32
 70
     0
  0
XRECORD
  5
7E31
102
{ACAD_REACTORS
330
7E30
102
}
330
7E30
100
AcDbXrecord
280
     1
102
RTVSPropertyOp0
 70
     1
102
RTVSPropertyOp1
 70
     1
102
RTVSPropertyOp2
 70
     1
102
RTVSPropertyOp3
 70
     1
102
RTVSPropertyOp4
 70
     1
102
RTVSPropertyOp5
 70
     1
102
RTVSPropertyOp6
 70
     1
102
RTVSPropertyOp7
 70
     1
102
RTVSPropertyOp8
 70
     1
102
RTVSPropertyOp9
 70
     1
102
RTVSPropertyOp10
 70
     1
102
RTVSPropertyOp11
 70
     1
102
RTVSPropertyOp12
 70
     1
102
RTVSPropertyOp13
 70
     1
102
RTVSPropertyOp14
 70
     1
102
RTVSPropertyOp15
 70
     1
102
RTVSPropertyOp16
 70
     1
102
RTVSPropertyOp17
 70
     1
102
RTVSPropertyOp18
 70
     1
102
RTVSPropertyOp19
 70
     1
102
RTVSPropertyOp20
 70
     1
102
RTVSPropertyOp21
 70
     1
102
RTVSPropertyOp22
 70
     1
102
RTVSPropertyOp23
 70
     1
102
RTVSPropertyOp24
 70
     1
102
RTVSPropertyOp25
 70
     1
102
RTVSPropertyOp26
 70
     1
102
RTVSPropertyOp27
 70
     1
102
RTVSPropertyOp28
 70
     1
102
RTVSPropertyOp29
 70
     1
102
RTVSPropertyOp30
 70
     1
102
RTVSPropertyOp31
 70
     1
102
RTVSPropertyOp32
 70
     1
  0
XRECORD
  5
7E47
102
{ACAD_REACTORS
330
7E46
102
}
330
7E46
100
AcDbXrecord
280
     1
102
RTVSPropertyOp0
 70
     1
102
RTVSPropertyOp1
 70
     1
102
RTVSPropertyOp2
 70
     1
102
RTVSPropertyOp3
 70
     1
102
RTVSPropertyOp4
 70
     1
102
RTVSPropertyOp5
 70
     1
102
RTVSPropertyOp6
 70
     1
102
RTVSPropertyOp7
 70
     1
102
RTVSPropertyOp8
 70
     1
102
RTVSPropertyOp9
 70
     1
102
RTVSPropertyOp10
 70
     1
102
RTVSPropertyOp11
 70
     1
102
RTVSPropertyOp12
 70
     1
102
RTVSPropertyOp13
 70
     1
102
RTVSPropertyOp14
 70
     1
102
RTVSPropertyOp15
 70
     1
102
RTVSPropertyOp16
 70
     1
102
RTVSPropertyOp17
 70
     1
102
RTVSPropertyOp18
 70
     1
102
RTVSPropertyOp19
 70
     1
102
RTVSPropertyOp20
 70
     1
102
RTVSPropertyOp21
 70
     1
102
RTVSPropertyOp22
 70
     1
102
RTVSPropertyOp23
 70
     1
102
RTVSPropertyOp24
 70
     1
102
RTVSPropertyOp25
 70
     1
102
RTVSPropertyOp26
 70
     1
102
RTVSPropertyOp27
 70
     1
102
RTVSPropertyOp28
 70
     1
102
RTVSPropertyOp29
 70
     1
102
RTVSPropertyOp30
 70
     1
102
RTVSPropertyOp31
 70
     1
102
RTVSPropertyOp32
 70
     1
  0
XRECORD
  5
7E45
102
{ACAD_REACTORS
330
7E44
102
}
330
7E44
100
AcDbXrecord
280
     1
102
RTVSPropertyOp0
 70
     1
102
RTVSPropertyOp1
 70
     1
102
RTVSPropertyOp2
 70
     1
102
RTVSPropertyOp3
 70
     1
102
RTVSPropertyOp4
 70
     1
102
RTVSPropertyOp5
 70
     1
102
RTVSPropertyOp6
 70
     1
102
RTVSPropertyOp7
 70
     1
102
RTVSPropertyOp8
 70
     1
102
RTVSPropertyOp9
 70
     1
102
RTVSPropertyOp10
 70
     1
102
RTVSPropertyOp11
 70
     1
102
RTVSPropertyOp12
 70
     1
102
RTVSPropertyOp13
 70
     1
102
RTVSPropertyOp14
 70
     1
102
RTVSPropertyOp15
 70
     1
102
RTVSPropertyOp16
 70
     1
102
RTVSPropertyOp17
 70
     1
102
RTVSPropertyOp18
 70
     1
102
RTVSPropertyOp19
 70
     1
102
RTVSPropertyOp20
 70
     1
102
RTVSPropertyOp21
 70
     1
102
RTVSPropertyOp22
 70
     1
102
RTVSPropertyOp23
 70
     1
102
RTVSPropertyOp24
 70
     1
102
RTVSPropertyOp25
 70
     1
102
RTVSPropertyOp26
 70
     1
102
RTVSPropertyOp27
 70
     1
102
RTVSPropertyOp28
 70
     1
102
RTVSPropertyOp29
 70
     1
102
RTVSPropertyOp30
 70
     1
102
RTVSPropertyOp31
 70
     1
102
RTVSPropertyOp32
 70
     1
  0
XRECORD
  5
7E3F
102
{ACAD_REACTORS
330
7E3E
102
}
330
7E3E
100
AcDbXrecord
280
     1
102
RTVSPropertyOp0
 70
     1
102
RTVSPropertyOp1
 70
     1
102
RTVSPropertyOp2
 70
     1
102
RTVSPropertyOp3
 70
     1
102
RTVSPropertyOp4
 70
     1
102
RTVSPropertyOp5
 70
     1
102
RTVSPropertyOp6
 70
     1
102
RTVSPropertyOp7
 70
     1
102
RTVSPropertyOp8
 70
     1
102
RTVSPropertyOp9
 70
     1
102
RTVSPropertyOp10
 70
     1
102
RTVSPropertyOp11
 70
     1
102
RTVSPropertyOp12
 70
     1
102
RTVSPropertyOp13
 70
     1
102
RTVSPropertyOp14
 70
     1
102
RTVSPropertyOp15
 70
     1
102
RTVSPropertyOp16
 70
     1
102
RTVSPropertyOp17
 70
     1
102
RTVSPropertyOp18
 70
     1
102
RTVSPropertyOp19
 70
     1
102
RTVSPropertyOp20
 70
     1
102
RTVSPropertyOp21
 70
     1
102
RTVSPropertyOp22
 70
     1
102
RTVSPropertyOp23
 70
     1
102
RTVSPropertyOp24
 70
     1
102
RTVSPropertyOp25
 70
     1
102
RTVSPropertyOp26
 70
     1
102
RTVSPropertyOp27
 70
     1
102
RTVSPropertyOp28
 70
     1
102
RTVSPropertyOp29
 70
     1
102
RTVSPropertyOp30
 70
     1
102
RTVSPropertyOp31
 70
     1
102
RTVSPropertyOp32
 70
     1
  0
XRECORD
  5
7E41
102
{ACAD_REACTORS
330
7E40
102
}
330
7E40
100
AcDbXrecord
280
     1
102
RTVSPropertyOp0
 70
     1
102
RTVSPropertyOp1
 70
     1
102
RTVSPropertyOp2
 70
     1
102
RTVSPropertyOp3
 70
     1
102
RTVSPropertyOp4
 70
     1
102
RTVSPropertyOp5
 70
     1
102
RTVSPropertyOp6
 70
     1
102
RTVSPropertyOp7
 70
     1
102
RTVSPropertyOp8
 70
     1
102
RTVSPropertyOp9
 70
     1
102
RTVSPropertyOp10
 70
     1
102
RTVSPropertyOp11
 70
     1
102
RTVSPropertyOp12
 70
     1
102
RTVSPropertyOp13
 70
     1
102
RTVSPropertyOp14
 70
     1
102
RTVSPropertyOp15
 70
     1
102
RTVSPropertyOp16
 70
     1
102
RTVSPropertyOp17
 70
     1
102
RTVSPropertyOp18
 70
     1
102
RTVSPropertyOp19
 70
     1
102
RTVSPropertyOp20
 70
     1
102
RTVSPropertyOp21
 70
     1
102
RTVSPropertyOp22
 70
     1
102
RTVSPropertyOp23
 70
     1
102
RTVSPropertyOp24
 70
     1
102
RTVSPropertyOp25
 70
     1
102
RTVSPropertyOp26
 70
     1
102
RTVSPropertyOp27
 70
     1
102
RTVSPropertyOp28
 70
     1
102
RTVSPropertyOp29
 70
     1
102
RTVSPropertyOp30
 70
     1
102
RTVSPropertyOp31
 70
     1
102
RTVSPropertyOp32
 70
     1
  0
XRECORD
  5
7E37
102
{ACAD_REACTORS
330
7E36
102
}
330
7E36
100
AcDbXrecord
280
     1
102
RTVSPropertyOp0
 70
     1
102
RTVSPropertyOp1
 70
     1
102
RTVSPropertyOp2
 70
     1
102
RTVSPropertyOp3
 70
     1
102
RTVSPropertyOp4
 70
     1
102
RTVSPropertyOp5
 70
     1
102
RTVSPropertyOp6
 70
     1
102
RTVSPropertyOp7
 70
     1
102
RTVSPropertyOp8
 70
     1
102
RTVSPropertyOp9
 70
     1
102
RTVSPropertyOp10
 70
     1
102
RTVSPropertyOp11
 70
     1
102
RTVSPropertyOp12
 70
     1
102
RTVSPropertyOp13
 70
     1
102
RTVSPropertyOp14
 70
     1
102
RTVSPropertyOp15
 70
     1
102
RTVSPropertyOp16
 70
     1
102
RTVSPropertyOp17
 70
     1
102
RTVSPropertyOp18
 70
     1
102
RTVSPropertyOp19
 70
     1
102
RTVSPropertyOp20
 70
     1
102
RTVSPropertyOp21
 70
     1
102
RTVSPropertyOp22
 70
     1
102
RTVSPropertyOp23
 70
     1
102
RTVSPropertyOp24
 70
     1
102
RTVSPropertyOp25
 70
     1
102
RTVSPropertyOp26
 70
     1
102
RTVSPropertyOp27
 70
     1
102
RTVSPropertyOp28
 70
     1
102
RTVSPropertyOp29
 70
     1
102
RTVSPropertyOp30
 70
     1
102
RTVSPropertyOp31
 70
     1
102
RTVSPropertyOp32
 70
     1
  0
XRECORD
  5
7E2B
102
{ACAD_REACTORS
330
7E2A
102
}
330
7E2A
100
AcDbXrecord
280
     1
102
RTVSPropertyOp0
 70
     1
102
RTVSPropertyOp1
 70
     1
102
RTVSPropertyOp2
 70
     1
102
RTVSPropertyOp3
 70
     1
102
RTVSPropertyOp4
 70
     1
102
RTVSPropertyOp5
 70
     1
102
RTVSPropertyOp6
 70
     1
102
RTVSPropertyOp7
 70
     1
102
RTVSPropertyOp8
 70
     1
102
RTVSPropertyOp9
 70
     1
102
RTVSPropertyOp10
 70
     1
102
RTVSPropertyOp11
 70
     1
102
RTVSPropertyOp12
 70
     1
102
RTVSPropertyOp13
 70
     1
102
RTVSPropertyOp14
 70
     1
102
RTVSPropertyOp15
 70
     1
102
RTVSPropertyOp16
 70
     1
102
RTVSPropertyOp17
 70
     1
102
RTVSPropertyOp18
 70
     1
102
RTVSPropertyOp19
 70
     1
102
RTVSPropertyOp20
 70
     1
102
RTVSPropertyOp21
 70
     1
102
RTVSPropertyOp22
 70
     1
102
RTVSPropertyOp23
 70
     1
102
RTVSPropertyOp24
 70
     1
102
RTVSPropertyOp25
 70
     1
102
RTVSPropertyOp26
 70
     1
102
RTVSPropertyOp27
 70
     1
102
RTVSPropertyOp28
 70
     1
102
RTVSPropertyOp29
 70
     1
102
RTVSPropertyOp30
 70
     1
102
RTVSPropertyOp31
 70
     1
102
RTVSPropertyOp32
 70
     1
  0
XRECORD
  5
7E43
102
{ACAD_REACTORS
330
7E42
102
}
330
7E42
100
AcDbXrecord
280
     1
102
RTVSPropertyOp0
 70
     1
102
RTVSPropertyOp1
 70
     1
102
RTVSPropertyOp2
 70
     1
102
RTVSPropertyOp3
 70
     1
102
RTVSPropertyOp4
 70
     1
102
RTVSPropertyOp5
 70
     1
102
RTVSPropertyOp6
 70
     1
102
RTVSPropertyOp7
 70
     1
102
RTVSPropertyOp8
 70
     1
102
RTVSPropertyOp9
 70
     1
102
RTVSPropertyOp10
 70
     1
102
RTVSPropertyOp11
 70
     1
102
RTVSPropertyOp12
 70
     1
102
RTVSPropertyOp13
 70
     1
102
RTVSPropertyOp14
 70
     1
102
RTVSPropertyOp15
 70
     1
102
RTVSPropertyOp16
 70
     1
102
RTVSPropertyOp17
 70
     1
102
RTVSPropertyOp18
 70
     1
102
RTVSPropertyOp19
 70
     1
102
RTVSPropertyOp20
 70
     1
102
RTVSPropertyOp21
 70
     1
102
RTVSPropertyOp22
 70
     1
102
RTVSPropertyOp23
 70
     1
102
RTVSPropertyOp24
 70
     1
102
RTVSPropertyOp25
 70
     1
102
RTVSPropertyOp26
 70
     1
102
RTVSPropertyOp27
 70
     1
102
RTVSPropertyOp28
 70
     1
102
RTVSPropertyOp29
 70
     1
102
RTVSPropertyOp30
 70
     1
102
RTVSPropertyOp31
 70
     1
102
RTVSPropertyOp32
 70
     1
  0
ENDSEC
  0
EOF
