  0
SECTION
  2
HEADER
  9
$ACADVER
  1
AC1015
  9
$ACADMAINTVER
 70
    20
  9
$DWGCODEPAGE
  3
ANSI_949
  9
$INSBASE
 10
0.0
 20
0.0
 30
0.0
  9
$EXTMIN
 10
-0.0000015737485183
 20
0.0000002897279501
 30
0.0
  9
$EXTMAX
 10
410.999998126251
 20
106.8494172271602
 30
0.0
  9
$LIMMIN
 10
0.0
 20
0.0
  9
$LIMMAX
 10
420.0
 20
297.0
  9
$ORTHOMODE
 70
     1
  9
$REGENMODE
 70
     1
  9
$FILLMODE
 70
     1
  9
$QTEXTMODE
 70
     0
  9
$MIRRTEXT
 70
     1
  9
$LTSCALE
 40
10.0
  9
$ATTMODE
 70
     1
  9
$TEXTSIZE
 40
3.149999999999999
  9
$TRACEWID
 40
0.05
  9
$TEXTSTYLE
  7
CIWHS
  9
$CLAYER
  8
0
  9
$CELTYPE
  6
BYLAYER
  9
$CECOLOR
 62
   256
  9
$CELTSCALE
 40
1.0
  9
$DISPSILH
 70
     0
  9
$DIMSCALE
 40
1.5
  9
$DIMASZ
 40
2.5
  9
$DIMEXO
 40
0.8
  9
$DIMDLI
 40
0.8
  9
$DIMRND
 40
0.0
  9
$DIMDLE
 40
0.0
  9
$DIMEXE
 40
0.8
  9
$DIMTP
 40
0.0
  9
$DIMTM
 40
0.0
  9
$DIMTXT
 40
3.0
  9
$DIMCEN
 40
-1.0
  9
$DIMTSZ
 40
0.0
  9
$DIMTOL
 70
     0
  9
$DIMLIM
 70
     0
  9
$DIMTIH
 70
     0
  9
$DIMTOH
 70
     0
  9
$DIMSE1
 70
     0
  9
$DIMSE2
 70
     0
  9
$DIMTAD
 70
     3
  9
$DIMZIN
 70
     8
  9
$DIMBLK
  1

  9
$DIMASO
 70
     1
  9
$DIMSHO
 70
     1
  9
$DIMPOST
  1

  9
$DIMAPOST
  1

  9
$DIMALT
 70
     0
  9
$DIMALTD
 70
     2
  9
$DIMALTF
 40
25.4
  9
$DIMLFAC
 40
1.0
  9
$DIMTOFL
 70
     1
  9
$DIMTVP
 40
0.0
  9
$DIMTIX
 70
     0
  9
$DIMSOXD
 70
     0
  9
$DIMSAH
 70
     0
  9
$DIMBLK1
  1

  9
$DIMBLK2
  1

  9
$DIMSTYLE
  2
STANDARD
  9
$DIMCLRD
 70
   115
  9
$DIMCLRE
 70
   115
  9
$DIMCLRT
 70
     7
  9
$DIMTFAC
 40
1.0
  9
$DIMGAP
 40
1.0
  9
$DIMJUST
 70
     0
  9
$DIMSD1
 70
     0
  9
$DIMSD2
 70
     0
  9
$DIMTOLJ
 70
     1
  9
$DIMTZIN
 70
     0
  9
$DIMALTZ
 70
     0
  9
$DIMALTTZ
 70
     0
  9
$DIMUPT
 70
     0
  9
$DIMDEC
 70
     3
  9
$DIMTDEC
 70
     4
  9
$DIMALTU
 70
     2
  9
$DIMALTTD
 70
     2
  9
$DIMTXSTY
  7
STANDARD
  9
$DIMAUNIT
 70
     0
  9
$DIMADEC
 70
     0
  9
$DIMALTRND
 40
0.0
  9
$DIMAZIN
 70
     0
  9
$DIMDSEP
 70
    46
  9
$DIMATFIT
 70
     3
  9
$DIMFRAC
 70
     0
  9
$DIMLDRBLK
  1

  9
$DIMLUNIT
 70
     2
  9
$DIMLWD
 70
    -2
  9
$DIMLWE
 70
    -2
  9
$DIMTMOVE
 70
     0
  9
$LUNITS
 70
     2
  9
$LUPREC
 70
     4
  9
$SKETCHINC
 40
0.1
  9
$FILLETRAD
 40
0.0
  9
$AUNITS
 70
     0
  9
$AUPREC
 70
     0
  9
$MENU
  1
.
  9
$ELEVATION
 40
0.0
  9
$PELEVATION
 40
0.0
  9
$THICKNESS
 40
0.0
  9
$LIMCHECK
 70
     0
  9
$CHAMFERA
 40
0.5
  9
$CHAMFERB
 40
0.5
  9
$CHAMFERC
 40
1.0
  9
$CHAMFERD
 40
0.0
  9
$SKPOLY
 70
     1
  9
$TDCREATE
 40
2452464.575009942
  9
$TDUCREATE
 40
2452464.200009942
  9
$TDUPDATE
 40
2456842.721664051
  9
$TDUUPDATE
 40
2456842.346664051
  9
$TDINDWG
 40
0.4976196412
  9
$TDUSRTIMER
 40
0.4976196412
  9
$USRTIMER
 70
     1
  9
$ANGBASE
 50
0.0
  9
$ANGDIR
 70
     0
  9
$PDMODE
 70
     0
  9
$PDSIZE
 40
0.0
  9
$PLINEWID
 40
0.5
  9
$SPLFRAME
 70
     0
  9
$SPLINETYPE
 70
     6
  9
$SPLINESEGS
 70
     8
  9
$HANDSEED
  5
5A9F
  9
$SURFTAB1
 70
     6
  9
$SURFTAB2
 70
     6
  9
$SURFTYPE
 70
     6
  9
$SURFU
 70
     6
  9
$SURFV
 70
     6
  9
$UCSBASE
  2

  9
$UCSNAME
  2

  9
$UCSORG
 10
0.0
 20
0.0
 30
0.0
  9
$UCSXDIR
 10
1.0
 20
0.0
 30
0.0
  9
$UCSYDIR
 10
0.0
 20
1.0
 30
0.0
  9
$UCSORTHOREF
  2

  9
$UCSORTHOVIEW
 70
     0
  9
$UCSORGTOP
 10
0.0
 20
0.0
 30
0.0
  9
$UCSORGBOTTOM
 10
0.0
 20
0.0
 30
0.0
  9
$UCSORGLEFT
 10
0.0
 20
0.0
 30
0.0
  9
$UCSORGRIGHT
 10
0.0
 20
0.0
 30
0.0
  9
$UCSORGFRONT
 10
0.0
 20
0.0
 30
0.0
  9
$UCSORGBACK
 10
0.0
 20
0.0
 30
0.0
  9
$PUCSBASE
  2

  9
$PUCSNAME
  2

  9
$PUCSORG
 10
0.0
 20
0.0
 30
0.0
  9
$PUCSXDIR
 10
1.0
 20
0.0
 30
0.0
  9
$PUCSYDIR
 10
0.0
 20
1.0
 30
0.0
  9
$PUCSORTHOREF
  2

  9
$PUCSORTHOVIEW
 70
     0
  9
$PUCSORGTOP
 10
0.0
 20
0.0
 30
0.0
  9
$PUCSORGBOTTOM
 10
0.0
 20
0.0
 30
0.0
  9
$PUCSORGLEFT
 10
0.0
 20
0.0
 30
0.0
  9
$PUCSORGRIGHT
 10
0.0
 20
0.0
 30
0.0
  9
$PUCSORGFRONT
 10
0.0
 20
0.0
 30
0.0
  9
$PUCSORGBACK
 10
0.0
 20
0.0
 30
0.0
  9
$USERI1
 70
     0
  9
$USERI2
 70
   452
  9
$USERI3
 70
     1
  9
$USERI4
 70
     0
  9
$USERI5
 70
     0
  9
$USERR1
 40
0.0
  9
$USERR2
 40
0.0
  9
$USERR3
 40
0.0
  9
$USERR4
 40
0.0
  9
$USERR5
 40
0.0
  9
$WORLDVIEW
 70
     1
  9
$SHADEDGE
 70
     3
  9
$SHADEDIF
 70
    70
  9
$TILEMODE
 70
     1
  9
$MAXACTVP
 70
    48
  9
$PINSBASE
 10
0.0
 20
0.0
 30
0.0
  9
$PLIMCHECK
 70
     0
  9
$PEXTMIN
 10
1.000000000000000E+20
 20
1.000000000000000E+20
 30
1.000000000000000E+20
  9
$PEXTMAX
 10
-1.000000000000000E+20
 20
-1.000000000000000E+20
 30
-1.000000000000000E+20
  9
$PLIMMIN
 10
0.0
 20
0.0
  9
$PLIMMAX
 10
12.0
 20
9.0
  9
$UNITMODE
 70
     0
  9
$VISRETAIN
 70
     1
  9
$PLINEGEN
 70
     0
  9
$PSLTSCALE
 70
     1
  9
$TREEDEPTH
 70
  3020
  9
$CMLSTYLE
  2
STANDARD
  9
$CMLJUST
 70
     0
  9
$CMLSCALE
 40
1.0
  9
$PROXYGRAPHICS
 70
     1
  9
$MEASUREMENT
 70
     0
  9
$CELWEIGHT
370
    -1
  9
$ENDCAPS
280
     0
  9
$JOINSTYLE
280
     0
  9
$LWDISPLAY
290
     0
  9
$INSUNITS
 70
     0
  9
$HYPERLINKBASE
  1

  9
$STYLESHEET
  1

  9
$XEDIT
290
     1
  9
$CEPSNTYPE
380
     0
  9
$PSTYLEMODE
290
     1
  9
$FINGERPRINTGUID
  2
{BB80A552-F21C-4043-A524-DE28EA889FD2}
  9
$VERSIONGUID
  2
{D946F321-4D2A-401E-91CF-FBA51B78C181}
  9
$EXTNAMES
290
     1
  9
$PSVPSCALE
 40
0.0
  9
$OLESTARTUP
290
     0
  0
ENDSEC
  0
SECTION
  2
CLASSES
  0
CLASS
  1
DICTIONARYVAR
  2
AcDbDictionaryVar
  3
ObjectDBX Classes
 90
        0
280
     0
281
     0
  0
CLASS
  1
ACDBDICTIONARYWDFLT
  2
AcDbDictionaryWithDefault
  3
ObjectDBX Classes
 90
        0
280
     0
281
     0
  0
CLASS
  1
MATERIAL
  2
AcDbMaterial
  3
ObjectDBX Classes
 90
     1153
280
     0
281
     0
  0
CLASS
  1
VISUALSTYLE
  2
AcDbVisualStyle
  3
ObjectDBX Classes
 90
     4095
280
     0
281
     0
  0
CLASS
  1
TABLESTYLE
  2
AcDbTableStyle
  3
ObjectDBX Classes
 90
     4095
280
     0
281
     0
  0
CLASS
  1
SCALE
  2
AcDbScale
  3
ObjectDBX Classes
 90
     1153
280
     0
281
     0
  0
CLASS
  1
MLEADERSTYLE
  2
AcDbMLeaderStyle
  3
ACDB_MLEADERSTYLE_CLASS
 90
     4095
280
     0
281
     0
  0
CLASS
  1
SORTENTSTABLE
  2
AcDbSortentsTable
  3
ObjectDBX Classes
 90
        0
280
     0
281
     0
  0
CLASS
  1
CELLSTYLEMAP
  2
AcDbCellStyleMap
  3
ObjectDBX Classes
 90
     1152
280
     0
281
     0
  0
CLASS
  1
ACDBPLACEHOLDER
  2
AcDbPlaceHolder
  3
ObjectDBX Classes
 90
        0
280
     0
281
     0
  0
CLASS
  1
LAYOUT
  2
AcDbLayout
  3
ObjectDBX Classes
 90
        0
280
     0
281
     0
  0
CLASS
  1
ACAD_EVALUATION_GRAPH
  2
AcDbEvalGraph
  3
ObjectDBX Classes
 90
    33921
280
     0
281
     0
  0
CLASS
  1
ACAECUSTOBJ
  2
AcAeEditorObj
  3
AcAeEditorObj
 90
    33792
280
     0
281
     0
  0
CLASS
  1
ACDB_DYNAMICBLOCKPURGEPREVENTER_VERSION
  2
AcDbDynamicBlockPurgePreventer
  3
ObjectDBX Classes
 90
    33921
280
     0
281
     0
  0
ENDSEC
  0
SECTION
  2
TABLES
  0
TABLE
  2
VPORT
  5
8
102
{ACAD_XDICTIONARY
360
44F7
102
}
330
0
100
AcDbSymbolTable
 70
     1
  0
VPORT
  5
4151
330
8
100
AcDbSymbolTableRecord
100
AcDbViewportTableRecord
  2
*ACTIVE
 70
     0
 10
0.0
 20
0.0
 11
1.0
 21
1.0
 12
205.4913496744366
 22
53.42546754502087
 13
0.0
 23
0.0
 14
0.5
 24
0.5
 15
0.5
 25
0.5
 16
0.0
 26
0.0
 36
1.0
 17
0.0
 27
0.0
 37
0.0
 40
182.7807426907147
 41
2.257287705956907
 42
50.0
 43
0.0
 44
0.0
 50
0.0
 51
0.0
 71
     0
 72
   100
 73
     1
 74
     1
 75
     0
 76
     0
 77
     0
 78
     0
281
     0
 65
     1
110
0.0
120
0.0
130
0.0
111
1.0
121
0.0
131
0.0
112
0.0
122
1.0
132
0.0
 79
     0
146
0.0
1001
ACAD_NAV_VCDISPLAY
1070
     3
  0
ENDTAB
  0
TABLE
  2
LTYPE
  5
5
330
0
100
AcDbSymbolTable
 70
     3
  0
LTYPE
  5
13
330
5
100
AcDbSymbolTableRecord
100
AcDbLinetypeTableRecord
  2
BYBLOCK
 70
     0
  3

 72
    65
 73
     0
 40
0.0
  0
LTYPE
  5
14
330
5
100
AcDbSymbolTableRecord
100
AcDbLinetypeTableRecord
  2
BYLAYER
 70
     0
  3

 72
    65
 73
     0
 40
0.0
  0
LTYPE
  5
15
330
5
100
AcDbSymbolTableRecord
100
AcDbLinetypeTableRecord
  2
CONTINUOUS
 70
     0
  3
Solid line
 72
    65
 73
     0
 40
0.0
  0
LTYPE
  5
5332
330
5
100
AcDbSymbolTableRecord
100
AcDbLinetypeTableRecord
  2
CENTER
 70
     0
  3
Center ____ _ ____ _ ____ _ ____ _ ____ _ ____
 72
    65
 73
     4
 40
2.0
 49
1.25
 74
     0
 49
-0.25
 74
     0
 49
0.25
 74
     0
 49
-0.25
 74
     0
  0
LTYPE
  5
5333
330
5
100
AcDbSymbolTableRecord
100
AcDbLinetypeTableRecord
  2
HIDDEN
 70
     0
  3
Hidden __ __ __ __ __ __ __ __ __ __ __ __ __ _
 72
    65
 73
     2
 40
0.375
 49
0.25
 74
     0
 49
-0.125
 74
     0
  0
ENDTAB
  0
TABLE
  2
LAYER
  5
2
102
{ACAD_XDICTIONARY
360
561E
102
}
330
0
100
AcDbSymbolTable
 70
     5
  0
LAYER
  5
F
102
{ACAD_XDICTIONARY
360
4596
102
}
330
2
100
AcDbSymbolTableRecord
100
AcDbLayerTableRecord
  2
0
 70
     0
 62
     7
  6
CONTINUOUS
370
    -3
390
4154
  0
LAYER
  5
24EF
330
2
100
AcDbSymbolTableRecord
100
AcDbLayerTableRecord
  2
DEFPOINTS
 70
     0
 62
     7
  6
CONTINUOUS
290
     0
370
    -3
390
4154
  0
LAYER
  5
5334
102
{ACAD_XDICTIONARY
360
5335
102
}
330
2
100
AcDbSymbolTableRecord
100
AcDbLayerTableRecord
  2
9
 70
     0
 62
     3
  6
CONTINUOUS
370
    -3
390
4154
  0
LAYER
  5
5336
102
{ACAD_XDICTIONARY
360
5337
102
}
330
2
100
AcDbSymbolTableRecord
100
AcDbLayerTableRecord
  2
1
 70
     0
 62
     1
  6
CENTER
370
    -3
390
4154
  0
LAYER
  5
5338
102
{ACAD_XDICTIONARY
360
5339
102
}
330
2
100
AcDbSymbolTableRecord
100
AcDbLayerTableRecord
  2
2
 70
     0
 62
     2
  6
HIDDEN
370
    -3
390
4154
  0
ENDTAB
  0
TABLE
  2
STYLE
  5
3
330
0
100
AcDbSymbolTable
 70
     3
  0
STYLE
  5
10
330
3
100
AcDbSymbolTableRecord
100
AcDbTextStyleTableRecord
  2
STANDARD
 70
     0
 40
0.0
 41
1.0
 50
0.0
 71
     0
 42
3.0
  3
romans.shx
  4

  0
STYLE
  5
24FC
330
3
100
AcDbSymbolTableRecord
100
AcDbTextStyleTableRecord
  2
CIWHS
 70
     0
 40
0.0
 41
1.0
 50
0.0
 71
     0
 42
3.149999999999999
  3
CIES
  4
CIWHS
  0
ENDTAB
  0
TABLE
  2
VIEW
  5
6
330
0
100
AcDbSymbolTable
 70
     0
  0
ENDTAB
  0
TABLE
  2
UCS
  5
7
330
0
100
AcDbSymbolTable
 70
     0
  0
ENDTAB
  0
TABLE
  2
APPID
  5
9
330
0
100
AcDbSymbolTable
 70
     9
  0
APPID
  5
11
330
9
100
AcDbSymbolTableRecord
100
AcDbRegAppTableRecord
  2
ACAD
 70
     0
  0
APPID
  5
2325
330
9
100
AcDbSymbolTableRecord
100
AcDbRegAppTableRecord
  2
MCLBOMATTRIB
 70
     0
  0
APPID
  5
2326
330
9
100
AcDbSymbolTableRecord
100
AcDbRegAppTableRecord
  2
MCLBOM
 70
     0
  0
APPID
  5
42F4
330
9
100
AcDbSymbolTableRecord
100
AcDbRegAppTableRecord
  2
ACAD_NAV_VCDISPLAY
 70
     0
  0
APPID
  5
4577
330
9
100
AcDbSymbolTableRecord
100
AcDbRegAppTableRecord
  2
ACAD_MLEADERVER
 70
     0
  0
APPID
  5
4DA4
330
9
100
AcDbSymbolTableRecord
100
AcDbRegAppTableRecord
  2
ACAD_EXEMPT_FROM_CAD_STANDARDS
 70
     0
  0
APPID
  5
5821
330
9
100
AcDbSymbolTableRecord
100
AcDbRegAppTableRecord
  2
ACAUTHENVIRON
 70
     0
  0
APPID
  5
5985
330
9
100
AcDbSymbolTableRecord
100
AcDbRegAppTableRecord
  2
AcDbDynamicBlockTrueName
 70
     0
  0
APPID
  5
5986
330
9
100
AcDbSymbolTableRecord
100
AcDbRegAppTableRecord
  2
AcDbDynamicBlockGUID
 70
     0
  0
ENDTAB
  0
TABLE
  2
DIMSTYLE
  5
A
330
0
100
AcDbSymbolTable
 70
     1
100
AcDbDimStyleTable
 71
     1
340
1D
  0
DIMSTYLE
105
1D
102
{ACAD_REACTORS
330
5363
330
5364
330
5365
330
5366
330
5367
330
5368
330
5369
330
536A
330
536B
330
536C
330
536D
330
5370
330
5372
330
5373
330
5374
330
5375
330
5377
330
5382
330
5383
102
}
330
A
100
AcDbSymbolTableRecord
100
AcDbDimStyleTableRecord
  2
STANDARD
 70
     0
 41
2.0
140
3.0
176
     2
177
     2
178
     4
340
10
  0
ENDTAB
  0
TABLE
  2
BLOCK_RECORD
  5
1
330
0
100
AcDbSymbolTable
 70
    23
  0
BLOCK_RECORD
  5
19
102
{ACAD_XDICTIONARY
360
49D1
102
}
330
1
100
AcDbSymbolTableRecord
100
AcDbBlockTableRecord
  2
*MODEL_SPACE
340
41A0
  0
BLOCK_RECORD
  5
16
330
1
100
AcDbSymbolTableRecord
100
AcDbBlockTableRecord
  2
*PAPER_SPACE
340
41A1
  0
BLOCK_RECORD
  5
52C8
102
{ACAD_XDICTIONARY
360
52C9
102
}
330
1
100
AcDbSymbolTableRecord
100
AcDbBlockTableRecord
  2
A$C7EC2418A
340
0
102
{BLKREFS
331
5378
102
}
  0
BLOCK_RECORD
  5
52FD
102
{ACAD_XDICTIONARY
360
52FE
102
}
330
1
100
AcDbSymbolTableRecord
100
AcDbBlockTableRecord
  2
A$C78174D0F
340
0
102
{BLKREFS
331
537A
102
}
  0
BLOCK_RECORD
  5
5384
330
1
100
AcDbSymbolTableRecord
100
AcDbBlockTableRecord
  2
*D3
340
0
  0
BLOCK_RECORD
  5
5390
330
1
100
AcDbSymbolTableRecord
100
AcDbBlockTableRecord
  2
*D4
340
0
  0
BLOCK_RECORD
  5
539C
330
1
100
AcDbSymbolTableRecord
100
AcDbBlockTableRecord
  2
*D5
340
0
  0
BLOCK_RECORD
  5
53A8
330
1
100
AcDbSymbolTableRecord
100
AcDbBlockTableRecord
  2
*D6
340
0
  0
BLOCK_RECORD
  5
53B4
330
1
100
AcDbSymbolTableRecord
100
AcDbBlockTableRecord
  2
*D7
340
0
  0
BLOCK_RECORD
  5
53C0
330
1
100
AcDbSymbolTableRecord
100
AcDbBlockTableRecord
  2
*D8
340
0
  0
BLOCK_RECORD
  5
53CC
330
1
100
AcDbSymbolTableRecord
100
AcDbBlockTableRecord
  2
*D9
340
0
  0
BLOCK_RECORD
  5
53D8
330
1
100
AcDbSymbolTableRecord
100
AcDbBlockTableRecord
  2
*D10
340
0
  0
BLOCK_RECORD
  5
53E6
330
1
100
AcDbSymbolTableRecord
100
AcDbBlockTableRecord
  2
*D11
340
0
  0
BLOCK_RECORD
  5
53F2
330
1
100
AcDbSymbolTableRecord
100
AcDbBlockTableRecord
  2
*D12
340
0
  0
BLOCK_RECORD
  5
53FE
330
1
100
AcDbSymbolTableRecord
100
AcDbBlockTableRecord
  2
*D13
340
0
  0
BLOCK_RECORD
  5
540C
330
1
100
AcDbSymbolTableRecord
100
AcDbBlockTableRecord
  2
*D14
340
0
  0
BLOCK_RECORD
  5
5424
330
1
100
AcDbSymbolTableRecord
100
AcDbBlockTableRecord
  2
*D15
340
0
  0
BLOCK_RECORD
  5
5431
330
1
100
AcDbSymbolTableRecord
100
AcDbBlockTableRecord
  2
*D16
340
0
  0
BLOCK_RECORD
  5
543D
330
1
100
AcDbSymbolTableRecord
100
AcDbBlockTableRecord
  2
*D17
340
0
  0
BLOCK_RECORD
  5
544B
330
1
100
AcDbSymbolTableRecord
100
AcDbBlockTableRecord
  2
*D18
340
0
  0
BLOCK_RECORD
  5
5459
330
1
100
AcDbSymbolTableRecord
100
AcDbBlockTableRecord
  2
*D19
340
0
  0
BLOCK_RECORD
  5
5467
330
1
100
AcDbSymbolTableRecord
100
AcDbBlockTableRecord
  2
*D20
340
0
  0
BLOCK_RECORD
  5
5473
330
1
100
AcDbSymbolTableRecord
100
AcDbBlockTableRecord
  2
*D21
340
0
  0
BLOCK_RECORD
  5
584B
102
{ACAD_XDICTIONARY
360
5981
102
}
330
1
100
AcDbSymbolTableRecord
100
AcDbBlockTableRecord
  2
2020SDH
340
0
310
2800000020000000200000000100080000000000000400000000000000000000000000000000000000000000000080000080000000808000800000008000800080800000C0C0C000C0DCC000F0CAA6000020400000206000002080000020A0000020C0000020E00000400000004020000040400000406000004080000040A0
310
000040C0000040E00000600000006020000060400000606000006080000060A0000060C0000060E00000800000008020000080400000806000008080000080A0000080C0000080E00000A0000000A0200000A0400000A0600000A0800000A0A00000A0C00000A0E00000C0000000C0200000C0400000C0600000C0800000C0
310
A00000C0C00000C0E00000E0000000E0200000E0400000E0600000E0800000E0A00000E0C00000E0E00040000000400020004000400040006000400080004000A0004000C0004000E00040200000402020004020400040206000402080004020A0004020C0004020E000404000004040200040404000404060004040800040
310
40A0004040C0004040E00040600000406020004060400040606000406080004060A0004060C0004060E00040800000408020004080400040806000408080004080A0004080C0004080E00040A0000040A0200040A0400040A0600040A0800040A0A00040A0C00040A0E00040C0000040C0200040C0400040C0600040C08000
310
40C0A00040C0C00040C0E00040E0000040E0200040E0400040E0600040E0800040E0A00040E0C00040E0E00080000000800020008000400080006000800080008000A0008000C0008000E00080200000802020008020400080206000802080008020A0008020C0008020E00080400000804020008040400080406000804080
310
008040A0008040C0008040E00080600000806020008060400080606000806080008060A0008060C0008060E00080800000808020008080400080806000808080008080A0008080C0008080E00080A0000080A0200080A0400080A0600080A0800080A0A00080A0C00080A0E00080C0000080C0200080C0400080C0600080C0
310
800080C0A00080C0C00080C0E00080E0000080E0200080E0400080E0600080E0800080E0A00080E0C00080E0E000C0000000C0002000C0004000C0006000C0008000C000A000C000C000C000E000C0200000C0202000C0204000C0206000C0208000C020A000C020C000C020E000C0400000C0402000C0404000C0406000C0
310
408000C040A000C040C000C040E000C0600000C0602000C0604000C0606000C0608000C060A000C060C000C060E000C0800000C0802000C0804000C0806000C0808000C080A000C080C000C080E000C0A00000C0A02000C0A04000C0A06000C0A08000C0A0A000C0A0C000C0A0E000C0C00000C0C02000C0C04000C0C06000
310
C0C08000C0C0A000F0FBFF00A4A0A000808080000000FF0000FF000000FFFF00FF000000FF00FF00FFFF0000FFFFFF00494949494949494949494949494949494949494949494949494949494949494949494949494949494949494949494949494949FFFFFFFFFF4949494949494949494949494949494949494949494949
310
494949FFFF494949FF4949494949494949494949494949494949494949494949494949FFFF494949FF4949494949494949494949494949494949494949494949494949FFFF494949FF4949494949494949494949494949494949494949494949494949FFFF494949FF49494949494949494949494949494949494949494949
310
49494949FFFFFFFFFFFF49494949494949494949FFFFFFFFFFFFFFFFFFFFFFFFFFFFFFFFFF49494949FFFFFFFFFFFFFF49494949FFFF4949494949494949494949494949FFFA4949FAFF49494949FFFF49494949FFFF4949494949494949494949494949FFFA4949FAFF49494949FFFF49494949FFFF494949494949494949
310
4949494949FFFA4949FAFF49494949FFFF49494949FBFBFBFBFBFBFBFBFBFBFBFBFBFBFBFBFBFBFBFBFBFBFBFBFBFBFBFB49494949FFFF4949494949494949494949494949FF49FAFA49FF49494949FFFF49494949FFFF4949494949494949494949494949FF49FAFA49FF49494949FFFF49494949FFFF4949494949494949
310
494949494949FF49FAFA49FF49494949FFFF49494949FFFFFFFFFFFFFFFFFFFFFFFFFFFF49FFFF49FAFA49FF49494949FFFF49494949FFFFFFFFFFFFFFFFFFFFFFFFFFFFFFFFFF49FAFA49FF49494949FFFF49494949FFFF4949494949494949494949494949FF49FAFA49FF49494949FFFF49494949FFFF49494949494949
310
49494949494949FF49FAFA49FF49494949FFFF49494949FFFF4949494949494949494949494949FF49FAFA49FF49494949FFFF49494949FBFBFBFBFBFBFBFBFBFBFBFBFBFBFBFBFBFBFBFBFBFBFBFBFBFBFBFB49494949FFFF4949494949494949494949494949FFFA4949FAFF49494949FFFF49494949FFFF494949494949
310
4949494949494949FFFA4949FAFF49494949FFFF49494949FFFF4949494949494949494949494949FFFA4949FAFF49494949FFFF49494949FFFFFFFFFFFFFFFFFFFFFFFFFFFFFFFFFF49494949FFFFFFFFFFFFFF4949494949494949494949494949494949494949FFFFFFFFFFFF4949494949494949494949494949494949
310
494949494949494949FFFF494949FF4949494949494949494949494949494949494949494949494949FFFF494949FF4949494949494949494949494949494949494949494949494949FFFAFFFFFFFF4949494949494949494949494949494949494949494949494949FFFFFAFFFAFF49494949494949494949494949494949
310
4949494949494949494949FFFFFFFFFF49494949494949494949494949494949494949494949494949494949494949494949494949494949
102
{BLKREFS
331
586F
102
}
1001
AcDbDynamicBlockGUID
1000
{EB76393A-F916-4A22-A23A-DD2FDCB410A8}
  0
ENDTAB
  0
ENDSEC
  0
SECTION
  2
BLOCKS
  0
BLOCK
  5
1A
330
19
100
AcDbEntity
  8
0
100
AcDbBlockBegin
  2
*MODEL_SPACE
 70
     0
 10
0.0
 20
0.0
 30
0.0
  3
*MODEL_SPACE
  1

  0
ENDBLK
  5
1B
330
19
100
AcDbEntity
  8
0
100
AcDbBlockEnd
  0
BLOCK
  5
17
330
16
100
AcDbEntity
 67
     1
  8
0
100
AcDbBlockBegin
  2
*PAPER_SPACE
 70
     0
 10
0.0
 20
0.0
 30
0.0
  3
*PAPER_SPACE
  1

  0
ENDBLK
  5
18
330
16
100
AcDbEntity
 67
     1
  8
0
100
AcDbBlockEnd
  0
BLOCK
  5
52CB
330
52C8
100
AcDbEntity
  8
0
100
AcDbBlockBegin
  2
A$C7EC2418A
 70
     0
 10
0.0
 20
0.0
 30
0.0
  3
A$C7EC2418A
  1

  0
LINE
  5
52CC
330
52C8
100
AcDbEntity
  8
0
  6
Continuous
100
AcDbLine
 10
-0.0000000602181558
 20
19.59999913667536
 30
0.0
 11
299.9999999397818
 21
19.59999913667525
 31
0.0
  0
LINE
  5
52CD
330
52C8
100
AcDbEntity
  8
0
  6
Continuous
100
AcDbLine
 10
-0.0000000602181274
 20
-0.000000863324658
 30
0.0
 11
299.999999939782
 21
-0.0000008633245443
 31
0.0
  0
LINE
  5
52CE
330
52C8
100
AcDbEntity
  8
9
  6
Continuous
100
AcDbLine
 10
-0.0000000602181558
 20
18.14999913667532
 30
0.0
 11
299.9999999397818
 21
18.14999913667532
 31
0.0
  0
LINE
  5
52CF
330
52C8
100
AcDbEntity
  8
9
  6
Continuous
100
AcDbLine
 10
-0.0000000602181274
 20
1.449999136675387
 30
0.0
 11
299.9999999397818
 21
1.449999136675387
 31
0.0
  0
LINE
  5
52D0
330
52C8
100
AcDbEntity
  8
0
100
AcDbLine
 10
-0.0000000602181274
 20
-0.000000863324658
 30
0.0
 11
-0.0000000602181558
 21
19.59999913667536
 31
0.0
  0
LINE
  5
52D1
330
52C8
100
AcDbEntity
  8
0
100
AcDbLine
 10
299.9999999397819
 20
-0.000000863324658
 30
0.0
 11
299.9999999397818
 21
19.59999913667536
 31
0.0
  0
TEXT
  5
52D2
330
52C8
100
AcDbEntity
  8
0
100
AcDbText
 10
32.25000293978189
 20
7.799999136675296
 30
0.0
 40
4.0
  1
RM2020
 72
     4
 11
44.25000293978189
 21
9.799999136675296
 31
0.0
100
AcDbText
  0
ENDBLK
  5
52D3
330
52C8
100
AcDbEntity
  8
0
100
AcDbBlockEnd
  0
BLOCK
  5
5300
330
52FD
100
AcDbEntity
  8
0
100
AcDbBlockBegin
  2
A$C78174D0F
 70
     0
 10
0.0
 20
0.0
 30
0.0
  3
A$C78174D0F
  1

  0
LWPOLYLINE
  5
5301
330
52FD
100
AcDbEntity
  8
2
100
AcDbPolyline
 90
        4
 70
     0
 43
0.0
 10
8.513227957987623
 20
53.63174466156147
 10
11.54221933924714
 20
46.22791647231315
 10
17.08549633924713
 20
48.52401647231317
 10
14.05650495798773
 20
55.92784566156161
  0
CIRCLE
  5
5302
330
52FD
100
AcDbEntity
  8
0
100
AcDbCircle
 10
5.382992957987653
 20
45.52817766156159
 30
0.0
 40
3.299999999999999
  0
CIRCLE
  5
5303
330
52FD
100
AcDbEntity
  8
0
100
AcDbCircle
 10
38.61701195798764
 20
45.52817766156159
 30
0.0
 40
3.299999999999999
  0
CIRCLE
  5
5304
330
52FD
100
AcDbEntity
  8
0
100
AcDbCircle
 10
22.00000295798759
 20
28.91116866156153
 30
0.0
 40
18.0
  0
CIRCLE
  5
5305
330
52FD
100
AcDbEntity
  8
0
100
AcDbCircle
 10
38.61701195798764
 20
12.29415966156148
 30
0.0
 40
3.299999999999999
  0
CIRCLE
  5
5306
330
52FD
100
AcDbEntity
  8
0
100
AcDbCircle
 10
22.00000295798759
 20
5.411168661561532
 30
0.0
 40
3.299999999999999
  0
CIRCLE
  5
5307
330
52FD
100
AcDbEntity
  8
0
100
AcDbCircle
 10
5.382992957987653
 20
12.29415966156148
 30
0.0
 40
3.299999999999999
  0
CIRCLE
  5
5308
330
52FD
100
AcDbEntity
  8
0
100
AcDbCircle
 10
22.00000295798759
 20
52.41116866156153
 30
0.0
 40
3.299999999999999
  0
ARC
  5
5309
330
52FD
100
AcDbEntity
  8
0
100
AcDbCircle
 10
22.00000295798759
 20
28.91116866156153
 30
0.0
 40
28.5
100
AcDbArc
 50
123.2482218425431
 51
140.5275031035557
  0
LINE
  5
530A
330
52FD
100
AcDbEntity
  8
0
100
AcDbLine
 10
0.00000295798759
 20
47.80561228925273
 30
0.0
 11
0.00000295798759
 21
10.01672503387033
 31
0.0
  0
LINE
  5
530B
330
52FD
100
AcDbEntity
  8
0
100
AcDbLine
 10
44.00000265798769
 20
47.8056126385618
 30
0.0
 11
44.00000265798769
 21
10.01672468456138
 31
0.0
  0
ARC
  5
530C
330
52FD
100
AcDbEntity
  8
0
100
AcDbCircle
 10
22.00000295798759
 20
28.91116866156153
 30
0.0
 40
29.0
100
AcDbArc
 50
127.5901974845815
 51
139.342751362001
  0
LINE
  5
530D
330
52FD
100
AcDbEntity
  8
0
100
AcDbLine
 10
18.25999940798772
 20
57.66899148329105
 30
0.0
 11
4.309724407987687
 21
51.89059837945672
 31
0.0
  0
ARC
  5
530E
330
52FD
100
AcDbEntity
  8
0
100
AcDbCircle
 10
22.00000295798759
 20
28.91116866156153
 30
0.0
 40
28.5
100
AcDbArc
 50
219.4724968964443
 51
320.5275021548307
  0
ARC
  5
530F
330
52FD
100
AcDbEntity
  8
0
100
AcDbCircle
 10
22.00000295798759
 20
28.91116866156153
 30
0.0
 40
29.0
100
AcDbArc
 50
220.657248637999
 51
319.3427504522758
  0
ARC
  5
5310
330
52FD
100
AcDbEntity
  8
0
100
AcDbCircle
 10
22.00000295798759
 20
28.91116866156153
 30
0.0
 40
28.5
100
AcDbArc
 50
39.47249784516939
 51
101.7517781574563
  0
ARC
  5
5311
330
52FD
100
AcDbEntity
  8
0
100
AcDbCircle
 10
22.00000295798759
 20
28.91116866156153
 30
0.0
 40
29.0
100
AcDbArc
 50
40.65724954772426
 51
97.40982468744897
  0
LINE
  5
5312
330
52FD
100
AcDbEntity
  8
2
100
AcDbLine
 10
8.975167198215558
 20
53.82308692972628
 30
0.0
 11
16.06408819460535
 21
36.70891935787518
 31
0.0
  0
LINE
  5
5313
330
52FD
100
AcDbEntity
  8
2
100
AcDbLine
 10
13.59456572915928
 20
55.73650436587581
 30
0.0
 11
20.68348562454958
 21
38.62233656819137
 31
0.0
  0
POINT
  5
5314
330
52FD
100
AcDbEntity
  8
DEFPOINTS
  6
ByBlock
 62
     0
100
AcDbPoint
 10
4.309733300448101
 20
51.89060206283443
 30
0.0
 50
90.0
  0
POINT
  5
5315
330
52FD
100
AcDbEntity
  8
DEFPOINTS
  6
ByBlock
 62
     0
100
AcDbPoint
 10
4.309733300448101
 20
51.89060206283443
 30
0.0
 50
90.0
  0
POINT
  5
5316
330
52FD
100
AcDbEntity
  8
DEFPOINTS
  6
ByBlock
 62
     0
100
AcDbPoint
 10
11.54221933924714
 20
46.22791647231315
 30
0.0
 50
90.0
  0
ARC
  5
5317
330
52FD
100
AcDbEntity
  8
9
100
AcDbCircle
 10
22.00000295798759
 20
28.91116866156153
 30
0.0
 40
8.350000000000022
100
AcDbArc
 50
180.0
 51
90.0
  0
CIRCLE
  5
5318
330
52FD
100
AcDbEntity
  8
0
100
AcDbCircle
 10
22.00000295798759
 20
28.91116866156153
 30
0.0
 40
9.799999999999954
  0
ENDBLK
  5
5319
330
52FD
100
AcDbEntity
  8
0
100
AcDbBlockEnd
  0
BLOCK
  5
5385
330
5384
100
AcDbEntity
  8
0
100
AcDbBlockBegin
  2
*D3
 70
     1
 10
0.0
 20
0.0
 30
0.0
  3
*D3
  1

  0
LINE
  5
547F
330
5384
100
AcDbEntity
  8
0
 62
   115
370
    -2
100
AcDbLine
 10
20.99999842625172
 20
47.65000028972804
 30
0.0
 11
10.99999842625149
 21
47.65000028972805
 31
0.0
  0
LINE
  5
5480
330
5384
100
AcDbEntity
  8
0
 62
   115
370
    -2
100
AcDbLine
 10
20.9999984262517
 20
64.35000028972797
 30
0.0
 11
10.99999842625149
 21
64.35000028972797
 31
0.0
  0
LINE
  5
5481
330
5384
100
AcDbEntity
  8
0
 62
   115
370
    -2
100
AcDbLine
 10
11.99999842625149
 20
50.65000028972804
 30
0.0
 11
11.99999842625149
 21
61.35000028972797
 31
0.0
  0
SOLID
  5
5482
330
5384
100
AcDbEntity
  8
0
 62
   115
100
AcDbTrace
 10
11.49999842625149
 20
50.65000028972804
 30
0.0
 11
12.49999842625149
 21
50.65000028972804
 31
0.0
 12
11.99999842625149
 22
47.65000028972805
 32
0.0
 13
11.99999842625149
 23
47.65000028972805
 33
0.0
  0
SOLID
  5
5483
330
5384
100
AcDbEntity
  8
0
 62
   115
100
AcDbTrace
 10
11.49999842625149
 20
61.35000028972797
 30
0.0
 11
12.49999842625149
 21
61.35000028972797
 31
0.0
 12
11.99999842625149
 22
64.35000028972797
 32
0.0
 13
11.99999842625149
 23
64.35000028972797
 33
0.0
  0
MTEXT
  5
5484
330
5384
100
AcDbEntity
  8
0
 62
     7
100
AcDbMText
 10
9.499998426251483
 20
56.000000289728
 30
0.0
 40
3.0
 41
0.0
 71
     5
 72
     1
  1
\A1;%%C16.7
 11
0.0000000000000001
 21
1.0
 31
0.0
 73
     1
 44
1.0
1001
ACAD
1000
MTEXTBEGIN
1070
    73
1070
     1
1070
    44
1040
1.0
1070
    74
1070
     0
1000
MTEXTEND
  0
POINT
  5
5485
330
5384
100
AcDbEntity
  8
DEFPOINTS
 62
     0
100
AcDbPoint
 10
21.99999842625172
 20
47.65000028972804
 30
0.0
  0
POINT
  5
5486
330
5384
100
AcDbEntity
  8
DEFPOINTS
 62
     0
100
AcDbPoint
 10
21.99999842625169
 20
64.35000028972797
 30
0.0
  0
POINT
  5
5487
330
5384
100
AcDbEntity
  8
DEFPOINTS
 62
     0
100
AcDbPoint
 10
11.99999842625149
 20
64.35000028972797
 30
0.0
  0
ENDBLK
  5
5386
330
5384
100
AcDbEntity
  8
0
100
AcDbBlockEnd
  0
BLOCK
  5
5391
330
5390
100
AcDbEntity
  8
0
100
AcDbBlockBegin
  2
*D4
 70
     1
 10
0.0
 20
0.0
 30
0.0
  3
*D4
  1

  0
LINE
  5
5488
330
5390
100
AcDbEntity
  8
0
 62
   115
370
    -2
100
AcDbLine
 10
20.99999842625172
 20
46.20000028972799
 30
0.0
 11
2.99999842625149
 21
46.200000289728
 31
0.0
  0
LINE
  5
5489
330
5390
100
AcDbEntity
  8
0
 62
   115
370
    -2
100
AcDbLine
 10
20.9999984262517
 20
65.80000028972802
 30
0.0
 11
2.999998426251494
 21
65.80000028972802
 31
0.0
  0
LINE
  5
548A
330
5390
100
AcDbEntity
  8
0
 62
   115
370
    -2
100
AcDbLine
 10
3.99999842625149
 20
49.200000289728
 30
0.0
 11
3.999998426251493
 21
62.80000028972802
 31
0.0
  0
SOLID
  5
548B
330
5390
100
AcDbEntity
  8
0
 62
   115
100
AcDbTrace
 10
3.49999842625149
 20
49.200000289728
 30
0.0
 11
4.49999842625149
 21
49.200000289728
 31
0.0
 12
3.999998426251489
 22
46.200000289728
 32
0.0
 13
3.999998426251489
 23
46.200000289728
 33
0.0
  0
SOLID
  5
548C
330
5390
100
AcDbEntity
  8
0
 62
   115
100
AcDbTrace
 10
3.499998426251493
 20
62.80000028972802
 30
0.0
 11
4.499998426251494
 21
62.80000028972802
 31
0.0
 12
3.999998426251494
 22
65.80000028972802
 32
0.0
 13
3.999998426251494
 23
65.80000028972802
 33
0.0
  0
MTEXT
  5
548D
330
5390
100
AcDbEntity
  8
0
 62
     7
100
AcDbMText
 10
1.499998426251482
 20
56.000000289728
 30
0.0
 40
3.0
 41
0.0
 71
     5
 72
     1
  1
\A1;%%C19.6
 11
0.0000000000000001
 21
1.0
 31
0.0
 73
     1
 44
1.0
1001
ACAD
1000
MTEXTBEGIN
1070
    73
1070
     1
1070
    44
1040
1.0
1070
    74
1070
     0
1000
MTEXTEND
  0
POINT
  5
548E
330
5390
100
AcDbEntity
  8
DEFPOINTS
 62
     0
100
AcDbPoint
 10
21.99999842625172
 20
46.20000028972799
 30
0.0
  0
POINT
  5
548F
330
5390
100
AcDbEntity
  8
DEFPOINTS
 62
     0
100
AcDbPoint
 10
21.99999842625169
 20
65.80000028972802
 30
0.0
  0
POINT
  5
5490
330
5390
100
AcDbEntity
  8
DEFPOINTS
 62
     0
100
AcDbPoint
 10
3.999998426251494
 20
65.80000028972802
 30
0.0
  0
ENDBLK
  5
5392
330
5390
100
AcDbEntity
  8
0
100
AcDbBlockEnd
  0
BLOCK
  5
539D
330
539C
100
AcDbEntity
  8
0
100
AcDbBlockBegin
  2
*D5
 70
     1
 10
0.0
 20
0.0
 30
0.0
  3
*D5
  1

  0
LINE
  5
590B
330
539C
100
AcDbEntity
  8
0
 62
   115
370
    -2
100
AcDbLine
 10
143.9999982762516
 20
37.99999163972792
 30
0.0
 11
133.4999982762515
 21
37.99999163972792
 31
0.0
  0
LINE
  5
590C
330
539C
100
AcDbEntity
  8
0
 62
   115
370
    -2
100
AcDbLine
 10
143.9999982762516
 20
73.99998383972796
 30
0.0
 11
133.4999982762515
 21
73.99998383972796
 31
0.0
  0
LINE
  5
590D
330
539C
100
AcDbEntity
  8
0
 62
   115
370
    -2
100
AcDbLine
 10
134.4999982762515
 20
40.99999163972792
 30
0.0
 11
134.4999982762515
 21
70.99998383972796
 31
0.0
  0
SOLID
  5
590E
330
539C
100
AcDbEntity
  8
0
 62
   115
100
AcDbTrace
 10
133.9999982762515
 20
40.99999163972792
 30
0.0
 11
134.9999982762515
 21
40.99999163972792
 31
0.0
 12
134.4999982762515
 22
37.99999163972792
 32
0.0
 13
134.4999982762515
 23
37.99999163972792
 33
0.0
  0
SOLID
  5
590F
330
539C
100
AcDbEntity
  8
0
 62
   115
100
AcDbTrace
 10
133.9999982762515
 20
70.99998383972796
 30
0.0
 11
134.9999982762515
 21
70.99998383972796
 31
0.0
 12
134.4999982762515
 22
73.99998383972796
 32
0.0
 13
134.4999982762515
 23
73.99998383972796
 33
0.0
  0
MTEXT
  5
5910
330
539C
100
AcDbEntity
  8
0
 62
     7
100
AcDbMText
 10
131.2142839905372
 20
55.99998773972796
 30
0.0
 40
3.0
 41
0.0
 71
     5
 72
     1
  1
\A1;%%C36 g6 ({\H0.5x;\S-0.009^ -0.025;})
 11
0.0000000000000001
 21
1.0
 31
0.0
 73
     1
 44
1.0
1001
ACAD
1000
MTEXTBEGIN
1070
    73
1070
     1
1070
    44
1040
1.0
1070
    74
1070
     0
1000
MTEXTEND
  0
POINT
  5
5911
330
539C
100
AcDbEntity
  8
DEFPOINTS
 62
     0
100
AcDbPoint
 10
144.9999982762516
 20
37.99999163972791
 30
0.0
  0
POINT
  5
5912
330
539C
100
AcDbEntity
  8
DEFPOINTS
 62
     0
100
AcDbPoint
 10
144.9999982762516
 20
73.99998383972796
 30
0.0
  0
POINT
  5
5913
330
539C
100
AcDbEntity
  8
DEFPOINTS
 62
     0
100
AcDbPoint
 10
134.4999982762515
 20
73.99998383972796
 30
0.0
  0
ENDBLK
  5
539E
330
539C
100
AcDbEntity
  8
0
100
AcDbBlockEnd
  0
BLOCK
  5
53A9
330
53A8
100
AcDbEntity
  8
0
100
AcDbBlockBegin
  2
*D6
 70
     1
 10
0.0
 20
0.0
 30
0.0
  3
*D6
  1

  0
LINE
  5
58DE
330
53A8
100
AcDbEntity
  8
0
 62
   115
370
    -2
100
AcDbLine
 10
177.5000015762516
 20
26.50000028972795
 30
0.0
 11
177.5000015762516
 21
16.25000028972795
 31
0.0
  0
LINE
  5
58DF
330
53A8
100
AcDbEntity
  8
0
 62
   115
370
    -2
100
AcDbLine
 10
144.4999982762516
 20
37.59999773972788
 30
0.0
 11
144.4999982762516
 21
16.25000028972795
 31
0.0
  0
LINE
  5
58E0
330
53A8
100
AcDbEntity
  8
0
 62
   115
370
    -2
100
AcDbLine
 10
174.5000015762516
 20
17.25000028972795
 30
0.0
 11
147.4999982762516
 21
17.25000028972795
 31
0.0
  0
SOLID
  5
58E1
330
53A8
100
AcDbEntity
  8
0
 62
   115
100
AcDbTrace
 10
174.5000015762516
 20
17.75000028972795
 30
0.0
 11
174.5000015762516
 21
16.75000028972795
 31
0.0
 12
177.5000015762516
 22
17.25000028972795
 32
0.0
 13
177.5000015762516
 23
17.25000028972795
 33
0.0
  0
SOLID
  5
58E2
330
53A8
100
AcDbEntity
  8
0
 62
   115
100
AcDbTrace
 10
147.4999982762516
 20
17.75000028972795
 30
0.0
 11
147.4999982762516
 21
16.75000028972795
 31
0.0
 12
144.4999982762516
 22
17.25000028972795
 32
0.0
 13
144.4999982762516
 23
17.25000028972795
 33
0.0
  0
MTEXT
  5
58E3
330
53A8
100
AcDbEntity
  8
0
 62
     7
100
AcDbMText
 10
160.9999999262516
 20
19.75000028972795
 30
0.0
 40
3.0
 41
0.0
 71
     5
 72
     1
  1
\A1;33
 73
     1
 44
1.0
1001
ACAD
1000
MTEXTBEGIN
1070
    73
1070
     1
1070
    44
1040
1.0
1070
    74
1070
     0
1000
MTEXTEND
  0
POINT
  5
58E4
330
53A8
100
AcDbEntity
  8
DEFPOINTS
 62
     0
100
AcDbPoint
 10
177.5000015762516
 20
27.50000028972795
 30
0.0
  0
POINT
  5
58E5
330
53A8
100
AcDbEntity
  8
DEFPOINTS
 62
     0
100
AcDbPoint
 10
144.4999982762516
 20
38.59999773972788
 30
0.0
  0
POINT
  5
58E6
330
53A8
100
AcDbEntity
  8
DEFPOINTS
 62
     0
100
AcDbPoint
 10
144.4999982762516
 20
17.25000028972795
 30
0.0
  0
ENDBLK
  5
53AA
330
53A8
100
AcDbEntity
  8
0
100
AcDbBlockEnd
  0
BLOCK
  5
53B5
330
53B4
100
AcDbEntity
  8
0
100
AcDbBlockBegin
  2
*D7
 70
     1
 10
0.0
 20
0.0
 30
0.0
  3
*D7
  1

  0
LINE
  5
58CB
330
53B4
100
AcDbEntity
  8
0
 62
   115
370
    -2
100
AcDbLine
 10
177.5000015762516
 20
26.50000028972795
 30
0.0
 11
177.5000015762516
 21
16.25000028972795
 31
0.0
  0
LINE
  5
58CC
330
53B4
100
AcDbEntity
  8
0
 62
   115
370
    -2
100
AcDbLine
 10
187.5000015762516
 20
26.50000028972795
 30
0.0
 11
187.5000015762516
 21
16.25000028972795
 31
0.0
  0
LINE
  5
58CD
330
53B4
100
AcDbEntity
  8
0
 62
   115
370
    -2
100
AcDbLine
 10
180.5000015762516
 20
17.25000028972795
 30
0.0
 11
184.5000015762516
 21
17.25000028972795
 31
0.0
  0
SOLID
  5
58CE
330
53B4
100
AcDbEntity
  8
0
 62
   115
100
AcDbTrace
 10
180.5000015762516
 20
17.75000028972795
 30
0.0
 11
180.5000015762516
 21
16.75000028972795
 31
0.0
 12
177.5000015762516
 22
17.25000028972795
 32
0.0
 13
177.5000015762516
 23
17.25000028972795
 33
0.0
  0
SOLID
  5
58CF
330
53B4
100
AcDbEntity
  8
0
 62
   115
100
AcDbTrace
 10
184.5000015762516
 20
17.75000028972795
 30
0.0
 11
184.5000015762516
 21
16.75000028972795
 31
0.0
 12
187.5000015762516
 22
17.25000028972795
 32
0.0
 13
187.5000015762516
 23
17.25000028972795
 33
0.0
  0
MTEXT
  5
58D0
330
53B4
100
AcDbEntity
  8
0
 62
     7
100
AcDbMText
 10
182.5000015762516
 20
19.75000028972795
 30
0.0
 40
3.0
 41
0.0
 71
     5
 72
     1
  1
\A1;10
 73
     1
 44
1.0
1001
ACAD
1000
MTEXTBEGIN
1070
    73
1070
     1
1070
    44
1040
1.0
1070
    74
1070
     0
1000
MTEXTEND
  0
POINT
  5
58D1
330
53B4
100
AcDbEntity
  8
DEFPOINTS
 62
     0
100
AcDbPoint
 10
177.5000015762516
 20
27.50000028972795
 30
0.0
  0
POINT
  5
58D2
330
53B4
100
AcDbEntity
  8
DEFPOINTS
 62
     0
100
AcDbPoint
 10
187.5000015762516
 20
27.50000028972795
 30
0.0
  0
POINT
  5
58D3
330
53B4
100
AcDbEntity
  8
DEFPOINTS
 62
     0
100
AcDbPoint
 10
187.5000015762516
 20
17.25000028972795
 30
0.0
  0
ENDBLK
  5
53B6
330
53B4
100
AcDbEntity
  8
0
100
AcDbBlockEnd
  0
BLOCK
  5
53C1
330
53C0
100
AcDbEntity
  8
0
100
AcDbBlockBegin
  2
*D8
 70
     1
 10
0.0
 20
0.0
 30
0.0
  3
*D8
  1

  0
LINE
  5
58F0
330
53C0
100
AcDbEntity
  8
0
 62
   115
370
    -2
100
AcDbLine
 10
144.4999982762516
 20
37.59999773972788
 30
0.0
 11
144.4999982762516
 21
8.00000028972795
 31
0.0
  0
LINE
  5
58F1
330
53C0
100
AcDbEntity
  8
0
 62
   115
370
    -2
100
AcDbLine
 10
198.4999985762516
 20
37.50000028972795
 30
0.0
 11
198.4999985762516
 21
8.00000028972795
 31
0.0
  0
LINE
  5
58F2
330
53C0
100
AcDbEntity
  8
0
 62
   115
370
    -2
100
AcDbLine
 10
147.4999982762516
 20
9.00000028972795
 30
0.0
 11
195.4999985762516
 21
9.00000028972795
 31
0.0
  0
SOLID
  5
58F3
330
53C0
100
AcDbEntity
  8
0
 62
   115
100
AcDbTrace
 10
147.4999982762516
 20
9.50000028972795
 30
0.0
 11
147.4999982762516
 21
8.50000028972795
 31
0.0
 12
144.4999982762516
 22
9.00000028972795
 32
0.0
 13
144.4999982762516
 23
9.00000028972795
 33
0.0
  0
SOLID
  5
58F4
330
53C0
100
AcDbEntity
  8
0
 62
   115
100
AcDbTrace
 10
195.4999985762516
 20
9.50000028972795
 30
0.0
 11
195.4999985762516
 21
8.50000028972795
 31
0.0
 12
198.4999985762516
 22
9.00000028972795
 32
0.0
 13
198.4999985762516
 23
9.00000028972795
 33
0.0
  0
MTEXT
  5
58F5
330
53C0
100
AcDbEntity
  8
0
 62
     7
100
AcDbMText
 10
171.4999984262516
 20
11.50000028972795
 30
0.0
 40
3.0
 41
0.0
 71
     5
 72
     1
  1
\A1;54
 73
     1
 44
1.0
1001
ACAD
1000
MTEXTBEGIN
1070
    73
1070
     1
1070
    44
1040
1.0
1070
    74
1070
     0
1000
MTEXTEND
  0
POINT
  5
58F6
330
53C0
100
AcDbEntity
  8
DEFPOINTS
 62
     0
100
AcDbPoint
 10
144.4999982762516
 20
38.59999773972788
 30
0.0
  0
POINT
  5
58F7
330
53C0
100
AcDbEntity
  8
DEFPOINTS
 62
     0
100
AcDbPoint
 10
198.4999985762516
 20
38.50000028972795
 30
0.0
  0
POINT
  5
58F8
330
53C0
100
AcDbEntity
  8
DEFPOINTS
 62
     0
100
AcDbPoint
 10
198.4999985762516
 20
9.00000028972795
 30
0.0
  0
ENDBLK
  5
53C2
330
53C0
100
AcDbEntity
  8
0
100
AcDbBlockEnd
  0
BLOCK
  5
53CD
330
53CC
100
AcDbEntity
  8
0
100
AcDbBlockBegin
  2
*D9
 70
     1
 10
0.0
 20
0.0
 30
0.0
  3
*D9
  1

  0
LINE
  5
54B5
330
53CC
100
AcDbEntity
  8
0
 62
   115
370
    -2
100
AcDbLine
 10
347.9999984262517
 20
36.10555666203675
 30
0.0
 11
347.9999984262517
 21
0.0000002897279501
 31
0.0
  0
LINE
  5
54B6
330
53CC
100
AcDbEntity
  8
0
 62
   115
370
    -2
100
AcDbLine
 10
391.9999981262519
 20
36.1055563127278
 30
0.0
 11
391.9999981262519
 21
0.0000002897279501
 31
0.0
  0
LINE
  5
54B7
330
53CC
100
AcDbEntity
  8
0
 62
   115
370
    -2
100
AcDbLine
 10
350.9999984262517
 20
1.00000028972795
 30
0.0
 11
388.9999981262519
 21
1.00000028972795
 31
0.0
  0
SOLID
  5
54B8
330
53CC
100
AcDbEntity
  8
0
 62
   115
100
AcDbTrace
 10
350.9999984262517
 20
1.50000028972795
 30
0.0
 11
350.9999984262517
 21
0.5000002897279501
 31
0.0
 12
347.9999984262517
 22
1.00000028972795
 32
0.0
 13
347.9999984262517
 23
1.00000028972795
 33
0.0
  0
SOLID
  5
54B9
330
53CC
100
AcDbEntity
  8
0
 62
   115
100
AcDbTrace
 10
388.9999981262519
 20
1.50000028972795
 30
0.0
 11
388.9999981262519
 21
0.5000002897279501
 31
0.0
 12
391.9999981262519
 22
1.00000028972795
 32
0.0
 13
391.9999981262519
 23
1.00000028972795
 33
0.0
  0
MTEXT
  5
54BA
330
53CC
100
AcDbEntity
  8
0
 62
     7
100
AcDbMText
 10
369.9999982762518
 20
3.50000028972795
 30
0.0
 40
3.0
 41
0.0
 71
     5
 72
     1
  1
\A1;44
 73
     1
 44
1.0
1001
ACAD
1000
MTEXTBEGIN
1070
    73
1070
     1
1070
    44
1040
1.0
1070
    74
1070
     0
1000
MTEXTEND
  0
POINT
  5
54BB
330
53CC
100
AcDbEntity
  8
DEFPOINTS
 62
     0
100
AcDbPoint
 10
347.9999984262517
 20
37.10555666203675
 30
0.0
  0
POINT
  5
54BC
330
53CC
100
AcDbEntity
  8
DEFPOINTS
 62
     0
100
AcDbPoint
 10
391.9999981262519
 20
37.1055563127278
 30
0.0
  0
POINT
  5
54BD
330
53CC
100
AcDbEntity
  8
DEFPOINTS
 62
     0
100
AcDbPoint
 10
391.9999981262519
 20
1.00000028972795
 30
0.0
  0
ENDBLK
  5
53CE
330
53CC
100
AcDbEntity
  8
0
100
AcDbBlockEnd
  0
BLOCK
  5
53D9
330
53D8
100
AcDbEntity
  8
0
100
AcDbBlockBegin
  2
*D10
 70
     1
 10
0.0
 20
0.0
 30
0.0
  3
*D10
  1

  0
LINE
  5
54BE
330
53D8
100
AcDbEntity
  8
0
 62
   115
370
    -2
100
AcDbLine
 10
348.2211087682708
 20
34.22111194238516
 30
0.0
 11
342.051624426165
 21
28.05162797155449
 31
0.0
  0
LINE
  5
54BF
330
53D8
100
AcDbEntity
  8
0
 62
   115
370
    -2
100
AcDbLine
 10
391.7788880842327
 20
34.22111194238516
 30
0.0
 11
397.9483724263385
 21
28.05162797155449
 31
0.0
  0
ARC
  5
54C0
330
53D8
100
AcDbEntity
  8
0
 62
   115
370
    -2
100
AcDbCircle
 10
369.9999984262518
 20
56.00000028972805
 30
0.0
 40
38.52496836790605
100
AcDbArc
 50
229.4628390141425
 51
310.5371609858575
  0
SOLID
  5
54C1
330
53D8
100
AcDbEntity
  8
0
 62
   115
100
AcDbTrace
 10
344.6215187965464
 20
26.35456700087466
 30
0.0
 11
345.3005576514448
 21
27.08866933266381
 31
0.0
 12
342.7587312286282
 22
28.75873473146445
 32
0.0
 13
342.7587312286282
 23
28.75873473146445
 33
0.0
  0
SOLID
  5
54C2
330
53D8
100
AcDbEntity
  8
0
 62
   115
100
AcDbTrace
 10
394.6994392010587
 20
27.08866933266381
 30
0.0
 11
395.3784780559571
 21
26.35456700087466
 31
0.0
 12
397.2412656238753
 22
28.75873473146445
 32
0.0
 13
397.2412656238753
 23
28.75873473146445
 33
0.0
  0
MTEXT
  5
54C3
102
{ACAD_XDICTIONARY
360
5A9B
102
}
330
53D8
100
AcDbEntity
  8
0
 62
     7
100
AcDbMText
 10
369.9999984262518
 20
19.975031921822
 30
0.0
 40
3.0
 41
0.0
 71
     5
 72
     1
  1
\A1;90\U+00B0
 73
     1
 44
1.0
1001
ACAD
1000
MTEXTBEGIN
1070
    73
1070
     1
1070
    44
1040
1.0
1070
    74
1070
     0
1000
MTEXTEND
  0
POINT
  5
54C4
330
53D8
100
AcDbEntity
  8
DEFPOINTS
 62
     0
100
AcDbPoint
 10
360.0290025274309
 20
18.78773848620608
 30
0.0
  0
POINT
  5
54C5
330
53D8
100
AcDbEntity
  8
DEFPOINTS
 62
     0
100
AcDbPoint
 10
348.928215570734
 20
34.92821870229511
 30
0.0
  0
POINT
  5
54C6
330
53D8
100
AcDbEntity
  8
DEFPOINTS
 62
     0
100
AcDbPoint
 10
391.0717812817695
 20
34.92821870229511
 30
0.0
  0
POINT
  5
54C7
330
53D8
100
AcDbEntity
  8
DEFPOINTS
 62
     0
100
AcDbPoint
 10
382.162235570734
 20
43.83776387716056
 30
0.0
  0
POINT
  5
54C8
330
53D8
100
AcDbEntity
  8
DEFPOINTS
 62
     0
100
AcDbPoint
 10
357.8377612817695
 20
43.83776387716056
 30
0.0
  0
ENDBLK
  5
53DA
330
53D8
100
AcDbEntity
  8
0
100
AcDbBlockEnd
  0
BLOCK
  5
53E7
330
53E6
100
AcDbEntity
  8
0
100
AcDbBlockBegin
  2
*D11
 70
     1
 10
0.0
 20
0.0
 30
0.0
  3
*D11
  1

  0
LINE
  5
54C9
330
53E6
100
AcDbEntity
  8
0
 62
   115
370
    -2
100
AcDbLine
 10
353.3829884262518
 20
38.3829912897279
 30
0.0
 11
353.3829884262518
 21
8.00000028972795
 31
0.0
  0
LINE
  5
54CA
330
53E6
100
AcDbEntity
  8
0
 62
   115
370
    -2
100
AcDbLine
 10
386.6170074262518
 20
38.3829912897279
 30
0.0
 11
386.6170074262518
 21
8.00000028972795
 31
0.0
  0
LINE
  5
54CB
330
53E6
100
AcDbEntity
  8
0
 62
   115
370
    -2
100
AcDbLine
 10
356.3829884262518
 20
9.00000028972795
 30
0.0
 11
383.6170074262518
 21
9.00000028972795
 31
0.0
  0
SOLID
  5
54CC
330
53E6
100
AcDbEntity
  8
0
 62
   115
100
AcDbTrace
 10
356.3829884262518
 20
9.50000028972795
 30
0.0
 11
356.3829884262518
 21
8.50000028972795
 31
0.0
 12
353.3829884262518
 22
9.00000028972795
 32
0.0
 13
353.3829884262518
 23
9.00000028972795
 33
0.0
  0
SOLID
  5
54CD
330
53E6
100
AcDbEntity
  8
0
 62
   115
100
AcDbTrace
 10
383.6170074262518
 20
9.50000028972795
 30
0.0
 11
383.6170074262518
 21
8.50000028972795
 31
0.0
 12
386.6170074262518
 22
9.00000028972795
 32
0.0
 13
386.6170074262518
 23
9.00000028972795
 33
0.0
  0
MTEXT
  5
54CE
330
53E6
100
AcDbEntity
  8
0
 62
     7
100
AcDbMText
 10
369.9999979262518
 20
12.28571457544223
 30
0.0
 40
3.0
 41
0.0
 71
     5
 72
     1
  1
\A1;(33.23)
 73
     1
 44
1.0
1001
ACAD
1000
MTEXTBEGIN
1070
    73
1070
     1
1070
    44
1040
1.0
1070
    74
1070
     0
1000
MTEXTEND
  0
POINT
  5
54CF
330
53E6
100
AcDbEntity
  8
DEFPOINTS
 62
     0
100
AcDbPoint
 10
353.3829884262518
 20
39.3829912897279
 30
0.0
  0
POINT
  5
54D0
330
53E6
100
AcDbEntity
  8
DEFPOINTS
 62
     0
100
AcDbPoint
 10
386.6170074262518
 20
39.3829912897279
 30
0.0
  0
POINT
  5
54D1
330
53E6
100
AcDbEntity
  8
DEFPOINTS
 62
     0
100
AcDbPoint
 10
386.6170074262518
 20
9.00000028972795
 30
0.0
  0
ENDBLK
  5
53E8
330
53E6
100
AcDbEntity
  8
0
100
AcDbBlockEnd
  0
BLOCK
  5
53F3
330
53F2
100
AcDbEntity
  8
0
100
AcDbBlockBegin
  2
*D12
 70
     1
 10
0.0
 20
0.0
 30
0.0
  3
*D12
  1

  0
LINE
  5
54D2
330
53F2
100
AcDbEntity
  8
0
 62
   115
370
    -2
100
AcDbLine
 10
370.9999984262517
 20
32.50000028972795
 30
0.0
 11
410.999998126251
 21
32.50000028972794
 31
0.0
  0
LINE
  5
54D3
330
53F2
100
AcDbEntity
  8
0
 62
   115
370
    -2
100
AcDbLine
 10
370.9999984262517
 20
79.50000028972795
 30
0.0
 11
410.999998126251
 21
79.50000028972795
 31
0.0
  0
LINE
  5
54D4
330
53F2
100
AcDbEntity
  8
0
 62
   115
370
    -2
100
AcDbLine
 10
409.999998126251
 20
35.50000028972795
 30
0.0
 11
409.999998126251
 21
76.50000028972795
 31
0.0
  0
SOLID
  5
54D5
330
53F2
100
AcDbEntity
  8
0
 62
   115
100
AcDbTrace
 10
409.499998126251
 20
35.50000028972795
 30
0.0
 11
410.499998126251
 21
35.50000028972795
 31
0.0
 12
409.999998126251
 22
32.50000028972794
 32
0.0
 13
409.999998126251
 23
32.50000028972794
 33
0.0
  0
SOLID
  5
54D6
330
53F2
100
AcDbEntity
  8
0
 62
   115
100
AcDbTrace
 10
409.499998126251
 20
76.50000028972795
 30
0.0
 11
410.499998126251
 21
76.50000028972795
 31
0.0
 12
409.999998126251
 22
79.50000028972795
 32
0.0
 13
409.999998126251
 23
79.50000028972795
 33
0.0
  0
MTEXT
  5
54D7
330
53F2
100
AcDbEntity
  8
0
 62
     7
100
AcDbMText
 10
407.499998126251
 20
56.000000289728
 30
0.0
 40
3.0
 41
0.0
 71
     5
 72
     1
  1
\A1;PCD 47
 11
0.0000000000000001
 21
1.0
 31
0.0
 73
     1
 44
1.0
1001
ACAD
1000
MTEXTBEGIN
1070
    73
1070
     1
1070
    44
1040
1.0
1070
    74
1070
     0
1000
MTEXTEND
  0
POINT
  5
54D8
330
53F2
100
AcDbEntity
  8
DEFPOINTS
 62
     0
100
AcDbPoint
 10
369.9999984262518
 20
32.50000028972795
 30
0.0
  0
POINT
  5
54D9
330
53F2
100
AcDbEntity
  8
DEFPOINTS
 62
     0
100
AcDbPoint
 10
369.9999984262518
 20
79.50000028972795
 30
0.0
  0
POINT
  5
54DA
330
53F2
100
AcDbEntity
  8
DEFPOINTS
 62
     0
100
AcDbPoint
 10
409.999998126251
 20
79.50000028972795
 30
0.0
  0
ENDBLK
  5
53F4
330
53F2
100
AcDbEntity
  8
0
100
AcDbBlockEnd
  0
BLOCK
  5
53FF
330
53FE
100
AcDbEntity
  8
0
100
AcDbBlockBegin
  2
*D13
 70
     1
 10
0.0
 20
0.0
 30
0.0
  3
*D13
  1

  0
LINE
  5
54DB
330
53FE
100
AcDbEntity
  8
0
 62
   115
370
    -2
100
AcDbLine
 10
387.6170074262518
 20
69.31700928972805
 30
0.0
 11
402.999998126251
 21
69.31700928972805
 31
0.0
  0
LINE
  5
54DC
330
53FE
100
AcDbEntity
  8
0
 62
   115
370
    -2
100
AcDbLine
 10
387.6170074262518
 20
75.91700928972795
 30
0.0
 11
402.999998126251
 21
75.91700928972795
 31
0.0
  0
LINE
  5
54DD
330
53FE
100
AcDbEntity
  8
0
 62
   115
370
    -2
100
AcDbLine
 10
401.999998126251
 20
66.31700928972804
 30
0.0
 11
401.999998126251
 21
63.31700928972804
 31
0.0
  0
LINE
  5
54DE
330
53FE
100
AcDbEntity
  8
0
 62
   115
370
    -2
100
AcDbLine
 10
401.999998126251
 20
78.91700928972795
 30
0.0
 11
401.999998126251
 21
99.34558071829938
 31
0.0
  0
LINE
  5
54DF
330
53FE
100
AcDbEntity
  8
0
 62
   115
370
    -2
100
AcDbLine
 10
401.999998126251
 20
69.31700928972805
 30
0.0
 11
401.999998126251
 21
75.91700928972795
 31
0.0
  0
SOLID
  5
54E0
330
53FE
100
AcDbEntity
  8
0
 62
   115
100
AcDbTrace
 10
401.499998126251
 20
66.31700928972804
 30
0.0
 11
402.499998126251
 21
66.31700928972804
 31
0.0
 12
401.999998126251
 22
69.31700928972805
 32
0.0
 13
401.999998126251
 23
69.31700928972805
 33
0.0
  0
SOLID
  5
54E1
330
53FE
100
AcDbEntity
  8
0
 62
   115
100
AcDbTrace
 10
401.499998126251
 20
78.91700928972795
 30
0.0
 11
402.499998126251
 21
78.91700928972795
 31
0.0
 12
401.999998126251
 22
75.91700928972795
 32
0.0
 13
401.999998126251
 23
75.91700928972795
 33
0.0
  0
MTEXT
  5
54E2
330
53FE
100
AcDbEntity
  8
0
 62
     7
100
AcDbMText
 10
399.4999981262511
 20
90.63129500401371
 30
0.0
 40
3.0
 41
0.0
 71
     5
 72
     1
  1
\A1;6-%%C6.6
 11
0.0000000000000001
 21
1.0
 31
0.0
 73
     1
 44
1.0
1001
ACAD
1000
MTEXTBEGIN
1070
    73
1070
     1
1070
    44
1040
1.0
1070
    74
1070
     0
1000
MTEXTEND
  0
POINT
  5
54E3
330
53FE
100
AcDbEntity
  8
DEFPOINTS
 62
     0
100
AcDbPoint
 10
386.6170074262518
 20
69.31700928972805
 30
0.0
  0
POINT
  5
54E4
330
53FE
100
AcDbEntity
  8
DEFPOINTS
 62
     0
100
AcDbPoint
 10
386.6170074262518
 20
75.91700928972795
 30
0.0
  0
POINT
  5
54E5
330
53FE
100
AcDbEntity
  8
DEFPOINTS
 62
     0
100
AcDbPoint
 10
401.999998126251
 20
75.91700928972795
 30
0.0
  0
ENDBLK
  5
5400
330
53FE
100
AcDbEntity
  8
0
100
AcDbBlockEnd
  0
BLOCK
  5
540D
330
540C
100
AcDbEntity
  8
0
100
AcDbBlockBegin
  2
*D14
 70
     1
 10
0.0
 20
0.0
 30
0.0
  3
*D14
  1

  0
LINE
  5
5870
330
540C
100
AcDbEntity
  8
0
 62
   115
370
    -2
100
AcDbLine
 10
198.9999985762516
 20
38.00000028972795
 30
0.0
 11
209.4999985762516
 21
38.00000028972795
 31
0.0
  0
LINE
  5
5871
330
540C
100
AcDbEntity
  8
0
 62
   115
370
    -2
100
AcDbLine
 10
198.9999985762516
 20
74.00000028972795
 30
0.0
 11
209.4999985762517
 21
74.00000028972795
 31
0.0
  0
LINE
  5
5872
330
540C
100
AcDbEntity
  8
0
 62
   115
370
    -2
100
AcDbLine
 10
208.4999985762516
 20
41.00000028972794
 30
0.0
 11
208.4999985762516
 21
71.00000028972795
 31
0.0
  0
SOLID
  5
5873
330
540C
100
AcDbEntity
  8
0
 62
   115
100
AcDbTrace
 10
207.9999985762516
 20
41.00000028972795
 30
0.0
 11
208.9999985762516
 21
41.00000028972794
 31
0.0
 12
208.4999985762516
 22
38.00000028972795
 32
0.0
 13
208.4999985762516
 23
38.00000028972795
 33
0.0
  0
SOLID
  5
5874
330
540C
100
AcDbEntity
  8
0
 62
   115
100
AcDbTrace
 10
207.9999985762516
 20
71.00000028972795
 30
0.0
 11
208.9999985762517
 21
71.00000028972795
 31
0.0
 12
208.4999985762516
 22
74.00000028972795
 32
0.0
 13
208.4999985762516
 23
74.00000028972795
 33
0.0
  0
MTEXT
  5
5875
330
540C
100
AcDbEntity
  8
0
 62
     7
100
AcDbMText
 10
205.2142842905373
 20
56.00000028972798
 30
0.0
 40
3.0
 41
0.0
 71
     5
 72
     1
  1
\A1;%%C36 g6 ({\H0.5x;\S-0.009^ -0.025;})
 11
0.0000000000000001
 21
1.0
 31
0.0
 73
     1
 44
1.0
1001
ACAD
1000
MTEXTBEGIN
1070
    73
1070
     1
1070
    44
1040
1.0
1070
    74
1070
     0
1000
MTEXTEND
  0
POINT
  5
5876
330
540C
100
AcDbEntity
  8
DEFPOINTS
 62
     0
100
AcDbPoint
 10
197.9999985762516
 20
38.00000028972795
 30
0.0
  0
POINT
  5
5877
330
540C
100
AcDbEntity
  8
DEFPOINTS
 62
     0
100
AcDbPoint
 10
197.9999985762516
 20
74.00000028972795
 30
0.0
  0
POINT
  5
5878
330
540C
100
AcDbEntity
  8
DEFPOINTS
 62
     0
100
AcDbPoint
 10
208.4999985762516
 20
74.00000028972795
 30
0.0
  0
ENDBLK
  5
540E
330
540C
100
AcDbEntity
  8
0
100
AcDbBlockEnd
  0
BLOCK
  5
5425
330
5424
100
AcDbEntity
  8
0
100
AcDbBlockBegin
  2
*D15
 70
     1
 10
0.0
 20
0.0
 30
0.0
  3
*D15
  1

  0
LINE
  5
58E7
330
5424
100
AcDbEntity
  8
0
 62
   115
370
    -2
100
AcDbLine
 10
187.5000015762516
 20
26.50000028972795
 30
0.0
 11
187.5000015762516
 21
16.25000028972795
 31
0.0
  0
LINE
  5
58E8
330
5424
100
AcDbEntity
  8
0
 62
   115
370
    -2
100
AcDbLine
 10
198.4999985762516
 20
37.50000028972795
 30
0.0
 11
198.4999985762516
 21
16.25000028972795
 31
0.0
  0
LINE
  5
58E9
330
5424
100
AcDbEntity
  8
0
 62
   115
370
    -2
100
AcDbLine
 10
190.5000015762516
 20
17.25000028972795
 30
0.0
 11
195.4999985762516
 21
17.25000028972795
 31
0.0
  0
SOLID
  5
58EA
330
5424
100
AcDbEntity
  8
0
 62
   115
100
AcDbTrace
 10
190.5000015762516
 20
17.75000028972795
 30
0.0
 11
190.5000015762516
 21
16.75000028972795
 31
0.0
 12
187.5000015762516
 22
17.25000028972795
 32
0.0
 13
187.5000015762516
 23
17.25000028972795
 33
0.0
  0
SOLID
  5
58EB
330
5424
100
AcDbEntity
  8
0
 62
   115
100
AcDbTrace
 10
195.4999985762516
 20
17.75000028972795
 30
0.0
 11
195.4999985762516
 21
16.75000028972795
 31
0.0
 12
198.4999985762516
 22
17.25000028972795
 32
0.0
 13
198.4999985762516
 23
17.25000028972795
 33
0.0
  0
MTEXT
  5
58EC
330
5424
100
AcDbEntity
  8
0
 62
     7
100
AcDbMText
 10
193.0000000762516
 20
19.75000028972795
 30
0.0
 40
3.0
 41
0.0
 71
     5
 72
     1
  1
\A1;11
 73
     1
 44
1.0
1001
ACAD
1000
MTEXTBEGIN
1070
    73
1070
     1
1070
    44
1040
1.0
1070
    74
1070
     0
1000
MTEXTEND
  0
POINT
  5
58ED
330
5424
100
AcDbEntity
  8
DEFPOINTS
 62
     0
100
AcDbPoint
 10
187.5000015762516
 20
27.50000028972795
 30
0.0
  0
POINT
  5
58EE
330
5424
100
AcDbEntity
  8
DEFPOINTS
 62
     0
100
AcDbPoint
 10
198.4999985762516
 20
38.50000028972795
 30
0.0
  0
POINT
  5
58EF
330
5424
100
AcDbEntity
  8
DEFPOINTS
 62
     0
100
AcDbPoint
 10
198.4999985762516
 20
17.25000028972795
 30
0.0
  0
ENDBLK
  5
5426
330
5424
100
AcDbEntity
  8
0
100
AcDbBlockEnd
  0
BLOCK
  5
5432
330
5431
100
AcDbEntity
  8
0
100
AcDbBlockBegin
  2
*D16
 70
     1
 10
0.0
 20
0.0
 30
0.0
  3
*D16
  1

  0
LINE
  5
588B
330
5431
100
AcDbEntity
  8
0
 62
   115
370
    -2
100
AcDbLine
 10
188.0000045762516
 20
27.00000028972794
 30
0.0
 11
217.4999985762516
 21
27.00000028972793
 31
0.0
  0
LINE
  5
588C
330
5431
100
AcDbEntity
  8
0
 62
   115
370
    -2
100
AcDbLine
 10
188.0000045762516
 20
85.00000028972804
 30
0.0
 11
217.4999985762517
 21
85.00000028972804
 31
0.0
  0
LINE
  5
588D
330
5431
100
AcDbEntity
  8
0
 62
   115
370
    -2
100
AcDbLine
 10
216.4999985762516
 20
30.00000028972793
 30
0.0
 11
216.4999985762516
 21
82.00000028972805
 31
0.0
  0
SOLID
  5
588E
330
5431
100
AcDbEntity
  8
0
 62
   115
100
AcDbTrace
 10
215.9999985762516
 20
30.00000028972793
 30
0.0
 11
216.9999985762516
 21
30.00000028972793
 31
0.0
 12
216.4999985762516
 22
27.00000028972793
 32
0.0
 13
216.4999985762516
 23
27.00000028972793
 33
0.0
  0
SOLID
  5
588F
330
5431
100
AcDbEntity
  8
0
 62
   115
100
AcDbTrace
 10
215.9999985762516
 20
82.00000028972805
 30
0.0
 11
216.9999985762516
 21
82.00000028972805
 31
0.0
 12
216.4999985762516
 22
85.00000028972804
 32
0.0
 13
216.4999985762516
 23
85.00000028972804
 33
0.0
  0
MTEXT
  5
5890
330
5431
100
AcDbEntity
  8
0
 62
     7
100
AcDbMText
 10
213.9999985762516
 20
56.00000028972802
 30
0.0
 40
3.0
 41
0.0
 71
     5
 72
     1
  1
\A1;%%C58
 11
0.0000000000000001
 21
1.0
 31
0.0
 73
     1
 44
1.0
1001
ACAD
1000
MTEXTBEGIN
1070
    73
1070
     1
1070
    44
1040
1.0
1070
    74
1070
     0
1000
MTEXTEND
  0
POINT
  5
5891
330
5431
100
AcDbEntity
  8
DEFPOINTS
 62
     0
100
AcDbPoint
 10
187.0000045762516
 20
27.00000028972794
 30
0.0
  0
POINT
  5
5892
330
5431
100
AcDbEntity
  8
DEFPOINTS
 62
     0
100
AcDbPoint
 10
187.0000045762516
 20
85.00000028972804
 30
0.0
  0
POINT
  5
5893
330
5431
100
AcDbEntity
  8
DEFPOINTS
 62
     0
100
AcDbPoint
 10
216.4999985762516
 20
85.00000028972804
 30
0.0
  0
ENDBLK
  5
5433
330
5431
100
AcDbEntity
  8
0
100
AcDbBlockEnd
  0
BLOCK
  5
543E
330
543D
100
AcDbEntity
  8
0
100
AcDbBlockBegin
  2
*D17
 70
     1
 10
0.0
 20
0.0
 30
0.0
  3
*D17
  1

  0
LINE
  5
550B
330
543D
100
AcDbEntity
  8
0
 62
   115
370
    -2
100
AcDbLine
 10
366.0418391465835
 20
76.00832396002342
 30
0.0
 11
387.2891221671533
 21
84.8092371785183
 31
0.0
  0
LINE
  5
550C
330
543D
100
AcDbEntity
  8
0
 62
   115
370
    -2
100
AcDbLine
 10
366.5425358694647
 20
84.87485544137408
 30
0.0
 11
384.227655134865
 21
92.20027204936286
 31
0.0
  0
LINE
  5
550D
330
543D
100
AcDbEntity
  8
0
 62
   115
370
    -2
100
AcDbLine
 10
387.5132929859459
 20
81.65491515247186
 30
0.0
 11
388.6613433306733
 21
78.88327657466786
 31
0.0
  0
LINE
  5
550E
330
543D
100
AcDbEntity
  8
0
 62
   115
370
    -2
100
AcDbLine
 10
382.1557252642029
 20
94.58922717892439
 30
0.0
 11
381.0076749194756
 21
97.36086575672839
 31
0.0
  0
LINE
  5
550F
330
543D
100
AcDbEntity
  8
0
 62
   115
370
    -2
100
AcDbLine
 10
386.3652426412186
 20
84.42655373027584
 30
0.0
 11
383.3037756089303
 21
91.8175886011204
 31
0.0
  0
SOLID
  5
5510
330
543D
100
AcDbEntity
  8
0
 62
   115
100
AcDbTrace
 10
387.9752327489133
 20
81.84625687659309
 30
0.0
 11
387.0513532229787
 21
81.46357342835063
 31
0.0
 12
386.3652426412186
 22
84.42655373027584
 32
0.0
 13
386.3652426412186
 23
84.42655373027584
 33
0.0
  0
SOLID
  5
5511
330
543D
100
AcDbEntity
  8
0
 62
   115
100
AcDbTrace
 10
382.6176650271703
 20
94.78056890304562
 30
0.0
 11
381.6937855012357
 21
94.39788545480316
 31
0.0
 12
383.3037756089303
 22
91.8175886011204
 32
0.0
 13
383.3037756089303
 23
91.8175886011204
 33
0.0
  0
MTEXT
  5
5512
330
543D
100
AcDbEntity
  8
0
 62
     7
100
AcDbMText
 10
387.1442079399111
 20
89.07877978630422
 30
0.0
 40
3.0
 41
0.0
 71
     5
 72
     1
  1
\A1;8
 11
0.3826834482424622
 21
-0.9238795259346636
 31
0.0
 73
     1
 44
1.0
1001
ACAD
1000
MTEXTBEGIN
1070
    73
1070
     1
1070
    44
1040
1.0
1070
    74
1070
     0
1000
MTEXTEND
  0
POINT
  5
5513
330
543D
100
AcDbEntity
  8
DEFPOINTS
 62
     0
100
AcDbPoint
 10
365.1179596206488
 20
75.62564051178096
 30
0.0
  0
POINT
  5
5514
330
543D
100
AcDbEntity
  8
DEFPOINTS
 62
     0
100
AcDbPoint
 10
365.61865634353
 20
84.49217199313162
 30
0.0
  0
POINT
  5
5515
330
543D
100
AcDbEntity
  8
DEFPOINTS
 62
     0
100
AcDbPoint
 10
383.3037756089303
 20
91.8175886011204
 30
0.0
  0
ENDBLK
  5
543F
330
543D
100
AcDbEntity
  8
0
100
AcDbBlockEnd
  0
BLOCK
  5
544C
330
544B
100
AcDbEntity
  8
0
100
AcDbBlockBegin
  2
*D18
 70
     1
 10
0.0
 20
0.0
 30
0.0
  3
*D18
  1

  0
LINE
  5
5516
330
544B
100
AcDbEntity
  8
0
 62
   115
370
    -2
100
AcDbLine
 10
361.6738086724062
 20
83.94055603771558
 30
0.0
 11
357.8469746126061
 21
93.17935027675671
 31
0.0
  0
LINE
  5
5517
330
544B
100
AcDbEntity
  8
0
 62
   115
370
    -2
100
AcDbLine
 10
356.130532125561
 20
81.64445446086071
 30
0.0
 11
352.3036976628662
 21
90.88324967257532
 31
0.0
  0
LINE
  5
5518
330
544B
100
AcDbEntity
  8
0
 62
   115
370
    -2
100
AcDbLine
 10
361.0012966386525
 20
93.40352109554942
 30
0.0
 11
363.7729352164565
 21
94.5515714402768
 31
0.0
  0
LINE
  5
5519
330
544B
100
AcDbEntity
  8
0
 62
   115
370
    -2
100
AcDbLine
 10
349.9147425333046
 20
88.81131980191327
 30
0.0
 11
336.3205152231231
 21
83.18040620634565
 31
0.0
  0
LINE
  5
551A
330
544B
100
AcDbEntity
  8
0
 62
   115
370
    -2
100
AcDbLine
 10
358.2296580608485
 20
92.25547075082204
 30
0.0
 11
352.6863811111086
 21
89.95937014664065
 31
0.0
  0
SOLID
  5
551B
330
544B
100
AcDbEntity
  8
0
 62
   115
100
AcDbTrace
 10
360.8099549145312
 20
93.86546085851676
 30
0.0
 11
361.1926383627737
 21
92.94158133258211
 31
0.0
 12
358.2296580608485
 22
92.25547075082204
 32
0.0
 13
358.2296580608485
 23
92.25547075082204
 33
0.0
  0
SOLID
  5
551C
330
544B
100
AcDbEntity
  8
0
 62
   115
100
AcDbTrace
 10
349.7234008091834
 20
89.27325956488061
 30
0.0
 11
350.1060842574258
 21
88.34938003894595
 31
0.0
 12
352.6863811111086
 22
89.95937014664065
 32
0.0
 13
352.6863811111086
 23
89.95937014664065
 33
0.0
  0
MTEXT
  5
551D
330
544B
100
AcDbEntity
  8
0
 62
     7
100
AcDbMText
 10
340.7751009687058
 20
87.73153664660245
 30
0.0
 40
3.0
 41
0.0
 71
     5
 72
     1
  1
\A1;M6x1
 11
0.9238795259346645
 21
0.3826834482424597
 31
0.0
 73
     1
 44
1.0
1001
ACAD
1000
MTEXTBEGIN
1070
    73
1070
     1
1070
    44
1040
1.0
1070
    74
1070
     0
1000
MTEXTEND
  0
POINT
  5
551E
330
544B
100
AcDbEntity
  8
DEFPOINTS
 62
     0
100
AcDbPoint
 10
362.0564921206487
 20
83.01667651178091
 30
0.0
  0
POINT
  5
551F
330
544B
100
AcDbEntity
  8
DEFPOINTS
 62
     0
100
AcDbPoint
 10
356.5132155738034
 20
80.72057493492605
 30
0.0
  0
POINT
  5
5520
330
544B
100
AcDbEntity
  8
DEFPOINTS
 62
     0
100
AcDbPoint
 10
352.6863811111086
 20
89.95937014664065
 30
0.0
  0
ENDBLK
  5
544D
330
544B
100
AcDbEntity
  8
0
100
AcDbBlockEnd
  0
BLOCK
  5
545A
330
5459
100
AcDbEntity
  8
0
100
AcDbBlockBegin
  2
*D19
 70
     1
 10
0.0
 20
0.0
 30
0.0
  3
*D19
  1

  0
LINE
  5
5521
330
5459
100
AcDbEntity
  8
0
 62
   115
370
    -2
100
AcDbLine
 10
369.9999984262518
 20
89.00000028972796
 30
0.0
 11
369.9999984262517
 21
103.8226385561763
 31
0.0
  0
LINE
  5
5522
330
5459
100
AcDbEntity
  8
0
 62
   115
370
    -2
100
AcDbLine
 10
357.7541236467914
 20
85.56414468958545
 30
0.0
 11
351.6990622571282
 21
100.182356017512
 31
0.0
  0
ARC
  5
5523
330
5459
100
AcDbEntity
  8
0
 62
   115
370
    -2
100
AcDbCircle
 10
369.9999984262517
 20
55.99998771388953
 30
0.0
 40
46.82265084228681
100
AcDbArc
 50
93.67165784305043
 51
108.8283421569495
  0
SOLID
  5
5524
330
5459
100
AcDbEntity
  8
0
 62
   115
100
AcDbTrace
 10
366.985520369452
 20
103.226274586621
 30
0.0
 11
367.0175561464321
 21
102.2267878638511
 31
0.0
 12
369.9999984262516
 22
102.8226385561763
 32
0.0
 13
369.9999984262516
 23
102.8226385561763
 33
0.0
  0
SOLID
  5
5525
330
5459
100
AcDbEntity
  8
0
 62
   115
100
AcDbTrace
 10
355.0651852568311
 20
99.8493134744009
 30
0.0
 11
354.7122954458182
 21
100.784978361678
 31
0.0
 12
352.0817456894933
 22
99.25847648500072
 32
0.0
 13
352.0817456894933
 23
99.25847648500072
 33
0.0
  0
MTEXT
  5
5526
102
{ACAD_XDICTIONARY
360
5A9D
102
}
330
5459
100
AcDbEntity
  8
0
 62
     7
100
AcDbMText
 10
360.3776265907409
 20
104.3749176504724
 30
0.0
 40
3.0
 41
0.0
 71
     5
 72
     1
  1
\A1;22.5\U+00B0
 11
0.9807852804032309
 21
0.1950903220161254
 31
0.0
 73
     1
 44
1.0
1001
ACAD
1000
MTEXTBEGIN
1070
    73
1070
     1
1070
    44
1040
1.0
1070
    74
1070
     0
1000
MTEXTEND
  0
POINT
  5
5527
330
5459
100
AcDbEntity
  8
DEFPOINTS
 62
     0
100
AcDbPoint
 10
363.888416102159
 20
102.4220642873749
 30
0.0
  0
POINT
  5
5528
330
5459
100
AcDbEntity
  8
DEFPOINTS
 62
     0
100
AcDbPoint
 10
358.1368070791565
 20
84.64026515707416
 30
0.0
  0
POINT
  5
5529
330
5459
100
AcDbEntity
  8
DEFPOINTS
 62
     0
100
AcDbPoint
 10
369.9999984262517
 20
24.00000028972794
 30
0.0
  0
POINT
  5
552A
330
5459
100
AcDbEntity
  8
DEFPOINTS
 62
     0
100
AcDbPoint
 10
369.9999984262517
 20
88.00000028972794
 30
0.0
  0
POINT
  5
552B
330
5459
100
AcDbEntity
  8
DEFPOINTS
 62
     0
100
AcDbPoint
 10
366.2496952887992
 20
65.05402041133777
 30
0.0
  0
ENDBLK
  5
545B
330
5459
100
AcDbEntity
  8
0
100
AcDbBlockEnd
  0
BLOCK
  5
5468
330
5467
100
AcDbEntity
  8
0
100
AcDbBlockBegin
  2
*D20
 70
     1
 10
0.0
 20
0.0
 30
0.0
  3
*D20
  1

  0
LINE
  5
552C
330
5467
100
AcDbEntity
  8
0
 62
   115
370
    -2
100
AcDbLine
 10
352.3829884262518
 20
39.3829912897279
 30
0.0
 11
336.9999984262516
 21
39.3829912897279
 31
0.0
  0
LINE
  5
552D
330
5467
100
AcDbEntity
  8
0
 62
   115
370
    -2
100
AcDbLine
 10
352.3829884262518
 20
72.617009289728
 30
0.0
 11
336.9999984262516
 21
72.61700928972802
 31
0.0
  0
LINE
  5
552E
330
5467
100
AcDbEntity
  8
0
 62
   115
370
    -2
100
AcDbLine
 10
337.9999984262517
 20
42.3829912897279
 30
0.0
 11
337.9999984262517
 21
69.61700928972802
 31
0.0
  0
SOLID
  5
552F
330
5467
100
AcDbEntity
  8
0
 62
   115
100
AcDbTrace
 10
337.4999984262516
 20
42.3829912897279
 30
0.0
 11
338.4999984262516
 21
42.3829912897279
 31
0.0
 12
337.9999984262517
 22
39.3829912897279
 32
0.0
 13
337.9999984262517
 23
39.3829912897279
 33
0.0
  0
SOLID
  5
5530
330
5467
100
AcDbEntity
  8
0
 62
   115
100
AcDbTrace
 10
337.4999984262516
 20
69.61700928972802
 30
0.0
 11
338.4999984262516
 21
69.61700928972802
 31
0.0
 12
337.9999984262517
 22
72.61700928972802
 32
0.0
 13
337.9999984262517
 23
72.61700928972802
 33
0.0
  0
MTEXT
  5
5531
330
5467
100
AcDbEntity
  8
0
 62
     7
100
AcDbMText
 10
334.7142841405374
 20
56.00000028972801
 30
0.0
 40
3.0
 41
0.0
 71
     5
 72
     1
  1
\A1;(33.23)
 11
0.0000000000000001
 21
1.0
 31
0.0
 73
     1
 44
1.0
1001
ACAD
1000
MTEXTBEGIN
1070
    73
1070
     1
1070
    44
1040
1.0
1070
    74
1070
     0
1000
MTEXTEND
  0
POINT
  5
5532
330
5467
100
AcDbEntity
  8
DEFPOINTS
 62
     0
100
AcDbPoint
 10
353.3829884262518
 20
39.3829912897279
 30
0.0
  0
POINT
  5
5533
330
5467
100
AcDbEntity
  8
DEFPOINTS
 62
     0
100
AcDbPoint
 10
353.3829884262518
 20
72.617009289728
 30
0.0
  0
POINT
  5
5534
330
5467
100
AcDbEntity
  8
DEFPOINTS
 62
     0
100
AcDbPoint
 10
337.9999984262517
 20
72.61700928972802
 30
0.0
  0
ENDBLK
  5
5469
330
5467
100
AcDbEntity
  8
0
100
AcDbBlockEnd
  0
BLOCK
  5
5474
330
5473
100
AcDbEntity
  8
0
100
AcDbBlockBegin
  2
*D21
 70
     1
 10
0.0
 20
0.0
 30
0.0
  3
*D21
  1

  0
LINE
  5
5535
330
5473
100
AcDbEntity
  8
0
 62
   115
370
    -2
100
AcDbLine
 10
352.3829884262518
 20
39.3829912897279
 30
0.0
 11
336.9999984262516
 21
39.3829912897279
 31
0.0
  0
LINE
  5
5536
330
5473
100
AcDbEntity
  8
0
 62
   115
370
    -2
100
AcDbLine
 10
352.3829884262518
 20
72.617009289728
 30
0.0
 11
336.9999984262516
 21
72.61700928972802
 31
0.0
  0
LINE
  5
5537
330
5473
100
AcDbEntity
  8
0
 62
   115
370
    -2
100
AcDbLine
 10
337.9999984262517
 20
42.3829912897279
 30
0.0
 11
337.9999984262517
 21
69.61700928972802
 31
0.0
  0
SOLID
  5
5538
330
5473
100
AcDbEntity
  8
0
 62
   115
100
AcDbTrace
 10
337.4999984262516
 20
42.3829912897279
 30
0.0
 11
338.4999984262516
 21
42.3829912897279
 31
0.0
 12
337.9999984262517
 22
39.3829912897279
 32
0.0
 13
337.9999984262517
 23
39.3829912897279
 33
0.0
  0
SOLID
  5
5539
330
5473
100
AcDbEntity
  8
0
 62
   115
100
AcDbTrace
 10
337.4999984262516
 20
69.61700928972802
 30
0.0
 11
338.4999984262516
 21
69.61700928972802
 31
0.0
 12
337.9999984262517
 22
72.61700928972802
 32
0.0
 13
337.9999984262517
 23
72.61700928972802
 33
0.0
  0
MTEXT
  5
553A
330
5473
100
AcDbEntity
  8
0
 62
     7
100
AcDbMText
 10
334.7142841405374
 20
56.00000028972801
 30
0.0
 40
3.0
 41
0.0
 71
     5
 72
     1
  1
\A1;(33.23)
 11
0.0000000000000001
 21
1.0
 31
0.0
 73
     1
 44
1.0
1001
ACAD
1000
MTEXTBEGIN
1070
    73
1070
     1
1070
    44
1040
1.0
1070
    74
1070
     0
1000
MTEXTEND
  0
POINT
  5
553B
330
5473
100
AcDbEntity
  8
DEFPOINTS
 62
     0
100
AcDbPoint
 10
353.3829884262518
 20
39.3829912897279
 30
0.0
  0
POINT
  5
553C
330
5473
100
AcDbEntity
  8
DEFPOINTS
 62
     0
100
AcDbPoint
 10
353.3829884262518
 20
72.617009289728
 30
0.0
  0
POINT
  5
553D
330
5473
100
AcDbEntity
  8
DEFPOINTS
 62
     0
100
AcDbPoint
 10
337.9999984262517
 20
72.61700928972802
 30
0.0
  0
ENDBLK
  5
5475
330
5473
100
AcDbEntity
  8
0
100
AcDbBlockEnd
  0
BLOCK
  5
584C
330
584B
100
AcDbEntity
  8
0
100
AcDbBlockBegin
  2
2020SDH
 70
     0
 10
0.0
 20
0.0
 30
0.0
  3
2020SDH
  1

  0
TEXT
  5
5960
330
584B
100
AcDbEntity
  8
0
100
AcDbText
 10
147.380953807204
 20
153.9999961397277
 30
0.0
 40
4.0
  1
SDH2020
 72
     4
 11
161.0000014262516
 21
155.9999961397277
 31
0.0
100
AcDbText
  0
LINE
  5
5961
330
584B
100
AcDbEntity
  8
0
100
AcDbLine
 10
178.0000045762516
 20
127.0000002897279
 30
0.0
 11
178.0000045762516
 21
137.1055566620368
 31
0.0
  0
LINE
  5
5962
330
584B
100
AcDbEntity
  8
0
100
AcDbLine
 10
178.0000045762516
 20
174.8944439174192
 30
0.0
 11
178.0000045762516
 21
185.0000002897277
 31
0.0
  0
LINE
  5
5963
330
584B
100
AcDbEntity
  8
0
100
AcDbLine
 10
177.5000045762516
 20
127.4999942897278
 30
0.0
 11
177.5000045762516
 21
184.5000002897279
 31
0.0
  0
LINE
  5
5964
330
584B
100
AcDbEntity
  8
0
100
AcDbLine
 10
144.9999982762516
 20
173.9999838397279
 30
0.0
 11
144.9999982762516
 21
137.9999916397279
 31
0.0
  0
LINE
  5
5965
330
584B
100
AcDbEntity
  8
0
100
AcDbLine
 10
197.9999985762516
 20
174.0000002897279
 30
0.0
 11
197.9999985762516
 21
138.0000002897279
 31
0.0
  0
LINE
  5
5966
330
584B
100
AcDbEntity
  8
0
100
AcDbLine
 10
187.5000045762516
 20
127.5000002897279
 30
0.0
 11
187.5000045762516
 21
184.500000289728
 31
0.0
  0
LINE
  5
5967
330
584B
100
AcDbEntity
  8
0
100
AcDbLine
 10
187.0000045762516
 20
127.0000002897279
 30
0.0
 11
187.5000045762516
 21
127.5000002897279
 31
0.0
  0
LINE
  5
5968
330
584B
100
AcDbEntity
  8
0
100
AcDbLine
 10
187.0000045762516
 20
185.000000289728
 30
0.0
 11
187.5000045762516
 21
184.500000289728
 31
0.0
  0
LINE
  5
5969
330
584B
100
AcDbEntity
  8
0
100
AcDbLine
 10
187.0000045762516
 20
185.000000289728
 30
0.0
 11
187.0000045762516
 21
174.8944439174192
 31
0.0
  0
LINE
  5
596A
330
584B
100
AcDbEntity
  8
0
100
AcDbLine
 10
187.0000045762516
 20
137.1055566620367
 30
0.0
 11
187.0000045762516
 21
127.0000002897279
 31
0.0
  0
LINE
  5
596B
330
584B
100
AcDbEntity
  8
0
100
AcDbLine
 10
144.4999982762516
 20
138.4999916397279
 30
0.0
 11
144.4999982762516
 21
173.4999838397279
 31
0.0
  0
LINE
  5
596C
330
584B
100
AcDbEntity
  8
0
100
AcDbLine
 10
144.9999982762516
 20
173.9999838397279
 30
0.0
 11
144.4999982762516
 21
173.4999838397279
 31
0.0
  0
LINE
  5
596D
330
584B
100
AcDbEntity
  8
0
100
AcDbLine
 10
144.9999982762516
 20
137.9999916397279
 30
0.0
 11
144.4999982762516
 21
138.4999916397279
 31
0.0
  0
LINE
  5
596E
330
584B
100
AcDbEntity
  8
0
100
AcDbLine
 10
144.9999982762516
 20
173.9999838397279
 30
0.0
 11
177.4999985762516
 21
173.9999838397279
 31
0.0
  0
LINE
  5
596F
330
584B
100
AcDbEntity
  8
0
100
AcDbLine
 10
178.0000045762516
 20
185.0000002897279
 30
0.0
 11
187.0000045762516
 21
185.000000289728
 31
0.0
  0
LINE
  5
5970
330
584B
100
AcDbEntity
  8
0
100
AcDbLine
 10
177.5000045762516
 20
184.5000002897279
 30
0.0
 11
178.0000045762516
 21
185.0000002897279
 31
0.0
  0
LINE
  5
5971
330
584B
100
AcDbEntity
  8
0
100
AcDbLine
 10
187.4999985762516
 20
174.0000002897279
 30
0.0
 11
197.9999985762516
 21
174.0000002897279
 31
0.0
  0
LINE
  5
5972
330
584B
100
AcDbEntity
  8
0
100
AcDbLine
 10
197.9999985762516
 20
174.0000002897279
 30
0.0
 11
198.4999985762516
 21
173.5000002897279
 31
0.0
  0
LINE
  5
5973
330
584B
100
AcDbEntity
  8
0
100
AcDbLine
 10
198.4999985762516
 20
173.5000002897279
 30
0.0
 11
198.4999985762516
 21
138.5000002897279
 31
0.0
  0
LINE
  5
5974
330
584B
100
AcDbEntity
  8
0
100
AcDbLine
 10
198.4999985762516
 20
138.5000002897279
 30
0.0
 11
197.9999985762516
 21
138.0000002897279
 31
0.0
  0
LINE
  5
5975
330
584B
100
AcDbEntity
  8
0
100
AcDbLine
 10
197.9999985762516
 20
138.0000002897279
 30
0.0
 11
187.4999985762516
 21
138.0000002897279
 31
0.0
  0
LINE
  5
5976
330
584B
100
AcDbEntity
  8
0
100
AcDbLine
 10
187.0000045762516
 20
127.0000002897279
 30
0.0
 11
177.9999985762516
 21
127.0000002897279
 31
0.0
  0
LINE
  5
5977
330
584B
100
AcDbEntity
  8
0
100
AcDbLine
 10
177.4999985762516
 20
127.5000002897279
 30
0.0
 11
177.9999985762516
 21
127.0000002897279
 31
0.0
  0
LINE
  5
5978
330
584B
100
AcDbEntity
  8
0
100
AcDbLine
 10
177.4999985762516
 20
137.9999916397279
 30
0.0
 11
144.9999982762516
 21
137.9999916397279
 31
0.0
  0
LINE
  5
5979
330
584B
100
AcDbEntity
  8
0
100
AcDbLine
 10
177.5000045762516
 20
174.8944439174192
 30
0.0
 11
187.5000045762516
 21
174.8944439174191
 31
0.0
  0
LINE
  5
597A
330
584B
100
AcDbEntity
  8
0
100
AcDbLine
 10
177.5000045762516
 20
137.1055566620368
 30
0.0
 11
187.5000045762516
 21
137.1055566620367
 31
0.0
  0
ELLIPSE
  5
597B
330
584B
100
AcDbEntity
  8
9
100
AcDbEllipse
 10
182.5000045762516
 20
181.8687540595402
 30
0.0
 11
2.999463687718955
 21
-0.0000000000000945
 31
0.0
210
0.0
220
0.0
230
-1.0
 40
0.3827521957271129
 41
3.141592653589758
 42
7.853981633974454
  0
ELLIPSE
  5
597C
330
584B
100
AcDbEntity
  8
0
100
AcDbEllipse
 10
182.5000045762516
 20
181.8686265595401
 30
0.0
 11
-2.499554249533093
 21
-0.0000000000001227
 31
0.0
210
0.0
220
0.0
230
-1.0
 40
0.3828033789051975
 41
0.0
 42
6.283185307179584
  0
LINE
  5
597D
330
584B
100
AcDbEntity
  8
9
100
AcDbLine
 10
177.5000045762516
 20
137.1055566620368
 30
0.0
 11
187.5000045762516
 21
174.8944439174191
 31
0.0
  0
LINE
  5
597E
330
584B
100
AcDbEntity
  8
9
100
AcDbLine
 10
177.5000045762516
 20
174.8944439174192
 30
0.0
 11
187.5000045762516
 21
137.1055566620367
 31
0.0
  0
LINE
  5
597F
330
584B
100
AcDbEntity
  8
2
100
AcDbLine
 10
144.4999982762516
 20
165.800000289728
 30
0.0
 11
198.4999985762516
 21
165.8000002897279
 31
0.0
  0
LINE
  5
5980
330
584B
100
AcDbEntity
  8
2
100
AcDbLine
 10
198.4999985762516
 20
146.200000289728
 30
0.0
 11
144.4999982762515
 21
146.2000002897281
 31
0.0
  0
ENDBLK
  5
584D
330
584B
100
AcDbEntity
  8
0
100
AcDbBlockEnd
  0
ENDSEC
  0
SECTION
  2
ENTITIES
  0
LINE
  5
5362
330
19
100
AcDbEntity
  8
1
100
AcDbLine
 10
18.99999842625172
 20
56.00000028972795
 30
0.0
 11
324.9999984262518
 21
56.00000028972795
 31
0.0
  0
DIMENSION
  5
5363
330
19
100
AcDbEntity
  8
0
100
AcDbDimension
  2
*D3
 10
11.99999842625149
 20
64.35000028972797
 30
0.0
 11
9.499998426251483
 21
56.000000289728
 31
0.0
 70
    32
  1
%%C<>
 71
     5
 42
16.69999999999992
  3
STANDARD
100
AcDbAlignedDimension
 13
21.99999842625172
 23
47.65000028972804
 33
0.0
 14
21.99999842625169
 24
64.35000028972797
 34
0.0
 50
90.0
100
AcDbRotatedDimension
1001
ACAD
1000
DSTYLE
1002
{
1070
    41
1040
3.0
1070
    42
1040
1.0
1070
    43
1040
1.0
1070
    44
1040
1.0
1070
    73
1070
     0
1070
    74
1070
     0
1070
    77
1070
     3
1070
    78
1070
     8
1070
   141
1040
-1.0
1070
   147
1040
1.0
1070
   172
1070
     1
1070
   176
1070
   115
1070
   177
1070
   115
1070
   178
1070
     7
1070
   271
1070
     2
1070
   272
1070
     2
1002
}
  0
DIMENSION
  5
5364
330
19
100
AcDbEntity
  8
0
100
AcDbDimension
  2
*D4
 10
3.999998426251494
 20
65.80000028972802
 30
0.0
 11
1.499998426251482
 21
56.000000289728
 31
0.0
 70
    32
  1
%%C<>
 71
     5
 42
19.60000000000001
  3
STANDARD
100
AcDbAlignedDimension
 13
21.99999842625172
 23
46.20000028972799
 33
0.0
 14
21.99999842625169
 24
65.80000028972802
 34
0.0
 50
90.0
100
AcDbRotatedDimension
1001
ACAD
1000
DSTYLE
1002
{
1070
    41
1040
3.0
1070
    42
1040
1.0
1070
    43
1040
1.0
1070
    44
1040
1.0
1070
    73
1070
     0
1070
    74
1070
     0
1070
    77
1070
     3
1070
    78
1070
     8
1070
   141
1040
-1.0
1070
   147
1040
1.0
1070
   172
1070
     1
1070
   176
1070
   115
1070
   177
1070
   115
1070
   178
1070
     7
1070
   271
1070
     2
1070
   272
1070
     2
1002
}
  0
DIMENSION
  5
5365
330
19
100
AcDbEntity
  8
0
100
AcDbDimension
  2
*D5
 10
134.4999982762515
 20
73.99998383972796
 30
0.0
 11
131.2142839905372
 21
55.99998773972796
 31
0.0
 70
    32
  1
%%C<> g6 ({\H0.5x;\S-0.009^ -0.025;})
 71
     5
 42
35.99999220000004
  3
STANDARD
100
AcDbAlignedDimension
 13
144.9999982762516
 23
37.99999163972791
 33
0.0
 14
144.9999982762516
 24
73.99998383972796
 34
0.0
 50
90.0
100
AcDbRotatedDimension
1001
ACAD
1000
DSTYLE
1002
{
1070
    41
1040
3.0
1070
    42
1040
1.0
1070
    43
1040
1.0
1070
    44
1040
1.0
1070
    47
1040
-0.009
1070
    48
1040
0.025
1070
    73
1070
     0
1070
    74
1070
     0
1070
    77
1070
     3
1070
    78
1070
     8
1070
   141
1040
-1.0
1070
   147
1040
1.0
1070
   172
1070
     1
1070
   176
1070
   115
1070
   177
1070
   115
1070
   178
1070
     7
1070
   271
1070
     2
1070
   272
1070
     3
1070
   284
1070
     8
1002
}
  0
DIMENSION
  5
5366
330
19
100
AcDbEntity
  8
0
100
AcDbDimension
  2
*D6
 10
144.4999982762516
 20
17.25000028972795
 30
0.0
 11
160.9999999262516
 21
19.75000028972795
 31
0.0
 70
    32
 71
     5
 42
33.00000329999998
  3
STANDARD
100
AcDbAlignedDimension
 13
177.5000015762516
 23
27.50000028972795
 33
0.0
 14
144.4999982762516
 24
38.59999773972788
 34
0.0
100
AcDbRotatedDimension
1001
ACAD
1000
DSTYLE
1002
{
1070
    41
1040
3.0
1070
    42
1040
1.0
1070
    43
1040
1.0
1070
    44
1040
1.0
1070
    47
1040
1.0
1070
    48
1040
1.0
1070
    73
1070
     0
1070
    74
1070
     0
1070
    77
1070
     3
1070
    78
1070
     8
1070
   141
1040
-1.0
1070
   147
1040
1.0
1070
   172
1070
     1
1070
   176
1070
   115
1070
   177
1070
   115
1070
   178
1070
     7
1070
   271
1070
     2
1070
   272
1070
     3
1070
   284
1070
     8
1002
}
  0
DIMENSION
  5
5367
330
19
100
AcDbEntity
  8
0
100
AcDbDimension
  2
*D7
 10
187.5000015762516
 20
17.25000028972795
 30
0.0
 11
182.5000015762516
 21
19.75000028972795
 31
0.0
 70
    32
 71
     5
 42
10.00000000000005
  3
STANDARD
100
AcDbAlignedDimension
 13
177.5000015762516
 23
27.50000028972795
 33
0.0
 14
187.5000015762516
 24
27.50000028972795
 34
0.0
100
AcDbRotatedDimension
1001
ACAD
1000
DSTYLE
1002
{
1070
    41
1040
3.0
1070
    42
1040
1.0
1070
    43
1040
1.0
1070
    44
1040
1.0
1070
    73
1070
     0
1070
    74
1070
     0
1070
    77
1070
     3
1070
    78
1070
     8
1070
   141
1040
-1.0
1070
   147
1040
1.0
1070
   172
1070
     1
1070
   176
1070
   115
1070
   177
1070
   115
1070
   178
1070
     7
1070
   271
1070
     2
1070
   272
1070
     2
1002
}
  0
DIMENSION
  5
5368
330
19
100
AcDbEntity
  8
0
100
AcDbDimension
  2
*D8
 10
198.4999985762516
 20
9.00000028972795
 30
0.0
 11
171.4999984262516
 21
11.50000028972795
 31
0.0
 70
    32
 71
     5
 42
54.00000030000004
  3
STANDARD
100
AcDbAlignedDimension
 13
144.4999982762516
 23
38.59999773972788
 33
0.0
 14
198.4999985762516
 24
38.50000028972795
 34
0.0
100
AcDbRotatedDimension
1001
ACAD
1000
DSTYLE
1002
{
1070
    41
1040
3.0
1070
    42
1040
1.0
1070
    43
1040
1.0
1070
    44
1040
1.0
1070
    47
1040
1.0
1070
    48
1040
1.0
1070
    73
1070
     0
1070
    74
1070
     0
1070
    77
1070
     3
1070
    78
1070
     8
1070
   141
1040
-1.0
1070
   147
1040
1.0
1070
   172
1070
     1
1070
   176
1070
   115
1070
   177
1070
   115
1070
   178
1070
     7
1070
   271
1070
     2
1070
   272
1070
     3
1070
   284
1070
     8
1002
}
  0
DIMENSION
  5
5369
330
19
100
AcDbEntity
  8
0
100
AcDbDimension
  2
*D9
 10
391.9999981262519
 20
1.00000028972795
 30
0.0
 11
369.9999982762518
 21
3.50000028972795
 31
0.0
 70
    32
 71
     5
 42
43.9999997000001
  3
STANDARD
100
AcDbAlignedDimension
 13
347.9999984262517
 23
37.10555666203675
 33
0.0
 14
391.9999981262519
 24
37.1055563127278
 34
0.0
100
AcDbRotatedDimension
1001
ACAD
1000
DSTYLE
1002
{
1070
    41
1040
3.0
1070
    42
1040
1.0
1070
    43
1040
1.0
1070
    44
1040
1.0
1070
    73
1070
     0
1070
    74
1070
     0
1070
    77
1070
     3
1070
    78
1070
     8
1070
   141
1040
-1.0
1070
   147
1040
1.0
1070
   172
1070
     1
1070
   176
1070
   115
1070
   177
1070
   115
1070
   178
1070
     7
1070
   271
1070
     2
1070
   272
1070
     2
1002
}
  0
DIMENSION
  5
536A
330
19
100
AcDbEntity
  8
0
100
AcDbDimension
  2
*D10
 10
357.8377612817695
 20
43.83776387716056
 30
0.0
 11
369.9999984262518
 21
19.975031921822
 31
0.0
 70
    34
 71
     5
 42
1.570796386974183
  3
STANDARD
100
AcDb2LineAngularDimension
 13
391.0717812817695
 23
34.92821870229511
 33
0.0
 14
382.162235570734
 24
43.83776387716056
 34
0.0
 15
348.928215570734
 25
34.92821870229511
 35
0.0
 16
360.0290025274309
 26
18.78773848620608
 36
0.0
1001
ACAD
1000
DSTYLE
1002
{
1070
    41
1040
3.0
1070
    42
1040
1.0
1070
    43
1040
1.0
1070
    44
1040
1.0
1070
    73
1070
     0
1070
    74
1070
     0
1070
    77
1070
     3
1070
    78
1070
     8
1070
    79
1070
     2
1070
   141
1040
-1.0
1070
   147
1040
1.0
1070
   172
1070
     1
1070
   176
1070
   115
1070
   177
1070
   115
1070
   178
1070
     7
1070
   271
1070
     2
1070
   272
1070
     2
1002
}
  0
DIMENSION
  5
536B
330
19
100
AcDbEntity
  8
0
100
AcDbDimension
  2
*D11
 10
386.6170074262518
 20
9.00000028972795
 30
0.0
 11
369.9999979262518
 21
12.28571457544223
 31
0.0
 70
    32
  1
(<>)
 71
     5
 42
33.23401899999999
  3
STANDARD
100
AcDbAlignedDimension
 13
353.3829884262518
 23
39.3829912897279
 33
0.0
 14
386.6170074262518
 24
39.3829912897279
 34
0.0
100
AcDbRotatedDimension
1001
ACAD
1000
DSTYLE
1002
{
1070
    41
1040
3.0
1070
    42
1040
1.0
1070
    43
1040
1.0
1070
    44
1040
1.0
1070
    73
1070
     0
1070
    74
1070
     0
1070
    77
1070
     3
1070
    78
1070
     8
1070
   141
1040
-1.0
1070
   147
1040
1.0
1070
   172
1070
     1
1070
   176
1070
   115
1070
   177
1070
   115
1070
   178
1070
     7
1070
   271
1070
     2
1070
   272
1070
     2
1002
}
  0
DIMENSION
  5
536C
330
19
100
AcDbEntity
  8
0
100
AcDbDimension
  2
*D12
 10
409.999998126251
 20
79.50000028972795
 30
0.0
 11
407.499998126251
 21
56.000000289728
 31
0.0
 70
    32
  1
PCD <>
 71
     5
 42
47.0
  3
STANDARD
100
AcDbAlignedDimension
 13
369.9999984262518
 23
32.50000028972795
 33
0.0
 14
369.9999984262518
 24
79.50000028972795
 34
0.0
 50
90.0
100
AcDbRotatedDimension
1001
ACAD
1000
DSTYLE
1002
{
1070
    41
1040
3.0
1070
    42
1040
1.0
1070
    43
1040
1.0
1070
    44
1040
1.0
1070
    73
1070
     0
1070
    74
1070
     0
1070
    77
1070
     3
1070
    78
1070
     8
1070
   141
1040
-1.0
1070
   147
1040
1.0
1070
   172
1070
     1
1070
   176
1070
   115
1070
   177
1070
   115
1070
   178
1070
     7
1070
   271
1070
     2
1070
   272
1070
     2
1002
}
  0
DIMENSION
  5
536D
330
19
100
AcDbEntity
  8
0
100
AcDbDimension
  2
*D13
 10
401.999998126251
 20
75.91700928972795
 30
0.0
 11
399.4999981262511
 21
90.63129500401371
 31
0.0
 70
    32
  1
6-%%C<>
 71
     5
 42
6.599999999999909
  3
STANDARD
100
AcDbAlignedDimension
 13
386.6170074262518
 23
69.31700928972805
 33
0.0
 14
386.6170074262518
 24
75.91700928972795
 34
0.0
 50
90.0
100
AcDbRotatedDimension
1001
ACAD
1000
DSTYLE
1002
{
1070
    41
1040
3.0
1070
    42
1040
1.0
1070
    43
1040
1.0
1070
    44
1040
1.0
1070
    73
1070
     0
1070
    74
1070
     0
1070
    77
1070
     3
1070
    78
1070
     8
1070
   141
1040
-1.0
1070
   147
1040
1.0
1070
   172
1070
     1
1070
   176
1070
   115
1070
   177
1070
   115
1070
   178
1070
     7
1070
   271
1070
     2
1070
   272
1070
     2
1002
}
  0
LINE
  5
536E
330
19
100
AcDbEntity
  8
1
100
AcDbLine
 10
176.5005408885326
 20
81.86875405954026
 30
0.0
 11
188.4994682639706
 21
81.86875405954026
 31
0.0
  0
LINE
  5
536F
330
19
100
AcDbEntity
  8
1
100
AcDbLine
 10
182.5000045762516
 20
77.72070274706209
 30
0.0
 11
182.5000045762516
 21
86.01680537201843
 31
0.0
  0
DIMENSION
  5
5370
330
19
100
AcDbEntity
  8
0
100
AcDbDimension
  2
*D14
 10
208.4999985762516
 20
74.00000028972795
 30
0.0
 11
205.2142842905373
 21
56.00000028972798
 31
0.0
 70
    32
  1
%%C<> g6 ({\H0.5x;\S-0.009^ -0.025;})
 71
     5
 42
36.0
  3
STANDARD
100
AcDbAlignedDimension
 13
197.9999985762516
 23
38.00000028972795
 33
0.0
 14
197.9999985762516
 24
74.00000028972795
 34
0.0
 50
90.0
100
AcDbRotatedDimension
1001
ACAD
1000
DSTYLE
1002
{
1070
   998
1000
1,1,-0.007,-0.02,0,0,2,H7,g6,256
1070
    47
1040
-0.007
1070
    71
1070
     0
1070
    72
1070
     0
1070
   283
1070
     1
1070
   146
1040
1.0
1070
     3
1000

1070
    41
1040
3.0
1070
    42
1040
1.0
1070
    43
1040
1.0
1070
    44
1040
1.0
1070
    48
1040
0.02
1070
    73
1070
     0
1070
    74
1070
     0
1070
    77
1070
     3
1070
    78
1070
     8
1070
   141
1040
-1.0
1070
   147
1040
1.0
1070
   172
1070
     1
1070
   176
1070
   115
1070
   177
1070
   115
1070
   178
1070
     7
1070
   271
1070
     2
1070
   272
1070
     3
1070
   284
1070
     8
1002
}
  0
DIMENSION
  5
5372
330
19
100
AcDbEntity
  8
0
100
AcDbDimension
  2
*D15
 10
198.4999985762516
 20
17.25000028972795
 30
0.0
 11
193.0000000762516
 21
19.75000028972795
 31
0.0
 70
    32
 71
     5
 42
10.99999700000001
  3
STANDARD
100
AcDbAlignedDimension
 13
187.5000015762516
 23
27.50000028972795
 33
0.0
 14
198.4999985762516
 24
38.50000028972795
 34
0.0
100
AcDbRotatedDimension
1001
ACAD
1000
DSTYLE
1002
{
1070
    41
1040
3.0
1070
    42
1040
1.0
1070
    43
1040
1.0
1070
    44
1040
1.0
1070
    73
1070
     0
1070
    74
1070
     0
1070
    77
1070
     3
1070
    78
1070
     8
1070
   141
1040
-1.0
1070
   147
1040
1.0
1070
   172
1070
     1
1070
   176
1070
   115
1070
   177
1070
   115
1070
   178
1070
     7
1070
   271
1070
     2
1070
   272
1070
     2
1002
}
  0
DIMENSION
  5
5373
330
19
100
AcDbEntity
  8
0
100
AcDbDimension
  2
*D16
 10
216.4999985762516
 20
85.00000028972804
 30
0.0
 11
213.9999985762516
 21
56.00000028972802
 31
0.0
 70
    32
  1
%%C<>
 71
     5
 42
58.00000000000011
  3
STANDARD
100
AcDbAlignedDimension
 13
187.0000045762516
 23
27.00000028972794
 33
0.0
 14
187.0000045762516
 24
85.00000028972804
 34
0.0
 50
90.0
100
AcDbRotatedDimension
1001
ACAD
1000
DSTYLE
1002
{
1070
   998
1000
1,1,-0.007,-0.02,0,0,2,H7,g6,256
1070
    47
1040
-0.007
1070
    71
1070
     0
1070
    72
1070
     0
1070
   283
1070
     1
1070
   146
1040
1.0
1070
     3
1000

1070
    41
1040
3.0
1070
    42
1040
1.0
1070
    43
1040
1.0
1070
    44
1040
1.0
1070
    48
1040
0.02
1070
    73
1070
     0
1070
    74
1070
     0
1070
    77
1070
     3
1070
    78
1070
     8
1070
   141
1040
-1.0
1070
   147
1040
1.0
1070
   172
1070
     1
1070
   176
1070
   115
1070
   177
1070
   115
1070
   178
1070
     7
1070
   271
1070
     2
1070
   272
1070
     3
1070
   284
1070
     8
1002
}
  0
DIMENSION
  5
5374
330
19
100
AcDbEntity
  8
0
100
AcDbDimension
  2
*D17
 10
383.3037756089303
 20
91.8175886011204
 30
0.0
 11
387.1442079399111
 21
89.07877978630422
 31
0.0
 70
    32
 71
     5
 42
7.999998553239123
  3
STANDARD
100
AcDbAlignedDimension
 13
365.1179596206487
 23
75.62564051178094
 33
0.0
 14
365.61865634353
 24
84.49217199313158
 34
0.0
 50
112.5000009846591
100
AcDbRotatedDimension
1001
ACAD
1000
DSTYLE
1002
{
1070
    41
1040
3.0
1070
    42
1040
1.0
1070
    43
1040
1.0
1070
    44
1040
1.0
1070
    73
1070
     0
1070
    74
1070
     0
1070
    77
1070
     3
1070
    78
1070
     8
1070
   141
1040
-1.0
1070
   147
1040
1.0
1070
   172
1070
     1
1070
   176
1070
   115
1070
   177
1070
   115
1070
   178
1070
     7
1070
   271
1070
     2
1070
   272
1070
     2
1002
}
  0
DIMENSION
  5
5375
330
19
100
AcDbEntity
  8
0
100
AcDbDimension
  2
*D18
 10
352.6863811111086
 20
89.95937014664065
 30
0.0
 11
340.7751009687058
 21
87.73153664660245
 31
0.0
 70
    32
  1
M<>x1
 71
     5
 42
5.999999777169989
  3
STANDARD
100
AcDbAlignedDimension
 13
362.0564921206487
 23
83.01667651178092
 33
0.0
 14
356.5132155738034
 24
80.72057493492605
 34
0.0
 50
202.500000984659
100
AcDbRotatedDimension
1001
ACAD
1000
DSTYLE
1002
{
1070
    41
1040
3.0
1070
    42
1040
1.0
1070
    43
1040
1.0
1070
    44
1040
1.0
1070
    73
1070
     0
1070
    74
1070
     0
1070
    77
1070
     3
1070
    78
1070
     8
1070
   141
1040
-1.0
1070
   147
1040
1.0
1070
   172
1070
     1
1070
   176
1070
   115
1070
   177
1070
   115
1070
   178
1070
     7
1070
   271
1070
     2
1070
   272
1070
     2
1002
}
  0
LINE
  5
5376
330
19
100
AcDbEntity
  8
1
100
AcDbLine
 10
358.1368070791565
 20
84.64026515707416
 30
0.0
 11
366.2496952887992
 21
65.05402041133777
 31
0.0
  0
DIMENSION
  5
5377
330
19
100
AcDbEntity
  8
0
100
AcDbDimension
  2
*D19
 10
366.2496952887992
 20
65.05402041133777
 30
0.0
 11
360.3776265907409
 21
104.3749176504724
 31
0.0
 70
    34
 71
     5
 42
0.3926990816987212
  3
STANDARD
100
AcDb2LineAngularDimension
 13
369.9999984262518
 23
24.00000028972795
 33
0.0
 14
369.9999984262518
 24
88.00000028972794
 34
0.0
 15
358.1368070791565
 25
84.64026515707416
 35
0.0
 16
363.888416102159
 26
102.4220642873749
 36
0.0
1001
ACAD
1000
DSTYLE
1002
{
1070
    41
1040
3.0
1070
    42
1040
1.0
1070
    43
1040
1.0
1070
    44
1040
1.0
1070
    73
1070
     0
1070
    74
1070
     0
1070
    77
1070
     3
1070
    78
1070
     8
1070
   141
1040
-1.0
1070
   147
1040
1.0
1070
   172
1070
     1
1070
   176
1070
   115
1070
   177
1070
   115
1070
   178
1070
     7
1070
   179
1070
     1
1070
   271
1070
     2
1070
   272
1070
     2
1002
}
  0
INSERT
  5
5378
330
19
100
AcDbEntity
  8
0
100
AcDbBlockReference
  2
A$C7EC2418A
 10
21.99999848646985
 20
46.20000115305265
 30
0.0
  0
INSERT
  5
537A
330
19
100
AcDbEntity
  8
0
100
AcDbBlockReference
  2
A$C78174D0F
 10
347.9999954682642
 20
27.08883162816642
 30
0.0
  0
LINE
  5
537B
330
19
100
AcDbEntity
  8
1
100
AcDbLine
 10
369.9999984262518
 20
24.00000028972795
 30
0.0
 11
369.9999984262518
 21
88.00000028972794
 31
0.0
  0
LINE
  5
537C
330
19
100
AcDbEntity
  8
1
100
AcDbLine
 10
344.9999984262518
 20
56.00000028972795
 30
0.0
 11
394.9999981262519
 21
56.00000028972795
 31
0.0
  0
LINE
  5
537D
330
19
100
AcDbEntity
  8
1
100
AcDbLine
 10
348.928215570734
 20
34.92821870229511
 30
0.0
 11
357.8377612817695
 21
43.83776387716056
 31
0.0
  0
LINE
  5
537E
330
19
100
AcDbEntity
  8
1
100
AcDbLine
 10
391.0717812817695
 20
34.92821870229511
 30
0.0
 11
382.162235570734
 21
43.83776387716056
 31
0.0
  0
LINE
  5
537F
330
19
100
AcDbEntity
  8
1
100
AcDbLine
 10
348.928215570734
 20
77.07178187716078
 30
0.0
 11
357.8377612817695
 21
68.16223670229533
 31
0.0
  0
LINE
  5
5380
330
19
100
AcDbEntity
  8
1
100
AcDbLine
 10
391.0717812817695
 20
77.07178187716078
 30
0.0
 11
382.162235570734
 21
68.16223670229533
 31
0.0
  0
CIRCLE
  5
5381
330
19
100
AcDbEntity
  8
1
100
AcDbCircle
 10
369.9999984262518
 20
56.00000028972795
 30
0.0
 40
23.5
  0
DIMENSION
  5
5382
330
19
100
AcDbEntity
  8
0
100
AcDbDimension
  2
*D20
 10
337.9999984262517
 20
72.61700928972802
 30
0.0
 11
334.7142841405374
 21
56.00000028972801
 31
0.0
 70
    32
  1
(<>)
 71
     5
 42
33.23401800000012
  3
STANDARD
100
AcDbAlignedDimension
 13
353.3829884262518
 23
39.3829912897279
 33
0.0
 14
353.3829884262518
 24
72.617009289728
 34
0.0
 50
90.0
100
AcDbRotatedDimension
1001
ACAD
1000
DSTYLE
1002
{
1070
    41
1040
3.0
1070
    42
1040
1.0
1070
    43
1040
1.0
1070
    44
1040
1.0
1070
    73
1070
     0
1070
    74
1070
     0
1070
    77
1070
     3
1070
    78
1070
     8
1070
   141
1040
-1.0
1070
   147
1040
1.0
1070
   172
1070
     1
1070
   176
1070
   115
1070
   177
1070
   115
1070
   178
1070
     7
1070
   271
1070
     2
1070
   272
1070
     2
1002
}
  0
DIMENSION
  5
5383
330
19
100
AcDbEntity
  8
0
100
AcDbDimension
  2
*D21
 10
337.9999984262517
 20
72.61700928972802
 30
0.0
 11
334.7142841405374
 21
56.00000028972801
 31
0.0
 70
    32
  1
(<>)
 71
     5
 42
33.23401800000012
  3
STANDARD
100
AcDbAlignedDimension
 13
353.3829884262518
 23
39.3829912897279
 33
0.0
 14
353.3829884262518
 24
72.617009289728
 34
0.0
 50
90.0
100
AcDbRotatedDimension
1001
ACAD
1000
DSTYLE
1002
{
1070
    41
1040
3.0
1070
    42
1040
1.0
1070
    43
1040
1.0
1070
    44
1040
1.0
1070
    73
1070
     0
1070
    74
1070
     0
1070
    77
1070
     3
1070
    78
1070
     8
1070
   141
1040
-1.0
1070
   147
1040
1.0
1070
   172
1070
     1
1070
   176
1070
   115
1070
   177
1070
   115
1070
   178
1070
     7
1070
   271
1070
     2
1070
   272
1070
     2
1002
}
  0
INSERT
  5
586F
330
19
100
AcDbEntity
  8
0
100
AcDbBlockReference
  2
2020SDH
 10
0.0
 20
-100.0
 30
0.0
  0
ENDSEC
  0
SECTION
  2
OBJECTS
  0
DICTIONARY
  5
C
330
0
100
AcDbDictionary
281
     1
  3
ACAD_CIP_PREVIOUS_PRODUCT_INFO
350
41A9
  3
ACAD_COLOR
350
4187
  3
ACAD_GROUP
350
D
  3
ACAD_LAYOUT
350
419E
  3
ACAD_MATERIAL
350
4155
  3
ACAD_MLEADERSTYLE
350
419C
  3
ACAD_MLINESTYLE
350
E
  3
ACAD_PLOTSETTINGS
350
419F
  3
ACAD_PLOTSTYLENAME
350
4153
  3
ACAD_SCALELIST
350
418A
  3
ACAD_TABLESTYLE
350
4188
  3
ACAD_VISUALSTYLE
350
416E
  3
ACDB_RECOMPOSE_DATA
350
5A61
  3
ACDBVARIABLEDICTIONARY
350
1BF
  3
DWGPROPS
350
5A62
  0
DICTIONARY
  5
44F7
330
8
100
AcDbDictionary
280
     1
281
     1
  0
DICTIONARY
  5
561E
330
2
100
AcDbDictionary
280
     1
281
     1
  3
ACAD_LAYERSTATES
360
561F
  0
DICTIONARY
  5
4596
330
F
100
AcDbDictionary
280
     1
281
     1
  3
ADSK_XREC_LAYER_RECONCILED
360
4597
  0
DICTIONARY
  5
5335
330
5334
100
AcDbDictionary
280
     1
281
     1
  0
DICTIONARY
  5
5337
330
5336
100
AcDbDictionary
280
     1
281
     1
  0
DICTIONARY
  5
5339
330
5338
100
AcDbDictionary
280
     1
281
     1
  0
DICTIONARY
  5
49D1
330
19
100
AcDbDictionary
280
     1
281
     1
  3
ACAD_SORTENTS
360
49D2
  0
DICTIONARY
  5
52C9
330
52C8
100
AcDbDictionary
280
     1
281
     1
  3
ACAD_SORTENTS
360
52CA
  0
DICTIONARY
  5
52FE
330
52FD
100
AcDbDictionary
280
     1
281
     1
  3
ACAD_SORTENTS
360
52FF
  0
DICTIONARY
  5
5981
330
584B
100
AcDbDictionary
280
     1
281
     1
  0
DICTIONARY
  5
5A9B
330
54C3
100
AcDbDictionary
280
     1
281
     1
  3
ACAD_MTEXT_RT
360
5A9C
  0
DICTIONARY
  5
5A9D
330
5526
100
AcDbDictionary
280
     1
281
     1
  3
ACAD_MTEXT_RT
360
5A9E
  0
XRECORD
  5
41A9
102
{ACAD_REACTORS
330
C
102
}
330
C
100
AcDbXrecord
280
     1
300
ACDLT
300
2012
300
ACDLT_F_S
  0
DICTIONARY
  5
4187
102
{ACAD_REACTORS
330
C
102
}
330
C
100
AcDbDictionary
281
     1
  0
DICTIONARY
  5
D
102
{ACAD_REACTORS
330
C
102
}
330
C
100
AcDbDictionary
281
     1
  0
DICTIONARY
  5
419E
102
{ACAD_REACTORS
330
C
102
}
330
C
100
AcDbDictionary
281
     1
  3
Model
350
41A0
  3
배치1
350
41A1
  0
DICTIONARY
  5
4155
102
{ACAD_REACTORS
330
C
102
}
330
C
100
AcDbDictionary
281
     1
  3
ByBlock
350
415E
  3
ByLayer
350
4156
  3
Global
350
4166
  0
DICTIONARY
  5
419C
102
{ACAD_REACTORS
330
C
102
}
330
C
100
AcDbDictionary
281
     1
  3
Standard
350
419D
  0
DICTIONARY
  5
E
102
{ACAD_REACTORS
330
C
102
}
330
C
100
AcDbDictionary
281
     1
  3
STANDARD
350
1C
  0
DICTIONARY
  5
419F
102
{ACAD_REACTORS
330
C
102
}
330
C
100
AcDbDictionary
281
     1
  0
ACDBDICTIONARYWDFLT
  5
4153
102
{ACAD_REACTORS
330
C
102
}
330
C
100
AcDbDictionary
281
     1
  3
Normal
350
4154
100
AcDbDictionaryWithDefault
340
4154
  0
DICTIONARY
  5
418A
102
{ACAD_REACTORS
330
C
102
}
330
C
100
AcDbDictionary
281
     1
  3
A0
350
418B
  3
A1
350
418C
  3
A2
350
418D
  3
A3
350
418E
  3
A4
350
418F
  3
A5
350
4190
  3
A6
350
4191
  3
A7
350
4192
  3
A8
350
4193
  3
A9
350
4194
  3
B0
350
4195
  3
B1
350
4196
  3
B2
350
4197
  3
B3
350
4198
  3
B4
350
4199
  3
B5
350
419A
  3
B6
350
419B
  0
DICTIONARY
  5
4188
102
{ACAD_REACTORS
330
C
102
}
330
C
100
AcDbDictionary
281
     1
  3
Standard
350
4189
  0
DICTIONARY
  5
416E
102
{ACAD_REACTORS
330
C
102
}
330
C
100
AcDbDictionary
281
     1
  3
2dWireframe
350
4174
  3
Basic
350
4173
  3
Brighten
350
417A
  3
ColorChange
350
417E
  3
Conceptual
350
4177
  3
Dim
350
4179
  3
EdgeColorOff
350
4186
  3
Facepattern
350
417D
  3
Flat
350
416F
  3
FlatWithEdges
350
4170
  3
Gouraud
350
4171
  3
GouraudWithEdges
350
4172
  3
Hidden
350
4176
  3
JitterOff
350
4184
  3
Linepattern
350
417C
  3
OverhangOff
350
4185
  3
Realistic
350
4178
  3
Shaded
350
4183
  3
Shaded with edges
350
4182
  3
Shades of Gray
350
417F
  3
Sketchy
350
4180
  3
Thicken
350
417B
  3
Wireframe
350
4175
  3
X-Ray
350
4181
  0
XRECORD
  5
5A61
102
{ACAD_REACTORS
330
C
102
}
330
C
100
AcDbXrecord
280
     1
 90
        1
330
4189
  0
DICTIONARY
  5
1BF
102
{ACAD_REACTORS
330
C
102
}
330
C
100
AcDbDictionary
281
     1
  3
CANNOSCALE
350
4582
  3
CMLEADERSTYLE
350
4581
  3
CTABLESTYLE
350
4580
  3
DIMASSOC
350
4584
  3
INDEXCTL
350
4583
  3
SORTENTS
350
1C0
  3
XCLIPFRAME
350
5A5D
  0
XRECORD
  5
5A62
102
{ACAD_REACTORS
330
C
102
}
330
C
100
AcDbXrecord
280
     1
  1
DWGPROPS COOKIE
  2

  3

  4

  6

  7

  8
woni
  9

300
=
301
=
302
=
303
=
304
=
305
=
306
=
307
=
308
=
309
=
 40
0.4976196412037038
 41
2452464.575009942
 42
2456842.721664051
  1

 90
        0
  0
DICTIONARY
  5
561F
102
{ACAD_REACTORS
330
561E
102
}
330
561E
100
AcDbDictionary
281
     1
  0
XRECORD
  5
4597
102
{ACAD_REACTORS
330
4596
102
}
330
4596
100
AcDbXrecord
280
     1
290
     1
  0
SORTENTSTABLE
  5
49D2
102
{ACAD_REACTORS
330
49D1
102
}
330
49D1
100
AcDbSortentsTable
330
19
331
5369
  5
5369
331
5383
  5
582A
331
536E
  5
536E
331
5370
  5
5370
331
5374
  5
5374
331
5377
  5
5377
331
537A
  5
5785
331
537D
  5
5824
331
537F
  5
5826
331
5363
  5
5363
331
5366
  5
5366
331
5367
  5
5367
331
5365
  5
5365
331
5364
  5
5364
331
5362
  5
5362
331
537E
  5
5825
331
537C
  5
57F7
331
537B
  5
57F6
331
5378
  5
5378
331
5376
  5
5376
331
5375
  5
5375
331
5373
  5
5373
331
5372
  5
5372
331
536F
  5
536F
331
536D
  5
536D
331
536C
  5
536C
331
536B
  5
536B
331
5382
  5
5829
331
536A
  5
536A
331
5381
  5
5828
331
5380
  5
5827
331
5368
  5
5368
  0
SORTENTSTABLE
  5
52CA
102
{ACAD_REACTORS
330
52C9
102
}
330
52C9
100
AcDbSortentsTable
330
52C8
  0
SORTENTSTABLE
  5
52FF
102
{ACAD_REACTORS
330
52FE
102
}
330
52FE
100
AcDbSortentsTable
330
52FD
  0
XRECORD
  5
5A9C
102
{ACAD_REACTORS
330
5A9B
102
}
330
5A9B
100
AcDbXrecord
280
     1
 40
5313.0
  1
\A1;90\U+00B0
  0
XRECORD
  5
5A9E
102
{ACAD_REACTORS
330
5A9D
102
}
330
5A9D
100
AcDbXrecord
280
     1
 40
6896.0
  1
\A1;22.5\U+00B0
  0
LAYOUT
  5
41A0
102
{ACAD_XDICTIONARY
360
5A97
102
}
102
{ACAD_REACTORS
330
419E
102
}
330
419E
100
AcDbPlotSettings
  1

  2
SINDOH M402_408 Series
  4

  6

 40
0.0
 41
0.0
 42
0.0
 43
0.0
 44
0.0
 45
0.0
 46
0.0
 47
0.0
 48
0.0
 49
0.0
140
0.0
141
0.0
142
1.0
143
1.0
 70
  1712
 72
     0
 73
     0
 74
     0
  7

 75
     0
147
1.0
148
0.0
149
0.0
100
AcDbLayout
  1
Model
 70
     1
 71
     0
 10
0.0
 20
0.0
 11
12.0
 21
9.0
 12
0.0
 22
0.0
 32
0.0
 14
0.0
 24
0.0
 34
0.0
 15
0.0
 25
0.0
 35
0.0
146
0.0
 13
0.0
 23
0.0
 33
0.0
 16
1.0
 26
0.0
 36
0.0
 17
0.0
 27
1.0
 37
0.0
 76
     0
330
19
331
4151
  0
LAYOUT
  5
41A1
102
{ACAD_XDICTIONARY
360
5A99
102
}
102
{ACAD_REACTORS
330
419E
102
}
330
419E
100
AcDbPlotSettings
  1

  2
SINDOH M402_408 Series
  4

  6

 40
0.0
 41
0.0
 42
0.0
 43
0.0
 44
0.0
 45
0.0
 46
0.0
 47
0.0
 48
0.0
 49
0.0
140
0.0
141
0.0
142
1.0
143
1.0
 70
   688
 72
     0
 73
     0
 74
     5
  7

 75
    16
147
1.0
148
0.0
149
0.0
100
AcDbLayout
  1
배치1
 70
     1
 71
     1
 10
0.0
 20
0.0
 11
12.0
 21
9.0
 12
0.0
 22
0.0
 32
0.0
 14
1.000000000000000E+20
 24
1.000000000000000E+20
 34
1.000000000000000E+20
 15
-1.000000000000000E+20
 25
-1.000000000000000E+20
 35
-1.000000000000000E+20
146
0.0
 13
0.0
 23
0.0
 33
0.0
 16
1.0
 26
0.0
 36
0.0
 17
0.0
 27
1.0
 37
0.0
 76
     0
330
16
  0
MATERIAL
  5
415E
102
{ACAD_XDICTIONARY
360
415F
102
}
102
{ACAD_REACTORS
330
4155
102
}
330
4155
100
AcDbMaterial
  1
ByBlock
 72
     0
 43
0.0208333333333333
 43
0.0
 43
0.0
 43
0.0
 43
0.0
 43
0.0208333333333333
 43
0.0
 43
0.0
 43
0.0
 43
0.0
 43
1.0
 43
0.0
 43
0.0
 43
0.0
 43
0.0
 43
1.0
 77
     0
 47
0.0208333333333333
 47
0.0
 47
0.0
 47
0.0
 47
0.0
 47
0.0208333333333333
 47
0.0
 47
0.0
 47
0.0
 47
0.0
 47
1.0
 47
0.0
 47
0.0
 47
0.0
 47
0.0
 47
1.0
171
     0
 49
0.0208333333333333
 49
0.0
 49
0.0
 49
0.0
 49
0.0
 49
0.0208333333333333
 49
0.0
 49
0.0
 49
0.0
 49
0.0
 49
1.0
 49
0.0
 49
0.0
 49
0.0
 49
0.0
 49
1.0
175
     0
142
0.0208333333333333
142
0.0
142
0.0
142
0.0
142
0.0
142
0.0208333333333333
142
0.0
142
0.0
142
0.0
142
0.0
142
1.0
142
0.0
142
0.0
142
0.0
142
0.0
142
1.0
179
     0
144
0.0208333333333333
144
0.0
144
0.0
144
0.0
144
0.0
144
0.0208333333333333
144
0.0
144
0.0
144
0.0
144
0.0
144
1.0
144
0.0
144
0.0
144
0.0
144
0.0
144
1.0
147
0.0208333333333333
147
0.0
147
0.0
147
0.0
147
0.0
147
0.0208333333333333
147
0.0
147
0.0
147
0.0
147
0.0
147
1.0
147
0.0
147
0.0
147
0.0
147
0.0
147
1.0
  0
MATERIAL
  5
4156
102
{ACAD_XDICTIONARY
360
4157
102
}
102
{ACAD_REACTORS
330
4155
102
}
330
4155
100
AcDbMaterial
  1
ByLayer
 72
     0
 43
0.0208333333333333
 43
0.0
 43
0.0
 43
0.0
 43
0.0
 43
0.0208333333333333
 43
0.0
 43
0.0
 43
0.0
 43
0.0
 43
1.0
 43
0.0
 43
0.0
 43
0.0
 43
0.0
 43
1.0
 77
     0
 47
0.0208333333333333
 47
0.0
 47
0.0
 47
0.0
 47
0.0
 47
0.0208333333333333
 47
0.0
 47
0.0
 47
0.0
 47
0.0
 47
1.0
 47
0.0
 47
0.0
 47
0.0
 47
0.0
 47
1.0
171
     0
 49
0.0208333333333333
 49
0.0
 49
0.0
 49
0.0
 49
0.0
 49
0.0208333333333333
 49
0.0
 49
0.0
 49
0.0
 49
0.0
 49
1.0
 49
0.0
 49
0.0
 49
0.0
 49
0.0
 49
1.0
175
     0
142
0.0208333333333333
142
0.0
142
0.0
142
0.0
142
0.0
142
0.0208333333333333
142
0.0
142
0.0
142
0.0
142
0.0
142
1.0
142
0.0
142
0.0
142
0.0
142
0.0
142
1.0
179
     0
144
0.0208333333333333
144
0.0
144
0.0
144
0.0
144
0.0
144
0.0208333333333333
144
0.0
144
0.0
144
0.0
144
0.0
144
1.0
144
0.0
144
0.0
144
0.0
144
0.0
144
1.0
147
0.0208333333333333
147
0.0
147
0.0
147
0.0
147
0.0
147
0.0208333333333333
147
0.0
147
0.0
147
0.0
147
0.0
147
1.0
147
0.0
147
0.0
147
0.0
147
0.0
147
1.0
  0
MATERIAL
  5
4166
102
{ACAD_XDICTIONARY
360
4167
102
}
102
{ACAD_REACTORS
330
4155
102
}
330
4155
100
AcDbMaterial
  1
Global
 72
     0
 43
0.0208333333333333
 43
0.0
 43
0.0
 43
0.0
 43
0.0
 43
0.0208333333333333
 43
0.0
 43
0.0
 43
0.0
 43
0.0
 43
1.0
 43
0.0
 43
0.0
 43
0.0
 43
0.0
 43
1.0
 77
     0
 47
0.0208333333333333
 47
0.0
 47
0.0
 47
0.0
 47
0.0
 47
0.0208333333333333
 47
0.0
 47
0.0
 47
0.0
 47
0.0
 47
1.0
 47
0.0
 47
0.0
 47
0.0
 47
0.0
 47
1.0
171
     0
 49
0.0208333333333333
 49
0.0
 49
0.0
 49
0.0
 49
0.0
 49
0.0208333333333333
 49
0.0
 49
0.0
 49
0.0
 49
0.0
 49
1.0
 49
0.0
 49
0.0
 49
0.0
 49
0.0
 49
1.0
175
     0
142
0.0208333333333333
142
0.0
142
0.0
142
0.0
142
0.0
142
0.0208333333333333
142
0.0
142
0.0
142
0.0
142
0.0
142
1.0
142
0.0
142
0.0
142
0.0
142
0.0
142
1.0
179
     0
144
0.0208333333333333
144
0.0
144
0.0
144
0.0
144
0.0
144
0.0208333333333333
144
0.0
144
0.0
144
0.0
144
0.0
144
1.0
144
0.0
144
0.0
144
0.0
144
0.0
144
1.0
147
0.0208333333333333
147
0.0
147
0.0
147
0.0
147
0.0
147
0.0208333333333333
147
0.0
147
0.0
147
0.0
147
0.0
147
1.0
147
0.0
147
0.0
147
0.0
147
0.0
147
1.0
  0
MLEADERSTYLE
  5
419D
102
{ACAD_XDICTIONARY
360
5A5F
102
}
102
{ACAD_REACTORS
330
419C
102
}
330
419C
100
AcDbMLeaderStyle
170
     2
171
     1
172
     0
 90
        2
 40
0.0
 41
0.0
173
     1
 91
-1056964608
340
13
 92
       -2
290
     1
 42
0.09
291
     1
 43
0.36
  3
Standard
 44
0.18
300

342
10
174
     1
178
     6
175
     1
176
     0
 93
-1056964608
 45
0.18
292
     0
297
     0
 46
0.18
 94
-1056964608
 47
1.0
 49
1.0
140
1.0
293
     1
141
0.0
294
     1
177
     0
142
1.0
295
     0
296
     0
143
0.125
1001
ACAD_MLEADERVER
1070
     2
  0
MLINESTYLE
  5
1C
102
{ACAD_REACTORS
330
E
102
}
330
E
100
AcDbMlineStyle
  2
STANDARD
 70
     0
  3

 62
     0
 51
90.0
 52
90.0
 71
     2
 49
0.5
 62
   256
  6
BYLAYER
 49
-0.5
 62
   256
  6
BYLAYER
  0
ACDBPLACEHOLDER
  5
4154
102
{ACAD_REACTORS
330
4153
102
}
330
4153
  0
SCALE
  5
418B
102
{ACAD_REACTORS
330
418A
102
}
330
418A
100
AcDbScale
 70
     0
300
1:1
140
1.0
141
1.0
290
     1
  0
SCALE
  5
418C
102
{ACAD_REACTORS
330
418A
102
}
330
418A
100
AcDbScale
 70
     0
300
1/128" = 1'-0"
140
0.0078125
141
12.0
290
     0
  0
SCALE
  5
418D
102
{ACAD_REACTORS
330
418A
102
}
330
418A
100
AcDbScale
 70
     0
300
1/64" = 1'-0"
140
0.015625
141
12.0
290
     0
  0
SCALE
  5
418E
102
{ACAD_REACTORS
330
418A
102
}
330
418A
100
AcDbScale
 70
     0
300
1/32" = 1'-0"
140
0.03125
141
12.0
290
     0
  0
SCALE
  5
418F
102
{ACAD_REACTORS
330
418A
102
}
330
418A
100
AcDbScale
 70
     0
300
1/16" = 1'-0"
140
0.0625
141
12.0
290
     0
  0
SCALE
  5
4190
102
{ACAD_REACTORS
330
418A
102
}
330
418A
100
AcDbScale
 70
     0
300
3/32" = 1'-0"
140
0.09375
141
12.0
290
     0
  0
SCALE
  5
4191
102
{ACAD_REACTORS
330
418A
102
}
330
418A
100
AcDbScale
 70
     0
300
1/8" = 1'-0"
140
0.125
141
12.0
290
     0
  0
SCALE
  5
4192
102
{ACAD_REACTORS
330
418A
102
}
330
418A
100
AcDbScale
 70
     0
300
3/16" = 1'-0"
140
0.1875
141
12.0
290
     0
  0
SCALE
  5
4193
102
{ACAD_REACTORS
330
418A
102
}
330
418A
100
AcDbScale
 70
     0
300
1/4" = 1'-0"
140
0.25
141
12.0
290
     0
  0
SCALE
  5
4194
102
{ACAD_REACTORS
330
418A
102
}
330
418A
100
AcDbScale
 70
     0
300
3/8" = 1'-0"
140
0.375
141
12.0
290
     0
  0
SCALE
  5
4195
102
{ACAD_REACTORS
330
418A
102
}
330
418A
100
AcDbScale
 70
     0
300
1/2" = 1'-0"
140
0.5
141
12.0
290
     0
  0
SCALE
  5
4196
102
{ACAD_REACTORS
330
418A
102
}
330
418A
100
AcDbScale
 70
     0
300
3/4" = 1'-0"
140
0.75
141
12.0
290
     0
  0
SCALE
  5
4197
102
{ACAD_REACTORS
330
418A
102
}
330
418A
100
AcDbScale
 70
     0
300
1" = 1'-0"
140
1.0
141
12.0
290
     0
  0
SCALE
  5
4198
102
{ACAD_REACTORS
330
418A
102
}
330
418A
100
AcDbScale
 70
     0
300
1-1/2" = 1'-0"
140
1.5
141
12.0
290
     0
  0
SCALE
  5
4199
102
{ACAD_REACTORS
330
418A
102
}
330
418A
100
AcDbScale
 70
     0
300
3" = 1'-0"
140
3.0
141
12.0
290
     0
  0
SCALE
  5
419A
102
{ACAD_REACTORS
330
418A
102
}
330
418A
100
AcDbScale
 70
     0
300
6" = 1'-0"
140
6.0
141
12.0
290
     0
  0
SCALE
  5
419B
102
{ACAD_REACTORS
330
418A
102
}
330
418A
100
AcDbScale
 70
     0
300
1'-0" = 1'-0"
140
12.0
141
12.0
290
     0
  0
TABLESTYLE
  5
4189
102
{ACAD_XDICTIONARY
360
44F1
102
}
102
{ACAD_REACTORS
330
4188
102
}
330
4188
100
AcDbTableStyle
  3
Standard
 70
     0
 71
     0
 40
0.06
 41
0.06
280
     0
281
     0
  7
STANDARD
140
0.18
170
     2
 62
     0
 63
     7
283
     0
274
    -2
284
     1
 64
     0
275
    -2
285
     1
 65
     0
276
    -2
286
     1
 66
     0
277
    -2
287
     1
 67
     0
278
    -2
288
     1
 68
     0
279
    -2
289
     1
 69
     0
  7
STANDARD
140
0.25
170
     5
 62
     0
 63
     7
283
     0
274
    -2
284
     1
 64
     0
275
    -2
285
     1
 65
     0
276
    -2
286
     1
 66
     0
277
    -2
287
     1
 67
     0
278
    -2
288
     1
 68
     0
279
    -2
289
     1
 69
     0
  7
STANDARD
140
0.18
170
     5
 62
     0
 63
     7
283
     0
274
    -2
284
     1
 64
     0
275
    -2
285
     1
 65
     0
276
    -2
286
     1
 66
     0
277
    -2
287
     1
 67
     0
278
    -2
288
     1
 68
     0
279
    -2
289
     1
 69
     0
  0
VISUALSTYLE
  5
4174
102
{ACAD_XDICTIONARY
360
5A70
102
}
102
{ACAD_REACTORS
330
416E
102
}
330
416E
100
AcDbVisualStyle
  2
2dWireframe
 70
     4
 71
     0
 72
     2
 73
     0
 90
        0
 40
-0.6
 41
-30.0
 62
     5
 63
     7
 74
     1
 91
        4
 64
     7
 65
   257
 75
     1
175
     1
 42
1.0
 92
        0
 66
   257
 43
1.0
 76
     1
 77
     6
 78
     2
 67
     7
 79
     5
170
     0
171
     0
290
     0
174
     0
 93
        1
 44
0.0
173
     0
291
     0
 45
0.0
1001
ACAD
1000
AcDbSavedByObjectVersion
1070
     0
  0
VISUALSTYLE
  5
4173
102
{ACAD_XDICTIONARY
360
5A6E
102
}
102
{ACAD_REACTORS
330
416E
102
}
330
416E
100
AcDbVisualStyle
  2
Basic
 70
     7
 71
     1
 72
     0
 73
     1
 90
        0
 40
-0.6
 41
-30.0
 62
     5
 63
     7
 74
     0
 91
        4
 64
     7
 65
   257
 75
     1
175
     1
 42
1.0
 92
        8
 66
     7
 43
1.0
 76
     1
 77
     6
 78
     2
 67
     7
 79
     5
170
     0
171
     0
290
     0
174
     0
 93
        1
 44
0.0
173
     0
291
     1
 45
0.0
1001
ACAD
1000
AcDbSavedByObjectVersion
1070
     0
  0
VISUALSTYLE
  5
417A
102
{ACAD_XDICTIONARY
360
5A7C
102
}
102
{ACAD_REACTORS
330
416E
102
}
330
416E
100
AcDbVisualStyle
  2
Brighten
 70
    12
 71
     2
 72
     2
 73
     0
 90
        0
 40
-0.6
 41
-30.0
 62
     5
 63
     7
 74
     1
 91
        4
 64
     7
 65
   257
 75
     1
175
     1
 42
1.0
 92
        8
 66
     7
 43
1.0
 76
     1
 77
     6
 78
     2
 67
     7
 79
     5
170
     0
171
     0
290
     0
174
     0
 93
        1
 44
50.0
173
     0
291
     1
 45
0.0
1001
ACAD
1000
AcDbSavedByObjectVersion
1070
     0
  0
VISUALSTYLE
  5
417E
102
{ACAD_XDICTIONARY
360
5A84
102
}
102
{ACAD_REACTORS
330
416E
102
}
330
416E
100
AcDbVisualStyle
  2
ColorChange
 70
    16
 71
     2
 72
     2
 73
     3
 90
        0
 40
-0.6
 41
-30.0
 62
     5
 63
     8
 74
     1
 91
        4
 64
     7
 65
   257
 75
     1
175
     1
 42
1.0
 92
        8
 66
     8
 43
1.0
 76
     1
 77
     6
 78
     2
 67
     7
 79
     5
170
     0
171
     0
290
     0
174
     0
 93
        1
 44
0.0
173
     0
291
     1
 45
0.0
1001
ACAD
1000
AcDbSavedByObjectVersion
1070
     0
  0
VISUALSTYLE
  5
4177
102
{ACAD_XDICTIONARY
360
5A76
102
}
102
{ACAD_REACTORS
330
416E
102
}
330
416E
100
AcDbVisualStyle
  2
Conceptual
 70
     9
 71
     3
 72
     2
 73
     0
 90
        0
 40
-0.6
 41
-30.0
 62
     5
 63
     7
 74
     2
 91
        2
 64
     7
 65
   257
 75
     1
175
     1
 42
179.0
 92
        8
 66
     7
 43
1.0
 76
     1
 77
     6
 78
     2
 67
     7
 79
     3
170
     0
171
     0
290
     0
174
     0
 93
        1
 44
0.0
173
     0
291
     0
 45
0.0
1001
ACAD
1000
AcDbSavedByObjectVersion
1070
     0
  0
VISUALSTYLE
  5
4179
102
{ACAD_XDICTIONARY
360
5A7A
102
}
102
{ACAD_REACTORS
330
416E
102
}
330
416E
100
AcDbVisualStyle
  2
Dim
 70
    11
 71
     2
 72
     2
 73
     0
 90
        0
 40
-0.6
 41
-30.0
 62
     5
 63
     7
 74
     1
 91
        4
 64
     7
 65
   257
 75
     1
175
     1
 42
1.0
 92
        8
 66
     7
 43
1.0
 76
     1
 77
     6
 78
     2
 67
     7
 79
     5
170
     0
171
     0
290
     0
174
     0
 93
        1
 44
-50.0
173
     0
291
     1
 45
0.0
1001
ACAD
1000
AcDbSavedByObjectVersion
1070
     0
  0
VISUALSTYLE
  5
4186
102
{ACAD_XDICTIONARY
360
5A94
102
}
102
{ACAD_REACTORS
330
416E
102
}
330
416E
100
AcDbVisualStyle
  2
EdgeColorOff
 70
    22
 71
     2
 72
     2
 73
     0
 90
        0
 40
-0.6
 41
-30.0
 62
     5
 63
     7
 74
     1
 91
        4
 64
     7
 65
   257
 75
     1
175
     1
 42
1.0
 92
        8
 66
     7
 43
1.0
 76
     1
 77
     6
 78
     2
 67
     7
 79
     5
170
     0
171
     0
290
     0
174
     0
 93
        1
 44
0.0
173
     0
291
     1
 45
0.0
1001
ACAD
1000
AcDbSavedByObjectVersion
1070
     0
  0
VISUALSTYLE
  5
417D
102
{ACAD_XDICTIONARY
360
5A82
102
}
102
{ACAD_REACTORS
330
416E
102
}
330
416E
100
AcDbVisualStyle
  2
Facepattern
 70
    15
 71
     2
 72
     2
 73
     0
 90
        0
 40
-0.6
 41
-30.0
 62
     5
 63
     7
 74
     1
 91
        4
 64
     7
 65
   257
 75
     1
175
     1
 42
1.0
 92
        8
 66
     7
 43
1.0
 76
     1
 77
     6
 78
     2
 67
     7
 79
     5
170
     0
171
     0
290
     0
174
     0
 93
        1
 44
0.0
173
     0
291
     1
 45
0.0
1001
ACAD
1000
AcDbSavedByObjectVersion
1070
     0
  0
VISUALSTYLE
  5
416F
102
{ACAD_XDICTIONARY
360
5A66
102
}
102
{ACAD_REACTORS
330
416E
102
}
330
416E
100
AcDbVisualStyle
  2
Flat
 70
     0
 71
     2
 72
     1
 73
     1
 90
        2
 40
-0.6
 41
30.0
 62
     5
 63
     7
 74
     0
 91
        0
 64
     7
 65
   257
 75
     1
175
     1
 42
1.0
 92
        8
 66
     7
 43
1.0
 76
     1
 77
     6
 78
     2
 67
     7
 79
     5
170
     0
171
     0
290
     0
174
     0
 93
       13
 44
0.0
173
     0
291
     1
 45
0.0
1001
ACAD
1000
AcDbSavedByObjectVersion
1070
     0
  0
VISUALSTYLE
  5
4170
102
{ACAD_XDICTIONARY
360
5A68
102
}
102
{ACAD_REACTORS
330
416E
102
}
330
416E
100
AcDbVisualStyle
  2
FlatWithEdges
 70
     1
 71
     2
 72
     1
 73
     1
 90
        2
 40
-0.6
 41
30.0
 62
     5
 63
     7
 74
     1
 91
        0
 64
     7
 65
   257
 75
     1
175
     1
 42
1.0
 92
        0
 66
   257
 43
1.0
 76
     1
 77
     6
 78
     2
 67
     7
 79
     5
170
     0
171
     0
290
     0
174
     0
 93
       13
 44
0.0
173
     0
291
     1
 45
0.0
1001
ACAD
1000
AcDbSavedByObjectVersion
1070
     0
  0
VISUALSTYLE
  5
4171
102
{ACAD_XDICTIONARY
360
5A6A
102
}
102
{ACAD_REACTORS
330
416E
102
}
330
416E
100
AcDbVisualStyle
  2
Gouraud
 70
     2
 71
     2
 72
     2
 73
     1
 90
        2
 40
-0.6
 41
30.0
 62
     5
 63
     7
 74
     0
 91
        0
 64
     7
 65
   257
 75
     1
175
     1
 42
1.0
 92
        0
 66
     7
 43
1.0
 76
     1
 77
     6
 78
     2
 67
     7
 79
     5
170
     0
171
     0
290
     0
174
     0
 93
       13
 44
0.0
173
     0
291
     1
 45
0.0
1001
ACAD
1000
AcDbSavedByObjectVersion
1070
     0
  0
VISUALSTYLE
  5
4172
102
{ACAD_XDICTIONARY
360
5A6C
102
}
102
{ACAD_REACTORS
330
416E
102
}
330
416E
100
AcDbVisualStyle
  2
GouraudWithEdges
 70
     3
 71
     2
 72
     2
 73
     1
 90
        2
 40
-0.6
 41
30.0
 62
     5
 63
     7
 74
     1
 91
        0
 64
     7
 65
   257
 75
     1
175
     1
 42
1.0
 92
        0
 66
   257
 43
1.0
 76
     1
 77
     6
 78
     2
 67
     7
 79
     5
170
     0
171
     0
290
     0
174
     0
 93
       13
 44
0.0
173
     0
291
     1
 45
0.0
1001
ACAD
1000
AcDbSavedByObjectVersion
1070
     0
  0
VISUALSTYLE
  5
4176
102
{ACAD_XDICTIONARY
360
5A74
102
}
102
{ACAD_REACTORS
330
416E
102
}
330
416E
100
AcDbVisualStyle
  2
Hidden
 70
     6
 71
     1
 72
     2
 73
     2
 90
        0
 40
-0.6
 41
-30.0
 62
     5
 63
     7
 74
     2
 91
        2
 64
     7
 65
   257
 75
     2
175
     1
 42
40.0
 92
        0
 66
   257
 43
1.0
 76
     1
 77
     6
 78
     2
 67
     7
 79
     3
170
     0
171
     0
290
     0
174
     0
 93
        1
 44
0.0
173
     0
291
     0
 45
0.0
1001
ACAD
1000
AcDbSavedByObjectVersion
1070
     0
  0
VISUALSTYLE
  5
4184
102
{ACAD_XDICTIONARY
360
5A90
102
}
102
{ACAD_REACTORS
330
416E
102
}
330
416E
100
AcDbVisualStyle
  2
JitterOff
 70
    20
 71
     2
 72
     2
 73
     0
 90
        0
 40
-0.6
 41
-30.0
 62
     5
 63
     7
 74
     1
 91
        4
 64
     7
 65
   257
 75
     1
175
     1
 42
1.0
 92
       10
 66
     7
 43
1.0
 76
     1
 77
     6
 78
     2
 67
     7
 79
     5
170
     0
171
     0
290
     0
174
     0
 93
        1
 44
0.0
173
     0
291
     1
 45
0.0
1001
ACAD
1000
AcDbSavedByObjectVersion
1070
     0
  0
VISUALSTYLE
  5
417C
102
{ACAD_XDICTIONARY
360
5A80
102
}
102
{ACAD_REACTORS
330
416E
102
}
330
416E
100
AcDbVisualStyle
  2
Linepattern
 70
    14
 71
     2
 72
     2
 73
     0
 90
        0
 40
-0.6
 41
-30.0
 62
     5
 63
     7
 74
     1
 91
        4
 64
     7
 65
   257
 75
     7
175
     7
 42
1.0
 92
        8
 66
     7
 43
1.0
 76
     1
 77
     6
 78
     2
 67
     7
 79
     5
170
     0
171
     0
290
     0
174
     0
 93
        1
 44
0.0
173
     0
291
     1
 45
0.0
1001
ACAD
1000
AcDbSavedByObjectVersion
1070
     0
  0
VISUALSTYLE
  5
4185
102
{ACAD_XDICTIONARY
360
5A92
102
}
102
{ACAD_REACTORS
330
416E
102
}
330
416E
100
AcDbVisualStyle
  2
OverhangOff
 70
    21
 71
     2
 72
     2
 73
     0
 90
        0
 40
-0.6
 41
-30.0
 62
     5
 63
     7
 74
     1
 91
        4
 64
     7
 65
   257
 75
     1
175
     1
 42
1.0
 92
        9
 66
     7
 43
1.0
 76
     1
 77
     6
 78
     2
 67
     7
 79
     5
170
     0
171
     0
290
     0
174
     0
 93
        1
 44
0.0
173
     0
291
     1
 45
0.0
1001
ACAD
1000
AcDbSavedByObjectVersion
1070
     0
  0
VISUALSTYLE
  5
4178
102
{ACAD_XDICTIONARY
360
5A78
102
}
102
{ACAD_REACTORS
330
416E
102
}
330
416E
100
AcDbVisualStyle
  2
Realistic
 70
     8
 71
     2
 72
     2
 73
     0
 90
        2
 40
-0.6
 41
30.0
 62
     5
 63
     7
 74
     0
 91
        0
 64
     7
 65
   257
 75
     1
175
     1
 42
1.0
 92
        8
 66
   257
 43
1.0
 76
     1
 77
     6
 78
     2
 67
     7
 79
     3
170
     0
171
     0
290
     0
174
     0
 93
       13
 44
0.0
173
     0
291
     0
 45
0.0
1001
ACAD
1000
AcDbSavedByObjectVersion
1070
     0
  0
VISUALSTYLE
  5
4183
102
{ACAD_XDICTIONARY
360
5A8E
102
}
102
{ACAD_REACTORS
330
416E
102
}
330
416E
100
AcDbVisualStyle
  2
Shaded
 70
    27
 71
     2
 72
     2
 73
     1
 90
        2
 40
-0.6
 41
30.0
 62
     5
 63
     7
 74
     0
 91
        4
 64
     7
 65
   257
 75
     1
175
     1
 42
1.0
 92
        8
 66
   257
 43
1.0
 76
     1
 77
     6
 78
     2
 67
     8
 79
     3
170
     0
171
     0
290
     0
174
     0
 93
        5
 44
0.0
173
     0
291
     0
 45
0.0
1001
ACAD
1000
AcDbSavedByObjectVersion
1070
     0
  0
VISUALSTYLE
  5
4182
102
{ACAD_XDICTIONARY
360
5A8C
102
}
102
{ACAD_REACTORS
330
416E
102
}
330
416E
100
AcDbVisualStyle
  2
Shaded with edges
 70
    26
 71
     2
 72
     2
 73
     1
 90
        2
 40
-0.6
 41
30.0
 62
     5
 63
     7
 74
     1
 91
       10
 64
     7
 65
   257
 75
     2
175
     1
 42
1.0
 92
        8
 66
   257
 43
1.0
 76
     1
 77
     6
 78
     2
 67
     7
 79
     3
170
     0
171
     0
290
     0
174
     0
 93
        5
 44
0.0
173
     0
291
     0
 45
0.0
1001
ACAD
1000
AcDbSavedByObjectVersion
1070
     0
  0
VISUALSTYLE
  5
417F
102
{ACAD_XDICTIONARY
360
5A86
102
}
102
{ACAD_REACTORS
330
416E
102
}
330
416E
100
AcDbVisualStyle
  2
Shades of Gray
 70
    23
 71
     2
 72
     2
 73
     3
 90
        0
 40
-0.6
 41
-30.0
 62
     5
 63
     7
 74
     2
 91
        2
 64
     7
 65
     7
 75
     1
175
     1
 42
40.0
 92
        8
 66
     7
 43
1.0
 76
     1
 77
     6
 78
     2
 67
     7
 79
     3
170
     0
171
     0
290
     0
174
     0
 93
        1
 44
0.0
173
     0
291
     0
 45
0.0
1001
ACAD
1000
AcDbSavedByObjectVersion
1070
     0
  0
VISUALSTYLE
  5
4180
102
{ACAD_XDICTIONARY
360
5A88
102
}
102
{ACAD_REACTORS
330
416E
102
}
330
416E
100
AcDbVisualStyle
  2
Sketchy
 70
    24
 71
     1
 72
     2
 73
     2
 90
        0
 40
-0.6
 41
-30.0
 62
     5
 63
     7
 74
     2
 91
        2
 64
     7
 65
     7
 75
     1
175
     1
 42
40.0
 92
       11
 66
     7
 43
1.0
 76
     1
 77
     6
 78
     2
 67
     7
 79
     6
170
     0
171
     0
290
     0
174
     0
 93
        1
 44
0.0
173
     0
291
     0
 45
0.0
1001
ACAD
1000
AcDbSavedByObjectVersion
1070
     0
  0
VISUALSTYLE
  5
417B
102
{ACAD_XDICTIONARY
360
5A7E
102
}
102
{ACAD_REACTORS
330
416E
102
}
330
416E
100
AcDbVisualStyle
  2
Thicken
 70
    13
 71
     2
 72
     2
 73
     0
 90
        0
 40
-0.6
 41
-30.0
 62
     5
 63
     7
 74
     1
 91
        4
 64
     7
 65
   257
 75
     1
175
     1
 42
1.0
 92
       12
 66
     7
 43
1.0
 76
     1
 77
     6
 78
     2
 67
     7
 79
     5
170
     0
171
     0
290
     0
174
     0
 93
        1
 44
0.0
173
     0
291
     1
 45
0.0
1001
ACAD
1000
AcDbSavedByObjectVersion
1070
     0
  0
VISUALSTYLE
  5
4175
102
{ACAD_XDICTIONARY
360
5A72
102
}
102
{ACAD_REACTORS
330
416E
102
}
330
416E
100
AcDbVisualStyle
  2
Wireframe
 70
     5
 71
     0
 72
     2
 73
     0
 90
        0
 40
-0.6
 41
-30.0
 62
     5
 63
     7
 74
     1
 91
        4
 64
     7
 65
   257
 75
     1
175
     1
 42
1.0
 92
        0
 66
   257
 43
1.0
 76
     1
 77
     6
 78
     2
 67
     7
 79
     3
170
     0
171
     0
290
     0
174
     0
 93
        1
 44
0.0
173
     0
291
     0
 45
0.0
1001
ACAD
1000
AcDbSavedByObjectVersion
1070
     0
  0
VISUALSTYLE
  5
4181
102
{ACAD_XDICTIONARY
360
5A8A
102
}
102
{ACAD_REACTORS
330
416E
102
}
330
416E
100
AcDbVisualStyle
  2
X-Ray
 70
    25
 71
     2
 72
     2
 73
     1
 90
        1
 40
0.5
 41
-30.0
 62
     5
 63
     7
 74
     1
 91
        0
 64
     7
 65
   257
 75
     1
175
     1
 42
1.0
 92
        8
 66
     7
 43
1.0
 76
     1
 77
     6
 78
     2
 67
     7
 79
     3
170
     0
171
     0
290
     0
174
     0
 93
       13
 44
0.0
173
     0
291
     0
 45
0.0
1001
ACAD
1000
AcDbSavedByObjectVersion
1070
     0
  0
DICTIONARYVAR
  5
4582
102
{ACAD_REACTORS
330
1BF
102
}
330
1BF
100
DictionaryVariables
280
     0
  1
1:1
  0
DICTIONARYVAR
  5
4581
102
{ACAD_REACTORS
330
1BF
102
}
330
1BF
100
DictionaryVariables
280
     0
  1
STANDARD
  0
DICTIONARYVAR
  5
4580
102
{ACAD_REACTORS
330
1BF
102
}
330
1BF
100
DictionaryVariables
280
     0
  1
STANDARD
  0
DICTIONARYVAR
  5
4584
102
{ACAD_REACTORS
330
1BF
102
}
330
1BF
100
DictionaryVariables
280
     0
  1
1
  0
DICTIONARYVAR
  5
4583
102
{ACAD_REACTORS
330
1BF
102
}
330
1BF
100
DictionaryVariables
280
     0
  1
0
  0
DICTIONARYVAR
  5
1C0
102
{ACAD_REACTORS
330
1BF
102
}
330
1BF
100
DictionaryVariables
280
     0
  1
96
  0
DICTIONARYVAR
  5
5A5D
102
{ACAD_REACTORS
330
1BF
102
}
330
1BF
100
DictionaryVariables
280
     0
  1
2
  0
DICTIONARY
  5
5A97
330
41A0
100
AcDbDictionary
280
     1
281
     1
  3
ACAD_XREC_ROUNDTRIP
360
5A98
  0
DICTIONARY
  5
5A99
330
41A1
100
AcDbDictionary
280
     1
281
     1
  3
ACAD_XREC_ROUNDTRIP
360
5A9A
  0
DICTIONARY
  5
415F
330
415E
100
AcDbDictionary
280
     1
281
     1
  3
ACAD_XREC_ROUNDTRIP
360
5A64
  3
BUMPTILE
360
4161
  3
DIFFUSETILE
360
4160
  3
OPACITYTILE
360
4164
  3
REFLECTIONTILE
360
4163
  3
REFRACTIONTILE
360
4165
  3
SPECULARTILE
360
4162
  0
DICTIONARY
  5
4157
330
4156
100
AcDbDictionary
280
     1
281
     1
  3
ACAD_XREC_ROUNDTRIP
360
5A63
  3
BUMPTILE
360
4159
  3
DIFFUSETILE
360
4158
  3
OPACITYTILE
360
415C
  3
REFLECTIONTILE
360
415B
  3
REFRACTIONTILE
360
415D
  3
SPECULARTILE
360
415A
  0
DICTIONARY
  5
4167
330
4166
100
AcDbDictionary
280
     1
281
     1
  3
ACAD_XREC_ROUNDTRIP
360
5A65
  3
BUMPTILE
360
4169
  3
DIFFUSETILE
360
4168
  3
OPACITYTILE
360
416C
  3
REFLECTIONTILE
360
416B
  3
REFRACTIONTILE
360
416D
  3
SPECULARTILE
360
416A
  0
DICTIONARY
  5
5A5F
330
419D
100
AcDbDictionary
280
     1
281
     1
  3
ACAD_XREC_ROUNDTRIP
360
5A60
  0
DICTIONARY
  5
44F1
330
4189
100
AcDbDictionary
280
     1
281
     1
  3
ACAD_ROUNDTRIP_2008_TABLESTYLE_CELLSTYLEMAP
360
5A5E
  3
ACAD_XREC_ROUNDTRIP
360
5A96
  0
DICTIONARY
  5
5A70
330
4174
100
AcDbDictionary
280
     1
281
     1
  3
ACAD_XREC_ROUNDTRIP
360
5A71
  0
DICTIONARY
  5
5A6E
330
4173
100
AcDbDictionary
280
     1
281
     1
  3
ACAD_XREC_ROUNDTRIP
360
5A6F
  0
DICTIONARY
  5
5A7C
330
417A
100
AcDbDictionary
280
     1
281
     1
  3
ACAD_XREC_ROUNDTRIP
360
5A7D
  0
DICTIONARY
  5
5A84
330
417E
100
AcDbDictionary
280
     1
281
     1
  3
ACAD_XREC_ROUNDTRIP
360
5A85
  0
DICTIONARY
  5
5A76
330
4177
100
AcDbDictionary
280
     1
281
     1
  3
ACAD_XREC_ROUNDTRIP
360
5A77
  0
DICTIONARY
  5
5A7A
330
4179
100
AcDbDictionary
280
     1
281
     1
  3
ACAD_XREC_ROUNDTRIP
360
5A7B
  0
DICTIONARY
  5
5A94
330
4186
100
AcDbDictionary
280
     1
281
     1
  3
ACAD_XREC_ROUNDTRIP
360
5A95
  0
DICTIONARY
  5
5A82
330
417D
100
AcDbDictionary
280
     1
281
     1
  3
ACAD_XREC_ROUNDTRIP
360
5A83
  0
DICTIONARY
  5
5A66
330
416F
100
AcDbDictionary
280
     1
281
     1
  3
ACAD_XREC_ROUNDTRIP
360
5A67
  0
DICTIONARY
  5
5A68
330
4170
100
AcDbDictionary
280
     1
281
     1
  3
ACAD_XREC_ROUNDTRIP
360
5A69
  0
DICTIONARY
  5
5A6A
330
4171
100
AcDbDictionary
280
     1
281
     1
  3
ACAD_XREC_ROUNDTRIP
360
5A6B
  0
DICTIONARY
  5
5A6C
330
4172
100
AcDbDictionary
280
     1
281
     1
  3
ACAD_XREC_ROUNDTRIP
360
5A6D
  0
DICTIONARY
  5
5A74
330
4176
100
AcDbDictionary
280
     1
281
     1
  3
ACAD_XREC_ROUNDTRIP
360
5A75
  0
DICTIONARY
  5
5A90
330
4184
100
AcDbDictionary
280
     1
281
     1
  3
ACAD_XREC_ROUNDTRIP
360
5A91
  0
DICTIONARY
  5
5A80
330
417C
100
AcDbDictionary
280
     1
281
     1
  3
ACAD_XREC_ROUNDTRIP
360
5A81
  0
DICTIONARY
  5
5A92
330
4185
100
AcDbDictionary
280
     1
281
     1
  3
ACAD_XREC_ROUNDTRIP
360
5A93
  0
DICTIONARY
  5
5A78
330
4178
100
AcDbDictionary
280
     1
281
     1
  3
ACAD_XREC_ROUNDTRIP
360
5A79
  0
DICTIONARY
  5
5A8E
330
4183
100
AcDbDictionary
280
     1
281
     1
  3
ACAD_XREC_ROUNDTRIP
360
5A8F
  0
DICTIONARY
  5
5A8C
330
4182
100
AcDbDictionary
280
     1
281
     1
  3
ACAD_XREC_ROUNDTRIP
360
5A8D
  0
DICTIONARY
  5
5A86
330
417F
100
AcDbDictionary
280
     1
281
     1
  3
ACAD_XREC_ROUNDTRIP
360
5A87
  0
DICTIONARY
  5
5A88
330
4180
100
AcDbDictionary
280
     1
281
     1
  3
ACAD_XREC_ROUNDTRIP
360
5A89
  0
DICTIONARY
  5
5A7E
330
417B
100
AcDbDictionary
280
     1
281
     1
  3
ACAD_XREC_ROUNDTRIP
360
5A7F
  0
DICTIONARY
  5
5A72
330
4175
100
AcDbDictionary
280
     1
281
     1
  3
ACAD_XREC_ROUNDTRIP
360
5A73
  0
DICTIONARY
  5
5A8A
330
4181
100
AcDbDictionary
280
     1
281
     1
  3
ACAD_XREC_ROUNDTRIP
360
5A8B
  0
XRECORD
  5
5A98
102
{ACAD_REACTORS
330
5A97
102
}
330
5A97
100
AcDbXrecord
280
     1
102
SHADEPLOT
 70
     0
102
SHADEPLOTRESLEVEL
 70
     2
102
SHADEPLOTCUSTOMDPI
 70
   300
  0
XRECORD
  5
5A9A
102
{ACAD_REACTORS
330
5A99
102
}
330
5A99
100
AcDbXrecord
280
     1
102
SHADEPLOT
 70
     0
102
SHADEPLOTRESLEVEL
 70
     2
102
SHADEPLOTCUSTOMDPI
 70
   300
  0
XRECORD
  5
5A64
102
{ACAD_REACTORS
330
415F
102
}
330
415F
100
AcDbXrecord
280
     1
102
MATERIAL
148
0.0
149
0.0
149
0.0
 93
        0
 94
      127
282
     0
 72
     0
 77
     0
171
     0
175
     0
179
     0
273
     0
  0
XRECORD
  5
4161
102
{ACAD_REACTORS
330
415F
102
}
330
415F
100
AcDbXrecord
280
     1
270
     1
271
     1
  0
XRECORD
  5
4160
102
{ACAD_REACTORS
330
415F
102
}
330
415F
100
AcDbXrecord
280
     1
270
     1
271
     1
  0
XRECORD
  5
4164
102
{ACAD_REACTORS
330
415F
102
}
330
415F
100
AcDbXrecord
280
     1
270
     1
271
     1
  0
XRECORD
  5
4163
102
{ACAD_REACTORS
330
415F
102
}
330
415F
100
AcDbXrecord
280
     1
270
     1
271
     1
  0
XRECORD
  5
4165
102
{ACAD_REACTORS
330
415F
102
}
330
415F
100
AcDbXrecord
280
     1
270
     1
271
     1
  0
XRECORD
  5
4162
102
{ACAD_REACTORS
330
415F
102
}
330
415F
100
AcDbXrecord
280
     1
270
     1
271
     1
  0
XRECORD
  5
5A63
102
{ACAD_REACTORS
330
4157
102
}
330
4157
100
AcDbXrecord
280
     1
102
MATERIAL
148
0.0
149
0.0
149
0.0
 93
        0
 94
      127
282
     0
 72
     0
 77
     0
171
     0
175
     0
179
     0
273
     0
  0
XRECORD
  5
4159
102
{ACAD_REACTORS
330
4157
102
}
330
4157
100
AcDbXrecord
280
     1
270
     1
271
     1
  0
XRECORD
  5
4158
102
{ACAD_REACTORS
330
4157
102
}
330
4157
100
AcDbXrecord
280
     1
270
     1
271
     1
  0
XRECORD
  5
415C
102
{ACAD_REACTORS
330
4157
102
}
330
4157
100
AcDbXrecord
280
     1
270
     1
271
     1
  0
XRECORD
  5
415B
102
{ACAD_REACTORS
330
4157
102
}
330
4157
100
AcDbXrecord
280
     1
270
     1
271
     1
  0
XRECORD
  5
415D
102
{ACAD_REACTORS
330
4157
102
}
330
4157
100
AcDbXrecord
280
     1
270
     1
271
     1
  0
XRECORD
  5
415A
102
{ACAD_REACTORS
330
4157
102
}
330
4157
100
AcDbXrecord
280
     1
270
     1
271
     1
  0
XRECORD
  5
5A65
102
{ACAD_REACTORS
330
4167
102
}
330
4167
100
AcDbXrecord
280
     1
102
MATERIAL
148
0.0
149
0.0
149
0.0
 93
        0
 94
      127
282
     0
 72
     0
 77
     0
171
     0
175
     0
179
     0
273
     0
  0
XRECORD
  5
4169
102
{ACAD_REACTORS
330
4167
102
}
330
4167
100
AcDbXrecord
280
     1
270
     1
271
     1
  0
XRECORD
  5
4168
102
{ACAD_REACTORS
330
4167
102
}
330
4167
100
AcDbXrecord
280
     1
270
     1
271
     1
  0
XRECORD
  5
416C
102
{ACAD_REACTORS
330
4167
102
}
330
4167
100
AcDbXrecord
280
     1
270
     1
271
     1
  0
XRECORD
  5
416B
102
{ACAD_REACTORS
330
4167
102
}
330
4167
100
AcDbXrecord
280
     1
270
     1
271
     1
  0
XRECORD
  5
416D
102
{ACAD_REACTORS
330
4167
102
}
330
4167
100
AcDbXrecord
280
     1
270
     1
271
     1
  0
XRECORD
  5
416A
102
{ACAD_REACTORS
330
4167
102
}
330
4167
100
AcDbXrecord
280
     1
270
     1
271
     1
  0
XRECORD
  5
5A60
102
{ACAD_REACTORS
330
5A5F
102
}
330
5A5F
100
AcDbXrecord
280
     1
102
ACAD_ROUNDTRIP_2012_MLEADER_STYLE
298
     1
  0
CELLSTYLEMAP
  5
5A5E
102
{ACAD_REACTORS
330
44F1
102
}
330
44F1
100
AcDbCellStyleMap
 90
        3
300
CELLSTYLE
  1
TABLEFORMAT_BEGIN
 90
        5
170
     1
 91
        0
 92
    32768
 62
   257
 93
        1
300
CONTENTFORMAT
  1
CONTENTFORMAT_BEGIN
 90
        0
 91
        0
 92
      512
 93
        0
300

 40
0.0
140
1.0
 94
        5
 62
     0
340
10
144
0.25
309
CONTENTFORMAT_END
171
     0
 94
        0
309
TABLEFORMAT_END
  1
CELLSTYLE_BEGIN
 90
        1
 91
        1
300
_TITLE
309
CELLSTYLE_END
300
CELLSTYLE
  1
TABLEFORMAT_BEGIN
 90
        5
170
     1
 91
        0
 92
        0
 62
   257
 93
        1
300
CONTENTFORMAT
  1
CONTENTFORMAT_BEGIN
 90
        0
 91
        0
 92
      512
 93
        0
300

 40
0.0
140
1.0
 94
        5
 62
     0
340
10
144
0.18
309
CONTENTFORMAT_END
171
     0
 94
        0
309
TABLEFORMAT_END
  1
CELLSTYLE_BEGIN
 90
        2
 91
        1
300
_HEADER
309
CELLSTYLE_END
300
CELLSTYLE
  1
TABLEFORMAT_BEGIN
 90
        5
170
     1
 91
        0
 92
        0
 62
   257
 93
        1
300
CONTENTFORMAT
  1
CONTENTFORMAT_BEGIN
 90
        0
 91
        0
 92
      512
 93
        0
300

 40
0.0
140
1.0
 94
        2
 62
     0
340
10
144
0.18
309
CONTENTFORMAT_END
171
     0
 94
        0
309
TABLEFORMAT_END
  1
CELLSTYLE_BEGIN
 90
        3
 91
        2
300
_DATA
309
CELLSTYLE_END
  0
XRECORD
  5
5A96
102
{ACAD_REACTORS
330
44F1
102
}
330
44F1
100
AcDbXrecord
280
     1
102
ACAD_ROUNDTRIP_PRE2007_TABLESTYLE
 90
      512
 91
        0
  1

 92
      512
 93
        0
  2

 94
      512
 95
        0
  3

  0
XRECORD
  5
5A71
102
{ACAD_REACTORS
330
5A70
102
}
330
5A70
100
AcDbXrecord
280
     1
102
RTVSPropertyOp0
 70
     1
102
RTVSPropertyOp1
 70
     1
102
RTVSPropertyOp2
 70
     1
102
RTVSPropertyOp3
 70
     1
102
RTVSPropertyOp4
 70
     1
102
RTVSPropertyOp5
 70
     1
102
RTVSPropertyOp6
 70
     1
102
RTVSPropertyOp7
 70
     1
102
RTVSPropertyOp8
 70
     1
102
RTVSPropertyOp9
 70
     1
102
RTVSPropertyOp10
 70
     1
102
RTVSPropertyOp11
 70
     1
102
RTVSPropertyOp12
 70
     1
102
RTVSPropertyOp13
 70
     1
102
RTVSPropertyOp14
 70
     1
102
RTVSPropertyOp15
 70
     1
102
RTVSPropertyOp16
 70
     1
102
RTVSPropertyOp17
 70
     1
102
RTVSPropertyOp18
 70
     1
102
RTVSPropertyOp19
 70
     1
102
RTVSPropertyOp20
 70
     1
102
RTVSPropertyOp21
 70
     1
102
RTVSPropertyOp22
 70
     1
102
RTVSPropertyOp23
 70
     1
102
RTVSPropertyOp24
 70
     1
102
RTVSPropertyOp25
 70
     1
102
RTVSPropertyOp26
 70
     1
102
RTVSPropertyOp27
 70
     1
102
RTVSPropertyOp28
 70
     1
102
RTVSPropertyOp29
 70
     1
102
RTVSPropertyOp30
 70
     1
102
RTVSPropertyOp31
 70
     1
102
RTVSPropertyOp32
 70
     1
  0
XRECORD
  5
5A6F
102
{ACAD_REACTORS
330
5A6E
102
}
330
5A6E
100
AcDbXrecord
280
     1
102
RTVSPropertyOp0
 70
     1
102
RTVSPropertyOp1
 70
     1
102
RTVSPropertyOp2
 70
     1
102
RTVSPropertyOp3
 70
     1
102
RTVSPropertyOp4
 70
     1
102
RTVSPropertyOp5
 70
     1
102
RTVSPropertyOp6
 70
     1
102
RTVSPropertyOp7
 70
     1
102
RTVSPropertyOp8
 70
     1
102
RTVSPropertyOp9
 70
     1
102
RTVSPropertyOp10
 70
     1
102
RTVSPropertyOp11
 70
     1
102
RTVSPropertyOp12
 70
     1
102
RTVSPropertyOp13
 70
     1
102
RTVSPropertyOp14
 70
     1
102
RTVSPropertyOp15
 70
     1
102
RTVSPropertyOp16
 70
     1
102
RTVSPropertyOp17
 70
     1
102
RTVSPropertyOp18
 70
     1
102
RTVSPropertyOp19
 70
     1
102
RTVSPropertyOp20
 70
     1
102
RTVSPropertyOp21
 70
     1
102
RTVSPropertyOp22
 70
     1
102
RTVSPropertyOp23
 70
     1
102
RTVSPropertyOp24
 70
     1
102
RTVSPropertyOp25
 70
     1
102
RTVSPropertyOp26
 70
     1
102
RTVSPropertyOp27
 70
     1
102
RTVSPropertyOp28
 70
     1
102
RTVSPropertyOp29
 70
     1
102
RTVSPropertyOp30
 70
     1
102
RTVSPropertyOp31
 70
     1
102
RTVSPropertyOp32
 70
     1
  0
XRECORD
  5
5A7D
102
{ACAD_REACTORS
330
5A7C
102
}
330
5A7C
100
AcDbXrecord
280
     1
102
RTVSPropertyOp0
 70
     1
102
RTVSPropertyOp1
 70
     1
102
RTVSPropertyOp2
 70
     1
102
RTVSPropertyOp3
 70
     1
102
RTVSPropertyOp4
 70
     1
102
RTVSPropertyOp5
 70
     1
102
RTVSPropertyOp6
 70
     1
102
RTVSPropertyOp7
 70
     1
102
RTVSPropertyOp8
 70
     1
102
RTVSPropertyOp9
 70
     1
102
RTVSPropertyOp10
 70
     1
102
RTVSPropertyOp11
 70
     1
102
RTVSPropertyOp12
 70
     1
102
RTVSPropertyOp13
 70
     1
102
RTVSPropertyOp14
 70
     1
102
RTVSPropertyOp15
 70
     1
102
RTVSPropertyOp16
 70
     1
102
RTVSPropertyOp17
 70
     1
102
RTVSPropertyOp18
 70
     1
102
RTVSPropertyOp19
 70
     1
102
RTVSPropertyOp20
 70
     1
102
RTVSPropertyOp21
 70
     1
102
RTVSPropertyOp22
 70
     1
102
RTVSPropertyOp23
 70
     1
102
RTVSPropertyOp24
 70
     1
102
RTVSPropertyOp25
 70
     1
102
RTVSPropertyOp26
 70
     1
102
RTVSPropertyOp27
 70
     1
102
RTVSPropertyOp28
 70
     1
102
RTVSPropertyOp29
 70
     1
102
RTVSPropertyOp30
 70
     1
102
RTVSPropertyOp31
 70
     1
102
RTVSPropertyOp32
 70
     1
  0
XRECORD
  5
5A85
102
{ACAD_REACTORS
330
5A84
102
}
330
5A84
100
AcDbXrecord
280
     1
102
RTVSPropertyOp0
 70
     1
102
RTVSPropertyOp1
 70
     1
102
RTVSPropertyOp2
 70
     1
102
RTVSPropertyOp3
 70
     1
102
RTVSPropertyOp4
 70
     1
102
RTVSPropertyOp5
 70
     1
102
RTVSPropertyOp6
 70
     1
102
RTVSPropertyOp7
 70
     1
102
RTVSPropertyOp8
 70
     1
102
RTVSPropertyOp9
 70
     1
102
RTVSPropertyOp10
 70
     1
102
RTVSPropertyOp11
 70
     1
102
RTVSPropertyOp12
 70
     1
102
RTVSPropertyOp13
 70
     1
102
RTVSPropertyOp14
 70
     1
102
RTVSPropertyOp15
 70
     1
102
RTVSPropertyOp16
 70
     1
102
RTVSPropertyOp17
 70
     1
102
RTVSPropertyOp18
 70
     1
102
RTVSPropertyOp19
 70
     1
102
RTVSPropertyOp20
 70
     1
102
RTVSPropertyOp21
 70
     1
102
RTVSPropertyOp22
 70
     1
102
RTVSPropertyOp23
 70
     1
102
RTVSPropertyOp24
 70
     1
102
RTVSPropertyOp25
 70
     1
102
RTVSPropertyOp26
 70
     1
102
RTVSPropertyOp27
 70
     1
102
RTVSPropertyOp28
 70
     1
102
RTVSPropertyOp29
 70
     1
102
RTVSPropertyOp30
 70
     1
102
RTVSPropertyOp31
 70
     1
102
RTVSPropertyOp32
 70
     1
  0
XRECORD
  5
5A77
102
{ACAD_REACTORS
330
5A76
102
}
330
5A76
100
AcDbXrecord
280
     1
102
RTVSPropertyOp0
 70
     1
102
RTVSPropertyOp1
 70
     1
102
RTVSPropertyOp2
 70
     1
102
RTVSPropertyOp3
 70
     1
102
RTVSPropertyOp4
 70
     1
102
RTVSPropertyOp5
 70
     1
102
RTVSPropertyOp6
 70
     1
102
RTVSPropertyOp7
 70
     1
102
RTVSPropertyOp8
 70
     1
102
RTVSPropertyOp9
 70
     1
102
RTVSPropertyOp10
 70
     1
102
RTVSPropertyOp11
 70
     1
102
RTVSPropertyOp12
 70
     1
102
RTVSPropertyOp13
 70
     1
102
RTVSPropertyOp14
 70
     1
102
RTVSPropertyOp15
 70
     1
102
RTVSPropertyOp16
 70
     1
102
RTVSPropertyOp17
 70
     1
102
RTVSPropertyOp18
 70
     1
102
RTVSPropertyOp19
 70
     1
102
RTVSPropertyOp20
 70
     1
102
RTVSPropertyOp21
 70
     1
102
RTVSPropertyOp22
 70
     1
102
RTVSPropertyOp23
 70
     1
102
RTVSPropertyOp24
 70
     1
102
RTVSPropertyOp25
 70
     1
102
RTVSPropertyOp26
 70
     1
102
RTVSPropertyOp27
 70
     1
102
RTVSPropertyOp28
 70
     1
102
RTVSPropertyOp29
 70
     1
102
RTVSPropertyOp30
 70
     1
102
RTVSPropertyOp31
 70
     1
102
RTVSPropertyOp32
 70
     1
  0
XRECORD
  5
5A7B
102
{ACAD_REACTORS
330
5A7A
102
}
330
5A7A
100
AcDbXrecord
280
     1
102
RTVSPropertyOp0
 70
     1
102
RTVSPropertyOp1
 70
     1
102
RTVSPropertyOp2
 70
     1
102
RTVSPropertyOp3
 70
     1
102
RTVSPropertyOp4
 70
     1
102
RTVSPropertyOp5
 70
     1
102
RTVSPropertyOp6
 70
     1
102
RTVSPropertyOp7
 70
     1
102
RTVSPropertyOp8
 70
     1
102
RTVSPropertyOp9
 70
     1
102
RTVSPropertyOp10
 70
     1
102
RTVSPropertyOp11
 70
     1
102
RTVSPropertyOp12
 70
     1
102
RTVSPropertyOp13
 70
     1
102
RTVSPropertyOp14
 70
     1
102
RTVSPropertyOp15
 70
     1
102
RTVSPropertyOp16
 70
     1
102
RTVSPropertyOp17
 70
     1
102
RTVSPropertyOp18
 70
     1
102
RTVSPropertyOp19
 70
     1
102
RTVSPropertyOp20
 70
     1
102
RTVSPropertyOp21
 70
     1
102
RTVSPropertyOp22
 70
     1
102
RTVSPropertyOp23
 70
     1
102
RTVSPropertyOp24
 70
     1
102
RTVSPropertyOp25
 70
     1
102
RTVSPropertyOp26
 70
     1
102
RTVSPropertyOp27
 70
     1
102
RTVSPropertyOp28
 70
     1
102
RTVSPropertyOp29
 70
     1
102
RTVSPropertyOp30
 70
     1
102
RTVSPropertyOp31
 70
     1
102
RTVSPropertyOp32
 70
     1
  0
XRECORD
  5
5A95
102
{ACAD_REACTORS
330
5A94
102
}
330
5A94
100
AcDbXrecord
280
     1
102
RTVSPropertyOp0
 70
     0
102
RTVSPropertyOp1
 70
     0
102
RTVSPropertyOp2
 70
     0
102
RTVSPropertyOp3
 70
     0
102
RTVSPropertyOp4
 70
     0
102
RTVSPropertyOp5
 70
     0
102
RTVSPropertyOp6
 70
     0
102
RTVSPropertyOp7
 70
     0
102
RTVSPropertyOp8
 70
     0
102
RTVSPropertyOp9
 70
     0
102
RTVSPropertyOp10
 70
     0
102
RTVSPropertyOp11
 70
     0
102
RTVSPropertyOp12
 70
     0
102
RTVSPropertyOp13
 70
     0
102
RTVSPropertyOp14
 70
     2
102
RTVSPropertyOp15
 70
     0
102
RTVSPropertyOp16
 70
     0
102
RTVSPropertyOp17
 70
     0
102
RTVSPropertyOp18
 70
     0
102
RTVSPropertyOp19
 70
     0
102
RTVSPropertyOp20
 70
     0
102
RTVSPropertyOp21
 70
     0
102
RTVSPropertyOp22
 70
     0
102
RTVSPropertyOp23
 70
     0
102
RTVSPropertyOp24
 70
     0
102
RTVSPropertyOp25
 70
     0
102
RTVSPropertyOp26
 70
     0
102
RTVSPropertyOp27
 70
     0
102
RTVSPropertyOp28
 70
     0
102
RTVSPropertyOp29
 70
     0
102
RTVSPropertyOp30
 70
     0
102
RTVSPropertyOp31
 70
     0
102
RTVSPropertyOp32
 70
     0
  0
XRECORD
  5
5A83
102
{ACAD_REACTORS
330
5A82
102
}
330
5A82
100
AcDbXrecord
280
     1
102
RTVSPropertyOp0
 70
     1
102
RTVSPropertyOp1
 70
     1
102
RTVSPropertyOp2
 70
     1
102
RTVSPropertyOp3
 70
     1
102
RTVSPropertyOp4
 70
     1
102
RTVSPropertyOp5
 70
     1
102
RTVSPropertyOp6
 70
     1
102
RTVSPropertyOp7
 70
     1
102
RTVSPropertyOp8
 70
     1
102
RTVSPropertyOp9
 70
     1
102
RTVSPropertyOp10
 70
     1
102
RTVSPropertyOp11
 70
     1
102
RTVSPropertyOp12
 70
     1
102
RTVSPropertyOp13
 70
     1
102
RTVSPropertyOp14
 70
     1
102
RTVSPropertyOp15
 70
     1
102
RTVSPropertyOp16
 70
     1
102
RTVSPropertyOp17
 70
     1
102
RTVSPropertyOp18
 70
     1
102
RTVSPropertyOp19
 70
     1
102
RTVSPropertyOp20
 70
     1
102
RTVSPropertyOp21
 70
     1
102
RTVSPropertyOp22
 70
     1
102
RTVSPropertyOp23
 70
     1
102
RTVSPropertyOp24
 70
     1
102
RTVSPropertyOp25
 70
     1
102
RTVSPropertyOp26
 70
     1
102
RTVSPropertyOp27
 70
     1
102
RTVSPropertyOp28
 70
     1
102
RTVSPropertyOp29
 70
     1
102
RTVSPropertyOp30
 70
     1
102
RTVSPropertyOp31
 70
     1
102
RTVSPropertyOp32
 70
     1
  0
XRECORD
  5
5A67
102
{ACAD_REACTORS
330
5A66
102
}
330
5A66
100
AcDbXrecord
280
     1
102
RTVSPropertyOp0
 70
     1
102
RTVSPropertyOp1
 70
     1
102
RTVSPropertyOp2
 70
     1
102
RTVSPropertyOp3
 70
     1
102
RTVSPropertyOp4
 70
     1
102
RTVSPropertyOp5
 70
     1
102
RTVSPropertyOp6
 70
     1
102
RTVSPropertyOp7
 70
     1
102
RTVSPropertyOp8
 70
     1
102
RTVSPropertyOp9
 70
     1
102
RTVSPropertyOp10
 70
     1
102
RTVSPropertyOp11
 70
     1
102
RTVSPropertyOp12
 70
     1
102
RTVSPropertyOp13
 70
     1
102
RTVSPropertyOp14
 70
     1
102
RTVSPropertyOp15
 70
     1
102
RTVSPropertyOp16
 70
     1
102
RTVSPropertyOp17
 70
     1
102
RTVSPropertyOp18
 70
     1
102
RTVSPropertyOp19
 70
     1
102
RTVSPropertyOp20
 70
     1
102
RTVSPropertyOp21
 70
     1
102
RTVSPropertyOp22
 70
     1
102
RTVSPropertyOp23
 70
     1
102
RTVSPropertyOp24
 70
     1
102
RTVSPropertyOp25
 70
     1
102
RTVSPropertyOp26
 70
     1
102
RTVSPropertyOp27
 70
     1
102
RTVSPropertyOp28
 70
     1
102
RTVSPropertyOp29
 70
     1
102
RTVSPropertyOp30
 70
     1
102
RTVSPropertyOp31
 70
     1
102
RTVSPropertyOp32
 70
     1
  0
XRECORD
  5
5A69
102
{ACAD_REACTORS
330
5A68
102
}
330
5A68
100
AcDbXrecord
280
     1
102
RTVSPropertyOp0
 70
     1
102
RTVSPropertyOp1
 70
     1
102
RTVSPropertyOp2
 70
     1
102
RTVSPropertyOp3
 70
     1
102
RTVSPropertyOp4
 70
     1
102
RTVSPropertyOp5
 70
     1
102
RTVSPropertyOp6
 70
     1
102
RTVSPropertyOp7
 70
     1
102
RTVSPropertyOp8
 70
     1
102
RTVSPropertyOp9
 70
     1
102
RTVSPropertyOp10
 70
     1
102
RTVSPropertyOp11
 70
     1
102
RTVSPropertyOp12
 70
     1
102
RTVSPropertyOp13
 70
     1
102
RTVSPropertyOp14
 70
     1
102
RTVSPropertyOp15
 70
     1
102
RTVSPropertyOp16
 70
     1
102
RTVSPropertyOp17
 70
     1
102
RTVSPropertyOp18
 70
     1
102
RTVSPropertyOp19
 70
     1
102
RTVSPropertyOp20
 70
     1
102
RTVSPropertyOp21
 70
     1
102
RTVSPropertyOp22
 70
     1
102
RTVSPropertyOp23
 70
     1
102
RTVSPropertyOp24
 70
     1
102
RTVSPropertyOp25
 70
     1
102
RTVSPropertyOp26
 70
     1
102
RTVSPropertyOp27
 70
     1
102
RTVSPropertyOp28
 70
     1
102
RTVSPropertyOp29
 70
     1
102
RTVSPropertyOp30
 70
     1
102
RTVSPropertyOp31
 70
     1
102
RTVSPropertyOp32
 70
     1
  0
XRECORD
  5
5A6B
102
{ACAD_REACTORS
330
5A6A
102
}
330
5A6A
100
AcDbXrecord
280
     1
102
RTVSPropertyOp0
 70
     1
102
RTVSPropertyOp1
 70
     1
102
RTVSPropertyOp2
 70
     1
102
RTVSPropertyOp3
 70
     1
102
RTVSPropertyOp4
 70
     1
102
RTVSPropertyOp5
 70
     1
102
RTVSPropertyOp6
 70
     1
102
RTVSPropertyOp7
 70
     1
102
RTVSPropertyOp8
 70
     1
102
RTVSPropertyOp9
 70
     1
102
RTVSPropertyOp10
 70
     1
102
RTVSPropertyOp11
 70
     1
102
RTVSPropertyOp12
 70
     1
102
RTVSPropertyOp13
 70
     1
102
RTVSPropertyOp14
 70
     1
102
RTVSPropertyOp15
 70
     1
102
RTVSPropertyOp16
 70
     1
102
RTVSPropertyOp17
 70
     1
102
RTVSPropertyOp18
 70
     1
102
RTVSPropertyOp19
 70
     1
102
RTVSPropertyOp20
 70
     1
102
RTVSPropertyOp21
 70
     1
102
RTVSPropertyOp22
 70
     1
102
RTVSPropertyOp23
 70
     1
102
RTVSPropertyOp24
 70
     1
102
RTVSPropertyOp25
 70
     1
102
RTVSPropertyOp26
 70
     1
102
RTVSPropertyOp27
 70
     1
102
RTVSPropertyOp28
 70
     1
102
RTVSPropertyOp29
 70
     1
102
RTVSPropertyOp30
 70
     1
102
RTVSPropertyOp31
 70
     1
102
RTVSPropertyOp32
 70
     1
  0
XRECORD
  5
5A6D
102
{ACAD_REACTORS
330
5A6C
102
}
330
5A6C
100
AcDbXrecord
280
     1
102
RTVSPropertyOp0
 70
     1
102
RTVSPropertyOp1
 70
     1
102
RTVSPropertyOp2
 70
     1
102
RTVSPropertyOp3
 70
     1
102
RTVSPropertyOp4
 70
     1
102
RTVSPropertyOp5
 70
     1
102
RTVSPropertyOp6
 70
     1
102
RTVSPropertyOp7
 70
     1
102
RTVSPropertyOp8
 70
     1
102
RTVSPropertyOp9
 70
     1
102
RTVSPropertyOp10
 70
     1
102
RTVSPropertyOp11
 70
     1
102
RTVSPropertyOp12
 70
     1
102
RTVSPropertyOp13
 70
     1
102
RTVSPropertyOp14
 70
     1
102
RTVSPropertyOp15
 70
     1
102
RTVSPropertyOp16
 70
     1
102
RTVSPropertyOp17
 70
     1
102
RTVSPropertyOp18
 70
     1
102
RTVSPropertyOp19
 70
     1
102
RTVSPropertyOp20
 70
     1
102
RTVSPropertyOp21
 70
     1
102
RTVSPropertyOp22
 70
     1
102
RTVSPropertyOp23
 70
     1
102
RTVSPropertyOp24
 70
     1
102
RTVSPropertyOp25
 70
     1
102
RTVSPropertyOp26
 70
     1
102
RTVSPropertyOp27
 70
     1
102
RTVSPropertyOp28
 70
     1
102
RTVSPropertyOp29
 70
     1
102
RTVSPropertyOp30
 70
     1
102
RTVSPropertyOp31
 70
     1
102
RTVSPropertyOp32
 70
     1
  0
XRECORD
  5
5A75
102
{ACAD_REACTORS
330
5A74
102
}
330
5A74
100
AcDbXrecord
280
     1
102
RTVSPropertyOp0
 70
     1
102
RTVSPropertyOp1
 70
     1
102
RTVSPropertyOp2
 70
     1
102
RTVSPropertyOp3
 70
     1
102
RTVSPropertyOp4
 70
     1
102
RTVSPropertyOp5
 70
     1
102
RTVSPropertyOp6
 70
     1
102
RTVSPropertyOp7
 70
     1
102
RTVSPropertyOp8
 70
     1
102
RTVSPropertyOp9
 70
     1
102
RTVSPropertyOp10
 70
     1
102
RTVSPropertyOp11
 70
     1
102
RTVSPropertyOp12
 70
     1
102
RTVSPropertyOp13
 70
     1
102
RTVSPropertyOp14
 70
     1
102
RTVSPropertyOp15
 70
     1
102
RTVSPropertyOp16
 70
     1
102
RTVSPropertyOp17
 70
     1
102
RTVSPropertyOp18
 70
     1
102
RTVSPropertyOp19
 70
     1
102
RTVSPropertyOp20
 70
     1
102
RTVSPropertyOp21
 70
     1
102
RTVSPropertyOp22
 70
     1
102
RTVSPropertyOp23
 70
     1
102
RTVSPropertyOp24
 70
     1
102
RTVSPropertyOp25
 70
     1
102
RTVSPropertyOp26
 70
     1
102
RTVSPropertyOp27
 70
     1
102
RTVSPropertyOp28
 70
     1
102
RTVSPropertyOp29
 70
     1
102
RTVSPropertyOp30
 70
     1
102
RTVSPropertyOp31
 70
     1
102
RTVSPropertyOp32
 70
     1
  0
XRECORD
  5
5A91
102
{ACAD_REACTORS
330
5A90
102
}
330
5A90
100
AcDbXrecord
280
     1
102
RTVSPropertyOp0
 70
     0
102
RTVSPropertyOp1
 70
     0
102
RTVSPropertyOp2
 70
     0
102
RTVSPropertyOp3
 70
     0
102
RTVSPropertyOp4
 70
     0
102
RTVSPropertyOp5
 70
     0
102
RTVSPropertyOp6
 70
     0
102
RTVSPropertyOp7
 70
     0
102
RTVSPropertyOp8
 70
     0
102
RTVSPropertyOp9
 70
     0
102
RTVSPropertyOp10
 70
     0
102
RTVSPropertyOp11
 70
     0
102
RTVSPropertyOp12
 70
     0
102
RTVSPropertyOp13
 70
     0
102
RTVSPropertyOp14
 70
     2
102
RTVSPropertyOp15
 70
     0
102
RTVSPropertyOp16
 70
     0
102
RTVSPropertyOp17
 70
     0
102
RTVSPropertyOp18
 70
     0
102
RTVSPropertyOp19
 70
     0
102
RTVSPropertyOp20
 70
     0
102
RTVSPropertyOp21
 70
     0
102
RTVSPropertyOp22
 70
     0
102
RTVSPropertyOp23
 70
     0
102
RTVSPropertyOp24
 70
     0
102
RTVSPropertyOp25
 70
     0
102
RTVSPropertyOp26
 70
     0
102
RTVSPropertyOp27
 70
     0
102
RTVSPropertyOp28
 70
     0
102
RTVSPropertyOp29
 70
     0
102
RTVSPropertyOp30
 70
     0
102
RTVSPropertyOp31
 70
     0
102
RTVSPropertyOp32
 70
     0
  0
XRECORD
  5
5A81
102
{ACAD_REACTORS
330
5A80
102
}
330
5A80
100
AcDbXrecord
280
     1
102
RTVSPropertyOp0
 70
     1
102
RTVSPropertyOp1
 70
     1
102
RTVSPropertyOp2
 70
     1
102
RTVSPropertyOp3
 70
     1
102
RTVSPropertyOp4
 70
     1
102
RTVSPropertyOp5
 70
     1
102
RTVSPropertyOp6
 70
     1
102
RTVSPropertyOp7
 70
     1
102
RTVSPropertyOp8
 70
     1
102
RTVSPropertyOp9
 70
     1
102
RTVSPropertyOp10
 70
     1
102
RTVSPropertyOp11
 70
     1
102
RTVSPropertyOp12
 70
     1
102
RTVSPropertyOp13
 70
     1
102
RTVSPropertyOp14
 70
     1
102
RTVSPropertyOp15
 70
     1
102
RTVSPropertyOp16
 70
     1
102
RTVSPropertyOp17
 70
     1
102
RTVSPropertyOp18
 70
     1
102
RTVSPropertyOp19
 70
     1
102
RTVSPropertyOp20
 70
     1
102
RTVSPropertyOp21
 70
     1
102
RTVSPropertyOp22
 70
     1
102
RTVSPropertyOp23
 70
     1
102
RTVSPropertyOp24
 70
     1
102
RTVSPropertyOp25
 70
     1
102
RTVSPropertyOp26
 70
     1
102
RTVSPropertyOp27
 70
     1
102
RTVSPropertyOp28
 70
     1
102
RTVSPropertyOp29
 70
     1
102
RTVSPropertyOp30
 70
     1
102
RTVSPropertyOp31
 70
     1
102
RTVSPropertyOp32
 70
     1
  0
XRECORD
  5
5A93
102
{ACAD_REACTORS
330
5A92
102
}
330
5A92
100
AcDbXrecord
280
     1
102
RTVSPropertyOp0
 70
     0
102
RTVSPropertyOp1
 70
     0
102
RTVSPropertyOp2
 70
     0
102
RTVSPropertyOp3
 70
     0
102
RTVSPropertyOp4
 70
     0
102
RTVSPropertyOp5
 70
     0
102
RTVSPropertyOp6
 70
     0
102
RTVSPropertyOp7
 70
     0
102
RTVSPropertyOp8
 70
     0
102
RTVSPropertyOp9
 70
     0
102
RTVSPropertyOp10
 70
     0
102
RTVSPropertyOp11
 70
     0
102
RTVSPropertyOp12
 70
     0
102
RTVSPropertyOp13
 70
     0
102
RTVSPropertyOp14
 70
     2
102
RTVSPropertyOp15
 70
     0
102
RTVSPropertyOp16
 70
     0
102
RTVSPropertyOp17
 70
     0
102
RTVSPropertyOp18
 70
     0
102
RTVSPropertyOp19
 70
     0
102
RTVSPropertyOp20
 70
     0
102
RTVSPropertyOp21
 70
     0
102
RTVSPropertyOp22
 70
     0
102
RTVSPropertyOp23
 70
     0
102
RTVSPropertyOp24
 70
     0
102
RTVSPropertyOp25
 70
     0
102
RTVSPropertyOp26
 70
     0
102
RTVSPropertyOp27
 70
     0
102
RTVSPropertyOp28
 70
     0
102
RTVSPropertyOp29
 70
     0
102
RTVSPropertyOp30
 70
     0
102
RTVSPropertyOp31
 70
     0
102
RTVSPropertyOp32
 70
     0
  0
XRECORD
  5
5A79
102
{ACAD_REACTORS
330
5A78
102
}
330
5A78
100
AcDbXrecord
280
     1
102
RTVSPropertyOp0
 70
     1
102
RTVSPropertyOp1
 70
     1
102
RTVSPropertyOp2
 70
     1
102
RTVSPropertyOp3
 70
     1
102
RTVSPropertyOp4
 70
     1
102
RTVSPropertyOp5
 70
     1
102
RTVSPropertyOp6
 70
     1
102
RTVSPropertyOp7
 70
     1
102
RTVSPropertyOp8
 70
     1
102
RTVSPropertyOp9
 70
     1
102
RTVSPropertyOp10
 70
     1
102
RTVSPropertyOp11
 70
     1
102
RTVSPropertyOp12
 70
     1
102
RTVSPropertyOp13
 70
     1
102
RTVSPropertyOp14
 70
     1
102
RTVSPropertyOp15
 70
     1
102
RTVSPropertyOp16
 70
     1
102
RTVSPropertyOp17
 70
     1
102
RTVSPropertyOp18
 70
     1
102
RTVSPropertyOp19
 70
     1
102
RTVSPropertyOp20
 70
     1
102
RTVSPropertyOp21
 70
     1
102
RTVSPropertyOp22
 70
     1
102
RTVSPropertyOp23
 70
     1
102
RTVSPropertyOp24
 70
     1
102
RTVSPropertyOp25
 70
     1
102
RTVSPropertyOp26
 70
     1
102
RTVSPropertyOp27
 70
     1
102
RTVSPropertyOp28
 70
     1
102
RTVSPropertyOp29
 70
     1
102
RTVSPropertyOp30
 70
     1
102
RTVSPropertyOp31
 70
     1
102
RTVSPropertyOp32
 70
     1
  0
XRECORD
  5
5A8F
102
{ACAD_REACTORS
330
5A8E
102
}
330
5A8E
100
AcDbXrecord
280
     1
102
RTVSPropertyOp0
 70
     1
102
RTVSPropertyOp1
 70
     1
102
RTVSPropertyOp2
 70
     1
102
RTVSPropertyOp3
 70
     1
102
RTVSPropertyOp4
 70
     1
102
RTVSPropertyOp5
 70
     1
102
RTVSPropertyOp6
 70
     1
102
RTVSPropertyOp7
 70
     1
102
RTVSPropertyOp8
 70
     1
102
RTVSPropertyOp9
 70
     1
102
RTVSPropertyOp10
 70
     1
102
RTVSPropertyOp11
 70
     1
102
RTVSPropertyOp12
 70
     1
102
RTVSPropertyOp13
 70
     1
102
RTVSPropertyOp14
 70
     1
102
RTVSPropertyOp15
 70
     1
102
RTVSPropertyOp16
 70
     1
102
RTVSPropertyOp17
 70
     1
102
RTVSPropertyOp18
 70
     1
102
RTVSPropertyOp19
 70
     1
102
RTVSPropertyOp20
 70
     1
102
RTVSPropertyOp21
 70
     1
102
RTVSPropertyOp22
 70
     1
102
RTVSPropertyOp23
 70
     1
102
RTVSPropertyOp24
 70
     1
102
RTVSPropertyOp25
 70
     1
102
RTVSPropertyOp26
 70
     1
102
RTVSPropertyOp27
 70
     1
102
RTVSPropertyOp28
 70
     1
102
RTVSPropertyOp29
 70
     1
102
RTVSPropertyOp30
 70
     1
102
RTVSPropertyOp31
 70
     1
102
RTVSPropertyOp32
 70
     1
  0
XRECORD
  5
5A8D
102
{ACAD_REACTORS
330
5A8C
102
}
330
5A8C
100
AcDbXrecord
280
     1
102
RTVSPropertyOp0
 70
     1
102
RTVSPropertyOp1
 70
     1
102
RTVSPropertyOp2
 70
     1
102
RTVSPropertyOp3
 70
     1
102
RTVSPropertyOp4
 70
     1
102
RTVSPropertyOp5
 70
     1
102
RTVSPropertyOp6
 70
     1
102
RTVSPropertyOp7
 70
     1
102
RTVSPropertyOp8
 70
     1
102
RTVSPropertyOp9
 70
     1
102
RTVSPropertyOp10
 70
     1
102
RTVSPropertyOp11
 70
     1
102
RTVSPropertyOp12
 70
     1
102
RTVSPropertyOp13
 70
     1
102
RTVSPropertyOp14
 70
     1
102
RTVSPropertyOp15
 70
     1
102
RTVSPropertyOp16
 70
     1
102
RTVSPropertyOp17
 70
     1
102
RTVSPropertyOp18
 70
     1
102
RTVSPropertyOp19
 70
     1
102
RTVSPropertyOp20
 70
     1
102
RTVSPropertyOp21
 70
     1
102
RTVSPropertyOp22
 70
     1
102
RTVSPropertyOp23
 70
     1
102
RTVSPropertyOp24
 70
     1
102
RTVSPropertyOp25
 70
     1
102
RTVSPropertyOp26
 70
     1
102
RTVSPropertyOp27
 70
     1
102
RTVSPropertyOp28
 70
     1
102
RTVSPropertyOp29
 70
     1
102
RTVSPropertyOp30
 70
     1
102
RTVSPropertyOp31
 70
     1
102
RTVSPropertyOp32
 70
     1
  0
XRECORD
  5
5A87
102
{ACAD_REACTORS
330
5A86
102
}
330
5A86
100
AcDbXrecord
280
     1
102
RTVSPropertyOp0
 70
     1
102
RTVSPropertyOp1
 70
     1
102
RTVSPropertyOp2
 70
     1
102
RTVSPropertyOp3
 70
     1
102
RTVSPropertyOp4
 70
     1
102
RTVSPropertyOp5
 70
     1
102
RTVSPropertyOp6
 70
     1
102
RTVSPropertyOp7
 70
     1
102
RTVSPropertyOp8
 70
     1
102
RTVSPropertyOp9
 70
     1
102
RTVSPropertyOp10
 70
     1
102
RTVSPropertyOp11
 70
     1
102
RTVSPropertyOp12
 70
     1
102
RTVSPropertyOp13
 70
     1
102
RTVSPropertyOp14
 70
     1
102
RTVSPropertyOp15
 70
     1
102
RTVSPropertyOp16
 70
     1
102
RTVSPropertyOp17
 70
     1
102
RTVSPropertyOp18
 70
     1
102
RTVSPropertyOp19
 70
     1
102
RTVSPropertyOp20
 70
     1
102
RTVSPropertyOp21
 70
     1
102
RTVSPropertyOp22
 70
     1
102
RTVSPropertyOp23
 70
     1
102
RTVSPropertyOp24
 70
     1
102
RTVSPropertyOp25
 70
     1
102
RTVSPropertyOp26
 70
     1
102
RTVSPropertyOp27
 70
     1
102
RTVSPropertyOp28
 70
     1
102
RTVSPropertyOp29
 70
     1
102
RTVSPropertyOp30
 70
     1
102
RTVSPropertyOp31
 70
     1
102
RTVSPropertyOp32
 70
     1
  0
XRECORD
  5
5A89
102
{ACAD_REACTORS
330
5A88
102
}
330
5A88
100
AcDbXrecord
280
     1
102
RTVSPropertyOp0
 70
     1
102
RTVSPropertyOp1
 70
     1
102
RTVSPropertyOp2
 70
     1
102
RTVSPropertyOp3
 70
     1
102
RTVSPropertyOp4
 70
     1
102
RTVSPropertyOp5
 70
     1
102
RTVSPropertyOp6
 70
     1
102
RTVSPropertyOp7
 70
     1
102
RTVSPropertyOp8
 70
     1
102
RTVSPropertyOp9
 70
     1
102
RTVSPropertyOp10
 70
     1
102
RTVSPropertyOp11
 70
     1
102
RTVSPropertyOp12
 70
     1
102
RTVSPropertyOp13
 70
     1
102
RTVSPropertyOp14
 70
     1
102
RTVSPropertyOp15
 70
     1
102
RTVSPropertyOp16
 70
     1
102
RTVSPropertyOp17
 70
     1
102
RTVSPropertyOp18
 70
     1
102
RTVSPropertyOp19
 70
     1
102
RTVSPropertyOp20
 70
     1
102
RTVSPropertyOp21
 70
     1
102
RTVSPropertyOp22
 70
     1
102
RTVSPropertyOp23
 70
     1
102
RTVSPropertyOp24
 70
     1
102
RTVSPropertyOp25
 70
     1
102
RTVSPropertyOp26
 70
     1
102
RTVSPropertyOp27
 70
     1
102
RTVSPropertyOp28
 70
     1
102
RTVSPropertyOp29
 70
     1
102
RTVSPropertyOp30
 70
     1
102
RTVSPropertyOp31
 70
     1
102
RTVSPropertyOp32
 70
     1
  0
XRECORD
  5
5A7F
102
{ACAD_REACTORS
330
5A7E
102
}
330
5A7E
100
AcDbXrecord
280
     1
102
RTVSPropertyOp0
 70
     1
102
RTVSPropertyOp1
 70
     1
102
RTVSPropertyOp2
 70
     1
102
RTVSPropertyOp3
 70
     1
102
RTVSPropertyOp4
 70
     1
102
RTVSPropertyOp5
 70
     1
102
RTVSPropertyOp6
 70
     1
102
RTVSPropertyOp7
 70
     1
102
RTVSPropertyOp8
 70
     1
102
RTVSPropertyOp9
 70
     1
102
RTVSPropertyOp10
 70
     1
102
RTVSPropertyOp11
 70
     1
102
RTVSPropertyOp12
 70
     1
102
RTVSPropertyOp13
 70
     1
102
RTVSPropertyOp14
 70
     1
102
RTVSPropertyOp15
 70
     1
102
RTVSPropertyOp16
 70
     1
102
RTVSPropertyOp17
 70
     1
102
RTVSPropertyOp18
 70
     1
102
RTVSPropertyOp19
 70
     1
102
RTVSPropertyOp20
 70
     1
102
RTVSPropertyOp21
 70
     1
102
RTVSPropertyOp22
 70
     1
102
RTVSPropertyOp23
 70
     1
102
RTVSPropertyOp24
 70
     1
102
RTVSPropertyOp25
 70
     1
102
RTVSPropertyOp26
 70
     1
102
RTVSPropertyOp27
 70
     1
102
RTVSPropertyOp28
 70
     1
102
RTVSPropertyOp29
 70
     1
102
RTVSPropertyOp30
 70
     1
102
RTVSPropertyOp31
 70
     1
102
RTVSPropertyOp32
 70
     1
  0
XRECORD
  5
5A73
102
{ACAD_REACTORS
330
5A72
102
}
330
5A72
100
AcDbXrecord
280
     1
102
RTVSPropertyOp0
 70
     1
102
RTVSPropertyOp1
 70
     1
102
RTVSPropertyOp2
 70
     1
102
RTVSPropertyOp3
 70
     1
102
RTVSPropertyOp4
 70
     1
102
RTVSPropertyOp5
 70
     1
102
RTVSPropertyOp6
 70
     1
102
RTVSPropertyOp7
 70
     1
102
RTVSPropertyOp8
 70
     1
102
RTVSPropertyOp9
 70
     1
102
RTVSPropertyOp10
 70
     1
102
RTVSPropertyOp11
 70
     1
102
RTVSPropertyOp12
 70
     1
102
RTVSPropertyOp13
 70
     1
102
RTVSPropertyOp14
 70
     1
102
RTVSPropertyOp15
 70
     1
102
RTVSPropertyOp16
 70
     1
102
RTVSPropertyOp17
 70
     1
102
RTVSPropertyOp18
 70
     1
102
RTVSPropertyOp19
 70
     1
102
RTVSPropertyOp20
 70
     1
102
RTVSPropertyOp21
 70
     1
102
RTVSPropertyOp22
 70
     1
102
RTVSPropertyOp23
 70
     1
102
RTVSPropertyOp24
 70
     1
102
RTVSPropertyOp25
 70
     1
102
RTVSPropertyOp26
 70
     1
102
RTVSPropertyOp27
 70
     1
102
RTVSPropertyOp28
 70
     1
102
RTVSPropertyOp29
 70
     1
102
RTVSPropertyOp30
 70
     1
102
RTVSPropertyOp31
 70
     1
102
RTVSPropertyOp32
 70
     1
  0
XRECORD
  5
5A8B
102
{ACAD_REACTORS
330
5A8A
102
}
330
5A8A
100
AcDbXrecord
280
     1
102
RTVSPropertyOp0
 70
     1
102
RTVSPropertyOp1
 70
     1
102
RTVSPropertyOp2
 70
     1
102
RTVSPropertyOp3
 70
     1
102
RTVSPropertyOp4
 70
     1
102
RTVSPropertyOp5
 70
     1
102
RTVSPropertyOp6
 70
     1
102
RTVSPropertyOp7
 70
     1
102
RTVSPropertyOp8
 70
     1
102
RTVSPropertyOp9
 70
     1
102
RTVSPropertyOp10
 70
     1
102
RTVSPropertyOp11
 70
     1
102
RTVSPropertyOp12
 70
     1
102
RTVSPropertyOp13
 70
     1
102
RTVSPropertyOp14
 70
     1
102
RTVSPropertyOp15
 70
     1
102
RTVSPropertyOp16
 70
     1
102
RTVSPropertyOp17
 70
     1
102
RTVSPropertyOp18
 70
     1
102
RTVSPropertyOp19
 70
     1
102
RTVSPropertyOp20
 70
     1
102
RTVSPropertyOp21
 70
     1
102
RTVSPropertyOp22
 70
     1
102
RTVSPropertyOp23
 70
     1
102
RTVSPropertyOp24
 70
     1
102
RTVSPropertyOp25
 70
     1
102
RTVSPropertyOp26
 70
     1
102
RTVSPropertyOp27
 70
     1
102
RTVSPropertyOp28
 70
     1
102
RTVSPropertyOp29
 70
     1
102
RTVSPropertyOp30
 70
     1
102
RTVSPropertyOp31
 70
     1
102
RTVSPropertyOp32
 70
     1
  0
ENDSEC
  0
EOF
